  0
SECTION
  2
HEADER
  9
$ACADVER
  1
AC1018
  9
$ACADMAINTVER
 70
   104
  9
$DWGCODEPAGE
  3
ANSI_932
  9
$LASTSAVEDBY
  1
yano27
  9
$INSBASE
 10
0.0
 20
0.0
 30
0.0
  9
$EXTMIN
 10
-7865.381490481038
 20
189.7530463832918
 30
0.0
  9
$EXTMAX
 10
114.6185095189636
 20
5832.753046383293
 30
0.0
  9
$LIMMIN
 10
0.0
 20
0.0
  9
$LIMMAX
 10
7425.0
 20
5250.0
  9
$ORTHOMODE
 70
     0
  9
$REGENMODE
 70
     1
  9
$FILLMODE
 70
     1
  9
$QTEXTMODE
 70
     0
  9
$MIRRTEXT
 70
     1
  9
$LTSCALE
 40
150.0
  9
$ATTMODE
 70
     1
  9
$TEXTSIZE
 40
75.0
  9
$TRACEWID
 40
0.05
  9
$TEXTSTYLE
  7
縦字ｽﾀｲﾙ
  9
$CLAYER
  8
01-寸法線
  9
$CELTYPE
  6
BYLAYER
  9
$CECOLOR
 62
   256
  9
$CELTSCALE
 40
0.5
  9
$DISPSILH
 70
     0
  9
$DIMSCALE
 40
15.0
  9
$DIMASZ
 40
2.0
  9
$DIMEXO
 40
1.0
  9
$DIMDLI
 40
6.0
  9
$DIMRND
 40
0.0
  9
$DIMDLE
 40
0.0
  9
$DIMEXE
 40
1.0
  9
$DIMTP
 40
0.0
  9
$DIMTM
 40
0.0
  9
$DIMTXT
 40
3.5
  9
$DIMCEN
 40
1.0
  9
$DIMTSZ
 40
0.0
  9
$DIMTOL
 70
     0
  9
$DIMLIM
 70
     0
  9
$DIMTIH
 70
     0
  9
$DIMTOH
 70
     0
  9
$DIMSE1
 70
     0
  9
$DIMSE2
 70
     0
  9
$DIMTAD
 70
     1
  9
$DIMZIN
 70
     9
  9
$DIMBLK
  1
OPEN
  9
$DIMASO
 70
     1
  9
$DIMSHO
 70
     0
  9
$DIMPOST
  1

  9
$DIMAPOST
  1

  9
$DIMALT
 70
     0
  9
$DIMALTD
 70
     2
  9
$DIMALTF
 40
25.4
  9
$DIMLFAC
 40
1.0
  9
$DIMTOFL
 70
     1
  9
$DIMTVP
 40
0.0
  9
$DIMTIX
 70
     0
  9
$DIMSOXD
 70
     0
  9
$DIMSAH
 70
     0
  9
$DIMBLK1
  1

  9
$DIMBLK2
  1

  9
$DIMSTYLE
  2
スタイル15
  9
$DIMCLRD
 70
     4
  9
$DIMCLRE
 70
     4
  9
$DIMCLRT
 70
     4
  9
$DIMTFAC
 40
1.0
  9
$DIMGAP
 40
0.5
  9
$DIMJUST
 70
     0
  9
$DIMSD1
 70
     0
  9
$DIMSD2
 70
     0
  9
$DIMTOLJ
 70
     1
  9
$DIMTZIN
 70
     0
  9
$DIMALTZ
 70
     0
  9
$DIMALTTZ
 70
     0
  9
$DIMUPT
 70
     0
  9
$DIMDEC
 70
     2
  9
$DIMTDEC
 70
     2
  9
$DIMALTU
 70
     2
  9
$DIMALTTD
 70
     2
  9
$DIMTXSTY
  7
ｵﾘｼﾞﾅﾙｽﾀｲﾙ
  9
$DIMAUNIT
 70
     0
  9
$DIMADEC
 70
     0
  9
$DIMALTRND
 40
0.0
  9
$DIMAZIN
 70
     0
  9
$DIMDSEP
 70
    46
  9
$DIMATFIT
 70
     0
  9
$DIMFRAC
 70
     0
  9
$DIMLDRBLK
  1
OPEN
  9
$DIMLUNIT
 70
     2
  9
$DIMLWD
 70
     9
  9
$DIMLWE
 70
     9
  9
$DIMTMOVE
 70
     0
  9
$LUNITS
 70
     2
  9
$LUPREC
 70
     4
  9
$SKETCHINC
 40
0.1
  9
$FILLETRAD
 40
25.0
  9
$AUNITS
 70
     0
  9
$AUPREC
 70
     0
  9
$MENU
  1
acad
  9
$ELEVATION
 40
0.0
  9
$PELEVATION
 40
0.0
  9
$THICKNESS
 40
0.0
  9
$LIMCHECK
 70
     0
  9
$CHAMFERA
 40
0.0
  9
$CHAMFERB
 40
0.0
  9
$CHAMFERC
 40
0.0
  9
$CHAMFERD
 40
0.0
  9
$SKPOLY
 70
     0
  9
$TDCREATE
 40
2452224.843078241
  9
$TDUCREATE
 40
2452224.468078241
  9
$TDUPDATE
 40
2457484.417185104
  9
$TDUUPDATE
 40
2457484.042185104
  9
$TDINDWG
 40
2.5468655556
  9
$TDUSRTIMER
 40
2.5468655556
  9
$USRTIMER
 70
     1
  9
$ANGBASE
 50
0.0
  9
$ANGDIR
 70
     0
  9
$PDMODE
 70
    34
  9
$PDSIZE
 40
-5.0
  9
$PLINEWID
 40
0.0
  9
$SPLFRAME
 70
     0
  9
$SPLINETYPE
 70
     6
  9
$SPLINESEGS
 70
     8
  9
$HANDSEED
  5
D4C3
  9
$SURFTAB1
 70
     6
  9
$SURFTAB2
 70
     6
  9
$SURFTYPE
 70
     6
  9
$SURFU
 70
     6
  9
$SURFV
 70
     6
  9
$UCSBASE
  2

  9
$UCSNAME
  2

  9
$UCSORG
 10
0.0
 20
0.0
 30
0.0
  9
$UCSXDIR
 10
1.0
 20
0.0
 30
0.0
  9
$UCSYDIR
 10
0.0
 20
1.0
 30
0.0
  9
$UCSORTHOREF
  2

  9
$UCSORTHOVIEW
 70
     0
  9
$UCSORGTOP
 10
0.0
 20
0.0
 30
0.0
  9
$UCSORGBOTTOM
 10
0.0
 20
0.0
 30
0.0
  9
$UCSORGLEFT
 10
0.0
 20
0.0
 30
0.0
  9
$UCSORGRIGHT
 10
0.0
 20
0.0
 30
0.0
  9
$UCSORGFRONT
 10
0.0
 20
0.0
 30
0.0
  9
$UCSORGBACK
 10
0.0
 20
0.0
 30
0.0
  9
$PUCSBASE
  2

  9
$PUCSNAME
  2

  9
$PUCSORG
 10
0.0
 20
0.0
 30
0.0
  9
$PUCSXDIR
 10
1.0
 20
0.0
 30
0.0
  9
$PUCSYDIR
 10
0.0
 20
1.0
 30
0.0
  9
$PUCSORTHOREF
  2

  9
$PUCSORTHOVIEW
 70
     0
  9
$PUCSORGTOP
 10
0.0
 20
0.0
 30
0.0
  9
$PUCSORGBOTTOM
 10
0.0
 20
0.0
 30
0.0
  9
$PUCSORGLEFT
 10
0.0
 20
0.0
 30
0.0
  9
$PUCSORGRIGHT
 10
0.0
 20
0.0
 30
0.0
  9
$PUCSORGFRONT
 10
0.0
 20
0.0
 30
0.0
  9
$PUCSORGBACK
 10
0.0
 20
0.0
 30
0.0
  9
$USERI1
 70
     0
  9
$USERI2
 70
     0
  9
$USERI3
 70
     0
  9
$USERI4
 70
     0
  9
$USERI5
 70
     0
  9
$USERR1
 40
0.0
  9
$USERR2
 40
0.0
  9
$USERR3
 40
0.0
  9
$USERR4
 40
0.0
  9
$USERR5
 40
0.0
  9
$WORLDVIEW
 70
     1
  9
$SHADEDGE
 70
     3
  9
$SHADEDIF
 70
    70
  9
$TILEMODE
 70
     1
  9
$MAXACTVP
 70
    16
  9
$PINSBASE
 10
0.0
 20
0.0
 30
0.0
  9
$PLIMCHECK
 70
     0
  9
$PEXTMIN
 10
1.049999952316284
 20
0.7999999523162842
 30
0.0
  9
$PEXTMAX
 10
9.449999570846555
 20
7.199999570846556
 30
0.0
  9
$PLIMMIN
 10
-0.2500002402958907
 20
-0.2499999962453767
  9
$PLIMMAX
 10
10.74999951940821
 20
8.249999763458731
  9
$UNITMODE
 70
     0
  9
$VISRETAIN
 70
     0
  9
$PLINEGEN
 70
     0
  9
$PSLTSCALE
 70
     0
  9
$TREEDEPTH
 70
  3020
  9
$CMLSTYLE
  2
STANDARD
  9
$CMLJUST
 70
     0
  9
$CMLSCALE
 40
1.0
  9
$PROXYGRAPHICS
 70
     1
  9
$MEASUREMENT
 70
     0
  9
$CELWEIGHT
370
    -1
  9
$ENDCAPS
280
     0
  9
$JOINSTYLE
280
     0
  9
$LWDISPLAY
290
     0
  9
$INSUNITS
 70
     4
  9
$HYPERLINKBASE
  1

  9
$STYLESHEET
  1
monochrome.ctb
  9
$XEDIT
290
     1
  9
$CEPSNTYPE
380
     0
  9
$PSTYLEMODE
290
     1
  9
$FINGERPRINTGUID
  2
{0454649D-4742-4B48-B1F5-A03FF9242E90}
  9
$VERSIONGUID
  2
{2355D35F-A3BE-4297-B075-D799E5C86F5C}
  9
$EXTNAMES
290
     1
  9
$PSVPSCALE
 40
0.0
  9
$OLESTARTUP
290
     0
  9
$SORTENTS
280
   127
  9
$INDEXCTL
280
     0
  9
$HIDETEXT
280
     0
  9
$XCLIPFRAME
290
     0
  9
$HALOGAP
280
     0
  9
$OBSCOLOR
 70
   257
  9
$OBSLTYPE
280
     0
  9
$INTERSECTIONDISPLAY
280
     0
  9
$INTERSECTIONCOLOR
 70
   257
  9
$DIMASSOC
280
     1
  9
$PROJECTNAME
  1

  0
ENDSEC
  0
SECTION
  2
CLASSES
  0
CLASS
  1
ACDBDICTIONARYWDFLT
  2
AcDbDictionaryWithDefault
  3
ObjectDBX Classes
 90
        0
 91
        1
280
     0
281
     0
  0
CLASS
  1
TABLESTYLE
  2
AcDbTableStyle
  3
ObjectDBX Classes
 90
     4095
 91
        1
280
     0
281
     0
  0
CLASS
  1
DICTIONARYVAR
  2
AcDbDictionaryVar
  3
ObjectDBX Classes
 90
        0
 91
       12
280
     0
281
     0
  0
CLASS
  1
MATERIAL
  2
AcDbMaterial
  3
ObjectDBX Classes
 90
     1153
 91
        3
280
     0
281
     0
  0
CLASS
  1
VISUALSTYLE
  2
AcDbVisualStyle
  3
ObjectDBX Classes
 90
     4095
 91
       24
280
     0
281
     0
  0
CLASS
  1
SCALE
  2
AcDbScale
  3
ObjectDBX Classes
 90
     1153
 91
       17
280
     0
281
     0
  0
CLASS
  1
MLEADERSTYLE
  2
AcDbMLeaderStyle
  3
ACDB_MLEADERSTYLE_CLASS
 90
     4095
 91
        1
280
     0
281
     0
  0
CLASS
  1
ACDBSECTIONVIEWSTYLE
  2
AcDbSectionViewStyle
  3
ObjectDBX Classes
 90
     1025
 91
        1
280
     0
281
     0
  0
CLASS
  1
ACDBDETAILVIEWSTYLE
  2
AcDbDetailViewStyle
  3
ObjectDBX Classes
 90
     1025
 91
        1
280
     0
281
     0
  0
CLASS
  1
SORTENTSTABLE
  2
AcDbSortentsTable
  3
ObjectDBX Classes
 90
        0
 91
        1
280
     0
281
     0
  0
CLASS
  1
CELLSTYLEMAP
  2
AcDbCellStyleMap
  3
ObjectDBX Classes
 90
     1152
 91
        1
280
     0
281
     0
  0
ENDSEC
  0
SECTION
  2
TABLES
  0
TABLE
  2
VPORT
  5
12
330
0
100
AcDbSymbolTable
 70
     1
  0
VPORT
  5
D1CB
330
12
100
AcDbSymbolTableRecord
100
AcDbViewportTableRecord
  2
*Active
 70
     0
 10
0.0
 20
0.0
 11
1.0
 21
1.0
 12
-4522.726881490529
 22
3053.892459742696
 13
0.0
 23
0.0
 14
100.0
 24
100.0
 15
0.0
 25
0.0
 16
0.0
 26
0.0
 36
1.0
 17
0.0
 27
0.0
 37
0.0
 40
7268.496027515681
 41
1.606896551724138
 42
50.0
 43
0.0
 44
0.0
 50
0.0
 51
0.0
 71
     0
 72
   100
 73
     1
 74
     0
 75
     0
 76
     0
 77
     0
 78
     0
281
     0
 65
     1
110
0.0
120
0.0
130
0.0
111
1.0
121
0.0
131
0.0
112
0.0
122
1.0
132
0.0
 79
     0
146
0.0
1001
ACAD_NAV_VCDISPLAY
1070
     3
  0
ENDTAB
  0
TABLE
  2
LTYPE
  5
D
330
0
100
AcDbSymbolTable
 70
    12
  0
LTYPE
  5
E
330
D
100
AcDbSymbolTableRecord
100
AcDbLinetypeTableRecord
  2
BYBLOCK
 70
     0
  3

 72
    65
 73
     0
 40
0.0
  0
LTYPE
  5
F
330
D
100
AcDbSymbolTableRecord
100
AcDbLinetypeTableRecord
  2
BYLAYER
 70
     0
  3

 72
    65
 73
     0
 40
0.0
  0
LTYPE
  5
5
330
D
100
AcDbSymbolTableRecord
100
AcDbLinetypeTableRecord
  2
CONTINUOUS
 70
     0
  3
実線
 72
    65
 73
     0
 40
0.0
  0
LTYPE
  5
1044
330
D
100
AcDbSymbolTableRecord
100
AcDbLinetypeTableRecord
  2
DASHED
 70
     0
  3
__ __ __ __ __ __ __ __ __ __ __ __ __ __ __
 72
    65
 73
     2
 40
0.75
 49
0.5
 74
     0
 49
-0.25
 74
     0
  0
LTYPE
  5
1045
330
D
100
AcDbSymbolTableRecord
100
AcDbLinetypeTableRecord
  2
HIDDEN
 70
     0
  3
_ _ _ _ _ _ _ _ _ _ _ _ _ _ _ _ _ _ _ _ _ _ _
 72
    65
 73
     2
 40
0.375
 49
0.25
 74
     0
 49
-0.125
 74
     0
  0
LTYPE
  5
1046
330
D
100
AcDbSymbolTableRecord
100
AcDbLinetypeTableRecord
  2
CENTER
 70
     0
  3
____ _ ____ _ ____ _ ____ _ ____ _ ____ _ ____
 72
    65
 73
     4
 40
2.0
 49
1.25
 74
     0
 49
-0.25
 74
     0
 49
0.25
 74
     0
 49
-0.25
 74
     0
  0
LTYPE
  5
1047
330
D
100
AcDbSymbolTableRecord
100
AcDbLinetypeTableRecord
  2
DASHDOT
 70
     0
  3
__ . __ . __ . __ . __ . __ . __ . __ . __ . __
 72
    65
 73
     4
 40
1.0
 49
0.5
 74
     0
 49
-0.25
 74
     0
 49
0.0
 74
     0
 49
-0.25
 74
     0
  0
LTYPE
  5
1048
330
D
100
AcDbSymbolTableRecord
100
AcDbLinetypeTableRecord
  2
DIVIDE
 70
     0
  3
____ . . ____ . . ____ . . ____ . . ____ . . __
 72
    65
 73
     6
 40
1.25
 49
0.5
 74
     0
 49
-0.25
 74
     0
 49
0.0
 74
     0
 49
-0.25
 74
     0
 49
0.0
 74
     0
 49
-0.25
 74
     0
  0
LTYPE
  5
1049
330
D
100
AcDbSymbolTableRecord
100
AcDbLinetypeTableRecord
  2
DOT
 70
     0
  3
. . . . . . . . . . . . . . . . . . . . . . . .
 72
    65
 73
     2
 40
0.25
 49
0.0
 74
     0
 49
-0.25
 74
     0
  0
LTYPE
  5
104A
330
D
100
AcDbSymbolTableRecord
100
AcDbLinetypeTableRecord
  2
PHANTOM
 70
     0
  3
______  __  __  ______  __  __  ______  __  __ 
 72
    65
 73
     6
 40
2.5
 49
1.25
 74
     0
 49
-0.25
 74
     0
 49
0.25
 74
     0
 49
-0.25
 74
     0
 49
0.25
 74
     0
 49
-0.25
 74
     0
  0
LTYPE
  5
104B
330
D
100
AcDbSymbolTableRecord
100
AcDbLinetypeTableRecord
  2
DASHED2
 70
     0
  3
_ _ _ _ _ _ _ _ _ _ _ _ _ _ _ _ _ _ _ _ _ _ _ _
 72
    65
 73
     2
 40
0.375
 49
0.25
 74
     0
 49
-0.125
 74
     0
  0
LTYPE
  5
104C
330
D
100
AcDbSymbolTableRecord
100
AcDbLinetypeTableRecord
  2
CENTER2
 70
     0
  3
___ _ ___ _ ___ _ ___ _ ___ _ ___ _ ___ _ ___ _
 72
    65
 73
     4
 40
1.125
 49
0.75
 74
     0
 49
-0.125
 74
     0
 49
0.125
 74
     0
 49
-0.125
 74
     0
  0
LTYPE
  5
104D
330
D
100
AcDbSymbolTableRecord
100
AcDbLinetypeTableRecord
  2
PHANTOM2
 70
     0
  3
___ _ _ ___ _ _ ___ _ _ ___ _ _ ___ _ _ ___ _ _
 72
    65
 73
     6
 40
1.25
 49
0.625
 74
     0
 49
-0.125
 74
     0
 49
0.125
 74
     0
 49
-0.125
 74
     0
 49
0.125
 74
     0
 49
-0.125
 74
     0
  0
LTYPE
  5
224A
330
D
100
AcDbSymbolTableRecord
100
AcDbLinetypeTableRecord
  2
ACAD_ISO02W100
 70
     0
  3
ISO dash __ __ __ __ __ __ __ __ __ __ __ __ __
 72
    65
 73
     2
 40
15.0
 49
12.0
 74
     0
 49
-3.0
 74
     0
  0
ENDTAB
  0
TABLE
  2
LAYER
  5
A
102
{ACAD_XDICTIONARY
360
D224
102
}
330
0
100
AcDbSymbolTable
 70
    15
  0
LAYER
  5
4
102
{ACAD_XDICTIONARY
360
D28B
102
}
330
A
100
AcDbSymbolTableRecord
100
AcDbLayerTableRecord
  2
0
 70
     0
 62
     5
  6
CONTINUOUS
370
    -3
390
1FC7
  0
LAYER
  5
55A
102
{ACAD_XDICTIONARY
360
D28D
102
}
330
A
100
AcDbSymbolTableRecord
100
AcDbLayerTableRecord
  2
01-寸法線
 70
     0
 62
     4
  6
CONTINUOUS
370
     9
390
1FC7
  0
LAYER
  5
86C
102
{ACAD_XDICTIONARY
360
D28F
102
}
330
A
100
AcDbSymbolTableRecord
100
AcDbLayerTableRecord
  2
05-鉄筋線
 70
     0
 62
     1
  6
HIDDEN
370
    25
390
1FC7
  0
LAYER
  5
104E
102
{ACAD_XDICTIONARY
360
D291
102
}
330
A
100
AcDbSymbolTableRecord
100
AcDbLayerTableRecord
  2
02-外形線
 70
     0
 62
     7
  6
CONTINUOUS
370
    15
390
1FC7
  0
LAYER
  5
104F
102
{ACAD_XDICTIONARY
360
D293
102
}
330
A
100
AcDbSymbolTableRecord
100
AcDbLayerTableRecord
  2
03-隠れ線
 70
     0
 62
     7
  6
HIDDEN
370
    15
390
1FC7
  0
LAYER
  5
1050
102
{ACAD_XDICTIONARY
360
D295
102
}
330
A
100
AcDbSymbolTableRecord
100
AcDbLayerTableRecord
  2
04-鉄筋線
 70
     0
 62
     1
  6
CONTINUOUS
370
    25
390
1FC7
  0
LAYER
  5
1051
102
{ACAD_XDICTIONARY
360
D297
102
}
330
A
100
AcDbSymbolTableRecord
100
AcDbLayerTableRecord
  2
06-中心線
 70
     0
 62
     4
  6
CENTER2
370
     9
390
1FC7
  0
LAYER
  5
1052
102
{ACAD_XDICTIONARY
360
D299
102
}
330
A
100
AcDbSymbolTableRecord
100
AcDbLayerTableRecord
  2
07-中心線
 70
     0
 62
     4
  6
PHANTOM2
370
     9
390
1FC7
  0
LAYER
  5
1053
102
{ACAD_XDICTIONARY
360
D29B
102
}
330
A
100
AcDbSymbolTableRecord
100
AcDbLayerTableRecord
  2
08-下線
 70
     0
 62
     3
  6
CONTINUOUS
370
    20
390
1FC7
  0
LAYER
  5
1054
102
{ACAD_XDICTIONARY
360
D29D
102
}
330
A
100
AcDbSymbolTableRecord
100
AcDbLayerTableRecord
  2
10-罫線
 70
     0
 62
    30
  6
CONTINUOUS
370
    20
390
1FC7
  0
LAYER
  5
1057
330
A
100
AcDbSymbolTableRecord
100
AcDbLayerTableRecord
  2
DEFPOINTS
 70
     0
 62
     8
  6
CONTINUOUS
290
     0
370
    -3
390
1FC7
  0
LAYER
  5
218B
102
{ACAD_XDICTIONARY
360
D29F
102
}
330
A
100
AcDbSymbolTableRecord
100
AcDbLayerTableRecord
  2
11-外枠線
 70
     0
 62
     6
  6
CONTINUOUS
370
    30
390
1FC7
  0
LAYER
  5
218C
102
{ACAD_XDICTIONARY
360
D2A1
102
}
330
A
100
AcDbSymbolTableRecord
100
AcDbLayerTableRecord
  2
12-構築線
 70
     0
 62
     5
  6
CONTINUOUS
370
     0
390
1FC7
  0
LAYER
  5
2B0E
102
{ACAD_XDICTIONARY
360
D2A3
102
}
330
A
100
AcDbSymbolTableRecord
100
AcDbLayerTableRecord
  2
09-下線
 70
     0
 62
     2
  6
CONTINUOUS
370
    30
390
1FC7
  0
LAYER
  5
8DFB
102
{ACAD_XDICTIONARY
360
D2A5
102
}
330
A
100
AcDbSymbolTableRecord
100
AcDbLayerTableRecord
  2
13-ﾊｯﾁ線
 70
     0
 62
     6
  6
CONTINUOUS
370
     9
390
1FC7
  0
ENDTAB
  0
TABLE
  2
STYLE
  5
B
330
0
100
AcDbSymbolTable
 70
    13
  0
STYLE
  5
C
330
B
100
AcDbSymbolTableRecord
100
AcDbTextStyleTableRecord
  2
STANDARD
 70
     0
 40
0.0
 41
0.8
 50
0.0
 71
     0
 42
0.2
  3
SIMPLEX
  4
BIGFONT
  0
STYLE
  5
1B
330
B
100
AcDbSymbolTableRecord
100
AcDbTextStyleTableRecord
  2
ZEN
 70
     0
 40
0.0
 41
0.8
 50
0.0
 71
     0
 42
0.2
  3
SIMPLEX
  4
BIGFONT
  0
STYLE
  5
533
330
B
100
AcDbSymbolTableRecord
100
AcDbTextStyleTableRecord
  2
1-08
 70
     0
 40
0.0
 41
0.8
 50
0.0
 71
     0
 42
900.0
  3
romans.shx
  4
extfont.shx
  0
STYLE
  5
2A
330
B
100
AcDbSymbolTableRecord
100
AcDbTextStyleTableRecord
  2
KANJI
 70
     0
 40
0.0
 41
1.0
 50
0.0
 71
     0
 42
0.2
  3
romans.shx
  4
extfont.shx
  0
STYLE
  5
1067
330
B
100
AcDbSymbolTableRecord
100
AcDbTextStyleTableRecord
  2
SIMPLEX
 70
     0
 40
0.0
 41
1.0
 50
0.0
 71
     0
 42
10.0
  3
txt.shx
  4
BIGFONT
  0
STYLE
  5
1068
330
B
100
AcDbSymbolTableRecord
100
AcDbTextStyleTableRecord
  2
STANDERD
 70
     0
 40
0.0
 41
1.0
 50
0.0
 71
     0
 42
0.2
  3
MONOTXT
  4
BIGFONT
  0
STYLE
  5
1069
330
B
100
AcDbSymbolTableRecord
100
AcDbTextStyleTableRecord
  2
HAN
 70
     0
 40
0.0
 41
0.6400000000000001
 50
0.0
 71
     0
 42
0.2
  3
SIMPLEX
  4
BIGFONT
  0
STYLE
  5
106A
330
B
100
AcDbSymbolTableRecord
100
AcDbTextStyleTableRecord
  2
BIGFONT
 70
     0
 40
0.0
 41
1.0
 50
0.0
 71
     0
 42
200.0
  3
txt.shx
  4
BIGFONT
  0
STYLE
  5
106B
330
B
100
AcDbSymbolTableRecord
100
AcDbTextStyleTableRecord
  2
1-08T
 70
     0
 40
0.0
 41
0.8
 50
0.0
 71
     0
 42
0.2
  3
romans.shx
  4

  0
STYLE
  5
2249
330
B
100
AcDbSymbolTableRecord
100
AcDbTextStyleTableRecord
  2

 70
     1
 40
0.0
 41
1.0
 50
0.0
 71
     0
 42
0.2
  3
ltypeshp.shx
  4

  0
STYLE
  5
2605
330
B
100
AcDbSymbolTableRecord
100
AcDbTextStyleTableRecord
  2
ｵﾘｼﾞﾅﾙｽﾀｲﾙ
 70
     0
 40
0.0
 41
0.8
 50
0.0
 71
     0
 42
75.0
  3

  4

1001
ACAD
1000
MS Mincho
1071
    32785
  0
STYLE
  5
943A
330
B
100
AcDbSymbolTableRecord
100
AcDbTextStyleTableRecord
  2
縦字ｽﾀｲﾙ
 70
     0
 40
0.0
 41
1.0
 50
0.0
 71
     0
 42
75.0
  3

  4

1001
ACAD
1000
@MS Mincho
1071
    32785
  0
STYLE
  5
D222
330
B
100
AcDbSymbolTableRecord
100
AcDbTextStyleTableRecord
  2
寸法ｽﾀｲﾙ
 70
     0
 40
0.0
 41
0.8
 50
0.0
 71
     0
 42
75.0
  3
NSimSun.ttf
  4

1001
ACAD
1000
NSimSun
1071
       49
  0
ENDTAB
  0
TABLE
  2
VIEW
  5
10
330
0
100
AcDbSymbolTable
 70
     0
  0
ENDTAB
  0
TABLE
  2
UCS
  5
11
330
0
100
AcDbSymbolTable
 70
     0
  0
ENDTAB
  0
TABLE
  2
APPID
  5
14
330
0
100
AcDbSymbolTable
 70
     4
  0
APPID
  5
15
330
14
100
AcDbSymbolTableRecord
100
AcDbRegAppTableRecord
  2
ACAD
 70
     0
  0
APPID
  5
D223
330
14
100
AcDbSymbolTableRecord
100
AcDbRegAppTableRecord
  2
ACAD_NAV_VCDISPLAY
 70
     0
  0
APPID
  5
D259
330
14
100
AcDbSymbolTableRecord
100
AcDbRegAppTableRecord
  2
ACAD_EXEMPT_FROM_CAD_STANDARDS
 70
     0
  0
APPID
  5
D4C0
330
14
100
AcDbSymbolTableRecord
100
AcDbRegAppTableRecord
  2
ACAD_MLEADERVER
 70
     0
  0
ENDTAB
  0
TABLE
  2
DIMSTYLE
  5
16
330
0
100
AcDbSymbolTable
 70
     2
100
AcDbDimStyleTable
 71
     2
340
2B26
340
1D
  0
DIMSTYLE
105
1D
330
16
100
AcDbSymbolTableRecord
100
AcDbDimStyleTableRecord
  2
標準スタイル
 70
     0
 41
20.0
 42
20.0
 43
0.0
 44
20.0
 73
     0
 74
     0
 77
     1
 78
     1
140
100.0
141
10.0
147
0.05
176
     4
177
     4
178
     4
271
     0
272
     0
279
     2
340
1069
371
    15
372
    15
  0
DIMSTYLE
105
2B26
102
{ACAD_REACTORS
330
A07F
330
AAD5
330
AAE4
330
AB37
330
ABCB
330
ABE9
330
ABF6
330
AC2E
330
AC3D
330
AC4A
330
AC57
330
AC64
330
AC71
330
ACAC
330
ACB9
330
ACCB
330
AD40
330
ADE9
330
AE5E
330
AF65
330
C58A
330
C5E2
330
C69B
330
D069
330
D06C
330
D06B
330
D0C2
330
D0C1
330
D0C0
330
D373
102
}
330
16
100
AcDbSymbolTableRecord
100
AcDbDimStyleTableRecord
  2
スタイル15
 70
     0
 40
15.0
 41
2.0
 42
1.0
 43
6.0
 44
1.0
 73
     0
 74
     0
 77
     1
 78
     9
140
3.5
141
1.0
147
0.5
172
     1
176
     4
177
     4
178
     4
271
     2
272
     2
289
     0
340
2605
341
89F
342
89F
371
     9
372
     9
  0
ENDTAB
  0
TABLE
  2
BLOCK_RECORD
  5
1
330
0
100
AcDbSymbolTable
 70
    40
  0
BLOCK_RECORD
  5
2
102
{ACAD_XDICTIONARY
360
D261
102
}
330
1
100
AcDbSymbolTableRecord
100
AcDbBlockTableRecord
  2
*MODEL_SPACE
340
1FCE
  0
BLOCK_RECORD
  5
7
330
1
100
AcDbSymbolTableRecord
100
AcDbBlockTableRecord
  2
*PAPER_SPACE
340
1FCF
  0
BLOCK_RECORD
  5
89F
330
1
100
AcDbSymbolTableRecord
100
AcDbBlockTableRecord
  2
_OPEN
340
0
102
{BLKREFS
331
8C6A
331
8CF9
331
8F41
331
AC11
331
AC12
331
AC1C
331
AC1D
331
AC25
331
AC26
331
AC35
331
AC36
331
AC42
331
AC43
331
AC4F
331
AC50
331
AC5C
331
AC5D
331
AC69
331
AC6A
331
AC99
331
AC9A
331
ACB1
331
ACB2
331
ACD0
331
ACD1
331
AD09
331
AD0A
331
AD1B
331
AD2B
331
AD45
331
AD46
331
AD50
331
ADFF
331
AFB1
331
AFB2
331
AFBA
331
AFBB
331
AFC5
331
AFC6
331
B002
331
B003
331
B00D
331
B00E
331
B04E
331
B04F
331
B074
331
B075
331
C523
331
C528
331
C529
331
C531
331
C533
331
C537
331
C53F
331
C543
331
C544
331
C545
331
C54A
331
C551
331
C552
331
C554
331
C555
331
C55A
331
C591
331
C592
331
C5E7
331
C5E8
331
C65D
331
C65E
331
C6A2
331
C6A3
331
D097
331
D0A4
331
D0B6
331
D0CD
331
D0D2
331
D129
331
D12A
331
D134
331
D135
331
D13D
331
D13E
331
D146
331
D147
331
D14F
331
D150
331
D158
331
D159
331
D1B8
331
D1B9
331
D395
331
D396
102
}
  0
BLOCK_RECORD
  5
266F
330
1
100
AcDbSymbolTableRecord
100
AcDbBlockTableRecord
  2
_Open90
340
0
  0
BLOCK_RECORD
  5
3910
330
1
100
AcDbSymbolTableRecord
100
AcDbBlockTableRecord
  2
_Origin
340
0
  0
BLOCK_RECORD
  5
A080
330
1
100
AcDbSymbolTableRecord
100
AcDbBlockTableRecord
  2
*D3
340
0
  0
BLOCK_RECORD
  5
AAD6
330
1
100
AcDbSymbolTableRecord
100
AcDbBlockTableRecord
  2
*D4
340
0
  0
BLOCK_RECORD
  5
AAE5
330
1
100
AcDbSymbolTableRecord
100
AcDbBlockTableRecord
  2
*D5
340
0
  0
BLOCK_RECORD
  5
AB38
330
1
100
AcDbSymbolTableRecord
100
AcDbBlockTableRecord
  2
*D6
340
0
  0
BLOCK_RECORD
  5
ABCC
330
1
100
AcDbSymbolTableRecord
100
AcDbBlockTableRecord
  2
*D7
340
0
  0
BLOCK_RECORD
  5
ABEA
330
1
100
AcDbSymbolTableRecord
100
AcDbBlockTableRecord
  2
*D8
340
0
  0
BLOCK_RECORD
  5
ABF7
330
1
100
AcDbSymbolTableRecord
100
AcDbBlockTableRecord
  2
*D9
340
0
  0
BLOCK_RECORD
  5
AC2F
330
1
100
AcDbSymbolTableRecord
100
AcDbBlockTableRecord
  2
*D10
340
0
  0
BLOCK_RECORD
  5
AC3E
330
1
100
AcDbSymbolTableRecord
100
AcDbBlockTableRecord
  2
*D11
340
0
  0
BLOCK_RECORD
  5
AC4B
330
1
100
AcDbSymbolTableRecord
100
AcDbBlockTableRecord
  2
*D12
340
0
  0
BLOCK_RECORD
  5
AC58
330
1
100
AcDbSymbolTableRecord
100
AcDbBlockTableRecord
  2
*D13
340
0
  0
BLOCK_RECORD
  5
AC65
330
1
100
AcDbSymbolTableRecord
100
AcDbBlockTableRecord
  2
*D14
340
0
  0
BLOCK_RECORD
  5
AC72
330
1
100
AcDbSymbolTableRecord
100
AcDbBlockTableRecord
  2
*D15
340
0
  0
BLOCK_RECORD
  5
ACAD
330
1
100
AcDbSymbolTableRecord
100
AcDbBlockTableRecord
  2
*D16
340
0
  0
BLOCK_RECORD
  5
ACBA
330
1
100
AcDbSymbolTableRecord
100
AcDbBlockTableRecord
  2
*D17
340
0
  0
BLOCK_RECORD
  5
ACCC
330
1
100
AcDbSymbolTableRecord
100
AcDbBlockTableRecord
  2
*D18
340
0
  0
BLOCK_RECORD
  5
AD41
330
1
100
AcDbSymbolTableRecord
100
AcDbBlockTableRecord
  2
*D19
340
0
  0
BLOCK_RECORD
  5
ADEA
330
1
100
AcDbSymbolTableRecord
100
AcDbBlockTableRecord
  2
*D20
340
0
  0
BLOCK_RECORD
  5
AE5F
330
1
100
AcDbSymbolTableRecord
100
AcDbBlockTableRecord
  2
*D21
340
0
  0
BLOCK_RECORD
  5
AF66
330
1
100
AcDbSymbolTableRecord
100
AcDbBlockTableRecord
  2
*D22
340
0
  0
BLOCK_RECORD
  5
C58B
330
1
100
AcDbSymbolTableRecord
100
AcDbBlockTableRecord
  2
*D23
340
0
  0
BLOCK_RECORD
  5
C5E3
330
1
100
AcDbSymbolTableRecord
100
AcDbBlockTableRecord
  2
*D24
340
0
  0
BLOCK_RECORD
  5
C69C
330
1
100
AcDbSymbolTableRecord
100
AcDbBlockTableRecord
  2
*D25
340
0
  0
BLOCK_RECORD
  5
D0DC
330
1
100
AcDbSymbolTableRecord
100
AcDbBlockTableRecord
  2
*D26
340
0
  0
BLOCK_RECORD
  5
D0E8
330
1
100
AcDbSymbolTableRecord
100
AcDbBlockTableRecord
  2
*D27
340
0
  0
BLOCK_RECORD
  5
D0F6
330
1
100
AcDbSymbolTableRecord
100
AcDbBlockTableRecord
  2
*D28
340
0
  0
BLOCK_RECORD
  5
D102
330
1
100
AcDbSymbolTableRecord
100
AcDbBlockTableRecord
  2
*D29
340
0
  0
BLOCK_RECORD
  5
D10E
330
1
100
AcDbSymbolTableRecord
100
AcDbBlockTableRecord
  2
*D30
340
0
  0
BLOCK_RECORD
  5
D11A
330
1
100
AcDbSymbolTableRecord
100
AcDbBlockTableRecord
  2
*D31
340
0
  0
BLOCK_RECORD
  5
D374
330
1
100
AcDbSymbolTableRecord
100
AcDbBlockTableRecord
  2
*D36
340
0
  0
ENDTAB
  0
ENDSEC
  0
SECTION
  2
BLOCKS
  0
BLOCK
  5
3
330
2
100
AcDbEntity
  8
0
100
AcDbBlockBegin
  2
*MODEL_SPACE
 70
     0
 10
0.0
 20
0.0
 30
0.0
  3
*MODEL_SPACE
  1

  0
ENDBLK
  5
6
330
2
100
AcDbEntity
  8
0
100
AcDbBlockEnd
  0
BLOCK
  5
8
330
7
100
AcDbEntity
 67
     1
  8
0
100
AcDbBlockBegin
  2
*PAPER_SPACE
 70
     0
 10
0.0
 20
0.0
 30
0.0
  3
*PAPER_SPACE
  1

  0
ENDBLK
  5
9
330
7
100
AcDbEntity
 67
     1
  8
0
100
AcDbBlockEnd
  0
BLOCK
  5
8A3
330
89F
100
AcDbEntity
  8
0
100
AcDbBlockBegin
  2
_OPEN
 70
     0
 10
0.0
 20
0.0
 30
0.0
  3
_OPEN
  1

  0
LINE
  5
8A0
330
89F
100
AcDbEntity
  8
0
  6
ByBlock
 62
     0
100
AcDbLine
 10
-1.0
 20
0.1666666666666666
 30
0.0
 11
0.0
 21
0.0
 31
0.0
  0
LINE
  5
8A1
330
89F
100
AcDbEntity
  8
0
  6
ByBlock
 62
     0
100
AcDbLine
 10
0.0
 20
0.0
 30
0.0
 11
-1.0
 21
-0.1666666666666666
 31
0.0
  0
LINE
  5
8A2
330
89F
100
AcDbEntity
  8
0
  6
ByBlock
 62
     0
100
AcDbLine
 10
0.0
 20
0.0
 30
0.0
 11
-1.0
 21
0.0
 31
0.0
  0
ENDBLK
  5
8A4
330
89F
100
AcDbEntity
  8
0
100
AcDbBlockEnd
  0
BLOCK
  5
2673
330
266F
100
AcDbEntity
  8
0
100
AcDbBlockBegin
  2
_Open90
 70
     0
 10
0.0
 20
0.0
 30
0.0
  3
_Open90
  1

  0
LINE
  5
2670
330
266F
100
AcDbEntity
  8
0
  6
ByBlock
 62
     0
370
    -2
100
AcDbLine
 10
-0.5
 20
0.5
 30
0.0
 11
0.0
 21
0.0
 31
0.0
  0
LINE
  5
2671
330
266F
100
AcDbEntity
  8
0
  6
ByBlock
 62
     0
370
    -2
100
AcDbLine
 10
0.0
 20
0.0
 30
0.0
 11
-0.5
 21
-0.5
 31
0.0
  0
LINE
  5
2672
330
266F
100
AcDbEntity
  8
0
  6
ByBlock
 62
     0
370
    -2
100
AcDbLine
 10
0.0
 20
0.0
 30
0.0
 11
-1.0
 21
0.0
 31
0.0
  0
ENDBLK
  5
2674
330
266F
100
AcDbEntity
  8
0
100
AcDbBlockEnd
  0
BLOCK
  5
3913
330
3910
100
AcDbEntity
  8
0
100
AcDbBlockBegin
  2
_Origin
 70
     0
 10
0.0
 20
0.0
 30
0.0
  3
_Origin
  1

  0
CIRCLE
  5
3911
330
3910
100
AcDbEntity
  8
0
  6
ByBlock
 62
     0
370
    -2
100
AcDbCircle
 10
0.0
 20
0.0
 30
0.0
 40
0.5
  0
LINE
  5
3912
330
3910
100
AcDbEntity
  8
0
  6
ByBlock
 62
     0
370
    -2
100
AcDbLine
 10
0.0
 20
0.0
 30
0.0
 11
-1.0
 21
0.0
 31
0.0
  0
ENDBLK
  5
3914
330
3910
100
AcDbEntity
  8
0
100
AcDbBlockEnd
  0
BLOCK
  5
A08C
330
A080
100
AcDbEntity
  8
0
 48
0.5
100
AcDbBlockBegin
  2
*D3
 70
     1
 10
0.0
 20
0.0
 30
0.0
  3
*D3
  1

  0
LINE
  5
B008
330
A080
100
AcDbEntity
  8
01-寸法線
 62
     4
440
 16777216
 48
0.5
370
     9
100
AcDbLine
 10
-5315.381490481037
 20
2532.753046383292
 30
0.0
 11
-5315.381490481037
 21
2382.753046383292
 31
0.0
  0
LINE
  5
B009
330
A080
100
AcDbEntity
  8
01-寸法線
 62
     4
440
 16777216
 48
0.5
370
     9
100
AcDbLine
 10
-5277.881490481036
 20
2682.753046383292
 30
0.0
 11
-5277.881490481036
 21
2382.753046383292
 31
0.0
  0
LINE
  5
B00A
330
A080
100
AcDbEntity
  8
01-寸法線
 62
     4
440
 16777216
 48
0.5
370
     9
100
AcDbLine
 10
-5345.381490481037
 20
2397.753046383293
 30
0.0
 11
-5375.381490481037
 21
2397.753046383293
 31
0.0
  0
LINE
  5
B00B
330
A080
100
AcDbEntity
  8
01-寸法線
 62
     4
440
 16777216
 48
0.5
370
     9
100
AcDbLine
 10
-5247.881490481037
 20
2397.753046383293
 30
0.0
 11
-5179.601490481037
 21
2397.753046383293
 31
0.0
  0
LINE
  5
B00C
330
A080
100
AcDbEntity
  8
01-寸法線
 62
     4
440
 16777216
 48
0.5
370
     9
100
AcDbLine
 10
-5315.381490481037
 20
2397.753046383293
 30
0.0
 11
-5277.881490481036
 21
2397.753046383293
 31
0.0
  0
INSERT
  5
B00D
330
A080
100
AcDbEntity
  8
01-寸法線
 62
     4
440
 16777216
 48
0.5
370
     9
100
AcDbBlockReference
  2
_OPEN
 10
-5315.381490481037
 20
2397.753046383293
 30
0.0
 41
30.0
 42
30.0
 43
30.0
  0
INSERT
  5
B00E
330
A080
100
AcDbEntity
  8
01-寸法線
 62
     4
440
 16777216
 48
0.5
370
     9
100
AcDbBlockReference
  2
_OPEN
 10
-5277.881490481036
 20
2397.753046383293
 30
0.0
 41
30.0
 42
30.0
 43
30.0
 50
180.0
  0
MTEXT
  5
B00F
330
A080
100
AcDbEntity
  8
01-寸法線
 62
     4
440
 16777216
 48
0.5
100
AcDbMText
 10
-5198.741490481037
 20
2431.503046383292
 30
0.0
 40
52.5
 41
0.0
 71
     5
 72
     1
  1
\A1;5
  7
ｵﾘｼﾞﾅﾙｽﾀｲﾙ
 73
     1
 44
1.0
  0
POINT
  5
B010
330
A080
100
AcDbEntity
  8
DEFPOINTS
 62
     0
440
 16777216
 48
0.5
100
AcDbPoint
 10
-5315.381490481037
 20
2547.753046383292
 30
0.0
  0
POINT
  5
B011
330
A080
100
AcDbEntity
  8
DEFPOINTS
 62
     0
440
 16777216
 48
0.5
100
AcDbPoint
 10
-5277.881490481036
 20
2697.753046383292
 30
0.0
  0
POINT
  5
B012
330
A080
100
AcDbEntity
  8
DEFPOINTS
 62
     0
440
 16777216
 48
0.5
100
AcDbPoint
 10
-5277.881490481036
 20
2397.753046383293
 30
0.0
  0
ENDBLK
  5
A08D
330
A080
100
AcDbEntity
  8
0
 48
0.5
100
AcDbBlockEnd
  0
BLOCK
  5
AAE2
330
AAD6
100
AcDbEntity
  8
0
 48
0.5
100
AcDbBlockBegin
  2
*D4
 70
     1
 10
0.0
 20
0.0
 30
0.0
  3
*D4
  1

  0
LINE
  5
B04B
330
AAD6
100
AcDbEntity
  8
01-寸法線
 62
     4
440
 16777216
 48
0.5
370
     9
100
AcDbLine
 10
-5165.381490481036
 20
4512.753046383291
 30
0.0
 11
-5165.381490481036
 21
4712.753046383292
 31
0.0
  0
LINE
  5
B04C
330
AAD6
100
AcDbEntity
  8
01-寸法線
 62
     4
440
 16777216
 48
0.5
370
     9
100
AcDbLine
 10
-5090.381490481036
 20
4312.753046383291
 30
0.0
 11
-5090.381490481036
 21
4712.753046383292
 31
0.0
  0
LINE
  5
B04D
330
AAD6
100
AcDbEntity
  8
01-寸法線
 62
     4
440
 16777216
 48
0.5
370
     9
100
AcDbLine
 10
-5135.381490481036
 20
4697.753046383292
 30
0.0
 11
-5120.381490481037
 21
4697.753046383292
 31
0.0
  0
INSERT
  5
B04E
330
AAD6
100
AcDbEntity
  8
01-寸法線
 62
     4
440
 16777216
 48
0.5
370
     9
100
AcDbBlockReference
  2
_OPEN
 10
-5165.381490481036
 20
4697.753046383292
 30
0.0
 41
30.0
 42
30.0
 43
30.0
 50
180.0
  0
INSERT
  5
B04F
330
AAD6
100
AcDbEntity
  8
01-寸法線
 62
     4
440
 16777216
 48
0.5
370
     9
100
AcDbBlockReference
  2
_OPEN
 10
-5090.381490481036
 20
4697.753046383292
 30
0.0
 41
30.0
 42
30.0
 43
30.0
  0
MTEXT
  5
B050
330
AAD6
100
AcDbEntity
  8
01-寸法線
 62
     4
440
 16777216
 48
0.5
100
AcDbMText
 10
-5127.881490481036
 20
4731.503046383291
 30
0.0
 40
52.5
 41
0.0
 71
     5
 72
     1
  1
\A1;75
  7
ｵﾘｼﾞﾅﾙｽﾀｲﾙ
 73
     1
 44
1.0
  0
POINT
  5
B051
330
AAD6
100
AcDbEntity
  8
DEFPOINTS
 62
     0
440
 16777216
 48
0.5
100
AcDbPoint
 10
-5165.381490481036
 20
4497.753046383292
 30
0.0
  0
POINT
  5
B052
330
AAD6
100
AcDbEntity
  8
DEFPOINTS
 62
     0
440
 16777216
 48
0.5
100
AcDbPoint
 10
-5090.381490481036
 20
4297.753046383292
 30
0.0
  0
POINT
  5
B053
330
AAD6
100
AcDbEntity
  8
DEFPOINTS
 62
     0
440
 16777216
 48
0.5
100
AcDbPoint
 10
-5090.381490481036
 20
4697.753046383292
 30
0.0
  0
ENDBLK
  5
AAE3
330
AAD6
100
AcDbEntity
  8
0
 48
0.5
100
AcDbBlockEnd
  0
BLOCK
  5
AAF1
330
AAE5
100
AcDbEntity
  8
0
 48
0.5
100
AcDbBlockBegin
  2
*D5
 70
     1
 10
0.0
 20
0.0
 30
0.0
  3
*D5
  1

  0
LINE
  5
B071
330
AAE5
100
AcDbEntity
  8
01-寸法線
 62
     4
440
 16777216
 48
0.5
370
     9
100
AcDbLine
 10
-3240.381490481036
 20
4312.753046383291
 30
0.0
 11
-3240.381490481036
 21
4712.753046383292
 31
0.0
  0
LINE
  5
B072
330
AAE5
100
AcDbEntity
  8
01-寸法線
 62
     4
440
 16777216
 48
0.5
370
     9
100
AcDbLine
 10
-3165.381490481036
 20
4512.753046383291
 30
0.0
 11
-3165.381490481036
 21
4712.753046383292
 31
0.0
  0
LINE
  5
B073
330
AAE5
100
AcDbEntity
  8
01-寸法線
 62
     4
440
 16777216
 48
0.5
370
     9
100
AcDbLine
 10
-3210.381490481037
 20
4697.753046383292
 30
0.0
 11
-3195.381490481036
 21
4697.753046383292
 31
0.0
  0
INSERT
  5
B074
330
AAE5
100
AcDbEntity
  8
01-寸法線
 62
     4
440
 16777216
 48
0.5
370
     9
100
AcDbBlockReference
  2
_OPEN
 10
-3240.381490481036
 20
4697.753046383292
 30
0.0
 41
30.0
 42
30.0
 43
30.0
 50
180.0
  0
INSERT
  5
B075
330
AAE5
100
AcDbEntity
  8
01-寸法線
 62
     4
440
 16777216
 48
0.5
370
     9
100
AcDbBlockReference
  2
_OPEN
 10
-3165.381490481036
 20
4697.753046383292
 30
0.0
 41
30.0
 42
30.0
 43
30.0
  0
MTEXT
  5
B076
330
AAE5
100
AcDbEntity
  8
01-寸法線
 62
     4
440
 16777216
 48
0.5
100
AcDbMText
 10
-3202.881490481036
 20
4731.503046383291
 30
0.0
 40
52.5
 41
0.0
 71
     5
 72
     1
  1
\A1;75
  7
ｵﾘｼﾞﾅﾙｽﾀｲﾙ
 73
     1
 44
1.0
  0
POINT
  5
B077
330
AAE5
100
AcDbEntity
  8
DEFPOINTS
 62
     0
440
 16777216
 48
0.5
100
AcDbPoint
 10
-3240.381490481036
 20
4297.753046383292
 30
0.0
  0
POINT
  5
B078
330
AAE5
100
AcDbEntity
  8
DEFPOINTS
 62
     0
440
 16777216
 48
0.5
100
AcDbPoint
 10
-3165.381490481036
 20
4497.753046383292
 30
0.0
  0
POINT
  5
B079
330
AAE5
100
AcDbEntity
  8
DEFPOINTS
 62
     0
440
 16777216
 48
0.5
100
AcDbPoint
 10
-3165.381490481036
 20
4697.753046383292
 30
0.0
  0
ENDBLK
  5
AAF2
330
AAE5
100
AcDbEntity
  8
0
 48
0.5
100
AcDbBlockEnd
  0
BLOCK
  5
AB42
330
AB38
100
AcDbEntity
  8
0
 48
0.5
100
AcDbBlockBegin
  2
*D6
 70
     1
 10
0.0
 20
0.0
 30
0.0
  3
*D6
  1

  0
LINE
  5
AFFF
330
AB38
100
AcDbEntity
  8
01-寸法線
 62
     4
440
 16777216
 48
0.5
370
     9
100
AcDbLine
 10
-5262.881490481037
 20
2697.753046383292
 30
0.0
 11
-4850.381490481037
 21
2697.753046383291
 31
0.0
  0
LINE
  5
B000
330
AB38
100
AcDbEntity
  8
01-寸法線
 62
     4
440
 16777216
 48
0.5
370
     9
100
AcDbLine
 10
-5000.381490481037
 20
2847.753046383292
 30
0.0
 11
-4850.381490481037
 21
2847.753046383292
 31
0.0
  0
LINE
  5
B001
330
AB38
100
AcDbEntity
  8
01-寸法線
 62
     4
440
 16777216
 48
0.5
370
     9
100
AcDbLine
 10
-4865.381490481037
 20
2727.753046383292
 30
0.0
 11
-4865.381490481037
 21
2817.753046383292
 31
0.0
  0
INSERT
  5
B002
330
AB38
100
AcDbEntity
  8
01-寸法線
 62
     4
440
 16777216
 48
0.5
370
     9
100
AcDbBlockReference
  2
_OPEN
 10
-4865.381490481037
 20
2697.753046383291
 30
0.0
 41
30.0
 42
30.0
 43
30.0
 50
270.0
  0
INSERT
  5
B003
330
AB38
100
AcDbEntity
  8
01-寸法線
 62
     4
440
 16777216
 48
0.5
370
     9
100
AcDbBlockReference
  2
_OPEN
 10
-4865.381490481037
 20
2847.753046383292
 30
0.0
 41
30.0
 42
30.0
 43
30.0
 50
90.0
  0
MTEXT
  5
B004
330
AB38
100
AcDbEntity
  8
01-寸法線
 62
     4
440
 16777216
 48
0.5
100
AcDbMText
 10
-4899.131490481038
 20
2772.753046383292
 30
0.0
 40
52.5
 41
0.0
 71
     5
 72
     1
  1
\A1;20
  7
ｵﾘｼﾞﾅﾙｽﾀｲﾙ
 11
0.0000000000000001
 21
1.0
 31
0.0
 73
     1
 44
1.0
  0
POINT
  5
B005
330
AB38
100
AcDbEntity
  8
DEFPOINTS
 62
     0
440
 16777216
 48
0.5
100
AcDbPoint
 10
-5277.881490481036
 20
2697.753046383292
 30
0.0
  0
POINT
  5
B006
330
AB38
100
AcDbEntity
  8
DEFPOINTS
 62
     0
440
 16777216
 48
0.5
100
AcDbPoint
 10
-5015.381490481036
 20
2847.753046383292
 30
0.0
  0
POINT
  5
B007
330
AB38
100
AcDbEntity
  8
DEFPOINTS
 62
     0
440
 16777216
 48
0.5
100
AcDbPoint
 10
-4865.381490481037
 20
2847.753046383292
 30
0.0
  0
ENDBLK
  5
AB43
330
AB38
100
AcDbEntity
  8
0
 48
0.5
100
AcDbBlockEnd
  0
BLOCK
  5
ABD8
330
ABCC
100
AcDbEntity
  8
0
 48
0.5
100
AcDbBlockBegin
  2
*D7
 70
     1
 10
0.0
 20
0.0
 30
0.0
  3
*D7
  1

  0
LINE
  5
AC17
330
ABCC
100
AcDbEntity
  8
01-寸法線
 62
     4
440
 16777216
 48
0.5
370
     9
100
AcDbLine
 10
-6690.381490481037
 20
4132.753046383292
 30
0.0
 11
-6690.381490481037
 21
3932.753046383293
 31
0.0
  0
LINE
  5
AC18
330
ABCC
100
AcDbEntity
  8
01-寸法線
 62
     4
440
 16777216
 48
0.5
370
     9
100
AcDbLine
 10
-6695.381490481037
 20
4132.753046383292
 30
0.0
 11
-6695.381490481037
 21
3932.753046383293
 31
0.0
  0
LINE
  5
AC19
330
ABCC
100
AcDbEntity
  8
01-寸法線
 62
     4
440
 16777216
 48
0.5
370
     9
100
AcDbLine
 10
-6660.381490481038
 20
3947.753046383293
 30
0.0
 11
-6630.381490481036
 21
3947.753046383293
 31
0.0
  0
LINE
  5
AC1A
330
ABCC
100
AcDbEntity
  8
01-寸法線
 62
     4
440
 16777216
 48
0.5
370
     9
100
AcDbLine
 10
-6725.381490481037
 20
3947.753046383293
 30
0.0
 11
-6793.661490481037
 21
3947.753046383293
 31
0.0
  0
LINE
  5
AC1B
330
ABCC
100
AcDbEntity
  8
01-寸法線
 62
     4
440
 16777216
 48
0.5
370
     9
100
AcDbLine
 10
-6690.381490481037
 20
3947.753046383293
 30
0.0
 11
-6695.381490481037
 21
3947.753046383293
 31
0.0
  0
INSERT
  5
AC1C
330
ABCC
100
AcDbEntity
  8
01-寸法線
 62
     4
440
 16777216
 48
0.5
370
     9
100
AcDbBlockReference
  2
_OPEN
 10
-6690.381490481037
 20
3947.753046383293
 30
0.0
 41
30.0
 42
30.0
 43
30.0
 50
180.0
  0
INSERT
  5
AC1D
330
ABCC
100
AcDbEntity
  8
01-寸法線
 62
     4
440
 16777216
 48
0.5
370
     9
100
AcDbBlockReference
  2
_OPEN
 10
-6695.381490481037
 20
3947.753046383293
 30
0.0
 41
30.0
 42
30.0
 43
30.0
  0
MTEXT
  5
AC1E
330
ABCC
100
AcDbEntity
  8
01-寸法線
 62
     4
440
 16777216
 48
0.5
100
AcDbMText
 10
-6774.521490481037
 20
3981.503046383293
 30
0.0
 40
52.5
 41
0.0
 71
     5
 72
     1
  1
\A1;5
  7
ｵﾘｼﾞﾅﾙｽﾀｲﾙ
 73
     1
 44
1.0
  0
POINT
  5
AC1F
330
ABCC
100
AcDbEntity
  8
DEFPOINTS
 62
     0
440
 16777216
 48
0.5
100
AcDbPoint
 10
-6690.381490481037
 20
4147.753046383292
 30
0.0
  0
POINT
  5
AC20
330
ABCC
100
AcDbEntity
  8
DEFPOINTS
 62
     0
440
 16777216
 48
0.5
100
AcDbPoint
 10
-6695.381490481037
 20
4147.753046383292
 30
0.0
  0
POINT
  5
AC21
330
ABCC
100
AcDbEntity
  8
DEFPOINTS
 62
     0
440
 16777216
 48
0.5
100
AcDbPoint
 10
-6695.381490481037
 20
3947.753046383293
 30
0.0
  0
ENDBLK
  5
ABD9
330
ABCC
100
AcDbEntity
  8
0
 48
0.5
100
AcDbBlockEnd
  0
BLOCK
  5
ABF4
330
ABEA
100
AcDbEntity
  8
0
 48
0.5
100
AcDbBlockBegin
  2
*D8
 70
     1
 10
0.0
 20
0.0
 30
0.0
  3
*D8
  1

  0
LINE
  5
AC0E
330
ABEA
100
AcDbEntity
  8
01-寸法線
 62
     4
440
 16777216
 48
0.5
370
     9
100
AcDbLine
 10
-6690.381490481037
 20
4132.753046383292
 30
0.0
 11
-6690.381490481037
 21
3932.753046383292
 31
0.0
  0
LINE
  5
AC0F
330
ABEA
100
AcDbEntity
  8
01-寸法線
 62
     4
440
 16777216
 48
0.5
370
     9
100
AcDbLine
 10
-6290.381490481037
 20
4132.753046383291
 30
0.0
 11
-6290.381490481037
 21
3932.753046383292
 31
0.0
  0
LINE
  5
AC10
330
ABEA
100
AcDbEntity
  8
01-寸法線
 62
     4
440
 16777216
 48
0.5
370
     9
100
AcDbLine
 10
-6660.381490481038
 20
3947.753046383292
 30
0.0
 11
-6320.381490481037
 21
3947.753046383292
 31
0.0
  0
INSERT
  5
AC11
330
ABEA
100
AcDbEntity
  8
01-寸法線
 62
     4
440
 16777216
 48
0.5
370
     9
100
AcDbBlockReference
  2
_OPEN
 10
-6690.381490481037
 20
3947.753046383292
 30
0.0
 41
30.0
 42
30.0
 43
30.0
 50
180.0
  0
INSERT
  5
AC12
330
ABEA
100
AcDbEntity
  8
01-寸法線
 62
     4
440
 16777216
 48
0.5
370
     9
100
AcDbBlockReference
  2
_OPEN
 10
-6290.381490481037
 20
3947.753046383292
 30
0.0
 41
30.0
 42
30.0
 43
30.0
  0
MTEXT
  5
AC13
330
ABEA
100
AcDbEntity
  8
01-寸法線
 62
     4
440
 16777216
 48
0.5
100
AcDbMText
 10
-6490.381490481038
 20
3981.503046383292
 30
0.0
 40
52.5
 41
0.0
 71
     5
 72
     1
  1
\A1;400
  7
ｵﾘｼﾞﾅﾙｽﾀｲﾙ
 73
     1
 44
1.0
  0
POINT
  5
AC14
330
ABEA
100
AcDbEntity
  8
DEFPOINTS
 62
     0
440
 16777216
 48
0.5
100
AcDbPoint
 10
-6690.381490481037
 20
4147.753046383292
 30
0.0
  0
POINT
  5
AC15
330
ABEA
100
AcDbEntity
  8
DEFPOINTS
 62
     0
440
 16777216
 48
0.5
100
AcDbPoint
 10
-6290.381490481037
 20
4147.753046383292
 30
0.0
  0
POINT
  5
AC16
330
ABEA
100
AcDbEntity
  8
DEFPOINTS
 62
     0
440
 16777216
 48
0.5
100
AcDbPoint
 10
-6290.381490481037
 20
3947.753046383292
 30
0.0
  0
ENDBLK
  5
ABF5
330
ABEA
100
AcDbEntity
  8
0
 48
0.5
100
AcDbBlockEnd
  0
BLOCK
  5
AC01
330
ABF7
100
AcDbEntity
  8
0
 48
0.5
100
AcDbBlockBegin
  2
*D9
 70
     1
 10
0.0
 20
0.0
 30
0.0
  3
*D9
  1

  0
LINE
  5
AC22
330
ABF7
100
AcDbEntity
  8
01-寸法線
 62
     4
440
 16777216
 48
0.5
370
     9
100
AcDbLine
 10
-6695.381490481036
 20
3932.753046383293
 30
0.0
 11
-6695.381490481036
 21
3832.753046383292
 31
0.0
  0
LINE
  5
AC23
330
ABF7
100
AcDbEntity
  8
01-寸法線
 62
     4
440
 16777216
 48
0.5
370
     9
100
AcDbLine
 10
-6285.381490481037
 20
3932.753046383292
 30
0.0
 11
-6285.381490481037
 21
3832.753046383292
 31
0.0
  0
LINE
  5
AC24
330
ABF7
100
AcDbEntity
  8
01-寸法線
 62
     4
440
 16777216
 48
0.5
370
     9
100
AcDbLine
 10
-6665.381490481036
 20
3847.753046383292
 30
0.0
 11
-6315.381490481037
 21
3847.753046383292
 31
0.0
  0
INSERT
  5
AC25
330
ABF7
100
AcDbEntity
  8
01-寸法線
 62
     4
440
 16777216
 48
0.5
370
     9
100
AcDbBlockReference
  2
_OPEN
 10
-6695.381490481036
 20
3847.753046383292
 30
0.0
 41
30.0
 42
30.0
 43
30.0
 50
180.0
  0
INSERT
  5
AC26
330
ABF7
100
AcDbEntity
  8
01-寸法線
 62
     4
440
 16777216
 48
0.5
370
     9
100
AcDbBlockReference
  2
_OPEN
 10
-6285.381490481037
 20
3847.753046383292
 30
0.0
 41
30.0
 42
30.0
 43
30.0
  0
MTEXT
  5
AC27
330
ABF7
100
AcDbEntity
  8
01-寸法線
 62
     4
440
 16777216
 48
0.5
100
AcDbMText
 10
-6490.381490481038
 20
3881.503046383293
 30
0.0
 40
52.5
 41
0.0
 71
     5
 72
     1
  1
\A1;410
  7
ｵﾘｼﾞﾅﾙｽﾀｲﾙ
 73
     1
 44
1.0
  0
POINT
  5
AC28
330
ABF7
100
AcDbEntity
  8
DEFPOINTS
 62
     0
440
 16777216
 48
0.5
100
AcDbPoint
 10
-6695.381490481036
 20
3947.753046383293
 30
0.0
  0
POINT
  5
AC29
330
ABF7
100
AcDbEntity
  8
DEFPOINTS
 62
     0
440
 16777216
 48
0.5
100
AcDbPoint
 10
-6285.381490481037
 20
3947.753046383292
 30
0.0
  0
POINT
  5
AC2A
330
ABF7
100
AcDbEntity
  8
DEFPOINTS
 62
     0
440
 16777216
 48
0.5
100
AcDbPoint
 10
-6285.381490481037
 20
3847.753046383292
 30
0.0
  0
ENDBLK
  5
AC02
330
ABF7
100
AcDbEntity
  8
0
 48
0.5
100
AcDbBlockEnd
  0
BLOCK
  5
AC3B
330
AC2F
100
AcDbEntity
  8
0
 48
0.5
100
AcDbBlockBegin
  2
*D10
 70
     1
 10
0.0
 20
0.0
 30
0.0
  3
*D10
  1

  0
LINE
  5
AC30
330
AC2F
100
AcDbEntity
  8
01-寸法線
 62
     4
440
 16777216
 48
0.5
370
     9
100
AcDbLine
 10
-6290.381490481037
 20
4132.753046383291
 30
0.0
 11
-6290.381490481037
 21
3932.753046383292
 31
0.0
  0
LINE
  5
AC31
330
AC2F
100
AcDbEntity
  8
01-寸法線
 62
     4
440
 16777216
 48
0.5
370
     9
100
AcDbLine
 10
-6285.381490481037
 20
4132.753046383291
 30
0.0
 11
-6285.381490481037
 21
3932.753046383292
 31
0.0
  0
LINE
  5
AC32
330
AC2F
100
AcDbEntity
  8
01-寸法線
 62
     4
440
 16777216
 48
0.5
370
     9
100
AcDbLine
 10
-6320.381490481037
 20
3947.753046383292
 30
0.0
 11
-6350.381490481037
 21
3947.753046383292
 31
0.0
  0
LINE
  5
AC33
330
AC2F
100
AcDbEntity
  8
01-寸法線
 62
     4
440
 16777216
 48
0.5
370
     9
100
AcDbLine
 10
-6255.381490481037
 20
3947.753046383292
 30
0.0
 11
-6187.101490481037
 21
3947.753046383292
 31
0.0
  0
LINE
  5
AC34
330
AC2F
100
AcDbEntity
  8
01-寸法線
 62
     4
440
 16777216
 48
0.5
370
     9
100
AcDbLine
 10
-6290.381490481037
 20
3947.753046383292
 30
0.0
 11
-6285.381490481037
 21
3947.753046383292
 31
0.0
  0
INSERT
  5
AC35
330
AC2F
100
AcDbEntity
  8
01-寸法線
 62
     4
440
 16777216
 48
0.5
370
     9
100
AcDbBlockReference
  2
_OPEN
 10
-6290.381490481037
 20
3947.753046383292
 30
0.0
 41
30.0
 42
30.0
 43
30.0
  0
INSERT
  5
AC36
330
AC2F
100
AcDbEntity
  8
01-寸法線
 62
     4
440
 16777216
 48
0.5
370
     9
100
AcDbBlockReference
  2
_OPEN
 10
-6285.381490481037
 20
3947.753046383292
 30
0.0
 41
30.0
 42
30.0
 43
30.0
 50
180.0
  0
MTEXT
  5
AC37
330
AC2F
100
AcDbEntity
  8
01-寸法線
 62
     4
440
 16777216
 48
0.5
100
AcDbMText
 10
-6206.241490481037
 20
3981.503046383292
 30
0.0
 40
52.5
 41
0.0
 71
     5
 72
     1
  1
\A1;5
  7
ｵﾘｼﾞﾅﾙｽﾀｲﾙ
 73
     1
 44
1.0
  0
POINT
  5
AC38
330
AC2F
100
AcDbEntity
  8
DEFPOINTS
 62
     0
440
 16777216
 48
0.5
100
AcDbPoint
 10
-6290.381490481037
 20
4147.753046383292
 30
0.0
  0
POINT
  5
AC39
330
AC2F
100
AcDbEntity
  8
DEFPOINTS
 62
     0
440
 16777216
 48
0.5
100
AcDbPoint
 10
-6285.381490481037
 20
4147.753046383292
 30
0.0
  0
POINT
  5
AC3A
330
AC2F
100
AcDbEntity
  8
DEFPOINTS
 62
     0
440
 16777216
 48
0.5
100
AcDbPoint
 10
-6285.381490481037
 20
3947.753046383292
 30
0.0
  0
ENDBLK
  5
AC3C
330
AC2F
100
AcDbEntity
  8
0
 48
0.5
100
AcDbBlockEnd
  0
BLOCK
  5
AC48
330
AC3E
100
AcDbEntity
  8
0
 48
0.5
100
AcDbBlockBegin
  2
*D11
 70
     1
 10
0.0
 20
0.0
 30
0.0
  3
*D11
  1

  0
LINE
  5
AC3F
330
AC3E
100
AcDbEntity
  8
01-寸法線
 62
     4
440
 16777216
 48
0.5
370
     9
100
AcDbLine
 10
-6710.381490481037
 20
4147.753046383292
 30
0.0
 11
-6910.381490481038
 21
4147.753046383292
 31
0.0
  0
LINE
  5
AC40
330
AC3E
100
AcDbEntity
  8
01-寸法線
 62
     4
440
 16777216
 48
0.5
370
     9
100
AcDbLine
 10
-6705.381490481037
 20
4297.753046383293
 30
0.0
 11
-6910.381490481038
 21
4297.753046383293
 31
0.0
  0
LINE
  5
AC41
330
AC3E
100
AcDbEntity
  8
01-寸法線
 62
     4
440
 16777216
 48
0.5
370
     9
100
AcDbLine
 10
-6895.381490481037
 20
4177.753046383292
 30
0.0
 11
-6895.381490481037
 21
4267.753046383293
 31
0.0
  0
INSERT
  5
AC42
330
AC3E
100
AcDbEntity
  8
01-寸法線
 62
     4
440
 16777216
 48
0.5
370
     9
100
AcDbBlockReference
  2
_OPEN
 10
-6895.381490481037
 20
4147.753046383292
 30
0.0
 41
30.0
 42
30.0
 43
30.0
 50
270.0
  0
INSERT
  5
AC43
330
AC3E
100
AcDbEntity
  8
01-寸法線
 62
     4
440
 16777216
 48
0.5
370
     9
100
AcDbBlockReference
  2
_OPEN
 10
-6895.381490481037
 20
4297.753046383293
 30
0.0
 41
30.0
 42
30.0
 43
30.0
 50
90.0
  0
MTEXT
  5
AC44
330
AC3E
100
AcDbEntity
  8
01-寸法線
 62
     4
440
 16777216
 48
0.5
100
AcDbMText
 10
-6929.131490481037
 20
4222.753046383291
 30
0.0
 40
52.5
 41
0.0
 71
     5
 72
     1
  1
\A1;150
  7
ｵﾘｼﾞﾅﾙｽﾀｲﾙ
 11
0.0000000000000001
 21
1.0
 31
0.0
 73
     1
 44
1.0
  0
POINT
  5
AC45
330
AC3E
100
AcDbEntity
  8
DEFPOINTS
 62
     0
440
 16777216
 48
0.5
100
AcDbPoint
 10
-6695.381490481037
 20
4147.753046383292
 30
0.0
  0
POINT
  5
AC46
330
AC3E
100
AcDbEntity
  8
DEFPOINTS
 62
     0
440
 16777216
 48
0.5
100
AcDbPoint
 10
-6690.381490481037
 20
4297.753046383293
 30
0.0
  0
POINT
  5
AC47
330
AC3E
100
AcDbEntity
  8
DEFPOINTS
 62
     0
440
 16777216
 48
0.5
100
AcDbPoint
 10
-6895.381490481037
 20
4297.753046383293
 30
0.0
  0
ENDBLK
  5
AC49
330
AC3E
100
AcDbEntity
  8
0
 48
0.5
100
AcDbBlockEnd
  0
BLOCK
  5
AC55
330
AC4B
100
AcDbEntity
  8
0
 48
0.5
100
AcDbBlockBegin
  2
*D12
 70
     1
 10
0.0
 20
0.0
 30
0.0
  3
*D12
  1

  0
LINE
  5
AC4C
330
AC4B
100
AcDbEntity
  8
01-寸法線
 62
     4
440
 16777216
 48
0.5
370
     9
100
AcDbLine
 10
-6705.381490481037
 20
4297.753046383293
 30
0.0
 11
-6910.381490481038
 21
4297.753046383293
 31
0.0
  0
LINE
  5
AC4D
330
AC4B
100
AcDbEntity
  8
01-寸法線
 62
     4
440
 16777216
 48
0.5
370
     9
100
AcDbLine
 10
-6595.381490481037
 20
4497.753046383293
 30
0.0
 11
-6910.381490481038
 21
4497.753046383293
 31
0.0
  0
LINE
  5
AC4E
330
AC4B
100
AcDbEntity
  8
01-寸法線
 62
     4
440
 16777216
 48
0.5
370
     9
100
AcDbLine
 10
-6895.381490481037
 20
4327.753046383294
 30
0.0
 11
-6895.381490481037
 21
4467.753046383292
 31
0.0
  0
INSERT
  5
AC4F
330
AC4B
100
AcDbEntity
  8
01-寸法線
 62
     4
440
 16777216
 48
0.5
370
     9
100
AcDbBlockReference
  2
_OPEN
 10
-6895.381490481037
 20
4297.753046383293
 30
0.0
 41
30.0
 42
30.0
 43
30.0
 50
270.0
  0
INSERT
  5
AC50
330
AC4B
100
AcDbEntity
  8
01-寸法線
 62
     4
440
 16777216
 48
0.5
370
     9
100
AcDbBlockReference
  2
_OPEN
 10
-6895.381490481037
 20
4497.753046383293
 30
0.0
 41
30.0
 42
30.0
 43
30.0
 50
90.0
  0
MTEXT
  5
AC51
330
AC4B
100
AcDbEntity
  8
01-寸法線
 62
     4
440
 16777216
 48
0.5
100
AcDbMText
 10
-6929.131490481037
 20
4397.753046383292
 30
0.0
 40
52.5
 41
0.0
 71
     5
 72
     1
  1
\A1;200
  7
ｵﾘｼﾞﾅﾙｽﾀｲﾙ
 11
0.0000000000000001
 21
1.0
 31
0.0
 73
     1
 44
1.0
  0
POINT
  5
AC52
330
AC4B
100
AcDbEntity
  8
DEFPOINTS
 62
     0
440
 16777216
 48
0.5
100
AcDbPoint
 10
-6690.381490481037
 20
4297.753046383293
 30
0.0
  0
POINT
  5
AC53
330
AC4B
100
AcDbEntity
  8
DEFPOINTS
 62
     0
440
 16777216
 48
0.5
100
AcDbPoint
 10
-6580.381490481037
 20
4497.753046383293
 30
0.0
  0
POINT
  5
AC54
330
AC4B
100
AcDbEntity
  8
DEFPOINTS
 62
     0
440
 16777216
 48
0.5
100
AcDbPoint
 10
-6895.381490481037
 20
4497.753046383293
 30
0.0
  0
ENDBLK
  5
AC56
330
AC4B
100
AcDbEntity
  8
0
 48
0.5
100
AcDbBlockEnd
  0
BLOCK
  5
AC62
330
AC58
100
AcDbEntity
  8
0
 48
0.5
100
AcDbBlockBegin
  2
*D13
 70
     1
 10
0.0
 20
0.0
 30
0.0
  3
*D13
  1

  0
LINE
  5
AC59
330
AC58
100
AcDbEntity
  8
01-寸法線
 62
     4
440
 16777216
 48
0.5
370
     9
100
AcDbLine
 10
-6910.381490481038
 20
4147.753046383292
 30
0.0
 11
-7010.381490481037
 21
4147.753046383292
 31
0.0
  0
LINE
  5
AC5A
330
AC58
100
AcDbEntity
  8
01-寸法線
 62
     4
440
 16777216
 48
0.5
370
     9
100
AcDbLine
 10
-6910.381490481038
 20
4497.753046383293
 30
0.0
 11
-7010.381490481037
 21
4497.753046383293
 31
0.0
  0
LINE
  5
AC5B
330
AC58
100
AcDbEntity
  8
01-寸法線
 62
     4
440
 16777216
 48
0.5
370
     9
100
AcDbLine
 10
-6995.381490481037
 20
4177.753046383292
 30
0.0
 11
-6995.381490481037
 21
4467.753046383292
 31
0.0
  0
INSERT
  5
AC5C
330
AC58
100
AcDbEntity
  8
01-寸法線
 62
     4
440
 16777216
 48
0.5
370
     9
100
AcDbBlockReference
  2
_OPEN
 10
-6995.381490481037
 20
4147.753046383292
 30
0.0
 41
30.0
 42
30.0
 43
30.0
 50
270.0
  0
INSERT
  5
AC5D
330
AC58
100
AcDbEntity
  8
01-寸法線
 62
     4
440
 16777216
 48
0.5
370
     9
100
AcDbBlockReference
  2
_OPEN
 10
-6995.381490481037
 20
4497.753046383293
 30
0.0
 41
30.0
 42
30.0
 43
30.0
 50
90.0
  0
MTEXT
  5
AC5E
330
AC58
100
AcDbEntity
  8
01-寸法線
 62
     4
440
 16777216
 48
0.5
100
AcDbMText
 10
-7029.131490481038
 20
4322.753046383291
 30
0.0
 40
52.5
 41
0.0
 71
     5
 72
     1
  1
\A1;350
  7
ｵﾘｼﾞﾅﾙｽﾀｲﾙ
 11
0.0000000000000001
 21
1.0
 31
0.0
 73
     1
 44
1.0
  0
POINT
  5
AC5F
330
AC58
100
AcDbEntity
  8
DEFPOINTS
 62
     0
440
 16777216
 48
0.5
100
AcDbPoint
 10
-6895.381490481037
 20
4147.753046383292
 30
0.0
  0
POINT
  5
AC60
330
AC58
100
AcDbEntity
  8
DEFPOINTS
 62
     0
440
 16777216
 48
0.5
100
AcDbPoint
 10
-6895.381490481037
 20
4497.753046383293
 30
0.0
  0
POINT
  5
AC61
330
AC58
100
AcDbEntity
  8
DEFPOINTS
 62
     0
440
 16777216
 48
0.5
100
AcDbPoint
 10
-6995.381490481037
 20
4497.753046383293
 30
0.0
  0
ENDBLK
  5
AC63
330
AC58
100
AcDbEntity
  8
0
 48
0.5
100
AcDbBlockEnd
  0
BLOCK
  5
AC6F
330
AC65
100
AcDbEntity
  8
0
 48
0.5
100
AcDbBlockBegin
  2
*D14
 70
     1
 10
0.0
 20
0.0
 30
0.0
  3
*D14
  1

  0
LINE
  5
AC66
330
AC65
100
AcDbEntity
  8
01-寸法線
 62
     4
440
 16777216
 48
0.5
370
     9
100
AcDbLine
 10
-6690.381490481037
 20
4312.753046383292
 30
0.0
 11
-6690.381490481037
 21
4712.753046383292
 31
0.0
  0
LINE
  5
AC67
330
AC65
100
AcDbEntity
  8
01-寸法線
 62
     4
440
 16777216
 48
0.5
370
     9
100
AcDbLine
 10
-6600.381490481037
 20
4312.753046383292
 30
0.0
 11
-6600.381490481037
 21
4712.753046383292
 31
0.0
  0
LINE
  5
AC68
330
AC65
100
AcDbEntity
  8
01-寸法線
 62
     4
440
 16777216
 48
0.5
370
     9
100
AcDbLine
 10
-6660.381490481038
 20
4697.753046383293
 30
0.0
 11
-6630.381490481036
 21
4697.753046383293
 31
0.0
  0
INSERT
  5
AC69
330
AC65
100
AcDbEntity
  8
01-寸法線
 62
     4
440
 16777216
 48
0.5
370
     9
100
AcDbBlockReference
  2
_OPEN
 10
-6690.381490481037
 20
4697.753046383293
 30
0.0
 41
30.0
 42
30.0
 43
30.0
 50
180.0
  0
INSERT
  5
AC6A
330
AC65
100
AcDbEntity
  8
01-寸法線
 62
     4
440
 16777216
 48
0.5
370
     9
100
AcDbBlockReference
  2
_OPEN
 10
-6600.381490481037
 20
4697.753046383293
 30
0.0
 41
30.0
 42
30.0
 43
30.0
  0
MTEXT
  5
AC6B
330
AC65
100
AcDbEntity
  8
01-寸法線
 62
     4
440
 16777216
 48
0.5
100
AcDbMText
 10
-6645.381490481037
 20
4731.503046383292
 30
0.0
 40
52.5
 41
0.0
 71
     5
 72
     1
  1
\A1;90
  7
ｵﾘｼﾞﾅﾙｽﾀｲﾙ
 73
     1
 44
1.0
  0
POINT
  5
AC6C
330
AC65
100
AcDbEntity
  8
DEFPOINTS
 62
     0
440
 16777216
 48
0.5
100
AcDbPoint
 10
-6690.381490481037
 20
4297.753046383292
 30
0.0
  0
POINT
  5
AC6D
330
AC65
100
AcDbEntity
  8
DEFPOINTS
 62
     0
440
 16777216
 48
0.5
100
AcDbPoint
 10
-6600.381490481037
 20
4297.753046383292
 30
0.0
  0
POINT
  5
AC6E
330
AC65
100
AcDbEntity
  8
DEFPOINTS
 62
     0
440
 16777216
 48
0.5
100
AcDbPoint
 10
-6600.381490481037
 20
4697.753046383293
 30
0.0
  0
ENDBLK
  5
AC70
330
AC65
100
AcDbEntity
  8
0
 48
0.5
100
AcDbBlockEnd
  0
BLOCK
  5
AC81
330
AC72
100
AcDbEntity
  8
0
 48
0.5
100
AcDbBlockBegin
  2
*D15
 70
     1
 10
0.0
 20
0.0
 30
0.0
  3
*D15
  1

  0
LINE
  5
AC93
330
AC72
100
AcDbEntity
  8
01-寸法線
 62
     4
440
 16777216
 48
0.5
370
     9
100
AcDbLine
 10
-6600.381490481037
 20
4312.753046383292
 30
0.0
 11
-6600.381490481037
 21
4712.753046383292
 31
0.0
  0
LINE
  5
AC94
330
AC72
100
AcDbEntity
  8
01-寸法線
 62
     4
440
 16777216
 48
0.5
370
     9
100
AcDbLine
 10
-6580.381490481037
 20
4512.753046383292
 30
0.0
 11
-6580.381490481037
 21
4712.753046383292
 31
0.0
  0
LINE
  5
AC95
330
AC72
100
AcDbEntity
  8
01-寸法線
 62
     4
440
 16777216
 48
0.5
370
     9
100
AcDbLine
 10
-6630.381490481036
 20
4697.753046383293
 30
0.0
 11
-6660.381490481038
 21
4697.753046383293
 31
0.0
  0
LINE
  5
AC96
330
AC72
100
AcDbEntity
  8
01-寸法線
 62
     4
440
 16777216
 48
0.5
370
     9
100
AcDbLine
 10
-6550.381490481036
 20
4697.753046383293
 30
0.0
 11
-6520.381490481037
 21
4697.753046383293
 31
0.0
  0
MTEXT
  5
AC97
330
AC72
100
AcDbEntity
  8
01-寸法線
 62
     4
440
 16777216
 48
0.5
100
AcDbMText
 10
-6590.381490481037
 20
4799.003046383293
 30
0.0
 40
52.5
 41
0.0
 71
     5
 72
     1
  1
\A1;20
  7
ｵﾘｼﾞﾅﾙｽﾀｲﾙ
 73
     1
 44
1.0
  0
LINE
  5
AC98
330
AC72
100
AcDbEntity
  8
01-寸法線
 62
     4
440
 16777216
 48
0.5
370
     9
100
AcDbLine
 10
-6600.381490481037
 20
4697.753046383293
 30
0.0
 11
-6580.381490481037
 21
4697.753046383293
 31
0.0
  0
INSERT
  5
AC99
330
AC72
100
AcDbEntity
  8
01-寸法線
 62
     4
440
 16777216
 48
0.5
370
     9
100
AcDbBlockReference
  2
_OPEN
 10
-6600.381490481037
 20
4697.753046383293
 30
0.0
 41
30.0
 42
30.0
 43
30.0
  0
INSERT
  5
AC9A
330
AC72
100
AcDbEntity
  8
01-寸法線
 62
     4
440
 16777216
 48
0.5
370
     9
100
AcDbBlockReference
  2
_OPEN
 10
-6580.381490481037
 20
4697.753046383293
 30
0.0
 41
30.0
 42
30.0
 43
30.0
 50
180.0
  0
POINT
  5
AC9B
330
AC72
100
AcDbEntity
  8
DEFPOINTS
 62
     0
440
 16777216
 48
0.5
100
AcDbPoint
 10
-6600.381490481037
 20
4297.753046383292
 30
0.0
  0
POINT
  5
AC9C
330
AC72
100
AcDbEntity
  8
DEFPOINTS
 62
     0
440
 16777216
 48
0.5
100
AcDbPoint
 10
-6580.381490481037
 20
4497.753046383293
 30
0.0
  0
POINT
  5
AC9D
330
AC72
100
AcDbEntity
  8
DEFPOINTS
 62
     0
440
 16777216
 48
0.5
100
AcDbPoint
 10
-6580.381490481037
 20
4697.753046383293
 30
0.0
  0
ENDBLK
  5
AC82
330
AC72
100
AcDbEntity
  8
0
 48
0.5
100
AcDbBlockEnd
  0
BLOCK
  5
ACB7
330
ACAD
100
AcDbEntity
  8
0
 48
0.5
100
AcDbBlockBegin
  2
*D16
 70
     1
 10
0.0
 20
0.0
 30
0.0
  3
*D16
  1

  0
LINE
  5
ACAE
330
ACAD
100
AcDbEntity
  8
01-寸法線
 62
     4
440
 16777216
 48
0.5
370
     9
100
AcDbLine
 10
-6290.381490481037
 20
4312.753046383291
 30
0.0
 11
-6290.381490481037
 21
4712.753046383292
 31
0.0
  0
LINE
  5
ACAF
330
ACAD
100
AcDbEntity
  8
01-寸法線
 62
     4
440
 16777216
 48
0.5
370
     9
100
AcDbLine
 10
-6380.381490481037
 20
4312.753046383292
 30
0.0
 11
-6380.381490481037
 21
4712.753046383292
 31
0.0
  0
LINE
  5
ACB0
330
ACAD
100
AcDbEntity
  8
01-寸法線
 62
     4
440
 16777216
 48
0.5
370
     9
100
AcDbLine
 10
-6320.381490481037
 20
4697.753046383293
 30
0.0
 11
-6350.381490481037
 21
4697.753046383293
 31
0.0
  0
INSERT
  5
ACB1
330
ACAD
100
AcDbEntity
  8
01-寸法線
 62
     4
440
 16777216
 48
0.5
370
     9
100
AcDbBlockReference
  2
_OPEN
 10
-6290.381490481037
 20
4697.753046383293
 30
0.0
 41
30.0
 42
30.0
 43
30.0
  0
INSERT
  5
ACB2
330
ACAD
100
AcDbEntity
  8
01-寸法線
 62
     4
440
 16777216
 48
0.5
370
     9
100
AcDbBlockReference
  2
_OPEN
 10
-6380.381490481037
 20
4697.753046383293
 30
0.0
 41
30.0
 42
30.0
 43
30.0
 50
180.0
  0
MTEXT
  5
ACB3
330
ACAD
100
AcDbEntity
  8
01-寸法線
 62
     4
440
 16777216
 48
0.5
100
AcDbMText
 10
-6335.381490481037
 20
4731.503046383292
 30
0.0
 40
52.5
 41
0.0
 71
     5
 72
     1
  1
\A1;90
  7
ｵﾘｼﾞﾅﾙｽﾀｲﾙ
 73
     1
 44
1.0
  0
POINT
  5
ACB4
330
ACAD
100
AcDbEntity
  8
DEFPOINTS
 62
     0
440
 16777216
 48
0.5
100
AcDbPoint
 10
-6290.381490481037
 20
4297.753046383292
 30
0.0
  0
POINT
  5
ACB5
330
ACAD
100
AcDbEntity
  8
DEFPOINTS
 62
     0
440
 16777216
 48
0.5
100
AcDbPoint
 10
-6380.381490481037
 20
4297.753046383292
 30
0.0
  0
POINT
  5
ACB6
330
ACAD
100
AcDbEntity
  8
DEFPOINTS
 62
     0
440
 16777216
 48
0.5
100
AcDbPoint
 10
-6380.381490481037
 20
4697.753046383293
 30
0.0
  0
ENDBLK
  5
ACB8
330
ACAD
100
AcDbEntity
  8
0
 48
0.5
100
AcDbBlockEnd
  0
BLOCK
  5
ACC9
330
ACBA
100
AcDbEntity
  8
0
 48
0.5
100
AcDbBlockBegin
  2
*D17
 70
     1
 10
0.0
 20
0.0
 30
0.0
  3
*D17
  1

  0
LINE
  5
AD03
330
ACBA
100
AcDbEntity
  8
01-寸法線
 62
     4
440
 16777216
 48
0.5
370
     9
100
AcDbLine
 10
-6380.381490481037
 20
4312.753046383292
 30
0.0
 11
-6380.381490481037
 21
4712.753046383292
 31
0.0
  0
LINE
  5
AD04
330
ACBA
100
AcDbEntity
  8
01-寸法線
 62
     4
440
 16777216
 48
0.5
370
     9
100
AcDbLine
 10
-6400.381490481037
 20
4512.753046383292
 30
0.0
 11
-6400.381490481037
 21
4712.753046383292
 31
0.0
  0
LINE
  5
AD05
330
ACBA
100
AcDbEntity
  8
01-寸法線
 62
     4
440
 16777216
 48
0.5
370
     9
100
AcDbLine
 10
-6350.381490481037
 20
4697.753046383293
 30
0.0
 11
-6320.381490481037
 21
4697.753046383293
 31
0.0
  0
LINE
  5
AD06
330
ACBA
100
AcDbEntity
  8
01-寸法線
 62
     4
440
 16777216
 48
0.5
370
     9
100
AcDbLine
 10
-6430.381490481036
 20
4697.753046383293
 30
0.0
 11
-6460.381490481037
 21
4697.753046383293
 31
0.0
  0
MTEXT
  5
AD07
330
ACBA
100
AcDbEntity
  8
01-寸法線
 62
     4
440
 16777216
 48
0.5
100
AcDbMText
 10
-6390.381490481036
 20
4799.003046383293
 30
0.0
 40
52.5
 41
0.0
 71
     5
 72
     1
  1
\A1;20
  7
ｵﾘｼﾞﾅﾙｽﾀｲﾙ
 73
     1
 44
1.0
  0
LINE
  5
AD08
330
ACBA
100
AcDbEntity
  8
01-寸法線
 62
     4
440
 16777216
 48
0.5
370
     9
100
AcDbLine
 10
-6380.381490481037
 20
4697.753046383293
 30
0.0
 11
-6400.381490481037
 21
4697.753046383293
 31
0.0
  0
INSERT
  5
AD09
330
ACBA
100
AcDbEntity
  8
01-寸法線
 62
     4
440
 16777216
 48
0.5
370
     9
100
AcDbBlockReference
  2
_OPEN
 10
-6380.381490481037
 20
4697.753046383293
 30
0.0
 41
30.0
 42
30.0
 43
30.0
 50
180.0
  0
INSERT
  5
AD0A
330
ACBA
100
AcDbEntity
  8
01-寸法線
 62
     4
440
 16777216
 48
0.5
370
     9
100
AcDbBlockReference
  2
_OPEN
 10
-6400.381490481037
 20
4697.753046383293
 30
0.0
 41
30.0
 42
30.0
 43
30.0
  0
POINT
  5
AD0B
330
ACBA
100
AcDbEntity
  8
DEFPOINTS
 62
     0
440
 16777216
 48
0.5
100
AcDbPoint
 10
-6380.381490481037
 20
4297.753046383292
 30
0.0
  0
POINT
  5
AD0C
330
ACBA
100
AcDbEntity
  8
DEFPOINTS
 62
     0
440
 16777216
 48
0.5
100
AcDbPoint
 10
-6400.381490481037
 20
4497.753046383293
 30
0.0
  0
POINT
  5
AD0D
330
ACBA
100
AcDbEntity
  8
DEFPOINTS
 62
     0
440
 16777216
 48
0.5
100
AcDbPoint
 10
-6400.381490481037
 20
4697.753046383293
 30
0.0
  0
ENDBLK
  5
ACCA
330
ACBA
100
AcDbEntity
  8
0
 48
0.5
100
AcDbBlockEnd
  0
BLOCK
  5
ACD6
330
ACCC
100
AcDbEntity
  8
0
 48
0.5
100
AcDbBlockBegin
  2
*D18
 70
     1
 10
0.0
 20
0.0
 30
0.0
  3
*D18
  1

  0
LINE
  5
ACCD
330
ACCC
100
AcDbEntity
  8
01-寸法線
 62
     4
440
 16777216
 48
0.5
370
     9
100
AcDbLine
 10
-6400.381490481037
 20
4512.753046383292
 30
0.0
 11
-6400.381490481037
 21
4712.753046383292
 31
0.0
  0
LINE
  5
ACCE
330
ACCC
100
AcDbEntity
  8
01-寸法線
 62
     4
440
 16777216
 48
0.5
370
     9
100
AcDbLine
 10
-6580.381490481037
 20
4512.753046383292
 30
0.0
 11
-6580.381490481037
 21
4712.753046383292
 31
0.0
  0
LINE
  5
ACCF
330
ACCC
100
AcDbEntity
  8
01-寸法線
 62
     4
440
 16777216
 48
0.5
370
     9
100
AcDbLine
 10
-6430.381490481036
 20
4697.753046383293
 30
0.0
 11
-6550.381490481036
 21
4697.753046383293
 31
0.0
  0
INSERT
  5
ACD0
330
ACCC
100
AcDbEntity
  8
01-寸法線
 62
     4
440
 16777216
 48
0.5
370
     9
100
AcDbBlockReference
  2
_OPEN
 10
-6400.381490481037
 20
4697.753046383293
 30
0.0
 41
30.0
 42
30.0
 43
30.0
  0
INSERT
  5
ACD1
330
ACCC
100
AcDbEntity
  8
01-寸法線
 62
     4
440
 16777216
 48
0.5
370
     9
100
AcDbBlockReference
  2
_OPEN
 10
-6580.381490481037
 20
4697.753046383293
 30
0.0
 41
30.0
 42
30.0
 43
30.0
 50
180.0
  0
MTEXT
  5
ACD2
330
ACCC
100
AcDbEntity
  8
01-寸法線
 62
     4
440
 16777216
 48
0.5
100
AcDbMText
 10
-6490.381490481038
 20
4731.503046383292
 30
0.0
 40
52.5
 41
0.0
 71
     5
 72
     1
  1
\A1;180
  7
ｵﾘｼﾞﾅﾙｽﾀｲﾙ
 73
     1
 44
1.0
  0
POINT
  5
ACD3
330
ACCC
100
AcDbEntity
  8
DEFPOINTS
 62
     0
440
 16777216
 48
0.5
100
AcDbPoint
 10
-6400.381490481037
 20
4497.753046383293
 30
0.0
  0
POINT
  5
ACD4
330
ACCC
100
AcDbEntity
  8
DEFPOINTS
 62
     0
440
 16777216
 48
0.5
100
AcDbPoint
 10
-6580.381490481037
 20
4497.753046383293
 30
0.0
  0
POINT
  5
ACD5
330
ACCC
100
AcDbEntity
  8
DEFPOINTS
 62
     0
440
 16777216
 48
0.5
100
AcDbPoint
 10
-6580.381490481037
 20
4697.753046383293
 30
0.0
  0
ENDBLK
  5
ACD7
330
ACCC
100
AcDbEntity
  8
0
 48
0.5
100
AcDbBlockEnd
  0
BLOCK
  5
AD4B
330
AD41
100
AcDbEntity
  8
0
 48
0.5
100
AcDbBlockBegin
  2
*D19
 70
     1
 10
0.0
 20
0.0
 30
0.0
  3
*D19
  1

  0
LINE
  5
AD42
330
AD41
100
AcDbEntity
  8
01-寸法線
 62
     4
440
 16777216
 48
0.5
370
     9
100
AcDbLine
 10
-6710.381490481037
 20
1047.753046383292
 30
0.0
 11
-7010.381490481037
 21
1047.753046383292
 31
0.0
  0
LINE
  5
AD43
330
AD41
100
AcDbEntity
  8
01-寸法線
 62
     4
440
 16777216
 48
0.5
370
     9
100
AcDbLine
 10
-6710.381490481037
 20
3047.753046383292
 30
0.0
 11
-7010.381490481037
 21
3047.753046383292
 31
0.0
  0
LINE
  5
AD44
330
AD41
100
AcDbEntity
  8
01-寸法線
 62
     4
440
 16777216
 48
0.5
370
     9
100
AcDbLine
 10
-6995.381490481038
 20
1077.753046383292
 30
0.0
 11
-6995.381490481037
 21
3017.753046383292
 31
0.0
  0
INSERT
  5
AD45
330
AD41
100
AcDbEntity
  8
01-寸法線
 62
     4
440
 16777216
 48
0.5
370
     9
100
AcDbBlockReference
  2
_OPEN
 10
-6995.381490481038
 20
1047.753046383292
 30
0.0
 41
30.0
 42
30.0
 43
30.0
 50
270.0
  0
INSERT
  5
AD46
330
AD41
100
AcDbEntity
  8
01-寸法線
 62
     4
440
 16777216
 48
0.5
370
     9
100
AcDbBlockReference
  2
_OPEN
 10
-6995.381490481037
 20
3047.753046383292
 30
0.0
 41
30.0
 42
30.0
 43
30.0
 50
90.0
  0
MTEXT
  5
AD47
330
AD41
100
AcDbEntity
  8
01-寸法線
 62
     4
440
 16777216
 48
0.5
100
AcDbMText
 10
-7029.131490481038
 20
2047.753046383291
 30
0.0
 40
52.5
 41
0.0
 71
     5
 72
     1
  1
\A1;2000
  7
ｵﾘｼﾞﾅﾙｽﾀｲﾙ
 11
0.0000000000000001
 21
1.0
 31
0.0
 73
     1
 44
1.0
  0
POINT
  5
AD48
330
AD41
100
AcDbEntity
  8
DEFPOINTS
 62
     0
440
 16777216
 48
0.5
100
AcDbPoint
 10
-6695.381490481037
 20
1047.753046383292
 30
0.0
  0
POINT
  5
AD49
330
AD41
100
AcDbEntity
  8
DEFPOINTS
 62
     0
440
 16777216
 48
0.5
100
AcDbPoint
 10
-6695.381490481037
 20
3047.753046383292
 30
0.0
  0
POINT
  5
AD4A
330
AD41
100
AcDbEntity
  8
DEFPOINTS
 62
     0
440
 16777216
 48
0.5
100
AcDbPoint
 10
-6995.381490481037
 20
3047.753046383292
 30
0.0
  0
ENDBLK
  5
AD4C
330
AD41
100
AcDbEntity
  8
0
 48
0.5
100
AcDbBlockEnd
  0
BLOCK
  5
ADF4
330
ADEA
100
AcDbEntity
  8
0
 48
0.5
100
AcDbBlockBegin
  2
*D20
 70
     1
 10
0.0
 20
0.0
 30
0.0
  3
*D20
  1

  0
LINE
  5
AFB7
330
ADEA
100
AcDbEntity
  8
01-寸法線
 62
     4
440
 16777216
 48
0.5
370
     9
100
AcDbLine
 10
-1705.629630970537
 20
4212.777860432241
 30
0.0
 11
-1675.778515264237
 21
4209.792748861612
 31
0.0
  0
LINE
  5
AFB8
330
ADEA
100
AcDbEntity
  8
01-寸法線
 62
     4
440
 16777216
 48
0.5
370
     9
100
AcDbLine
 10
-1785.232606187339
 20
4220.73815795392
 30
0.0
 11
-1884.93533264638
 21
4230.708430599823
 31
0.0
  0
LINE
  5
AFB9
330
ADEA
100
AcDbEntity
  8
01-寸法線
 62
     4
440
 16777216
 48
0.5
370
     9
100
AcDbLine
 10
-1735.480746676837
 20
4215.76297200287
 30
0.0
 11
-1755.38149048104
 21
4217.753046383291
 31
0.0
  0
INSERT
  5
AFBA
330
ADEA
100
AcDbEntity
  8
01-寸法線
 62
     4
440
 16777216
 48
0.5
370
     9
100
AcDbBlockReference
  2
_OPEN
 10
-1735.480746676837
 20
4215.76297200287
 30
0.0
 41
30.0
 42
30.0
 43
30.0
 50
174.289406862501
  0
INSERT
  5
AFBB
330
ADEA
100
AcDbEntity
  8
01-寸法線
 62
     4
440
 16777216
 48
0.5
370
     9
100
AcDbBlockReference
  2
_OPEN
 10
-1755.38149048104
 20
4217.753046383291
 30
0.0
 41
30.0
 42
30.0
 43
30.0
 50
354.289406862501
  0
MTEXT
  5
AFBC
330
ADEA
100
AcDbEntity
  8
01-寸法線
 62
     4
440
 16777216
 48
0.5
100
AcDbMText
 10
-1846.651276753052
 20
4260.798355231774
 30
0.0
 40
52.5
 41
0.0
 71
     5
 72
     1
  1
\A1;20
  7
ｵﾘｼﾞﾅﾙｽﾀｲﾙ
 11
0.9950371902099904
 21
-0.0995037190209873
 31
0.0
 73
     1
 44
1.0
  0
POINT
  5
AFBD
330
ADEA
100
AcDbEntity
  8
DEFPOINTS
 62
     0
440
 16777216
 48
0.5
100
AcDbPoint
 10
-1735.480746676837
 20
4215.76297200287
 30
0.0
  0
POINT
  5
AFBE
330
ADEA
100
AcDbEntity
  8
DEFPOINTS
 62
     0
440
 16777216
 48
0.5
100
AcDbPoint
 10
-1755.381490481039
 20
4217.753046383291
 30
0.0
  0
POINT
  5
AFBF
330
ADEA
100
AcDbEntity
  8
DEFPOINTS
 62
     0
440
 16777216
 48
0.5
100
AcDbPoint
 10
-1755.38149048104
 20
4217.753046383291
 30
0.0
  0
ENDBLK
  5
ADF5
330
ADEA
100
AcDbEntity
  8
0
 48
0.5
100
AcDbBlockEnd
  0
BLOCK
  5
AE6B
330
AE5F
100
AcDbEntity
  8
0
 48
0.5
100
AcDbBlockBegin
  2
*D21
 70
     1
 10
0.0
 20
0.0
 30
0.0
  3
*D21
  1

  0
LINE
  5
AFAC
330
AE5F
100
AcDbEntity
  8
01-寸法線
 62
     4
440
 16777216
 48
0.5
370
     9
100
AcDbLine
 10
-1435.381490481037
 20
3517.753046383293
 30
0.0
 11
-1235.381490481037
 21
3517.753046383293
 31
0.0
  0
LINE
  5
AFAD
330
AE5F
100
AcDbEntity
  8
01-寸法線
 62
     4
440
 16777216
 48
0.5
370
     9
100
AcDbLine
 10
-1435.381490481037
 20
3522.753046383292
 30
0.0
 11
-1235.381490481037
 21
3522.753046383292
 31
0.0
  0
LINE
  5
AFAE
330
AE5F
100
AcDbEntity
  8
01-寸法線
 62
     4
440
 16777216
 48
0.5
370
     9
100
AcDbLine
 10
-1250.381490481037
 20
3487.753046383293
 30
0.0
 11
-1250.381490481037
 21
3457.753046383292
 31
0.0
  0
LINE
  5
AFAF
330
AE5F
100
AcDbEntity
  8
01-寸法線
 62
     4
440
 16777216
 48
0.5
370
     9
100
AcDbLine
 10
-1250.381490481037
 20
3552.753046383293
 30
0.0
 11
-1250.381490481037
 21
3621.033046383292
 31
0.0
  0
LINE
  5
AFB0
330
AE5F
100
AcDbEntity
  8
01-寸法線
 62
     4
440
 16777216
 48
0.5
370
     9
100
AcDbLine
 10
-1250.381490481037
 20
3517.753046383293
 30
0.0
 11
-1250.381490481037
 21
3522.753046383292
 31
0.0
  0
INSERT
  5
AFB1
330
AE5F
100
AcDbEntity
  8
01-寸法線
 62
     4
440
 16777216
 48
0.5
370
     9
100
AcDbBlockReference
  2
_OPEN
 10
-1250.381490481037
 20
3517.753046383293
 30
0.0
 41
30.0
 42
30.0
 43
30.0
 50
90.0
  0
INSERT
  5
AFB2
330
AE5F
100
AcDbEntity
  8
01-寸法線
 62
     4
440
 16777216
 48
0.5
370
     9
100
AcDbBlockReference
  2
_OPEN
 10
-1250.381490481037
 20
3522.753046383292
 30
0.0
 41
30.0
 42
30.0
 43
30.0
 50
270.0
  0
MTEXT
  5
AFB3
330
AE5F
100
AcDbEntity
  8
01-寸法線
 62
     4
440
 16777216
 48
0.5
100
AcDbMText
 10
-1284.131490481037
 20
3601.893046383292
 30
0.0
 40
52.5
 41
0.0
 71
     5
 72
     1
  1
\A1;5
  7
ｵﾘｼﾞﾅﾙｽﾀｲﾙ
 11
0.0000000000000001
 21
1.0
 31
0.0
 73
     1
 44
1.0
  0
POINT
  5
AFB4
330
AE5F
100
AcDbEntity
  8
DEFPOINTS
 62
     0
440
 16777216
 48
0.5
100
AcDbPoint
 10
-1450.381490481037
 20
3517.753046383293
 30
0.0
  0
POINT
  5
AFB5
330
AE5F
100
AcDbEntity
  8
DEFPOINTS
 62
     0
440
 16777216
 48
0.5
100
AcDbPoint
 10
-1450.381490481037
 20
3522.753046383292
 30
0.0
  0
POINT
  5
AFB6
330
AE5F
100
AcDbEntity
  8
DEFPOINTS
 62
     0
440
 16777216
 48
0.5
100
AcDbPoint
 10
-1250.381490481037
 20
3522.753046383292
 30
0.0
  0
ENDBLK
  5
AE6C
330
AE5F
100
AcDbEntity
  8
0
 48
0.5
100
AcDbBlockEnd
  0
BLOCK
  5
AF72
330
AF66
100
AcDbEntity
  8
0
 48
0.5
100
AcDbBlockBegin
  2
*D22
 70
     1
 10
0.0
 20
0.0
 30
0.0
  3
*D22
  1

  0
LINE
  5
AFC0
330
AF66
100
AcDbEntity
  8
01-寸法線
 62
     4
440
 16777216
 48
0.5
370
     9
100
AcDbLine
 10
-950.3814904810372
 20
4332.753046383292
 30
0.0
 11
-950.3814904810372
 21
4532.753046383292
 31
0.0
  0
LINE
  5
AFC1
330
AF66
100
AcDbEntity
  8
01-寸法線
 62
     4
440
 16777216
 48
0.5
370
     9
100
AcDbLine
 10
-955.3814904810362
 20
4332.75304638329
 30
0.0
 11
-955.3814904810362
 21
4532.753046383292
 31
0.0
  0
LINE
  5
AFC2
330
AF66
100
AcDbEntity
  8
01-寸法線
 62
     4
440
 16777216
 48
0.5
370
     9
100
AcDbLine
 10
-920.3814904810371
 20
4517.753046383291
 30
0.0
 11
-890.3814904810372
 21
4517.753046383291
 31
0.0
  0
LINE
  5
AFC3
330
AF66
100
AcDbEntity
  8
01-寸法線
 62
     4
440
 16777216
 48
0.5
370
     9
100
AcDbLine
 10
-985.3814904810363
 20
4517.753046383291
 30
0.0
 11
-1053.661490481036
 21
4517.753046383291
 31
0.0
  0
LINE
  5
AFC4
330
AF66
100
AcDbEntity
  8
01-寸法線
 62
     4
440
 16777216
 48
0.5
370
     9
100
AcDbLine
 10
-950.3814904810372
 20
4517.753046383291
 30
0.0
 11
-955.3814904810362
 21
4517.753046383291
 31
0.0
  0
INSERT
  5
AFC5
330
AF66
100
AcDbEntity
  8
01-寸法線
 62
     4
440
 16777216
 48
0.5
370
     9
100
AcDbBlockReference
  2
_OPEN
 10
-950.3814904810372
 20
4517.753046383291
 30
0.0
 41
30.0
 42
30.0
 43
30.0
 50
180.0
  0
INSERT
  5
AFC6
330
AF66
100
AcDbEntity
  8
01-寸法線
 62
     4
440
 16777216
 48
0.5
370
     9
100
AcDbBlockReference
  2
_OPEN
 10
-955.3814904810362
 20
4517.753046383291
 30
0.0
 41
30.0
 42
30.0
 43
30.0
  0
MTEXT
  5
AFC7
330
AF66
100
AcDbEntity
  8
01-寸法線
 62
     4
440
 16777216
 48
0.5
100
AcDbMText
 10
-1034.521490481036
 20
4551.503046383292
 30
0.0
 40
52.5
 41
0.0
 71
     5
 72
     1
  1
\A1;5
  7
ｵﾘｼﾞﾅﾙｽﾀｲﾙ
 73
     1
 44
1.0
  0
POINT
  5
AFC8
330
AF66
100
AcDbEntity
  8
DEFPOINTS
 62
     0
440
 16777216
 48
0.5
100
AcDbPoint
 10
-950.3814904810372
 20
4317.753046383291
 30
0.0
  0
POINT
  5
AFC9
330
AF66
100
AcDbEntity
  8
DEFPOINTS
 62
     0
440
 16777216
 48
0.5
100
AcDbPoint
 10
-955.3814904810362
 20
4317.75304638329
 30
0.0
  0
POINT
  5
AFCA
330
AF66
100
AcDbEntity
  8
DEFPOINTS
 62
     0
440
 16777216
 48
0.5
100
AcDbPoint
 10
-955.3814904810362
 20
4517.753046383291
 30
0.0
  0
ENDBLK
  5
AF73
330
AF66
100
AcDbEntity
  8
0
 48
0.5
100
AcDbBlockEnd
  0
BLOCK
  5
C597
330
C58B
100
AcDbEntity
  8
0
 48
0.5
100
AcDbBlockBegin
  2
*D23
 70
     1
 10
0.0
 20
0.0
 30
0.0
  3
*D23
  1

  0
LINE
  5
C58C
330
C58B
100
AcDbEntity
  8
01-寸法線
 62
     4
440
 16777216
 48
0.5
370
     9
100
AcDbLine
 10
-5180.381490481035
 20
4147.753046383292
 30
0.0
 11
-5380.381490481036
 21
4147.753046383292
 31
0.0
  0
LINE
  5
C58D
330
C58B
100
AcDbEntity
  8
01-寸法線
 62
     4
440
 16777216
 48
0.5
370
     9
100
AcDbLine
 10
-5180.381490481035
 20
4192.753046383291
 30
0.0
 11
-5380.381490481036
 21
4192.753046383291
 31
0.0
  0
LINE
  5
C58E
330
C58B
100
AcDbEntity
  8
01-寸法線
 62
     4
440
 16777216
 48
0.5
370
     9
100
AcDbLine
 10
-5365.381490481036
 20
4117.753046383291
 30
0.0
 11
-5365.381490481036
 21
4087.753046383292
 31
0.0
  0
LINE
  5
C58F
330
C58B
100
AcDbEntity
  8
01-寸法線
 62
     4
440
 16777216
 48
0.5
370
     9
100
AcDbLine
 10
-5365.381490481036
 20
4222.753046383291
 30
0.0
 11
-5365.381490481036
 21
4323.193046383291
 31
0.0
  0
LINE
  5
C590
330
C58B
100
AcDbEntity
  8
01-寸法線
 62
     4
440
 16777216
 48
0.5
370
     9
100
AcDbLine
 10
-5365.381490481036
 20
4147.753046383292
 30
0.0
 11
-5365.381490481036
 21
4192.753046383291
 31
0.0
  0
INSERT
  5
C591
330
C58B
100
AcDbEntity
  8
01-寸法線
 62
     4
440
 16777216
 48
0.5
370
     9
100
AcDbBlockReference
  2
_OPEN
 10
-5365.381490481036
 20
4147.753046383292
 30
0.0
 41
30.0
 42
30.0
 43
30.0
 50
90.0
  0
INSERT
  5
C592
330
C58B
100
AcDbEntity
  8
01-寸法線
 62
     4
440
 16777216
 48
0.5
370
     9
100
AcDbBlockReference
  2
_OPEN
 10
-5365.381490481036
 20
4192.753046383291
 30
0.0
 41
30.0
 42
30.0
 43
30.0
 50
270.0
  0
MTEXT
  5
C593
330
C58B
100
AcDbEntity
  8
01-寸法線
 62
     4
440
 16777216
 48
0.5
100
AcDbMText
 10
-5399.131490481037
 20
4287.973046383291
 30
0.0
 40
52.5
 41
0.0
 71
     5
 72
     1
  1
\A1;45
  7
ｵﾘｼﾞﾅﾙｽﾀｲﾙ
 11
0.0000000000000001
 21
1.0
 31
0.0
 73
     1
 44
1.0
  0
POINT
  5
C594
330
C58B
100
AcDbEntity
  8
DEFPOINTS
 62
     0
440
 16777216
 48
0.5
100
AcDbPoint
 10
-5165.381490481036
 20
4147.753046383292
 30
0.0
  0
POINT
  5
C595
330
C58B
100
AcDbEntity
  8
DEFPOINTS
 62
     0
440
 16777216
 48
0.5
100
AcDbPoint
 10
-5165.381490481036
 20
4192.753046383291
 30
0.0
  0
POINT
  5
C596
330
C58B
100
AcDbEntity
  8
DEFPOINTS
 62
     0
440
 16777216
 48
0.5
100
AcDbPoint
 10
-5365.381490481036
 20
4192.753046383291
 30
0.0
  0
ENDBLK
  5
C598
330
C58B
100
AcDbEntity
  8
0
 48
0.5
100
AcDbBlockEnd
  0
BLOCK
  5
C5ED
330
C5E3
100
AcDbEntity
  8
0
 48
0.5
100
AcDbBlockBegin
  2
*D24
 70
     1
 10
0.0
 20
0.0
 30
0.0
  3
*D24
  1

  0
LINE
  5
C5E4
330
C5E3
100
AcDbEntity
  8
01-寸法線
 62
     4
440
 16777216
 48
0.5
370
     9
100
AcDbLine
 10
-5165.381490481036
 20
4132.753046383291
 30
0.0
 11
-5165.381490481036
 21
3832.753046383292
 31
0.0
  0
LINE
  5
C5E5
330
C5E3
100
AcDbEntity
  8
01-寸法線
 62
     4
440
 16777216
 48
0.5
370
     9
100
AcDbLine
 10
-3165.381490481036
 20
4132.753046383291
 30
0.0
 11
-3165.381490481036
 21
3832.753046383292
 31
0.0
  0
LINE
  5
C5E6
330
C5E3
100
AcDbEntity
  8
01-寸法線
 62
     4
440
 16777216
 48
0.5
370
     9
100
AcDbLine
 10
-5135.381490481036
 20
3847.753046383292
 30
0.0
 11
-3195.381490481036
 21
3847.753046383292
 31
0.0
  0
INSERT
  5
C5E7
330
C5E3
100
AcDbEntity
  8
01-寸法線
 62
     4
440
 16777216
 48
0.5
370
     9
100
AcDbBlockReference
  2
_OPEN
 10
-5165.381490481036
 20
3847.753046383292
 30
0.0
 41
30.0
 42
30.0
 43
30.0
 50
180.0
  0
INSERT
  5
C5E8
330
C5E3
100
AcDbEntity
  8
01-寸法線
 62
     4
440
 16777216
 48
0.5
370
     9
100
AcDbBlockReference
  2
_OPEN
 10
-3165.381490481036
 20
3847.753046383292
 30
0.0
 41
30.0
 42
30.0
 43
30.0
  0
MTEXT
  5
C5E9
330
C5E3
100
AcDbEntity
  8
01-寸法線
 62
     4
440
 16777216
 48
0.5
100
AcDbMText
 10
-4165.381490481036
 20
3881.503046383292
 30
0.0
 40
52.5
 41
0.0
 71
     5
 72
     1
  1
\A1;2000
  7
ｵﾘｼﾞﾅﾙｽﾀｲﾙ
 73
     1
 44
1.0
  0
POINT
  5
C5EA
330
C5E3
100
AcDbEntity
  8
DEFPOINTS
 62
     0
440
 16777216
 48
0.5
100
AcDbPoint
 10
-5165.381490481036
 20
4147.753046383292
 30
0.0
  0
POINT
  5
C5EB
330
C5E3
100
AcDbEntity
  8
DEFPOINTS
 62
     0
440
 16777216
 48
0.5
100
AcDbPoint
 10
-3165.381490481036
 20
4147.753046383292
 30
0.0
  0
POINT
  5
C5EC
330
C5E3
100
AcDbEntity
  8
DEFPOINTS
 62
     0
440
 16777216
 48
0.5
100
AcDbPoint
 10
-3165.381490481036
 20
3847.753046383292
 30
0.0
  0
ENDBLK
  5
C5EE
330
C5E3
100
AcDbEntity
  8
0
 48
0.5
100
AcDbBlockEnd
  0
BLOCK
  5
C6A8
330
C69C
100
AcDbEntity
  8
0
 48
0.5
100
AcDbBlockBegin
  2
*D25
 70
     1
 10
0.0
 20
0.0
 30
0.0
  3
*D25
  1

  0
LINE
  5
C69D
330
C69C
100
AcDbEntity
  8
01-寸法線
 62
     4
440
 16777216
 48
0.5
370
     9
100
AcDbLine
 10
-3150.381490481036
 20
4297.753046383292
 30
0.0
 11
-2950.381490481036
 21
4297.753046383292
 31
0.0
  0
LINE
  5
C69E
330
C69C
100
AcDbEntity
  8
01-寸法線
 62
     4
440
 16777216
 48
0.5
370
     9
100
AcDbLine
 10
-3150.381490481036
 20
4272.753046383291
 30
0.0
 11
-2950.381490481036
 21
4272.753046383291
 31
0.0
  0
LINE
  5
C69F
330
C69C
100
AcDbEntity
  8
01-寸法線
 62
     4
440
 16777216
 48
0.5
370
     9
100
AcDbLine
 10
-2965.381490481036
 20
4327.753046383292
 30
0.0
 11
-2965.381490481036
 21
4357.753046383292
 31
0.0
  0
LINE
  5
C6A0
330
C69C
100
AcDbEntity
  8
01-寸法線
 62
     4
440
 16777216
 48
0.5
370
     9
100
AcDbLine
 10
-2965.381490481036
 20
4242.753046383291
 30
0.0
 11
-2965.381490481036
 21
4143.273046383291
 31
0.0
  0
LINE
  5
C6A1
330
C69C
100
AcDbEntity
  8
01-寸法線
 62
     4
440
 16777216
 48
0.5
370
     9
100
AcDbLine
 10
-2965.381490481036
 20
4297.753046383292
 30
0.0
 11
-2965.381490481036
 21
4272.753046383291
 31
0.0
  0
INSERT
  5
C6A2
330
C69C
100
AcDbEntity
  8
01-寸法線
 62
     4
440
 16777216
 48
0.5
370
     9
100
AcDbBlockReference
  2
_OPEN
 10
-2965.381490481036
 20
4297.753046383292
 30
0.0
 41
30.0
 42
30.0
 43
30.0
 50
270.0
  0
INSERT
  5
C6A3
330
C69C
100
AcDbEntity
  8
01-寸法線
 62
     4
440
 16777216
 48
0.5
370
     9
100
AcDbBlockReference
  2
_OPEN
 10
-2965.381490481036
 20
4272.753046383291
 30
0.0
 41
30.0
 42
30.0
 43
30.0
 50
90.0
  0
MTEXT
  5
C6A4
330
C69C
100
AcDbEntity
  8
01-寸法線
 62
     4
440
 16777216
 48
0.5
100
AcDbMText
 10
-2999.131490481037
 20
4178.01304638329
 30
0.0
 40
52.5
 41
0.0
 71
     5
 72
     1
  1
\A1;25
  7
ｵﾘｼﾞﾅﾙｽﾀｲﾙ
 11
0.0000000000000001
 21
1.0
 31
0.0
 73
     1
 44
1.0
  0
POINT
  5
C6A5
330
C69C
100
AcDbEntity
  8
DEFPOINTS
 62
     0
440
 16777216
 48
0.5
100
AcDbPoint
 10
-3165.381490481036
 20
4297.753046383292
 30
0.0
  0
POINT
  5
C6A6
330
C69C
100
AcDbEntity
  8
DEFPOINTS
 62
     0
440
 16777216
 48
0.5
100
AcDbPoint
 10
-3165.381490481036
 20
4272.753046383291
 30
0.0
  0
POINT
  5
C6A7
330
C69C
100
AcDbEntity
  8
DEFPOINTS
 62
     0
440
 16777216
 48
0.5
100
AcDbPoint
 10
-2965.381490481036
 20
4272.753046383291
 30
0.0
  0
ENDBLK
  5
C6A9
330
C69C
100
AcDbEntity
  8
0
 48
0.5
100
AcDbBlockEnd
  0
BLOCK
  5
D0E6
330
D0DC
100
AcDbEntity
  8
0
 48
0.5
100
AcDbBlockBegin
  2
*D26
 70
     1
 10
0.0
 20
0.0
 30
0.0
  3
*D26
  1

  0
LINE
  5
D126
330
D0DC
100
AcDbEntity
  8
01-寸法線
 62
     4
440
 16777216
 48
0.5
370
     9
100
AcDbLine
 10
-3560.381490481037
 20
2652.753046383292
 30
0.0
 11
-3560.381490481037
 21
3062.753046383292
 31
0.0
  0
LINE
  5
D127
330
D0DC
100
AcDbEntity
  8
01-寸法線
 62
     4
440
 16777216
 48
0.5
370
     9
100
AcDbLine
 10
-3470.381490481037
 20
2652.753046383292
 30
0.0
 11
-3470.381490481037
 21
3062.753046383292
 31
0.0
  0
LINE
  5
D128
330
D0DC
100
AcDbEntity
  8
01-寸法線
 62
     4
440
 16777216
 48
0.5
370
     9
100
AcDbLine
 10
-3530.381490481037
 20
3047.753046383292
 30
0.0
 11
-3500.381490481037
 21
3047.753046383292
 31
0.0
  0
INSERT
  5
D129
330
D0DC
100
AcDbEntity
  8
01-寸法線
 62
     4
440
 16777216
 48
0.5
370
     9
100
AcDbBlockReference
  2
_OPEN
 10
-3560.381490481037
 20
3047.753046383292
 30
0.0
 41
30.0
 42
30.0
 43
30.0
 50
180.0
  0
INSERT
  5
D12A
330
D0DC
100
AcDbEntity
  8
01-寸法線
 62
     4
440
 16777216
 48
0.5
370
     9
100
AcDbBlockReference
  2
_OPEN
 10
-3470.381490481037
 20
3047.753046383292
 30
0.0
 41
30.0
 42
30.0
 43
30.0
  0
MTEXT
  5
D12B
330
D0DC
100
AcDbEntity
  8
01-寸法線
 62
     4
440
 16777216
 48
0.5
100
AcDbMText
 10
-3515.381490481037
 20
3081.503046383292
 30
0.0
 40
52.5
 41
0.0
 71
     5
 72
     1
  1
\A1;30
  7
ｵﾘｼﾞﾅﾙｽﾀｲﾙ
 73
     1
 44
1.0
  0
POINT
  5
D12C
330
D0DC
100
AcDbEntity
  8
DEFPOINTS
 62
     0
440
 16777216
 48
0.5
100
AcDbPoint
 10
-3560.381490481037
 20
2637.753046383292
 30
0.0
  0
POINT
  5
D12D
330
D0DC
100
AcDbEntity
  8
DEFPOINTS
 62
     0
440
 16777216
 48
0.5
100
AcDbPoint
 10
-3470.381490481037
 20
2637.753046383292
 30
0.0
  0
POINT
  5
D12E
330
D0DC
100
AcDbEntity
  8
DEFPOINTS
 62
     0
440
 16777216
 48
0.5
100
AcDbPoint
 10
-3470.381490481037
 20
3047.753046383292
 30
0.0
  0
ENDBLK
  5
D0E7
330
D0DC
100
AcDbEntity
  8
0
 48
0.5
100
AcDbBlockEnd
  0
BLOCK
  5
D0F4
330
D0E8
100
AcDbEntity
  8
0
 48
0.5
100
AcDbBlockBegin
  2
*D27
 70
     1
 10
0.0
 20
0.0
 30
0.0
  3
*D27
  1

  0
LINE
  5
D12F
330
D0E8
100
AcDbEntity
  8
01-寸法線
 62
     4
440
 16777216
 48
0.5
370
     9
100
AcDbLine
 10
-3477.881490481037
 20
2660.253046383292
 30
0.0
 11
-3000.381490481037
 21
2660.253046383291
 31
0.0
  0
LINE
  5
D130
330
D0E8
100
AcDbEntity
  8
01-寸法線
 62
     4
440
 16777216
 48
0.5
370
     9
100
AcDbLine
 10
-3477.881490481037
 20
2615.253046383292
 30
0.0
 11
-3000.381490481037
 21
2615.253046383291
 31
0.0
  0
LINE
  5
D131
330
D0E8
100
AcDbEntity
  8
01-寸法線
 62
     4
440
 16777216
 48
0.5
370
     9
100
AcDbLine
 10
-3015.381490481037
 20
2585.253046383292
 30
0.0
 11
-3015.381490481037
 21
2555.253046383291
 31
0.0
  0
LINE
  5
D132
330
D0E8
100
AcDbEntity
  8
01-寸法線
 62
     4
440
 16777216
 48
0.5
370
     9
100
AcDbLine
 10
-3015.381490481037
 20
2690.253046383292
 30
0.0
 11
-3015.381490481037
 21
2785.893046383292
 31
0.0
  0
LINE
  5
D133
330
D0E8
100
AcDbEntity
  8
01-寸法線
 62
     4
440
 16777216
 48
0.5
370
     9
100
AcDbLine
 10
-3015.381490481037
 20
2615.253046383291
 30
0.0
 11
-3015.381490481037
 21
2660.253046383291
 31
0.0
  0
INSERT
  5
D134
330
D0E8
100
AcDbEntity
  8
01-寸法線
 62
     4
440
 16777216
 48
0.5
370
     9
100
AcDbBlockReference
  2
_OPEN
 10
-3015.381490481037
 20
2615.253046383291
 30
0.0
 41
30.0
 42
30.0
 43
30.0
 50
90.0
  0
INSERT
  5
D135
330
D0E8
100
AcDbEntity
  8
01-寸法線
 62
     4
440
 16777216
 48
0.5
370
     9
100
AcDbBlockReference
  2
_OPEN
 10
-3015.381490481037
 20
2660.253046383291
 30
0.0
 41
30.0
 42
30.0
 43
30.0
 50
270.0
  0
MTEXT
  5
D136
330
D0E8
100
AcDbEntity
  8
01-寸法線
 62
     4
440
 16777216
 48
0.5
100
AcDbMText
 10
-3049.131490481038
 20
2753.073046383291
 30
0.0
 40
52.5
 41
0.0
 71
     5
 72
     1
  1
\A1;15
  7
ｵﾘｼﾞﾅﾙｽﾀｲﾙ
 11
0.0000000000000001
 21
1.0
 31
0.0
 73
     1
 44
1.0
  0
POINT
  5
D137
330
D0E8
100
AcDbEntity
  8
DEFPOINTS
 62
     0
440
 16777216
 48
0.5
100
AcDbPoint
 10
-3492.881490481038
 20
2660.253046383292
 30
0.0
  0
POINT
  5
D138
330
D0E8
100
AcDbEntity
  8
DEFPOINTS
 62
     0
440
 16777216
 48
0.5
100
AcDbPoint
 10
-3492.881490481038
 20
2615.253046383292
 30
0.0
  0
POINT
  5
D139
330
D0E8
100
AcDbEntity
  8
DEFPOINTS
 62
     0
440
 16777216
 48
0.5
100
AcDbPoint
 10
-3015.381490481037
 20
2615.253046383291
 30
0.0
  0
ENDBLK
  5
D0F5
330
D0E8
100
AcDbEntity
  8
0
 48
0.5
100
AcDbBlockEnd
  0
BLOCK
  5
D100
330
D0F6
100
AcDbEntity
  8
0
 48
0.5
100
AcDbBlockBegin
  2
*D28
 70
     1
 10
0.0
 20
0.0
 30
0.0
  3
*D28
  1

  0
LINE
  5
D13A
330
D0F6
100
AcDbEntity
  8
01-寸法線
 62
     4
440
 16777216
 48
0.5
370
     9
100
AcDbLine
 10
-3350.381490481037
 20
2577.753046383292
 30
0.0
 11
-2900.381490481037
 21
2577.753046383291
 31
0.0
  0
LINE
  5
D13B
330
D0F6
100
AcDbEntity
  8
01-寸法線
 62
     4
440
 16777216
 48
0.5
370
     9
100
AcDbLine
 10
-3350.381490481037
 20
2697.753046383292
 30
0.0
 11
-2900.381490481037
 21
2697.753046383291
 31
0.0
  0
LINE
  5
D13C
330
D0F6
100
AcDbEntity
  8
01-寸法線
 62
     4
440
 16777216
 48
0.5
370
     9
100
AcDbLine
 10
-2915.381490481037
 20
2607.753046383292
 30
0.0
 11
-2915.381490481037
 21
2667.753046383291
 31
0.0
  0
INSERT
  5
D13D
330
D0F6
100
AcDbEntity
  8
01-寸法線
 62
     4
440
 16777216
 48
0.5
370
     9
100
AcDbBlockReference
  2
_OPEN
 10
-2915.381490481037
 20
2577.753046383291
 30
0.0
 41
30.0
 42
30.0
 43
30.0
 50
270.0
  0
INSERT
  5
D13E
330
D0F6
100
AcDbEntity
  8
01-寸法線
 62
     4
440
 16777216
 48
0.5
370
     9
100
AcDbBlockReference
  2
_OPEN
 10
-2915.381490481037
 20
2697.753046383291
 30
0.0
 41
30.0
 42
30.0
 43
30.0
 50
90.0
  0
MTEXT
  5
D13F
330
D0F6
100
AcDbEntity
  8
01-寸法線
 62
     4
440
 16777216
 48
0.5
100
AcDbMText
 10
-2949.131490481038
 20
2637.753046383291
 30
0.0
 40
52.5
 41
0.0
 71
     5
 72
     1
  1
\A1;40
  7
ｵﾘｼﾞﾅﾙｽﾀｲﾙ
 11
0.0000000000000001
 21
1.0
 31
0.0
 73
     1
 44
1.0
  0
POINT
  5
D140
330
D0F6
100
AcDbEntity
  8
DEFPOINTS
 62
     0
440
 16777216
 48
0.5
100
AcDbPoint
 10
-3365.381490481037
 20
2577.753046383292
 30
0.0
  0
POINT
  5
D141
330
D0F6
100
AcDbEntity
  8
DEFPOINTS
 62
     0
440
 16777216
 48
0.5
100
AcDbPoint
 10
-3365.381490481037
 20
2697.753046383292
 30
0.0
  0
POINT
  5
D142
330
D0F6
100
AcDbEntity
  8
DEFPOINTS
 62
     0
440
 16777216
 48
0.5
100
AcDbPoint
 10
-2915.381490481037
 20
2697.753046383291
 30
0.0
  0
ENDBLK
  5
D101
330
D0F6
100
AcDbEntity
  8
0
 48
0.5
100
AcDbBlockEnd
  0
BLOCK
  5
D10C
330
D102
100
AcDbEntity
  8
0
 48
0.5
100
AcDbBlockBegin
  2
*D29
 70
     1
 10
0.0
 20
0.0
 30
0.0
  3
*D29
  1

  0
LINE
  5
D143
330
D102
100
AcDbEntity
  8
01-寸法線
 62
     4
440
 16777216
 48
0.5
370
     9
100
AcDbLine
 10
-3965.381490481037
 20
2562.753046383292
 30
0.0
 11
-3965.381490481037
 21
2287.753046383292
 31
0.0
  0
LINE
  5
D144
330
D102
100
AcDbEntity
  8
01-寸法線
 62
     4
440
 16777216
 48
0.5
370
     9
100
AcDbLine
 10
-3740.381490481037
 20
2487.753046383292
 30
0.0
 11
-3740.381490481037
 21
2287.753046383292
 31
0.0
  0
LINE
  5
D145
330
D102
100
AcDbEntity
  8
01-寸法線
 62
     4
440
 16777216
 48
0.5
370
     9
100
AcDbLine
 10
-3935.381490481037
 20
2302.753046383292
 30
0.0
 11
-3770.381490481037
 21
2302.753046383292
 31
0.0
  0
INSERT
  5
D146
330
D102
100
AcDbEntity
  8
01-寸法線
 62
     4
440
 16777216
 48
0.5
370
     9
100
AcDbBlockReference
  2
_OPEN
 10
-3965.381490481037
 20
2302.753046383292
 30
0.0
 41
30.0
 42
30.0
 43
30.0
 50
180.0
  0
INSERT
  5
D147
330
D102
100
AcDbEntity
  8
01-寸法線
 62
     4
440
 16777216
 48
0.5
370
     9
100
AcDbBlockReference
  2
_OPEN
 10
-3740.381490481037
 20
2302.753046383292
 30
0.0
 41
30.0
 42
30.0
 43
30.0
  0
MTEXT
  5
D148
330
D102
100
AcDbEntity
  8
01-寸法線
 62
     4
440
 16777216
 48
0.5
100
AcDbMText
 10
-3852.881490481037
 20
2336.503046383292
 30
0.0
 40
52.5
 41
0.0
 71
     5
 72
     1
  1
\A1;75
  7
ｵﾘｼﾞﾅﾙｽﾀｲﾙ
 73
     1
 44
1.0
  0
POINT
  5
D149
330
D102
100
AcDbEntity
  8
DEFPOINTS
 62
     0
440
 16777216
 48
0.5
100
AcDbPoint
 10
-3965.381490481037
 20
2577.753046383292
 30
0.0
  0
POINT
  5
D14A
330
D102
100
AcDbEntity
  8
DEFPOINTS
 62
     0
440
 16777216
 48
0.5
100
AcDbPoint
 10
-3740.381490481037
 20
2502.753046383292
 30
0.0
  0
POINT
  5
D14B
330
D102
100
AcDbEntity
  8
DEFPOINTS
 62
     0
440
 16777216
 48
0.5
100
AcDbPoint
 10
-3740.381490481037
 20
2302.753046383292
 30
0.0
  0
ENDBLK
  5
D10D
330
D102
100
AcDbEntity
  8
0
 48
0.5
100
AcDbBlockEnd
  0
BLOCK
  5
D118
330
D10E
100
AcDbEntity
  8
0
 48
0.5
100
AcDbBlockBegin
  2
*D30
 70
     1
 10
0.0
 20
0.0
 30
0.0
  3
*D30
  1

  0
LINE
  5
D14C
330
D10E
100
AcDbEntity
  8
01-寸法線
 62
     4
440
 16777216
 48
0.5
370
     9
100
AcDbLine
 10
-3740.381490481037
 20
2487.753046383292
 30
0.0
 11
-3740.381490481037
 21
2287.753046383292
 31
0.0
  0
LINE
  5
D14D
330
D10E
100
AcDbEntity
  8
01-寸法線
 62
     4
440
 16777216
 48
0.5
370
     9
100
AcDbLine
 10
-3515.381490481037
 20
2562.753046383292
 30
0.0
 11
-3515.381490481037
 21
2287.753046383292
 31
0.0
  0
LINE
  5
D14E
330
D10E
100
AcDbEntity
  8
01-寸法線
 62
     4
440
 16777216
 48
0.5
370
     9
100
AcDbLine
 10
-3710.381490481037
 20
2302.753046383292
 30
0.0
 11
-3545.381490481037
 21
2302.753046383292
 31
0.0
  0
INSERT
  5
D14F
330
D10E
100
AcDbEntity
  8
01-寸法線
 62
     4
440
 16777216
 48
0.5
370
     9
100
AcDbBlockReference
  2
_OPEN
 10
-3740.381490481037
 20
2302.753046383292
 30
0.0
 41
30.0
 42
30.0
 43
30.0
 50
180.0
  0
INSERT
  5
D150
330
D10E
100
AcDbEntity
  8
01-寸法線
 62
     4
440
 16777216
 48
0.5
370
     9
100
AcDbBlockReference
  2
_OPEN
 10
-3515.381490481037
 20
2302.753046383292
 30
0.0
 41
30.0
 42
30.0
 43
30.0
  0
MTEXT
  5
D151
330
D10E
100
AcDbEntity
  8
01-寸法線
 62
     4
440
 16777216
 48
0.5
100
AcDbMText
 10
-3627.881490481037
 20
2336.503046383292
 30
0.0
 40
52.5
 41
0.0
 71
     5
 72
     1
  1
\A1;75
  7
ｵﾘｼﾞﾅﾙｽﾀｲﾙ
 73
     1
 44
1.0
  0
POINT
  5
D152
330
D10E
100
AcDbEntity
  8
DEFPOINTS
 62
     0
440
 16777216
 48
0.5
100
AcDbPoint
 10
-3740.381490481037
 20
2502.753046383292
 30
0.0
  0
POINT
  5
D153
330
D10E
100
AcDbEntity
  8
DEFPOINTS
 62
     0
440
 16777216
 48
0.5
100
AcDbPoint
 10
-3515.381490481037
 20
2577.753046383292
 30
0.0
  0
POINT
  5
D154
330
D10E
100
AcDbEntity
  8
DEFPOINTS
 62
     0
440
 16777216
 48
0.5
100
AcDbPoint
 10
-3515.381490481037
 20
2302.753046383292
 30
0.0
  0
ENDBLK
  5
D119
330
D10E
100
AcDbEntity
  8
0
 48
0.5
100
AcDbBlockEnd
  0
BLOCK
  5
D124
330
D11A
100
AcDbEntity
  8
0
 48
0.5
100
AcDbBlockBegin
  2
*D31
 70
     1
 10
0.0
 20
0.0
 30
0.0
  3
*D31
  1

  0
LINE
  5
D155
330
D11A
100
AcDbEntity
  8
01-寸法線
 62
     4
440
 16777216
 48
0.5
370
     9
100
AcDbLine
 10
-4115.381490481037
 20
2562.753046383292
 30
0.0
 11
-4115.381490481037
 21
2187.753046383292
 31
0.0
  0
LINE
  5
D156
330
D11A
100
AcDbEntity
  8
01-寸法線
 62
     4
440
 16777216
 48
0.5
370
     9
100
AcDbLine
 10
-3365.381490481037
 20
2562.753046383292
 30
0.0
 11
-3365.381490481037
 21
2187.753046383292
 31
0.0
  0
LINE
  5
D157
330
D11A
100
AcDbEntity
  8
01-寸法線
 62
     4
440
 16777216
 48
0.5
370
     9
100
AcDbLine
 10
-4085.381490481037
 20
2202.753046383291
 30
0.0
 11
-3395.381490481037
 21
2202.753046383291
 31
0.0
  0
INSERT
  5
D158
330
D11A
100
AcDbEntity
  8
01-寸法線
 62
     4
440
 16777216
 48
0.5
370
     9
100
AcDbBlockReference
  2
_OPEN
 10
-4115.381490481037
 20
2202.753046383291
 30
0.0
 41
30.0
 42
30.0
 43
30.0
 50
180.0
  0
INSERT
  5
D159
330
D11A
100
AcDbEntity
  8
01-寸法線
 62
     4
440
 16777216
 48
0.5
370
     9
100
AcDbBlockReference
  2
_OPEN
 10
-3365.381490481037
 20
2202.753046383291
 30
0.0
 41
30.0
 42
30.0
 43
30.0
  0
MTEXT
  5
D15A
330
D11A
100
AcDbEntity
  8
01-寸法線
 62
     4
440
 16777216
 48
0.5
100
AcDbMText
 10
-3740.381490481037
 20
2236.503046383291
 30
0.0
 40
52.5
 41
0.0
 71
     5
 72
     1
  1
\A1;250
  7
ｵﾘｼﾞﾅﾙｽﾀｲﾙ
 73
     1
 44
1.0
  0
POINT
  5
D15B
330
D11A
100
AcDbEntity
  8
DEFPOINTS
 62
     0
440
 16777216
 48
0.5
100
AcDbPoint
 10
-4115.381490481037
 20
2577.753046383292
 30
0.0
  0
POINT
  5
D15C
330
D11A
100
AcDbEntity
  8
DEFPOINTS
 62
     0
440
 16777216
 48
0.5
100
AcDbPoint
 10
-3365.381490481037
 20
2577.753046383292
 30
0.0
  0
POINT
  5
D15D
330
D11A
100
AcDbEntity
  8
DEFPOINTS
 62
     0
440
 16777216
 48
0.5
100
AcDbPoint
 10
-3365.381490481037
 20
2202.753046383291
 30
0.0
  0
ENDBLK
  5
D125
330
D11A
100
AcDbEntity
  8
0
 48
0.5
100
AcDbBlockEnd
  0
BLOCK
  5
D375
330
D374
100
AcDbEntity
  8
0
 48
0.5
100
AcDbBlockBegin
  2
*D36
 70
     1
 10
0.0
 20
0.0
 30
0.0
  3
*D36
  1

  0
LINE
  5
D392
330
D374
100
AcDbEntity
  8
01-寸法線
 62
     4
440
 16777216
 48
0.5
370
     9
100
AcDbLine
 10
-6380.381490481037
 20
3062.753046383292
 30
0.0
 11
-6380.381490481037
 21
3264.271140919067
 31
0.0
  0
LINE
  5
D393
330
D374
100
AcDbEntity
  8
01-寸法線
 62
     4
440
 16777216
 48
0.5
370
     9
100
AcDbLine
 10
-6490.381490481036
 20
3062.753046383291
 30
0.0
 11
-6490.381490481036
 21
3264.271140919067
 31
0.0
  0
LINE
  5
D394
330
D374
100
AcDbEntity
  8
01-寸法線
 62
     4
440
 16777216
 48
0.5
370
     9
100
AcDbLine
 10
-6410.381490481038
 20
3249.271140919067
 30
0.0
 11
-6460.381490481037
 21
3249.271140919067
 31
0.0
  0
INSERT
  5
D395
330
D374
100
AcDbEntity
  8
01-寸法線
 62
     4
440
 16777216
 48
0.5
370
     9
100
AcDbBlockReference
  2
_OPEN
 10
-6380.381490481037
 20
3249.271140919067
 30
0.0
 41
30.0
 42
30.0
 43
30.0
  0
INSERT
  5
D396
330
D374
100
AcDbEntity
  8
01-寸法線
 62
     4
440
 16777216
 48
0.5
370
     9
100
AcDbBlockReference
  2
_OPEN
 10
-6490.381490481036
 20
3249.271140919067
 30
0.0
 41
30.0
 42
30.0
 43
30.0
 50
180.0
  0
MTEXT
  5
D397
330
D374
100
AcDbEntity
  8
01-寸法線
 62
     4
440
 16777216
 48
0.5
100
AcDbMText
 10
-6435.381490481038
 20
3283.021140919067
 30
0.0
 40
52.5
 41
0.0
 71
     5
 72
     1
  1
\A1;110
  7
ｵﾘｼﾞﾅﾙｽﾀｲﾙ
 73
     1
 44
1.0
  0
POINT
  5
D398
330
D374
100
AcDbEntity
  8
DEFPOINTS
 62
     0
440
 16777216
 48
0.5
100
AcDbPoint
 10
-6380.381490481037
 20
3047.753046383292
 30
0.0
  0
POINT
  5
D399
330
D374
100
AcDbEntity
  8
DEFPOINTS
 62
     0
440
 16777216
 48
0.5
100
AcDbPoint
 10
-6490.381490481036
 20
3047.753046383291
 30
0.0
  0
POINT
  5
D39A
330
D374
100
AcDbEntity
  8
DEFPOINTS
 62
     0
440
 16777216
 48
0.5
100
AcDbPoint
 10
-6490.381490481036
 20
3249.271140919067
 30
0.0
  0
ENDBLK
  5
D376
330
D374
100
AcDbEntity
  8
0
 48
0.5
100
AcDbBlockEnd
  0
ENDSEC
  0
SECTION
  2
ENTITIES
  0
LINE
  5
8635
330
2
100
AcDbEntity
  8
DEFPOINTS
 48
0.5
100
AcDbLine
 10
-7865.381490481038
 20
189.7530463832918
 30
0.0
 11
114.618509518963
 21
189.7530463832918
 31
0.0
  0
LINE
  5
8636
330
2
100
AcDbEntity
  8
DEFPOINTS
 48
0.5
100
AcDbLine
 10
-7865.381490481038
 20
189.7530463832918
 30
0.0
 11
-7865.381490481038
 21
5832.753046383293
 31
0.0
  0
LINE
  5
8637
330
2
100
AcDbEntity
  8
DEFPOINTS
 48
0.5
100
AcDbLine
 10
-7865.381490481038
 20
5832.753046383292
 30
0.0
 11
114.6185095189636
 21
5832.753046383292
 31
0.0
  0
LINE
  5
863D
330
2
100
AcDbEntity
  8
11-外枠線
 48
0.5
100
AcDbLine
 10
-7580.381490481037
 20
5547.753046383292
 30
0.0
 11
-170.3814904810364
 21
5547.753046383292
 31
0.0
  0
LINE
  5
863E
330
2
100
AcDbEntity
  8
11-外枠線
 48
0.5
100
AcDbLine
 10
-170.3814904810364
 20
5547.753046383292
 30
0.0
 11
-170.3814904810369
 21
379.7530463832918
 31
0.0
  0
LINE
  5
863F
330
2
100
AcDbEntity
  8
11-外枠線
 48
0.5
100
AcDbLine
 10
-170.3814904810369
 20
379.7530463832918
 30
0.0
 11
-7580.381490481037
 21
379.7530463832918
 31
0.0
  0
LINE
  5
8640
330
2
100
AcDbEntity
  8
11-外枠線
 48
0.5
100
AcDbLine
 10
-7580.381490481037
 20
379.7530463832918
 30
0.0
 11
-7580.381490481037
 21
5547.753046383292
 31
0.0
  0
TEXT
  5
8713
330
2
100
AcDbEntity
  8
09-下線
100
AcDbText
 10
-7280.381490481037
 20
5264.210189240435
 30
0.0
 40
80.0
  1
%%Uベース付歩車道境界ブロック－Ｂ(防草タイプ)
  7
ｵﾘｼﾞﾅﾙｽﾀｲﾙ
 11
-7280.381490481037
 21
5247.753046383292
 31
0.0
100
AcDbText
 73
     1
  0
LINE
  5
8C1B
330
2
100
AcDbEntity
  8
03-隠れ線
 48
0.5
100
AcDbLine
 10
-3170.381490481036
 20
4277.753046383291
 30
0.0
 11
-3165.381490481036
 21
4272.753046383291
 31
0.0
  0
LINE
  5
8C1E
330
2
100
AcDbEntity
  8
02-外形線
 48
0.5
100
AcDbLine
 10
-3165.381490481036
 20
4472.753046383291
 30
0.0
 11
-3165.381490481036
 21
4147.753046383292
 31
0.0
  0
LINE
  5
8C1F
330
2
100
AcDbEntity
  8
02-外形線
 48
0.5
100
AcDbLine
 10
-3170.381490481035
 20
4497.753046383291
 30
0.0
 11
-5165.381490481036
 21
4497.753046383292
 31
0.0
  0
LINE
  5
8C20
330
2
100
AcDbEntity
  8
02-外形線
 48
0.5
100
AcDbLine
 10
-5165.381490481035
 20
4497.753046383292
 30
0.0
 11
-5165.381490481036
 21
4147.753046383292
 31
0.0
  0
LINE
  5
8C21
330
2
100
AcDbEntity
  8
02-外形線
 48
0.5
100
AcDbLine
 10
-5165.381490481036
 20
4147.753046383292
 30
0.0
 11
-3165.381490481036
 21
4147.753046383292
 31
0.0
  0
LINE
  5
8C26
330
2
100
AcDbEntity
  8
01-寸法線
 48
0.5
100
AcDbLine
 10
-3170.381490481036
 20
4487.753046383292
 30
0.0
 11
-3070.381490481036
 21
4587.753046383292
 31
0.0
  0
CIRCLE
  5
8C2C
330
2
100
AcDbEntity
  8
02-外形線
 48
0.5
100
AcDbCircle
 10
-5090.381490481036
 20
4192.753046383291
 30
0.0
 40
8.5
  0
CIRCLE
  5
8C2D
330
2
100
AcDbEntity
  8
03-隠れ線
 48
0.5
100
AcDbCircle
 10
-5090.381490481036
 20
4192.753046383291
 30
0.0
 40
14.0
  0
CIRCLE
  5
8C2E
330
2
100
AcDbEntity
  8
03-隠れ線
 48
0.5
100
AcDbCircle
 10
-3240.381490481036
 20
4192.753046383291
 30
0.0
 40
14.0
  0
CIRCLE
  5
8C2F
330
2
100
AcDbEntity
  8
02-外形線
 48
0.5
100
AcDbCircle
 10
-3240.381490481036
 20
4192.753046383291
 30
0.0
 40
8.5
  0
TEXT
  5
8C64
330
2
100
AcDbEntity
  8
08-下線
100
AcDbText
 10
-3041.381490481036
 20
4598.553046383292
 30
0.0
 40
52.5
  1
ｼｰﾙ溝
  7
ｵﾘｼﾞﾅﾙｽﾀｲﾙ
 72
     1
 11
-2945.381490481036
 21
4587.753046383292
 31
0.0
100
AcDbText
 73
     1
  0
LINE
  5
8C65
330
2
100
AcDbEntity
  8
01-寸法線
 48
0.5
100
AcDbLine
 10
-3070.381490481036
 20
4587.753046383292
 30
0.0
 11
-2820.381490481036
 21
4587.753046383292
 31
0.0
  0
INSERT
  5
8C6A
330
2
100
AcDbEntity
  8
01-寸法線
 62
     4
 48
0.5
370
    13
100
AcDbBlockReference
  2
_OPEN
 10
-3170.381490481036
 20
4487.753046383292
 30
0.0
 41
30.0
 42
30.0
 43
30.0
 50
225.0
  0
LINE
  5
8CCB
330
2
100
AcDbEntity
  8
01-寸法線
 48
0.5
100
AcDbLine
 10
-5086.131490481037
 20
4200.114262315459
 30
0.0
 11
-4798.819604540274
 21
4697.753046383293
 31
0.0
  0
LINE
  5
8CCD
330
2
100
AcDbEntity
  8
01-寸法線
 48
0.5
100
AcDbLine
 10
-4798.819604540274
 20
4697.753046383293
 30
0.0
 11
-4168.819604540274
 21
4697.753046383293
 31
0.0
  0
TEXT
  5
8CCE
330
2
100
AcDbEntity
  8
08-下線
100
AcDbText
 10
-4771.819604540275
 20
4708.553046383293
 30
0.0
 40
52.5
  1
連結用ｲﾝｻｰﾄ M12
  7
ｵﾘｼﾞﾅﾙｽﾀｲﾙ
 72
     4
 11
-4483.819604540275
 21
4735.703046383293
 31
0.0
100
AcDbText
  0
TEXT
  5
8CD5
330
2
100
AcDbEntity
  8
08-下線
100
AcDbText
 10
-4637.419604540275
 20
4633.103046383293
 30
0.0
 40
52.5
  1
(２箇所)
  7
ｵﾘｼﾞﾅﾙｽﾀｲﾙ
 72
     4
 11
-4483.819604540275
 21
4659.803046383294
 31
0.0
100
AcDbText
  0
INSERT
  5
8CF9
330
2
100
AcDbEntity
  8
01-寸法線
 62
     4
 48
0.5
370
    13
100
AcDbBlockReference
  2
_OPEN
 10
-5086.131490481037
 20
4200.114262315459
 30
0.0
 41
30.0
 42
30.0
 43
30.0
 50
239.9999999999992
  0
LINE
  5
8DEA
102
{ACAD_REACTORS
330
8F84
102
}
330
2
100
AcDbEntity
  8
02-外形線
 48
0.5
100
AcDbLine
 10
-5615.381490481037
 20
2847.753046383292
 30
0.0
 11
-5015.381490481036
 21
2847.753046383292
 31
0.0
  0
LINE
  5
8DEC
330
2
100
AcDbEntity
  8
06-中心線
 48
0.5
100
AcDbLine
 10
-5615.381490481037
 20
2897.753046383292
 30
0.0
 11
-5615.381490481037
 21
2497.753046383293
 31
0.0
  0
LINE
  5
8DED
330
2
100
AcDbEntity
  8
06-中心線
 48
0.5
100
AcDbLine
 10
-5015.381490481036
 20
2897.753046383292
 30
0.0
 11
-5015.381490481036
 21
2497.753046383292
 31
0.0
  0
LINE
  5
8DEE
330
2
100
AcDbEntity
  8
06-中心線
 48
0.5
100
AcDbLine
 10
-5665.381490481037
 20
2547.753046383292
 30
0.0
 11
-4965.381490481036
 21
2547.753046383292
 31
0.0
  0
LINE
  5
8DFD
102
{ACAD_REACTORS
330
8F84
102
}
330
2
100
AcDbEntity
  8
02-外形線
 48
0.5
100
AcDbLine
 10
-5315.381490481037
 20
2847.753046383292
 30
0.0
 11
-5315.381490481037
 21
2547.753046383292
 31
0.0
  0
LINE
  5
8DFE
102
{ACAD_REACTORS
330
8F84
102
}
330
2
100
AcDbEntity
  8
02-外形線
 48
0.5
100
AcDbLine
 10
-5277.881490481036
 20
2847.753046383292
 30
0.0
 11
-5277.881490481036
 21
2697.753046383292
 31
0.0
  0
LINE
  5
8DFF
102
{ACAD_REACTORS
330
8F84
102
}
330
2
100
AcDbEntity
  8
02-外形線
 48
0.5
100
AcDbLine
 10
-5277.881490481036
 20
2697.753046383292
 30
0.0
 11
-5315.381490481037
 21
2660.253046383292
 31
0.0
  0
LINE
  5
8F39
330
2
100
AcDbEntity
  8
01-寸法線
 48
0.5
100
AcDbLine
 10
-5296.631490481036
 20
3047.753046383292
 30
0.0
 11
-5296.631490481036
 21
2847.753046383292
 31
0.0
  0
TEXT
  5
8F3A
330
2
100
AcDbEntity
  8
08-下線
100
AcDbText
 10
-5552.631490481036
 20
3059.603046383292
 30
0.0
 40
52.5
  1
ｼｰﾙ材
  7
ｵﾘｼﾞﾅﾙｽﾀｲﾙ
 72
     4
 11
-5456.631490481036
 21
3085.703046383292
 31
0.0
100
AcDbText
  0
LINE
  5
8F3B
330
2
100
AcDbEntity
  8
01-寸法線
 48
0.5
100
AcDbLine
 10
-5616.631490481037
 20
3047.753046383292
 30
0.0
 11
-5296.631490481036
 21
3047.753046383292
 31
0.0
  0
TEXT
  5
8F3C
330
2
100
AcDbEntity
  8
08-下線
100
AcDbText
 10
-5591.031490481037
 20
2982.203046383293
 30
0.0
 40
52.5
  1
(ｔ=17)
  7
ｵﾘｼﾞﾅﾙｽﾀｲﾙ
 72
     4
 11
-5456.631490481036
 21
3009.803046383292
 31
0.0
100
AcDbText
  0
INSERT
  5
8F41
330
2
100
AcDbEntity
  8
01-寸法線
 62
     4
 48
0.5
370
    13
100
AcDbBlockReference
  2
_OPEN
 10
-5296.631490481036
 20
2847.753046383292
 30
0.0
 41
30.0
 42
30.0
 43
30.0
 50
269.9999999999993
  0
HATCH
  5
8F84
330
2
100
AcDbEntity
  8
13-ﾊｯﾁ線
 48
0.5
100
AcDbHatch
 10
0.0
 20
0.0
 30
0.0
210
0.0
220
0.0
230
1.0
  2
ANSI37
 70
     0
 71
     1
 91
        1
 92
        7
 72
     0
 73
     1
 93
        4
 10
-5315.381490481037
 20
2847.753046383292
 10
-5315.381490481037
 20
2660.253046383293
 10
-5277.881490481036
 20
2697.753046383292
 10
-5277.881490481036
 20
2847.753046383292
 97
        4
330
8DEA
330
8DFD
330
8DFF
330
8DFE
 75
     0
 76
     1
 52
0.0
 41
300.0
 77
     0
 78
     2
 53
45.0
 43
-713.3224733528277
 44
665.0184799818835
 45
-26.51650429449553
 46
26.51650429449553
 79
     0
 53
135.0
 43
-713.3224733528277
 44
665.0184799818835
 45
-26.51650429449553
 46
-26.51650429449553
 79
     0
 47
1.66931800700684
 98
        1
 10
-5290.262874234612
 20
2624.525519756726
  0
TEXT
  5
8F86
330
2
100
AcDbEntity
  8
08-下線
100
AcDbText
 10
-5600.63863333818
 20
3336.124474954721
 30
0.0
 40
65.0
  1
%%U接合部詳細図
  7
ｵﾘｼﾞﾅﾙｽﾀｲﾙ
 72
     1
 11
-5315.381490481037
 21
3322.753046383292
 31
0.0
100
AcDbText
 73
     1
  0
TEXT
  5
8F88
330
2
100
AcDbEntity
  8
08-下線
100
AcDbText
 10
-5700.381490481037
 20
1646.503046383292
 30
0.0
 40
52.5
  1
製品ﾎﾞﾘｭｰﾑ
  7
ｵﾘｼﾞﾅﾙｽﾀｲﾙ
 11
-5700.381490481037
 21
1672.753046383292
 31
0.0
100
AcDbText
 73
     2
  0
TEXT
  5
8F89
330
2
100
AcDbEntity
  8
08-下線
100
AcDbText
 10
-5700.381490481037
 20
1446.503046383291
 30
0.0
 40
52.5
  1
製品重量
  7
ｵﾘｼﾞﾅﾙｽﾀｲﾙ
 11
-5700.381490481037
 21
1472.753046383292
 31
0.0
100
AcDbText
 73
     2
  0
TEXT
  5
8F8A
330
2
100
AcDbEntity
  8
08-下線
100
AcDbText
 10
-5242.381490481037
 20
1646.503046383292
 30
0.0
 40
52.5
  1
0.194
  7
ｵﾘｼﾞﾅﾙｽﾀｲﾙ
 72
     2
 11
-5050.381490481036
 21
1672.753046383292
 31
0.0
100
AcDbText
 73
     2
  0
TEXT
  5
8F8B
330
2
100
AcDbEntity
  8
08-下線
100
AcDbText
 10
-4961.981490481037
 20
1674.003046383292
 30
0.0
 40
25.0
  1
3
  7
ｵﾘｼﾞﾅﾙｽﾀｲﾙ
 11
-4961.981490481037
 21
1699.003046383292
 31
0.0
100
AcDbText
 73
     3
  0
TEXT
  5
8F8C
330
2
100
AcDbEntity
  8
08-下線
100
AcDbText
 10
-5000.381490481037
 20
1646.503046383292
 30
0.0
 40
52.5
  1
m
  7
ｵﾘｼﾞﾅﾙｽﾀｲﾙ
 11
-5000.381490481037
 21
1672.753046383292
 31
0.0
100
AcDbText
 73
     2
  0
LINE
  5
8F8E
330
2
100
AcDbEntity
  8
10-罫線
 48
0.5
100
AcDbLine
 10
-5765.381490481036
 20
1772.753046383291
 30
0.0
 11
-4865.381490481037
 21
1772.753046383291
 31
0.0
  0
LINE
  5
8F91
330
2
100
AcDbEntity
  8
10-罫線
 48
0.5
100
AcDbLine
 10
-5765.381490481036
 20
1372.753046383292
 30
0.0
 11
-4865.381490481037
 21
1372.753046383292
 31
0.0
  0
LINE
  5
8F93
330
2
100
AcDbEntity
  8
10-罫線
 48
0.5
100
AcDbLine
 10
-5765.381490481036
 20
1772.753046383291
 30
0.0
 11
-5765.381490481036
 21
1372.753046383292
 31
0.0
  0
TEXT
  5
8F95
330
2
100
AcDbEntity
  8
08-下線
100
AcDbText
 10
-5165.581490481037
 20
1446.503046383291
 30
0.0
 40
52.5
  1
465
  7
ｵﾘｼﾞﾅﾙｽﾀｲﾙ
 72
     2
 11
-5050.381490481036
 21
1472.753046383292
 31
0.0
100
AcDbText
 73
     2
  0
TEXT
  5
8F97
330
2
100
AcDbEntity
  8
08-下線
100
AcDbText
 10
-5000.381490481037
 20
1446.503046383291
 30
0.0
 40
52.5
  1
kg
  7
ｵﾘｼﾞﾅﾙｽﾀｲﾙ
 11
-5000.381490481037
 21
1472.753046383292
 31
0.0
100
AcDbText
 73
     2
  0
LINE
  5
8F98
330
2
100
AcDbEntity
  8
10-罫線
 48
0.5
100
AcDbLine
 10
-4865.381490481037
 20
1772.753046383291
 30
0.0
 11
-4865.381490481037
 21
1372.753046383292
 31
0.0
  0
TEXT
  5
938C
330
2
100
AcDbEntity
  8
08-下線
100
AcDbText
 10
-2351.581490481037
 20
2371.503046383292
 30
0.0
 40
52.5
  1
試 験 項 目
  7
ｵﾘｼﾞﾅﾙｽﾀｲﾙ
 72
     1
 11
-2140.381490481037
 21
2397.753046383292
 31
0.0
100
AcDbText
 73
     2
  0
LINE
  5
93A0
330
2
100
AcDbEntity
  8
10-罫線
 48
0.5
100
AcDbLine
 10
-2390.381490481037
 20
2047.753046383292
 30
0.0
 11
-320.381490481037
 21
2047.753046383292
 31
0.0
  0
LINE
  5
93A6
330
2
100
AcDbEntity
  8
10-罫線
 48
0.5
100
AcDbLine
 10
-2490.381490481037
 20
1747.753046383292
 30
0.0
 11
-320.381490481037
 21
1747.753046383292
 31
0.0
  0
LINE
  5
93B6
330
2
100
AcDbEntity
  8
10-罫線
 48
0.5
100
AcDbLine
 10
-2390.381490481037
 20
2847.753046383292
 30
0.0
 11
-2390.381490481037
 21
1747.753046383292
 31
0.0
  0
LINE
  5
93B7
330
2
100
AcDbEntity
  8
10-罫線
 48
0.5
100
AcDbLine
 10
-1890.381490481037
 20
2847.753046383292
 30
0.0
 11
-1890.381490481037
 21
1747.753046383292
 31
0.0
  0
LINE
  5
93B8
330
2
100
AcDbEntity
  8
10-罫線
 48
0.5
100
AcDbLine
 10
-2490.381490481037
 20
2847.753046383292
 30
0.0
 11
-2490.381490481037
 21
1747.753046383292
 31
0.0
  0
TEXT
  5
93BF
330
2
100
AcDbEntity
  8
08-下線
100
AcDbText
 10
-1851.181490481037
 20
2171.503046383292
 30
0.0
 40
52.5
  1
亀裂、削れ等異常なきこと
  7
ｵﾘｼﾞﾅﾙｽﾀｲﾙ
 72
     1
 11
-1390.381490481037
 21
2197.753046383292
 31
0.0
100
AcDbText
 73
     2
  0
LINE
  5
93C6
330
2
100
AcDbEntity
  8
10-罫線
 48
0.5
100
AcDbLine
 10
-1390.381490481037
 20
2847.753046383292
 30
0.0
 11
-1390.381490481037
 21
2447.753046383292
 31
0.0
  0
LINE
  5
93C7
330
2
100
AcDbEntity
  8
10-罫線
 48
0.5
100
AcDbLine
 10
-890.3814904810369
 20
2847.753046383292
 30
0.0
 11
-890.3814904810369
 21
1747.753046383292
 31
0.0
  0
TEXT
  5
93CB
330
2
100
AcDbEntity
  8
08-下線
100
AcDbText
 10
-874.1814904810368
 20
2171.503046383292
 30
0.0
 40
52.5
  1
る ｻﾝｼｬｲﾝｶｰﾎﾞﾝ
  7
ｵﾘｼﾞﾅﾙｽﾀｲﾙ
 72
     1
 11
-605.3814904810369
 21
2197.753046383292
 31
0.0
100
AcDbText
 73
     2
  0
LINE
  5
9429
330
2
100
AcDbEntity
  8
10-罫線
 48
0.5
100
AcDbLine
 10
-320.381490481037
 20
2847.753046383292
 30
0.0
 11
-320.381490481037
 21
1747.753046383292
 31
0.0
  0
TEXT
  5
942D
330
2
100
AcDbEntity
  8
08-下線
100
AcDbText
 10
-1851.181490481036
 20
1871.503046383292
 30
0.0
 40
52.5
  1
亀裂、破れ、溶け等
  7
ｵﾘｼﾞﾅﾙｽﾀｲﾙ
 11
-1851.181490481036
 21
1897.753046383291
 31
0.0
100
AcDbText
 73
     2
  0
TEXT
  5
942E
330
2
100
AcDbEntity
  8
08-下線
100
AcDbText
 10
-1543.981490481037
 20
1971.503046383292
 30
0.0
 40
52.5
  1
外観表面
  7
ｵﾘｼﾞﾅﾙｽﾀｲﾙ
 72
     1
 11
-1390.381490481037
 21
1997.753046383292
 31
0.0
100
AcDbText
 73
     2
  0
TEXT
  5
942F
330
2
100
AcDbEntity
  8
08-下線
100
AcDbText
 10
-1390.381490481036
 20
1771.503046383292
 30
0.0
 40
52.5
  1
異常なきこと
  7
ｵﾘｼﾞﾅﾙｽﾀｲﾙ
 72
     2
 11
-929.5814904810368
 21
1797.753046383292
 31
0.0
100
AcDbText
 73
     2
  0
TEXT
  5
9430
330
2
100
AcDbEntity
  8
08-下線
100
AcDbText
 10
-2332.381490481037
 20
1971.503046383292
 30
0.0
 40
52.5
  1
耐ｱｽﾌｧﾙﾄ性
  7
ｵﾘｼﾞﾅﾙｽﾀｲﾙ
 72
     1
 11
-2140.381490481037
 21
1997.753046383292
 31
0.0
100
AcDbText
 73
     2
  0
TEXT
  5
9431
330
2
100
AcDbEntity
  8
08-下線
100
AcDbText
 10
-874.1814904810372
 20
1971.503046383292
 30
0.0
 40
52.5
  1
185℃熱板で
  7
ｵﾘｼﾞﾅﾙｽﾀｲﾙ
 11
-874.1814904810372
 21
1997.753046383292
 31
0.0
100
AcDbText
 73
     2
  0
TEXT
  5
9432
330
2
100
AcDbEntity
  8
08-下線
100
AcDbText
 10
-682.1814904810367
 20
1871.503046383292
 30
0.0
 40
52.5
  1
1分間放置
  7
ｵﾘｼﾞﾅﾙｽﾀｲﾙ
 72
     2
 11
-336.5814904810368
 21
1897.753046383291
 31
0.0
100
AcDbText
 73
     2
  0
TEXT
  5
9437
330
2
100
AcDbEntity
  8
08-下線
100
AcDbText
 10
-2255.581490481037
 20
2271.503046383292
 30
0.0
 40
52.5
  1
耐候性
  7
ｵﾘｼﾞﾅﾙｽﾀｲﾙ
 72
     1
 11
-2140.381490481037
 21
2297.753046383292
 31
0.0
100
AcDbText
 73
     2
  0
TEXT
  5
9438
330
2
100
AcDbEntity
  8
08-下線
100
AcDbText
 10
-1543.981490481037
 20
2271.503046383292
 30
0.0
 40
52.5
  1
外観表面
  7
ｵﾘｼﾞﾅﾙｽﾀｲﾙ
 72
     1
 11
-1390.381490481037
 21
2297.753046383292
 31
0.0
100
AcDbText
 73
     2
  0
TEXT
  5
9439
330
2
100
AcDbEntity
  8
08-下線
100
AcDbText
 10
-2466.631490481037
 20
2328.153046383292
 30
0.0
 40
52.5
  1
製品性能試験
 50
270.0
  7
縦字ｽﾀｲﾙ
 72
     1
 11
-2440.381490481037
 21
2097.753046383292
 31
0.0
100
AcDbText
 73
     2
  0
LINE
  5
943F
330
2
100
AcDbEntity
  8
10-罫線
 48
0.5
100
AcDbLine
 10
-2390.381490481037
 20
2347.753046383292
 30
0.0
 11
-320.381490481037
 21
2347.753046383292
 31
0.0
  0
LINE
  5
9441
330
2
100
AcDbEntity
  8
10-罫線
 48
0.5
100
AcDbLine
 10
-2490.381490481037
 20
2447.753046383292
 30
0.0
 11
-320.381490481037
 21
2447.753046383292
 31
0.0
  0
LINE
  5
9443
330
2
100
AcDbEntity
  8
10-罫線
 48
0.5
100
AcDbLine
 10
-2390.381490481037
 20
2547.753046383292
 30
0.0
 11
-320.381490481037
 21
2547.753046383292
 31
0.0
  0
LINE
  5
9445
330
2
100
AcDbEntity
  8
10-罫線
 48
0.5
100
AcDbLine
 10
-2390.381490481037
 20
2647.753046383292
 30
0.0
 11
-320.381490481037
 21
2647.753046383292
 31
0.0
  0
LINE
  5
9447
330
2
100
AcDbEntity
  8
10-罫線
 48
0.5
100
AcDbLine
 10
-2390.381490481037
 20
2747.753046383292
 30
0.0
 11
-320.381490481037
 21
2747.753046383292
 31
0.0
  0
LINE
  5
9449
330
2
100
AcDbEntity
  8
10-罫線
 48
0.5
100
AcDbLine
 10
-2490.381490481037
 20
2847.753046383292
 30
0.0
 11
-320.381490481037
 21
2847.753046383292
 31
0.0
  0
TEXT
  5
944D
330
2
100
AcDbEntity
  8
08-下線
100
AcDbText
 10
-701.3814904810369
 20
2071.503046383292
 30
0.0
 40
52.5
  1
1000H
  7
ｵﾘｼﾞﾅﾙｽﾀｲﾙ
 72
     1
 11
-605.3814904810369
 21
2097.753046383292
 31
0.0
100
AcDbText
 73
     2
  0
TEXT
  5
944E
330
2
100
AcDbEntity
  8
08-下線
100
AcDbText
 10
-874.1814904810368
 20
2271.503046383292
 30
0.0
 40
52.5
  1
JIS K 6266によ
  7
ｵﾘｼﾞﾅﾙｽﾀｲﾙ
 72
     1
 11
-605.3814904810369
 21
2297.753046383292
 31
0.0
100
AcDbText
 73
     2
  0
TEXT
  5
94AB
330
2
100
AcDbEntity
  8
08-下線
100
AcDbText
 10
-1543.981490481037
 20
2371.503046383292
 30
0.0
 40
52.5
  1
規 格 値
  7
ｵﾘｼﾞﾅﾙｽﾀｲﾙ
 72
     1
 11
-1390.381490481037
 21
2397.753046383292
 31
0.0
100
AcDbText
 73
     2
  0
TEXT
  5
94AC
330
2
100
AcDbEntity
  8
08-下線
100
AcDbText
 10
-816.5814904810369
 20
2371.503046383292
 30
0.0
 40
52.5
  1
試 験 方 法
  7
ｵﾘｼﾞﾅﾙｽﾀｲﾙ
 72
     1
 11
-605.3814904810369
 21
2397.753046383292
 31
0.0
100
AcDbText
 73
     2
  0
TEXT
  5
94B4
330
2
100
AcDbEntity
  8
08-下線
100
AcDbText
 10
-2466.631490481037
 20
2801.353046383292
 30
0.0
 40
52.5
  1
一般物性
 50
270.0
  7
縦字ｽﾀｲﾙ
 72
     1
 11
-2440.381490481037
 21
2647.753046383292
 31
0.0
100
AcDbText
 73
     2
  0
TEXT
  5
94B6
330
2
100
AcDbEntity
  8
08-下線
100
AcDbText
 10
-2351.581490481037
 20
2771.503046383292
 30
0.0
 40
52.5
  1
試 験 項 目
  7
ｵﾘｼﾞﾅﾙｽﾀｲﾙ
 72
     1
 11
-2140.381490481037
 21
2797.753046383292
 31
0.0
100
AcDbText
 73
     2
  0
TEXT
  5
94BA
330
2
100
AcDbEntity
  8
08-下線
100
AcDbText
 10
-1857.03863333818
 20
3011.124474954721
 30
0.0
 40
65.0
  1
%%Uｼｰﾙ材の品質及び性能
  7
ｵﾘｼﾞﾅﾙｽﾀｲﾙ
 72
     1
 11
-1405.381490481037
 21
2997.753046383292
 31
0.0
100
AcDbText
 73
     1
  0
TEXT
  5
94BC
330
2
100
AcDbEntity
  8
08-下線
100
AcDbText
 10
-2293.981490481037
 20
2671.503046383292
 30
0.0
 40
52.5
  1
引張強さ
  7
ｵﾘｼﾞﾅﾙｽﾀｲﾙ
 72
     1
 11
-2140.381490481037
 21
2697.753046383292
 31
0.0
100
AcDbText
 73
     2
  0
TEXT
  5
94BD
330
2
100
AcDbEntity
  8
08-下線
100
AcDbText
 10
-2255.581490481037
 20
2571.503046383292
 30
0.0
 40
52.5
  1
伸び率
  7
ｵﾘｼﾞﾅﾙｽﾀｲﾙ
 72
     1
 11
-2140.381490481037
 21
2597.753046383292
 31
0.0
100
AcDbText
 73
     2
  0
TEXT
  5
94BE
330
2
100
AcDbEntity
  8
08-下線
100
AcDbText
 10
-2370.781490481037
 20
2471.503046383292
 30
0.0
 40
52.5
  1
50％圧縮硬さ
  7
ｵﾘｼﾞﾅﾙｽﾀｲﾙ
 72
     1
 11
-2140.381490481037
 21
2497.753046383292
 31
0.0
100
AcDbText
 73
     2
  0
TEXT
  5
94C6
330
2
100
AcDbEntity
  8
08-下線
100
AcDbText
 10
-1717.181490481037
 20
2671.503046383292
 30
0.0
 40
52.5
  1
N/mm
  7
ｵﾘｼﾞﾅﾙｽﾀｲﾙ
 72
     1
 11
-1640.381490481037
 21
2697.753046383292
 31
0.0
100
AcDbText
 73
     2
  0
TEXT
  5
94C7
330
2
100
AcDbEntity
  8
08-下線
100
AcDbText
 10
-1563.581490481038
 20
2699.003046383292
 30
0.0
 40
25.0
  1
2
  7
ｵﾘｼﾞﾅﾙｽﾀｲﾙ
 11
-1563.581490481038
 21
2724.003046383292
 31
0.0
100
AcDbText
 73
     3
  0
TEXT
  5
94CA
330
2
100
AcDbEntity
  8
08-下線
100
AcDbText
 10
-1736.381490481037
 20
2771.503046383292
 30
0.0
 40
52.5
  1
単 位
  7
ｵﾘｼﾞﾅﾙｽﾀｲﾙ
 72
     1
 11
-1640.381490481037
 21
2797.753046383292
 31
0.0
100
AcDbText
 73
     2
  0
TEXT
  5
94CC
330
2
100
AcDbEntity
  8
08-下線
100
AcDbText
 10
-1717.181490481037
 20
2471.503046383292
 30
0.0
 40
52.5
  1
N/mm
  7
ｵﾘｼﾞﾅﾙｽﾀｲﾙ
 72
     1
 11
-1640.381490481037
 21
2497.753046383292
 31
0.0
100
AcDbText
 73
     2
  0
TEXT
  5
94CD
330
2
100
AcDbEntity
  8
08-下線
100
AcDbText
 10
-1563.581490481038
 20
2499.003046383292
 30
0.0
 40
25.0
  1
2
  7
ｵﾘｼﾞﾅﾙｽﾀｲﾙ
 11
-1563.581490481038
 21
2524.003046383292
 31
0.0
100
AcDbText
 73
     3
  0
TEXT
  5
94CE
330
2
100
AcDbEntity
  8
08-下線
100
AcDbText
 10
-1678.781490481037
 20
2571.503046383292
 30
0.0
 40
52.5
  1
％
  7
ｵﾘｼﾞﾅﾙｽﾀｲﾙ
 72
     1
 11
-1640.381490481037
 21
2597.753046383292
 31
0.0
100
AcDbText
 73
     2
  0
TEXT
  5
94DB
330
2
100
AcDbEntity
  8
08-下線
100
AcDbText
 10
-1255.581490481037
 20
2771.503046383292
 30
0.0
 40
52.5
  1
規格値
  7
ｵﾘｼﾞﾅﾙｽﾀｲﾙ
 72
     1
 11
-1140.381490481037
 21
2797.753046383292
 31
0.0
100
AcDbText
 73
     2
  0
TEXT
  5
94DF
330
2
100
AcDbEntity
  8
08-下線
100
AcDbText
 10
-816.5814904810369
 20
2771.503046383292
 30
0.0
 40
52.5
  1
試 験 方 法
  7
ｵﾘｼﾞﾅﾙｽﾀｲﾙ
 72
     1
 11
-605.3814904810369
 21
2797.753046383292
 31
0.0
100
AcDbText
 73
     2
  0
TEXT
  5
94E0
330
2
100
AcDbEntity
  8
08-下線
100
AcDbText
 10
-797.3814904810369
 20
2671.503046383292
 30
0.0
 40
52.5
  1
JIS K 6767
  7
ｵﾘｼﾞﾅﾙｽﾀｲﾙ
 72
     1
 11
-605.3814904810369
 21
2697.753046383292
 31
0.0
100
AcDbText
 73
     2
  0
TEXT
  5
94E3
330
2
100
AcDbEntity
  8
08-下線
100
AcDbText
 10
-797.3814904810369
 20
2571.503046383292
 30
0.0
 40
52.5
  1
JIS K 6767
  7
ｵﾘｼﾞﾅﾙｽﾀｲﾙ
 72
     1
 11
-605.3814904810369
 21
2597.753046383292
 31
0.0
100
AcDbText
 73
     2
  0
TEXT
  5
94E4
330
2
100
AcDbEntity
  8
08-下線
100
AcDbText
 10
-797.3814904810369
 20
2471.503046383292
 30
0.0
 40
52.5
  1
JIS K 6767
  7
ｵﾘｼﾞﾅﾙｽﾀｲﾙ
 72
     1
 11
-605.3814904810369
 21
2497.753046383292
 31
0.0
100
AcDbText
 73
     2
  0
TEXT
  5
94E5
330
2
100
AcDbEntity
  8
08-下線
100
AcDbText
 10
-1293.981490481037
 20
2671.503046383292
 30
0.0
 40
52.5
  1
0.05以上
  7
ｵﾘｼﾞﾅﾙｽﾀｲﾙ
 72
     1
 11
-1140.381490481037
 21
2697.753046383292
 31
0.0
100
AcDbText
 73
     2
  0
TEXT
  5
94E6
330
2
100
AcDbEntity
  8
08-下線
100
AcDbText
 10
-1274.781490481037
 20
2571.503046383292
 30
0.0
 40
52.5
  1
100以上
  7
ｵﾘｼﾞﾅﾙｽﾀｲﾙ
 72
     1
 11
-1140.381490481037
 21
2597.753046383292
 31
0.0
100
AcDbText
 73
     2
  0
TEXT
  5
94E7
330
2
100
AcDbEntity
  8
08-下線
100
AcDbText
 10
-1293.981490481037
 20
2471.503046383292
 30
0.0
 40
52.5
  1
0.05以下
  7
ｵﾘｼﾞﾅﾙｽﾀｲﾙ
 72
     1
 11
-1140.381490481037
 21
2497.753046383292
 31
0.0
100
AcDbText
 73
     2
  0
TEXT
  5
9716
330
2
100
AcDbEntity
  8
08-下線
100
AcDbText
 10
-1738.181490481037
 20
4731.124474954721
 30
0.0
 40
65.0
  1
%%Uｼﾞｮｲﾝﾄ部詳細図
  7
ｵﾘｼﾞﾅﾙｽﾀｲﾙ
 72
     1
 11
-1405.381490481037
 21
4717.753046383291
 31
0.0
100
AcDbText
 73
     1
  0
LINE
  5
9F91
330
2
100
AcDbEntity
  8
02-外形線
 48
0.5
100
AcDbLine
 10
-3170.381490481036
 20
4477.753046383291
 30
0.0
 11
-3165.381490481036
 21
4472.753046383291
 31
0.0
  0
LINE
  5
9F9E
330
2
100
AcDbEntity
  8
02-外形線
 48
0.5
100
AcDbLine
 10
-3170.381490481036
 20
4277.753046383291
 30
0.0
 11
-3170.381490481036
 21
4497.753046383291
 31
0.0
  0
DIMENSION
  5
A07F
330
2
100
AcDbEntity
  8
01-寸法線
 48
0.5
100
AcDbDimension
  2
*D3
 10
-5277.881490481036
 20
2397.753046383293
 30
0.0
 11
-5198.741490481037
 21
2431.503046383292
 31
0.0
 70
    32
  1
5
 71
     5
 42
37.5
  3
スタイル15
100
AcDbAlignedDimension
 13
-5315.381490481037
 23
2547.753046383292
 33
0.0
 14
-5277.881490481036
 24
2697.753046383292
 34
0.0
100
AcDbRotatedDimension
  0
LINE
  5
AA94
330
2
100
AcDbEntity
  8
02-外形線
 48
0.5
100
AcDbLine
 10
-5165.381490481035
 20
4297.753046383292
 30
0.0
 11
-3170.381490481035
 21
4297.753046383292
 31
0.0
  0
DIMENSION
  5
AAD5
330
2
100
AcDbEntity
  8
01-寸法線
 48
0.5
100
AcDbDimension
  2
*D4
 10
-5090.381490481036
 20
4697.753046383292
 30
0.0
 11
-5127.881490481036
 21
4697.753046383292
 31
0.0
 70
   160
 71
     5
 42
75.0
  3
スタイル15
100
AcDbAlignedDimension
 13
-5165.381490481036
 23
4497.753046383292
 33
0.0
 14
-5090.381490481036
 24
4297.753046383292
 34
0.0
100
AcDbRotatedDimension
  0
DIMENSION
  5
AAE4
330
2
100
AcDbEntity
  8
01-寸法線
 48
0.5
100
AcDbDimension
  2
*D5
 10
-3165.381490481036
 20
4697.753046383292
 30
0.0
 11
-3202.881490481036
 21
4697.753046383292
 31
0.0
 70
   160
 71
     5
 42
75.0
  3
スタイル15
100
AcDbAlignedDimension
 13
-3240.381490481036
 23
4297.753046383292
 33
0.0
 14
-3165.381490481036
 24
4497.753046383292
 34
0.0
100
AcDbRotatedDimension
  0
DIMENSION
  5
AB37
330
2
100
AcDbEntity
  8
01-寸法線
 48
0.5
100
AcDbDimension
  2
*D6
 10
-4865.381490481037
 20
2847.753046383292
 30
0.0
 11
-4899.131490481038
 21
2772.753046383292
 31
0.0
 70
    32
  1
20
 71
     5
 42
150.0000000000004
  3
スタイル15
100
AcDbAlignedDimension
 13
-5277.881490481036
 23
2697.753046383292
 33
0.0
 14
-5015.381490481036
 24
2847.753046383292
 34
0.0
 50
90.0
100
AcDbRotatedDimension
  0
LINE
  5
AB5C
330
2
100
AcDbEntity
  8
02-外形線
 48
0.5
100
AcDbLine
 10
-6290.381490481036
 20
4297.753046383292
 30
0.0
 11
-6289.548157147704
 21
4272.753046383292
 31
0.0
  0
LINE
  5
AB5D
330
2
100
AcDbEntity
  8
02-外形線
 48
0.5
100
AcDbLine
 10
-6690.381490481037
 20
4297.753046383292
 30
0.0
 11
-6600.381490481037
 21
4297.753046383293
 31
0.0
  0
LINE
  5
AB5E
330
2
100
AcDbEntity
  8
02-外形線
 48
0.5
100
AcDbLine
 10
-6380.381490481037
 20
4297.739169057772
 30
0.0
 11
-6290.381490481037
 21
4297.739169057772
 31
0.0
  0
LINE
  5
AB5F
330
2
100
AcDbEntity
  8
02-外形線
 48
0.5
100
AcDbLine
 10
-6600.381490481037
 20
4297.753046383293
 30
0.0
 11
-6583.082979323973
 21
4470.738157953922
 31
0.0
  0
LINE
  5
AB60
330
2
100
AcDbEntity
  8
02-外形線
 48
0.5
100
AcDbLine
 10
-6553.231863617674
 20
4497.753046383293
 30
0.0
 11
-6427.5311173444
 21
4497.753046383293
 31
0.0
  0
LINE
  5
AB61
330
2
100
AcDbEntity
  8
02-外形線
 48
0.5
100
AcDbLine
 10
-6397.6800016381
 20
4470.738157953922
 30
0.0
 11
-6380.381490481037
 21
4297.753046383292
 31
0.0
  0
DIMENSION
  5
ABCB
330
2
100
AcDbEntity
  8
01-寸法線
 48
0.5
100
AcDbDimension
  2
*D7
 10
-6695.381490481037
 20
3947.753046383293
 30
0.0
 11
-6774.521490481037
 21
3981.503046383293
 31
0.0
 70
    32
 71
     5
 42
5.0
  3
スタイル15
100
AcDbAlignedDimension
 13
-6690.381490481037
 23
4147.753046383292
 33
0.0
 14
-6695.381490481037
 24
4147.753046383292
 34
0.0
100
AcDbRotatedDimension
  0
DIMENSION
  5
ABE9
330
2
100
AcDbEntity
  8
01-寸法線
 48
0.5
100
AcDbDimension
  2
*D8
 10
-6290.381490481037
 20
3947.753046383292
 30
0.0
 11
-6490.381490481038
 21
3981.503046383292
 31
0.0
 70
    32
 71
     5
 42
400.0
  3
スタイル15
100
AcDbAlignedDimension
 13
-6690.381490481037
 23
4147.753046383292
 33
0.0
 14
-6290.381490481037
 24
4147.753046383292
 34
0.0
100
AcDbRotatedDimension
  0
DIMENSION
  5
ABF6
330
2
100
AcDbEntity
  8
01-寸法線
 48
0.5
100
AcDbDimension
  2
*D9
 10
-6285.381490481037
 20
3847.753046383292
 30
0.0
 11
-6490.381490481038
 21
3881.503046383293
 31
0.0
 70
    32
 71
     5
 42
409.999999999999
  3
スタイル15
100
AcDbAlignedDimension
 13
-6695.381490481036
 23
3947.753046383293
 33
0.0
 14
-6285.381490481037
 24
3947.753046383292
 34
0.0
100
AcDbRotatedDimension
  0
LINE
  5
AC2C
330
2
100
AcDbEntity
  8
02-外形線
 48
0.5
100
AcDbLine
 10
-6695.381490481037
 20
4147.753046383292
 30
0.0
 11
-6285.381490481037
 21
4147.753046383292
 31
0.0
  0
DIMENSION
  5
AC2E
330
2
100
AcDbEntity
  8
01-寸法線
 48
0.5
100
AcDbDimension
  2
*D10
 10
-6285.381490481037
 20
3947.753046383292
 30
0.0
 11
-6206.241490481037
 21
3981.503046383292
 31
0.0
 70
    32
 71
     5
 42
5.0
  3
スタイル15
100
AcDbAlignedDimension
 13
-6290.381490481037
 23
4147.753046383292
 33
0.0
 14
-6285.381490481037
 24
4147.753046383292
 34
0.0
100
AcDbRotatedDimension
  0
DIMENSION
  5
AC3D
330
2
100
AcDbEntity
  8
01-寸法線
 48
0.5
100
AcDbDimension
  2
*D11
 10
-6895.381490481037
 20
4297.753046383293
 30
0.0
 11
-6929.131490481037
 21
4222.753046383291
 31
0.0
 70
    32
 71
     5
 42
150.0000000000009
  3
スタイル15
100
AcDbAlignedDimension
 13
-6695.381490481037
 23
4147.753046383292
 33
0.0
 14
-6690.381490481037
 24
4297.753046383293
 34
0.0
 50
90.0
100
AcDbRotatedDimension
  0
DIMENSION
  5
AC4A
330
2
100
AcDbEntity
  8
01-寸法線
 48
0.5
100
AcDbDimension
  2
*D12
 10
-6895.381490481037
 20
4497.753046383293
 30
0.0
 11
-6929.131490481037
 21
4397.753046383292
 31
0.0
 70
    32
 71
     5
 42
199.9999999999991
  3
スタイル15
100
AcDbAlignedDimension
 13
-6690.381490481037
 23
4297.753046383293
 33
0.0
 14
-6580.381490481037
 24
4497.753046383293
 34
0.0
 50
90.0
100
AcDbRotatedDimension
1001
ACAD
1000
DSTYLE
1002
{
1070
   279
1070
     1
1002
}
  0
DIMENSION
  5
AC57
330
2
100
AcDbEntity
  8
01-寸法線
 48
0.5
100
AcDbDimension
  2
*D13
 10
-6995.381490481037
 20
4497.753046383293
 30
0.0
 11
-7029.131490481038
 21
4322.753046383291
 31
0.0
 70
    32
 71
     5
 42
350.0
  3
スタイル15
100
AcDbAlignedDimension
 13
-6895.381490481037
 23
4147.753046383292
 33
0.0
 14
-6895.381490481037
 24
4497.753046383293
 34
0.0
 50
90.0
100
AcDbRotatedDimension
  0
DIMENSION
  5
AC64
330
2
100
AcDbEntity
  8
01-寸法線
 48
0.5
100
AcDbDimension
  2
*D14
 10
-6600.381490481037
 20
4697.753046383293
 30
0.0
 11
-6645.381490481037
 21
4731.503046383292
 31
0.0
 70
    32
 71
     5
 42
90.0
  3
スタイル15
100
AcDbAlignedDimension
 13
-6690.381490481037
 23
4297.753046383292
 33
0.0
 14
-6600.381490481037
 24
4297.753046383292
 34
0.0
100
AcDbRotatedDimension
  0
DIMENSION
  5
AC71
330
2
100
AcDbEntity
  8
01-寸法線
 48
0.5
100
AcDbDimension
  2
*D15
 10
-6580.381490481037
 20
4697.753046383293
 30
0.0
 11
-6590.381490481037
 21
4799.003046383293
 31
0.0
 70
   160
 71
     5
 42
20.0
  3
スタイル15
100
AcDbAlignedDimension
 13
-6600.381490481037
 23
4297.753046383292
 33
0.0
 14
-6580.381490481037
 24
4497.753046383293
 34
0.0
100
AcDbRotatedDimension
1001
ACAD
1000
DSTYLE
1002
{
1070
   279
1070
     2
1002
}
  0
DIMENSION
  5
ACAC
330
2
100
AcDbEntity
  8
01-寸法線
 48
0.5
100
AcDbDimension
  2
*D16
 10
-6380.381490481037
 20
4697.753046383293
 30
0.0
 11
-6335.381490481037
 21
4731.503046383292
 31
0.0
 70
    32
 71
     5
 42
90.0
  3
スタイル15
100
AcDbAlignedDimension
 13
-6290.381490481037
 23
4297.753046383292
 33
0.0
 14
-6380.381490481037
 24
4297.753046383292
 34
0.0
100
AcDbRotatedDimension
  0
DIMENSION
  5
ACB9
330
2
100
AcDbEntity
  8
01-寸法線
 48
0.5
100
AcDbDimension
  2
*D17
 10
-6400.381490481037
 20
4697.753046383293
 30
0.0
 11
-6390.381490481036
 21
4799.003046383293
 31
0.0
 70
   160
 71
     5
 42
20.0
  3
スタイル15
100
AcDbAlignedDimension
 13
-6380.381490481037
 23
4297.753046383292
 33
0.0
 14
-6400.381490481037
 24
4497.753046383293
 34
0.0
100
AcDbRotatedDimension
1001
ACAD
1000
DSTYLE
1002
{
1070
   279
1070
     2
1002
}
  0
DIMENSION
  5
ACCB
330
2
100
AcDbEntity
  8
01-寸法線
 48
0.5
100
AcDbDimension
  2
*D18
 10
-6580.381490481037
 20
4697.753046383293
 30
0.0
 11
-6490.381490481038
 21
4731.503046383292
 31
0.0
 70
    32
 71
     5
 42
180.0
  3
スタイル15
100
AcDbAlignedDimension
 13
-6400.381490481037
 23
4497.753046383293
 33
0.0
 14
-6580.381490481037
 24
4497.753046383293
 34
0.0
100
AcDbRotatedDimension
1001
ACAD
1000
DSTYLE
1002
{
1070
   279
1070
     1
1002
}
  0
ARC
  5
AD12
330
2
100
AcDbEntity
  8
02-外形線
 48
0.5
100
AcDbCircle
 10
-6553.231863617674
 20
4467.753046383292
 30
0.0
 40
30.0
100
AcDbArc
 50
90.0
 51
174.2894068625003
  0
ARC
  5
AD13
330
2
100
AcDbEntity
  8
02-外形線
 48
0.5
100
AcDbCircle
 10
-6427.5311173444
 20
4467.753046383292
 30
0.0
 40
30.0
100
AcDbArc
 50
5.710593137499581
 51
90.0
  0
LINE
  5
AD19
330
2
100
AcDbEntity
  8
01-寸法線
 48
0.5
100
AcDbLine
 10
-6407.400957721572
 20
4489.996622389849
 30
0.0
 11
-6199.644533728128
 21
4697.753046383291
 31
0.0
  0
INSERT
  5
AD1B
330
2
100
AcDbEntity
  8
01-寸法線
 62
     4
 48
0.5
370
    13
100
AcDbBlockReference
  2
_OPEN
 10
-6407.400957721565
 20
4489.996622389857
 30
0.0
 41
30.0
 42
30.0
 43
30.0
 50
224.9999999999934
  0
MTEXT
  5
AD1C
330
2
100
AcDbEntity
  8
01-寸法線
 62
     4
100
AcDbMText
 10
-6866.118447233947
 20
4731.503046383291
 30
0.0
 40
52.5
 41
0.0
 71
     5
 72
     1
  1
R=30
  7
ｵﾘｼﾞﾅﾙｽﾀｲﾙ
 73
     1
 44
1.0
  0
LINE
  5
AD1D
330
2
100
AcDbEntity
  8
01-寸法線
 48
0.5
100
AcDbLine
 10
-6951.118447233946
 20
4697.753046383289
 30
0.0
 11
-6781.118447233946
 21
4697.753046383291
 31
0.0
  0
LINE
  5
AD2A
330
2
100
AcDbEntity
  8
01-寸法線
 48
0.5
100
AcDbLine
 10
-6573.362023240503
 20
4489.996622389849
 30
0.0
 11
-6781.118447233946
 21
4697.753046383291
 31
0.0
  0
INSERT
  5
AD2B
330
2
100
AcDbEntity
  8
01-寸法線
 62
     4
 48
0.5
370
    13
100
AcDbBlockReference
  2
_OPEN
 10
-6573.362023240509
 20
4489.996622389857
 30
0.0
 41
-30.0
 42
30.0
 43
30.0
 50
135.0000000000065
  0
MTEXT
  5
AD2C
330
2
100
AcDbEntity
  8
01-寸法線
 62
     4
100
AcDbMText
 10
-6114.644533728128
 20
4731.503046383291
 30
0.0
 40
52.5
 41
0.0
 71
     5
 72
     1
  1
R=30
  7
ｵﾘｼﾞﾅﾙｽﾀｲﾙ
 73
     1
 44
1.0
  0
LINE
  5
AD2D
330
2
100
AcDbEntity
  8
01-寸法線
 48
0.5
100
AcDbLine
 10
-6199.644533728128
 20
4697.753046383291
 30
0.0
 11
-6029.644533728127
 21
4697.753046383292
 31
0.0
  0
LINE
  5
AD33
330
2
100
AcDbEntity
  8
02-外形線
 48
0.5
100
AcDbLine
 10
-6695.381490481037
 20
3047.753046383292
 30
0.0
 11
-6285.381490481037
 21
3047.753046383292
 31
0.0
  0
LINE
  5
AD34
330
2
100
AcDbEntity
  8
02-外形線
 48
0.5
100
AcDbLine
 10
-6285.381490481037
 20
3047.753046383292
 30
0.0
 11
-6285.381490481037
 21
1047.753046383292
 31
0.0
  0
LINE
  5
AD35
330
2
100
AcDbEntity
  8
02-外形線
 48
0.5
100
AcDbLine
 10
-6285.381490481037
 20
1047.753046383292
 30
0.0
 11
-6695.381490481037
 21
1047.753046383292
 31
0.0
  0
LINE
  5
AD36
330
2
100
AcDbEntity
  8
02-外形線
 48
0.5
100
AcDbLine
 10
-6695.381490481037
 20
1047.753046383292
 30
0.0
 11
-6695.381490481037
 21
3047.753046383292
 31
0.0
  0
LINE
  5
AD39
330
2
100
AcDbEntity
  8
02-外形線
 48
0.5
100
AcDbLine
 10
-6690.381490481037
 20
1047.753046383292
 30
0.0
 11
-6690.381490481037
 21
3047.753046383292
 31
0.0
  0
LINE
  5
AD3A
330
2
100
AcDbEntity
  8
02-外形線
 48
0.5
100
AcDbLine
 10
-6290.381490481037
 20
3047.753046383292
 30
0.0
 11
-6290.381490481037
 21
1047.753046383292
 31
0.0
  0
LINE
  5
AD3B
330
2
100
AcDbEntity
  8
02-外形線
 48
0.5
100
AcDbLine
 10
-6690.381490481037
 20
1052.753046383291
 30
0.0
 11
-6290.381490481037
 21
1052.753046383291
 31
0.0
  0
LINE
  5
AD3C
330
2
100
AcDbEntity
  8
02-外形線
 48
0.5
100
AcDbLine
 10
-6600.381490481037
 20
3047.753046383292
 30
0.0
 11
-6600.381490481037
 21
1052.753046383292
 31
0.0
  0
LINE
  5
AD3D
330
2
100
AcDbEntity
  8
02-外形線
 48
0.5
100
AcDbLine
 10
-6580.381490481037
 20
1052.753046383291
 30
0.0
 11
-6580.381490481037
 21
3047.753046383292
 31
0.0
  0
LINE
  5
AD3E
330
2
100
AcDbEntity
  8
02-外形線
 48
0.5
100
AcDbLine
 10
-6400.381490481037
 20
3047.753046383292
 30
0.0
 11
-6400.381490481037
 21
1052.753046383291
 31
0.0
  0
LINE
  5
AD3F
330
2
100
AcDbEntity
  8
02-外形線
 48
0.5
100
AcDbLine
 10
-6380.381490481037
 20
1052.753046383291
 30
0.0
 11
-6380.381490481037
 21
3047.753046383292
 31
0.0
  0
DIMENSION
  5
AD40
330
2
100
AcDbEntity
  8
01-寸法線
 48
0.5
100
AcDbDimension
  2
*D19
 10
-6995.381490481037
 20
3047.753046383292
 30
0.0
 11
-7029.131490481038
 21
2047.753046383291
 31
0.0
 70
    32
 71
     5
 42
2000.0
  3
スタイル15
100
AcDbAlignedDimension
 13
-6695.381490481037
 23
1047.753046383292
 33
0.0
 14
-6695.381490481037
 24
3047.753046383292
 34
0.0
 50
90.0
100
AcDbRotatedDimension
  0
TEXT
  5
AD4D
330
2
100
AcDbEntity
  8
08-下線
100
AcDbText
 10
-6711.381490481037
 20
858.5530463832917
 30
0.0
 40
52.5
  1
ｼｰﾙ溝
  7
ｵﾘｼﾞﾅﾙｽﾀｲﾙ
 72
     1
 11
-6615.381490481038
 21
847.7530463832918
 31
0.0
100
AcDbText
 73
     1
  0
LINE
  5
AD4E
330
2
100
AcDbEntity
  8
01-寸法線
 48
0.5
100
AcDbLine
 10
-6490.381490481038
 20
847.7530463832918
 30
0.0
 11
-6490.381490481038
 21
1047.753046383292
 31
0.0
  0
LINE
  5
AD4F
330
2
100
AcDbEntity
  8
01-寸法線
 48
0.5
100
AcDbLine
 10
-6740.381490481038
 20
847.7530463832918
 30
0.0
 11
-6490.381490481038
 21
847.7530463832918
 31
0.0
  0
INSERT
  5
AD50
330
2
100
AcDbEntity
  8
01-寸法線
 62
     4
 48
0.5
370
    13
100
AcDbBlockReference
  2
_OPEN
 10
-6490.381490481038
 20
1047.753046383292
 30
0.0
 41
30.0
 42
30.0
 43
30.0
 50
90.0
  0
LINE
  5
AD53
330
2
100
AcDbEntity
  8
03-隠れ線
 48
0.5
100
AcDbLine
 10
-6653.881490481037
 20
2958.753046383293
 30
0.0
 11
-6653.881490481037
 21
2986.753046383292
 31
0.0
  0
LINE
  5
AD54
330
2
100
AcDbEntity
  8
03-隠れ線
 48
0.5
100
AcDbLine
 10
-6693.881490481037
 20
2964.253046383293
 30
0.0
 11
-6653.881490481037
 21
2964.253046383293
 31
0.0
  0
LINE
  5
AD55
330
2
100
AcDbEntity
  8
03-隠れ線
 48
0.5
100
AcDbLine
 10
-6693.881490481037
 20
2981.253046383292
 30
0.0
 11
-6653.881490481037
 21
2981.253046383292
 31
0.0
  0
LINE
  5
AD58
330
2
100
AcDbEntity
  8
03-隠れ線
 48
0.5
100
AcDbLine
 10
-6653.881490481038
 20
1136.753046383293
 30
0.0
 11
-6653.881490481038
 21
1108.753046383292
 31
0.0
  0
LINE
  5
AD59
330
2
100
AcDbEntity
  8
03-隠れ線
 48
0.5
100
AcDbLine
 10
-6693.881490481039
 20
1114.253046383292
 30
0.0
 11
-6653.881490481038
 21
1114.253046383292
 31
0.0
  0
LINE
  5
AD5A
330
2
100
AcDbEntity
  8
03-隠れ線
 48
0.5
100
AcDbLine
 10
-6693.881490481039
 20
1131.253046383292
 30
0.0
 11
-6653.881490481038
 21
1131.253046383292
 31
0.0
  0
LINE
  5
AD75
330
2
100
AcDbEntity
  8
03-隠れ線
 48
0.5
100
AcDbLine
 10
-6694.164666538014
 20
4184.257764673969
 30
0.0
 11
-6654.186870258849
 21
4182.925171464663
 31
0.0
  0
LINE
  5
AD76
330
2
100
AcDbEntity
  8
03-隠れ線
 48
0.5
100
AcDbLine
 10
-6693.598314424059
 20
4201.248328092615
 30
0.0
 11
-6653.620518144894
 21
4199.915734883311
 31
0.0
  0
LINE
  5
AD77
330
2
100
AcDbEntity
  8
03-隠れ線
 48
0.5
100
AcDbLine
 10
-6654.370101825127
 20
4177.428224476278
 30
0.0
 11
-6653.437286578614
 21
4205.412681871695
 31
0.0
  0
LINE
  5
ADAB
330
2
100
AcDbEntity
  8
02-外形線
 48
0.5
100
AcDbLine
 10
-1455.381490481037
 20
4117.753046383291
 30
0.0
 11
-1454.548157147704
 21
4092.75304638329
 31
0.0
  0
LINE
  5
ADAC
330
2
100
AcDbEntity
  8
02-外形線
 48
0.5
100
AcDbLine
 10
-1860.381490481037
 20
3967.753046383292
 30
0.0
 11
-1857.880565326002
 21
4042.780801034335
 31
0.0
  0
LINE
  5
ADAD
330
2
100
AcDbEntity
  8
02-外形線
 48
0.5
100
AcDbLine
 10
-1860.381490481037
 20
3967.753046383292
 30
0.0
 11
-1450.381490481037
 21
3967.753046383292
 31
0.0
  0
ARC
  5
ADBA
330
2
100
AcDbEntity
  8
02-外形線
 48
0.5
100
AcDbCircle
 10
-1592.5311173444
 20
4287.753046383292
 30
0.0
 40
30.0
100
AcDbArc
 50
5.710593137499581
 51
90.0
  0
ARC
  5
ADBB
330
2
100
AcDbEntity
  8
02-外形線
 48
0.5
100
AcDbCircle
 10
-1718.231863617673
 20
4287.753046383292
 30
0.0
 40
30.0
100
AcDbArc
 50
90.0
 51
174.2894068625003
  0
LINE
  5
ADBC
330
2
100
AcDbEntity
  8
02-外形線
 48
0.5
100
AcDbLine
 10
-1765.381490481037
 20
4117.753046383293
 30
0.0
 11
-1748.082979323973
 21
4290.738157953921
 31
0.0
  0
LINE
  5
ADBD
330
2
100
AcDbEntity
  8
02-外形線
 48
0.5
100
AcDbLine
 10
-1855.381490481037
 20
4117.753046383291
 30
0.0
 11
-1765.381490481037
 21
4117.753046383293
 31
0.0
  0
LINE
  5
ADBE
330
2
100
AcDbEntity
  8
02-外形線
 48
0.5
100
AcDbLine
 10
-1562.6800016381
 20
4290.738157953921
 30
0.0
 11
-1545.381490481037
 21
4117.753046383291
 31
0.0
  0
LINE
  5
ADBF
330
2
100
AcDbEntity
  8
02-外形線
 48
0.5
100
AcDbLine
 10
-1545.381490481037
 20
4117.753046383291
 30
0.0
 11
-1455.381490481037
 21
4117.753046383291
 31
0.0
  0
LINE
  5
ADC1
330
2
100
AcDbEntity
  8
02-外形線
 48
0.5
100
AcDbLine
 10
-1718.231863617673
 20
4317.753046383291
 30
0.0
 11
-1592.5311173444
 21
4317.753046383291
 31
0.0
  0
LINE
  5
ADC6
330
2
100
AcDbEntity
  8
02-外形線
 48
0.5
100
AcDbLine
 10
-1700.132112375431
 20
4297.753046383292
 30
0.0
 11
-1610.630868586641
 21
4297.753046383292
 31
0.0
  0
LINE
  5
ADD2
330
2
100
AcDbEntity
  8
02-外形線
 48
0.5
100
AcDbLine
 10
-1747.281739238796
 20
4097.753046383292
 30
0.0
 11
-1729.983228081731
 21
4270.738157953922
 31
0.0
  0
LINE
  5
ADD3
330
2
100
AcDbEntity
  8
02-外形線
 48
0.5
100
AcDbLine
 10
-1580.779752880342
 20
4270.738157953921
 30
0.0
 11
-1563.481241723279
 21
4097.753046383291
 31
0.0
  0
LINE
  5
ADD4
330
2
100
AcDbEntity
  8
02-外形線
 48
0.5
100
AcDbLine
 10
-1856.048157147704
 20
4097.753046383292
 30
0.0
 11
-1747.281739238796
 21
4097.753046383292
 31
0.0
  0
LINE
  5
ADD5
330
2
100
AcDbEntity
  8
02-外形線
 48
0.5
100
AcDbLine
 10
-1563.481241723279
 20
4097.753046383291
 30
0.0
 11
-1454.714823814371
 21
4097.753046383291
 31
0.0
  0
LINE
  5
ADD8
330
2
100
AcDbEntity
  8
02-外形線
 48
0.5
100
AcDbLine
 10
-1856.21482381437
 20
4092.753046383291
 30
0.0
 11
-1742.756801428235
 21
4092.753046383291
 31
0.0
  0
LINE
  5
ADD9
330
2
100
AcDbEntity
  8
02-外形線
 48
0.5
100
AcDbLine
 10
-1568.006179533839
 20
4092.753046383291
 30
0.0
 11
-1454.548157147703
 21
4092.753046383291
 31
0.0
  0
LINE
  5
ADDA
330
2
100
AcDbEntity
  8
02-外形線
 48
0.5
100
AcDbLine
 10
-1742.756801428235
 20
4092.753046383292
 30
0.0
 11
-1725.008042130681
 21
4270.240639358816
 31
0.0
  0
LINE
  5
ADDB
330
2
100
AcDbEntity
  8
02-外形線
 48
0.5
100
AcDbLine
 10
-1585.754938831392
 20
4270.240639358816
 30
0.0
 11
-1568.006179533839
 21
4092.753046383291
 31
0.0
  0
LINE
  5
ADDC
330
2
100
AcDbEntity
  8
02-外形線
 48
0.5
100
AcDbLine
 10
-1700.132112375431
 20
4292.753046383292
 30
0.0
 11
-1610.630868586642
 21
4292.753046383292
 31
0.0
  0
LINE
  5
ADDF
330
2
100
AcDbEntity
  8
02-外形線
 48
0.5
100
AcDbLine
 10
-1747.281739238796
 20
4097.753046383292
 30
0.0
 11
-1742.756801428235
 21
4092.753046383292
 31
0.0
  0
LINE
  5
ADE2
330
2
100
AcDbEntity
  8
02-外形線
 48
0.5
100
AcDbLine
 10
-1568.006179533839
 20
4092.753046383291
 30
0.0
 11
-1563.481241723279
 21
4097.753046383291
 31
0.0
  0
ARC
  5
ADE3
330
2
100
AcDbEntity
  8
02-外形線
 48
0.5
100
AcDbCircle
 10
-1700.132112375431
 20
4267.753046383291
 30
0.0
 40
30.0
100
AcDbArc
 50
90.0
 51
174.2894068624998
  0
ARC
  5
ADE4
330
2
100
AcDbEntity
  8
02-外形線
 48
0.5
100
AcDbCircle
 10
-1610.630868586641
 20
4267.753046383291
 30
0.0
 40
30.0
100
AcDbArc
 50
5.710593137499734
 51
90.0
  0
ARC
  5
ADE5
330
2
100
AcDbEntity
  8
02-外形線
 48
0.5
100
AcDbCircle
 10
-1700.132112375431
 20
4267.753046383291
 30
0.0
 40
25.0
100
AcDbArc
 50
90.0
 51
174.2894068624998
  0
ARC
  5
ADE6
330
2
100
AcDbEntity
  8
02-外形線
 48
0.5
100
AcDbCircle
 10
-1610.630868586642
 20
4267.753046383291
 30
0.0
 40
25.0
100
AcDbArc
 50
5.710593137499684
 51
90.0
  0
DIMENSION
  5
ADE9
330
2
100
AcDbEntity
  8
01-寸法線
 48
0.5
100
AcDbDimension
  2
*D20
 10
-1755.38149048104
 20
4217.753046383291
 30
0.0
 11
-1846.651276753052
 21
4260.798355231774
 31
0.0
 70
    33
 71
     5
 42
20.00000000000318
  3
スタイル15
100
AcDbAlignedDimension
 13
-1735.480746676836
 23
4215.762972002871
 33
0.0
 14
-1755.38149048104
 24
4217.753046383291
 34
0.0
  0
LINE
  5
ADFA
330
2
100
AcDbEntity
  8
01-寸法線
 48
0.5
100
AcDbLine
 10
-1565.431366102158
 20
4217.753046383291
 30
0.0
 11
-1465.431366102158
 21
4317.753046383291
 31
0.0
  0
TEXT
  5
ADFD
330
2
100
AcDbEntity
  8
08-下線
100
AcDbText
 10
-1436.431366102159
 20
4328.553046383292
 30
0.0
 40
52.5
  1
ｼｰﾙ溝
  7
ｵﾘｼﾞﾅﾙｽﾀｲﾙ
 72
     1
 11
-1340.431366102159
 21
4317.753046383291
 31
0.0
100
AcDbText
 73
     1
  0
LINE
  5
ADFE
330
2
100
AcDbEntity
  8
01-寸法線
 48
0.5
100
AcDbLine
 10
-1465.431366102159
 20
4317.753046383291
 30
0.0
 11
-1215.431366102159
 21
4317.753046383291
 31
0.0
  0
INSERT
  5
ADFF
330
2
100
AcDbEntity
  8
01-寸法線
 62
     4
 48
0.5
370
    13
100
AcDbBlockReference
  2
_OPEN
 10
-1565.43136610217
 20
4217.75304638329
 30
0.0
 41
30.0
 42
30.0
 43
30.0
 50
224.9999999999981
  0
LINE
  5
AE09
330
2
100
AcDbEntity
  8
02-外形線
 48
0.5
100
AcDbLine
 10
-1545.381490481037
 20
3522.753046383292
 30
0.0
 11
-1545.381490481036
 21
3667.753046383293
 31
0.0
  0
LINE
  5
AE0A
330
2
100
AcDbEntity
  8
02-外形線
 48
0.5
100
AcDbLine
 10
-1565.381490481037
 20
3667.753046383293
 30
0.0
 11
-1565.381490481037
 21
3522.753046383292
 31
0.0
  0
LINE
  5
AE0B
330
2
100
AcDbEntity
  8
02-外形線
 48
0.5
100
AcDbLine
 10
-1745.381490481037
 20
3522.753046383292
 30
0.0
 11
-1745.381490481037
 21
3667.753046383293
 31
0.0
  0
LINE
  5
AE0C
330
2
100
AcDbEntity
  8
02-外形線
 48
0.5
100
AcDbLine
 10
-1765.381490481037
 20
3667.753046383292
 30
0.0
 11
-1765.381490481037
 21
3522.753046383293
 31
0.0
  0
LINE
  5
AE0D
330
2
100
AcDbEntity
  8
02-外形線
 48
0.5
100
AcDbLine
 10
-1455.381490481037
 20
3667.753046383293
 30
0.0
 11
-1455.381490481037
 21
3517.753046383293
 31
0.0
  0
LINE
  5
AE0E
330
2
100
AcDbEntity
  8
02-外形線
 48
0.5
100
AcDbLine
 10
-1855.381490481037
 20
3517.753046383293
 30
0.0
 11
-1855.381490481037
 21
3667.753046383293
 31
0.0
  0
LINE
  5
AE0F
330
2
100
AcDbEntity
  8
02-外形線
 48
0.5
100
AcDbLine
 10
-1860.381490481037
 20
3517.753046383293
 30
0.0
 11
-1860.381490481038
 21
3667.753046383293
 31
0.0
  0
LINE
  5
AE10
330
2
100
AcDbEntity
  8
02-外形線
 48
0.5
100
AcDbLine
 10
-1450.381490481037
 20
3667.753046383293
 30
0.0
 11
-1450.381490481037
 21
3517.753046383293
 31
0.0
  0
LINE
  5
AE16
330
2
100
AcDbEntity
  8
02-外形線
 48
0.5
100
AcDbLine
 10
-1855.381490481037
 20
3522.753046383292
 30
0.0
 11
-1455.381490481037
 21
3522.753046383292
 31
0.0
  0
LINE
  5
AE17
330
2
100
AcDbEntity
  8
02-外形線
 48
0.5
100
AcDbLine
 10
-1450.381490481037
 20
3517.753046383293
 30
0.0
 11
-1860.381490481037
 21
3517.753046383293
 31
0.0
  0
LINE
  5
AE51
330
2
100
AcDbEntity
  8
06-中心線
 48
0.5
100
AcDbLine
 10
-1400.381490481037
 20
3667.753046383293
 30
0.0
 11
-1910.381490481037
 21
3667.753046383293
 31
0.0
  0
DIMENSION
  5
AE5E
330
2
100
AcDbEntity
  8
01-寸法線
 48
0.5
100
AcDbDimension
  2
*D21
 10
-1250.381490481037
 20
3522.753046383292
 30
0.0
 11
-1284.131490481037
 21
3601.893046383292
 31
0.0
 70
    32
 71
     5
 42
5.0
  3
スタイル15
100
AcDbAlignedDimension
 13
-1450.381490481037
 23
3517.753046383293
 33
0.0
 14
-1450.381490481037
 24
3522.753046383292
 34
0.0
 50
90.0
100
AcDbRotatedDimension
  0
LINE
  5
AE6E
330
2
100
AcDbEntity
  8
02-外形線
 48
0.5
100
AcDbLine
 10
-1100.381490481036
 20
4117.753046383291
 30
0.0
 11
-955.3814904810362
 21
4117.753046383291
 31
0.0
  0
LINE
  5
AE72
330
2
100
AcDbEntity
  8
02-外形線
 48
0.5
100
AcDbLine
 10
-1100.381490481036
 20
3967.753046383291
 30
0.0
 11
-950.3814904810372
 21
3967.753046383291
 31
0.0
  0
LINE
  5
AE73
330
2
100
AcDbEntity
  8
02-外形線
 48
0.5
100
AcDbLine
 10
-955.3814904810362
 20
4317.75304638329
 30
0.0
 11
-1100.381490481036
 21
4317.75304638329
 31
0.0
  0
LINE
  5
AE8C
330
2
100
AcDbEntity
  8
02-外形線
 48
0.5
100
AcDbLine
 10
-955.3814904810367
 20
4097.75304638329
 30
0.0
 11
-955.3814904810371
 21
4317.75304638329
 31
0.0
  0
LINE
  5
AE8D
330
2
100
AcDbEntity
  8
02-外形線
 48
0.5
100
AcDbLine
 10
-950.3814904810372
 20
4292.753046383291
 30
0.0
 11
-950.3814904810372
 21
3967.753046383291
 31
0.0
  0
LINE
  5
AE9B
330
2
100
AcDbEntity
  8
03-隠れ線
 48
0.5
100
AcDbLine
 10
-955.3814904810367
 20
4097.75304638329
 30
0.0
 11
-950.3814904810367
 21
4092.75304638329
 31
0.0
  0
LINE
  5
AE9E
330
2
100
AcDbEntity
  8
02-外形線
 48
0.5
100
AcDbLine
 10
-955.3814904810371
 20
4297.753046383291
 30
0.0
 11
-950.3814904810372
 21
4292.753046383291
 31
0.0
  0
LINE
  5
AF5B
330
2
100
AcDbEntity
  8
06-中心線
 48
0.5
100
AcDbLine
 10
-1100.381490481037
 20
3917.753046383291
 30
0.0
 11
-1100.381490481036
 21
4367.75304638329
 31
0.0
  0
DIMENSION
  5
AF65
330
2
100
AcDbEntity
  8
01-寸法線
 48
0.5
100
AcDbDimension
  2
*D22
 10
-955.3814904810362
 20
4517.753046383291
 30
0.0
 11
-1034.521490481036
 21
4551.503046383292
 31
0.0
 70
    32
 71
     5
 42
4.99999999999909
  3
スタイル15
100
AcDbAlignedDimension
 13
-950.3814904810372
 23
4317.753046383291
 33
0.0
 14
-955.3814904810362
 24
4317.75304638329
 34
0.0
100
AcDbRotatedDimension
  0
LINE
  5
AFCE
330
2
100
AcDbEntity
  8
DEFPOINTS
 48
0.5
100
AcDbLine
 10
114.6185095189636
 20
5832.753046383292
 30
0.0
 11
114.618509518963
 21
189.7530463832918
 31
0.0
  0
LINE
  5
C518
330
2
100
AcDbEntity
  8
02-外形線
 48
0.5
100
AcDbLine
 10
-1411.378159922914
 20
1162.653129639537
 30
0.0
 11
-1414.711493256248
 21
1262.653129639541
 31
0.0
  0
MTEXT
  5
C519
330
2
100
AcDbEntity
  8
01-寸法線
 62
     4
 48
0.5
100
AcDbMText
 10
-1515.737271434464
 20
1212.680065014472
 30
0.0
 40
52.5
 41
0.0
 71
     5
 72
     1
  1
\A1;145\U+00B0
  7
ｵﾘｼﾞﾅﾙｽﾀｲﾙ
 11
0.2687659615094524
 21
0.9632055117854649
 31
0.0
 73
     1
 44
1.0
  0
CIRCLE
  5
C51A
330
2
100
AcDbEntity
  8
01-寸法線
 48
0.5
100
AcDbCircle
 10
-1405.381490481036
 20
982.7530463832918
 30
0.0
 40
415.0
  0
LINE
  5
C51B
330
2
100
AcDbEntity
  8
01-寸法線
 48
0.5
100
AcDbLine
 10
-1404.715193876383
 20
962.7641482437098
 30
0.0
 11
-1273.491101368173
 21
752.0188733767981
 31
0.0
  0
LINE
  5
C51C
330
2
100
AcDbEntity
  8
01-寸法線
 48
0.5
100
AcDbLine
 10
-1424.704092015967
 20
962.0978516390572
 30
0.0
 11
-1293.479999507756
 21
751.3525767721453
 31
0.0
  0
MTEXT
  5
C51D
330
2
100
AcDbEntity
  8
01-寸法線
 62
     4
 48
0.5
100
AcDbMText
 10
-1204.674576194954
 20
803.0898333636006
 30
0.0
 40
52.5
 41
0.0
 71
     5
 72
     1
  1
\A1;5
  7
ｵﾘｼﾞﾅﾙｽﾀｲﾙ
 11
0.9994449069791542
 21
0.0333148302326385
 31
0.0
 73
     1
 44
1.0
  0
MTEXT
  5
C51E
330
2
100
AcDbEntity
  8
01-寸法線
 62
     4
 48
0.5
100
AcDbMText
 10
-1440.030974770677
 20
842.5137075840929
 30
0.0
 40
52.5
 41
0.0
 71
     5
 72
     1
  1
\A1;55\U+00B0
  7
ｵﾘｼﾞﾅﾙｽﾀｲﾙ
 11
0.8608233303436151
 21
-0.5089039142472059
 31
0.0
 73
     1
 44
1.0
  0
LINE
  5
C51F
330
2
100
AcDbEntity
  8
02-外形線
 48
0.5
100
AcDbLine
 10
-1404.715193876383
 20
962.7641482437098
 30
0.0
 11
-1391.722410085654
 21
572.9806345218389
 31
0.0
  0
LINE
  5
C520
330
2
100
AcDbEntity
  8
01-寸法線
 62
     4
 48
0.5
370
     9
100
AcDbLine
 10
-1645.939147560248
 20
758.6427790840071
 30
0.0
 11
-1689.533979664391
 21
799.4250413749786
 31
0.0
  0
LINE
  5
C521
330
2
100
AcDbEntity
  8
01-寸法線
 62
     4
 48
0.5
370
     9
100
AcDbLine
 10
-1509.3077218051
 20
904.6970617877859
 30
0.0
 11
-1656.186504491885
 21
747.6887078812238
 31
0.0
  0
LINE
  5
C522
330
2
100
AcDbEntity
  8
01-寸法線
 62
     4
 48
0.5
370
     9
100
AcDbLine
 10
-1552.902553909242
 20
945.4793240787573
 30
0.0
 11
-1699.781336596026
 21
788.4709701721949
 31
0.0
  0
INSERT
  5
C523
330
2
100
AcDbEntity
  8
01-寸法線
 62
     4
 48
0.5
370
     9
100
AcDbBlockReference
  2
_OPEN
 10
-1645.939147560248
 20
758.6427790840071
 30
0.0
 41
-30.0
 42
30.0
 43
30.0
 50
316.9091524329962
  0
LINE
  5
C524
330
2
100
AcDbEntity
  8
01-寸法線
 62
     4
 48
0.5
370
     9
100
AcDbLine
 10
-1624.031005154682
 20
738.1480652207346
 30
0.0
 11
-1602.122862749115
 21
717.6533513574627
 31
0.0
  0
LINE
  5
C525
330
2
100
AcDbEntity
  8
01-寸法線
 62
     4
 48
0.5
370
     9
100
AcDbLine
 10
-1252.662923403558
 20
767.7214769954225
 30
0.0
 11
-1184.420825155022
 21
769.996213603707
 31
0.0
  0
LINE
  5
C526
330
2
100
AcDbEntity
  8
01-寸法線
 62
     4
 48
0.5
370
     9
100
AcDbLine
 10
-1332.61851596189
 20
765.0562905768115
 30
0.0
 11
-1362.601863171265
 21
764.0568456698324
 31
0.0
  0
LINE
  5
C527
330
2
100
AcDbEntity
  8
01-寸法線
 62
     4
 48
0.5
370
     9
100
AcDbLine
 10
-1302.635168752515
 20
766.0557354837906
 30
0.0
 11
-1282.646270612932
 21
766.7220320884434
 31
0.0
  0
INSERT
  5
C528
330
2
100
AcDbEntity
  8
01-寸法線
 62
     4
 48
0.5
370
     9
100
AcDbBlockReference
  2
_OPEN
 10
-1302.635168752515
 20
766.0557354837906
 30
0.0
 41
-30.0
 42
30.0
 43
30.0
 50
181.9091524329963
  0
INSERT
  5
C529
330
2
100
AcDbEntity
  8
01-寸法線
 62
     4
 48
0.5
370
     9
100
AcDbBlockReference
  2
_OPEN
 10
-1282.646270612932
 20
766.7220320884432
 30
0.0
 41
-30.0
 42
30.0
 43
30.0
 50
1.909152432996261
  0
ARC
  5
C52A
330
2
100
AcDbEntity
  8
01-寸法線
 62
     4
 48
0.5
370
     9
100
AcDbCircle
 10
-1411.378159922913
 20
1162.65312963954
 30
0.0
 40
79.9999999999993
100
AcDbArc
 50
113.5229981826979
 51
215.2953066832896
  0
MTEXT
  5
C52B
330
2
100
AcDbEntity
  8
01-寸法線
 62
     4
 48
0.5
100
AcDbMText
 10
-1457.872615957367
 20
1003.651826589073
 30
0.0
 40
52.5
 41
0.0
 71
     5
 72
     1
  1
C=3
  7
ｵﾘｼﾞﾅﾙｽﾀｲﾙ
 73
     1
 44
1.0
  0
ARC
  5
C52C
330
2
100
AcDbEntity
  8
01-寸法線
 62
     4
 48
0.5
370
     9
100
AcDbCircle
 10
-1405.381490481036
 20
982.7530463832918
 30
0.0
 40
99.9999999999998
100
AcDbArc
 50
234.1630055503508
 51
254.6552993156662
  0
LINE
  5
C52D
330
2
100
AcDbEntity
  8
02-外形線
 48
0.5
100
AcDbLine
 10
-1424.903842715358
 20
968.0903726207974
 30
0.0
 11
-1499.712656959855
 21
911.9036373001605
 31
0.0
  0
LINE
  5
C52E
330
2
100
AcDbEntity
  8
02-外形線
 48
0.5
100
AcDbLine
 10
-1411.37815992291
 20
1162.653129639541
 30
0.0
 11
-1546.350936267834
 21
955.5329953624596
 31
0.0
  0
LINE
  5
C52F
330
2
100
AcDbEntity
  8
01-寸法線
 62
     4
 48
0.5
370
     9
100
AcDbLine
 10
-1405.381490481036
 20
982.7530463832919
 30
0.0
 11
-1622.46679533251
 21
1185.832847695961
 31
0.0
  0
LINE
  5
C530
330
2
100
AcDbEntity
  8
01-寸法線
 62
     4
 48
0.5
370
     9
100
AcDbLine
 10
-1552.902553909241
 20
945.4793240787608
 30
0.0
 11
-1709.910907815801
 21
1092.358106765544
 31
0.0
  0
INSERT
  5
C531
330
2
100
AcDbEntity
  8
01-寸法線
 62
     4
 48
0.5
370
     9
100
AcDbBlockReference
  2
_OPEN
 10
-1485.340364191409
 20
922.6982504468423
 30
0.0
 41
-30.00000000000027
 42
30.0
 43
30.0
 50
315.5360789916743
  0
LINE
  5
C532
330
2
100
AcDbEntity
  8
01-寸法線
 48
0.5
100
AcDbLine
 10
-1490.115710130628
 20
968.9044777444111
 30
0.0
 11
-1508.891817863591
 21
912.3992923166287
 31
0.0
  0
INSERT
  5
C533
330
2
100
AcDbEntity
  8
01-寸法線
 62
     4
 48
0.5
370
     9
100
AcDbBlockReference
  2
_OPEN
 10
-1508.891817863591
 20
912.3992923166278
 30
0.0
 41
29.99999999999987
 42
29.99999999999987
 43
29.99999999999987
 50
251.6188690470496
  0
LINE
  5
C534
330
2
100
AcDbEntity
  8
02-外形線
 48
0.5
100
AcDbLine
 10
-1518.070978767325
 20
912.8949473331005
 30
0.0
 11
-1544.139296947012
 21
937.2814385334496
 31
0.0
  0
MTEXT
  5
C535
330
2
100
AcDbEntity
  8
01-寸法線
 62
     4
 48
0.5
100
AcDbMText
 10
-1734.261219171033
 20
887.4823462742048
 30
0.0
 40
52.5
 41
0.0
 71
     5
 72
     1
  1
\A1;15
  7
ｵﾘｼﾞﾅﾙｽﾀｲﾙ
 11
0.7302714135188954
 21
-0.6831571287757412
 31
0.0
 73
     1
 44
1.0
  0
LINE
  5
C536
330
2
100
AcDbEntity
  8
01-寸法線
 62
     4
 48
0.5
370
     9
100
AcDbLine
 10
-1711.442122069957
 20
819.9197552382507
 30
0.0
 11
-1781.285280058904
 21
885.2569030343627
 31
0.0
  0
INSERT
  5
C537
330
2
100
AcDbEntity
  8
01-寸法線
 62
     4
 48
0.5
370
     9
100
AcDbBlockReference
  2
_OPEN
 10
-1689.53397966439
 20
799.4250413749786
 30
0.0
 41
-29.99999999999996
 42
30.0
 43
30.0
 50
136.9091524329963
  0
LINE
  5
C538
330
2
100
AcDbEntity
  8
02-外形線
 48
0.5
100
AcDbLine
 10
-1499.712656959855
 20
911.9036373001609
 30
0.0
 11
-1518.070978767329
 21
912.8949473330965
 31
0.0
  0
LINE
  5
C539
330
2
100
AcDbEntity
  8
01-寸法線
 48
0.5
100
AcDbLine
 10
-1514.41962169973
 20
909.4791616892164
 30
0.0
 11
-1509.3077218051
 21
904.6970617877859
 31
0.0
  0
LINE
  5
C53A
330
2
100
AcDbEntity
  8
01-寸法線
 48
0.5
100
AcDbLine
 10
-1503.710600645375
 20
908.9008975033374
 30
0.0
 11
-1509.3077218051
 21
904.6970617877859
 31
0.0
  0
LINE
  5
C53B
330
2
100
AcDbEntity
  8
02-外形線
 48
0.5
100
AcDbLine
 10
-1546.350936267834
 20
955.5329953624616
 30
0.0
 11
-1544.139296947016
 21
937.2814385334494
 31
0.0
  0
LINE
  5
C53C
330
2
100
AcDbEntity
  8
01-寸法線
 48
0.5
100
AcDbLine
 10
-1547.790654014608
 20
940.6972241773274
 30
0.0
 11
-1552.902553909242
 21
945.4793240787573
 31
0.0
  0
LINE
  5
C53D
330
2
100
AcDbEntity
  8
01-寸法線
 48
0.5
100
AcDbLine
 10
-1490.115710130632
 20
968.9044777444015
 30
0.0
 11
-1545.245116607425
 21
946.4072169479553
 31
0.0
  0
LINE
  5
C53E
330
2
100
AcDbEntity
  8
01-寸法線
 48
0.5
100
AcDbLine
 10
-1549.080776951753
 20
951.3439656609181
 30
0.0
 11
-1552.902553909242
 21
945.4793240787576
 31
0.0
  0
INSERT
  5
C53F
330
2
100
AcDbEntity
  8
01-寸法線
 62
     4
 48
0.5
370
     9
100
AcDbBlockReference
  2
_OPEN
 10
-1545.245116607423
 20
946.4072169479555
 30
0.0
 41
-29.99999999999998
 42
30.0
 43
30.0
 50
22.19943581894396
  0
LINE
  5
C540
330
2
100
AcDbEntity
  8
01-寸法線
 48
0.5
100
AcDbLine
 10
-1531.105137857168
 20
925.088192933275
 30
0.0
 11
-1531.105137857168
 21
925.088192933275
 31
0.0
  0
LINE
  5
C541
330
2
100
AcDbEntity
  8
01-寸法線
 62
     4
 48
0.5
370
     9
100
AcDbLine
 10
-1632.007437992997
 20
1153.677348358758
 30
0.0
 11
-1678.462122749746
 21
1104.018892239475
 31
0.0
  0
MTEXT
  5
C542
330
2
100
AcDbEntity
  8
01-寸法線
 62
     4
 48
0.5
100
AcDbMText
 10
-1679.881440577636
 20
1151.904673395299
 30
0.0
 40
52.5
 41
0.0
 71
     5
 72
     1
  1
\A1;32
  7
ｵﾘｼﾞﾅﾙｽﾀｲﾙ
 11
0.683157128775741
 21
0.7302714135188956
 31
0.0
 73
     1
 44
1.0
  0
INSERT
  5
C543
330
2
100
AcDbEntity
  8
01-寸法線
 62
     4
 48
0.5
370
     9
100
AcDbBlockReference
  2
_OPEN
 10
-1698.956836613018
 20
1082.110749833908
 30
0.0
 41
-29.99999999999996
 42
30.0
 43
30.0
 50
46.90915243299645
  0
INSERT
  5
C544
330
2
100
AcDbEntity
  8
01-寸法線
 62
     4
 48
0.5
370
     9
100
AcDbBlockReference
  2
_OPEN
 10
-1455.055610865639
 20
1095.628654414847
 30
0.0
 41
30.00000000000002
 42
30.00000000000002
 43
30.00000000000002
 50
316.1022295581359
  0
INSERT
  5
C545
330
2
100
AcDbEntity
  8
01-寸法線
 62
     4
 48
0.5
370
     9
100
AcDbBlockReference
  2
_OPEN
 10
-1611.512724129726
 20
1175.585490764325
 30
0.0
 41
-29.99999999999996
 42
30.0
 43
30.0
 50
226.9091524329965
  0
LINE
  5
C546
330
2
100
AcDbEntity
  8
01-寸法線
 62
     4
 48
0.5
370
     9
100
AcDbLine
 10
-1206.491953992185
 20
1019.399359639194
 30
0.0
 11
-1207.491398899164
 21
1049.382706848568
 31
0.0
  0
LINE
  5
C547
330
2
100
AcDbEntity
  8
01-寸法線
 62
     4
 48
0.5
370
     9
100
AcDbLine
 10
-1206.491953992185
 20
1019.399359639194
 30
0.0
 11
-1210.489733620101
 21
1139.332748476689
 31
0.0
  0
LINE
  5
C548
330
2
100
AcDbEntity
  8
01-寸法線
 62
     4
 48
0.5
370
     9
100
AcDbLine
 10
-1203.826767573574
 20
939.4437670808629
 30
0.0
 11
-1201.552030965289
 21
871.2016688323268
 31
0.0
  0
MTEXT
  5
C549
330
2
100
AcDbEntity
  8
01-寸法線
 62
     4
 48
0.5
100
AcDbMText
 10
-1235.920942426488
 20
889.2066688315557
 30
0.0
 40
52.5
 41
0.0
 71
     5
 72
     1
  1
\A1;5
  7
ｵﾘｼﾞﾅﾙｽﾀｲﾙ
 11
-0.0333148302326384
 21
0.9994449069791542
 31
0.0
 73
     1
 44
1.0
  0
INSERT
  5
C54A
330
2
100
AcDbEntity
  8
01-寸法線
 62
     4
 48
0.5
370
     9
100
AcDbBlockReference
  2
_OPEN
 10
-1402.050007457773
 20
882.8085556853768
 30
0.0
 41
-30.00000000000027
 42
30.0
 43
30.0
 50
173.2822258743178
  0
LINE
  5
C54B
330
2
100
AcDbEntity
  8
01-寸法線
 62
     4
 48
0.5
370
     9
100
AcDbLine
 10
-1390.389816876349
 20
983.2527688367814
 30
0.0
 11
-1190.500835480517
 21
989.9157348833091
 31
0.0
  0
LINE
  5
C54C
330
2
100
AcDbEntity
  8
01-寸法線
 62
     4
 48
0.5
370
     9
100
AcDbLine
 10
-1389.723520271696
 20
963.2638706971997
 30
0.0
 11
-1189.834538875865
 21
969.9268367437271
 31
0.0
  0
LINE
  5
C54D
330
2
100
AcDbEntity
  8
01-寸法線
 62
     4
 48
0.5
370
     9
100
AcDbLine
 10
-1405.381490481036
 20
982.7530463832919
 30
0.0
 11
-1190.500835480517
 21
989.9157348833091
 31
0.0
  0
LINE
  5
C54E
330
2
100
AcDbEntity
  8
01-寸法線
 48
0.5
100
AcDbLine
 10
-1404.881768027546
 20
967.7613727786043
 30
0.0
 11
-1405.381490481036
 21
982.7530463832919
 31
0.0
  0
LINE
  5
C54F
330
2
100
AcDbEntity
  8
02-外形線
 48
0.5
100
AcDbLine
 10
-1404.715193876383
 20
962.7641482437098
 30
0.0
 11
-1424.903842715358
 21
968.0903726207974
 31
0.0
  0
LINE
  5
C550
330
2
100
AcDbEntity
  8
01-寸法線
 48
0.5
100
AcDbLine
 10
-1405.381490481036
 20
982.7530463832919
 30
0.0
 11
-1417.375321537593
 21
973.7448269928243
 31
0.0
  0
INSERT
  5
C551
330
2
100
AcDbEntity
  8
01-寸法線
 62
     4
 48
0.5
370
     9
100
AcDbBlockReference
  2
_OPEN
 10
-1205.492509085205
 20
989.4160124298194
 30
0.0
 41
30.0
 42
30.0
 43
30.0
 50
271.9091524329964
  0
INSERT
  5
C552
330
2
100
AcDbEntity
  8
01-寸法線
 62
     4
 48
0.5
370
     9
100
AcDbBlockReference
  2
_OPEN
 10
-1205.492509085205
 20
989.4160124298194
 30
0.0
 41
30.0
 42
30.0
 43
30.0
 50
271.9091524329964
  0
LINE
  5
C553
330
2
100
AcDbEntity
  8
01-寸法線
 62
     4
 48
0.5
370
     9
100
AcDbLine
 10
-1205.492509085205
 20
989.4160124298194
 30
0.0
 11
-1204.826212480553
 21
969.4271142902376
 31
0.0
  0
INSERT
  5
C554
330
2
100
AcDbEntity
  8
01-寸法線
 62
     4
 48
0.5
370
     9
100
AcDbBlockReference
  2
_OPEN
 10
-1204.826212480553
 20
969.4271142902376
 30
0.0
 41
30.0
 42
30.0
 43
30.0
 50
91.90915243299638
  0
INSERT
  5
C555
330
2
100
AcDbEntity
  8
01-寸法線
 62
     4
 48
0.5
370
     9
100
AcDbBlockReference
  2
_OPEN
 10
-1211.489178527081
 20
1169.316095686063
 30
0.0
 41
30.0
 42
30.0
 43
30.0
 50
91.90915243299638
  0
MTEXT
  5
C556
330
2
100
AcDbEntity
  8
01-寸法線
 62
     4
 48
0.5
100
AcDbMText
 10
-1242.222109416689
 20
1078.241678537589
 30
0.0
 40
52.5
 41
0.0
 71
     5
 72
     1
  1
\A1;45
  7
ｵﾘｼﾞﾅﾙｽﾀｲﾙ
 11
-0.0333148302326384
 21
0.9994449069791542
 31
0.0
 73
     1
 44
1.0
  0
LINE
  5
C557
330
2
100
AcDbEntity
  8
01-寸法線
 62
     4
 48
0.5
370
     9
100
AcDbLine
 10
-1396.386486318227
 20
1163.152852093025
 30
0.0
 11
-1196.497504922392
 21
1169.815818139553
 31
0.0
  0
INSERT
  5
C55A
330
2
100
AcDbEntity
  8
01-寸法線
 62
     4
 48
0.5
370
     9
100
AcDbBlockReference
  2
_OPEN
 10
-1414.043346341526
 20
1242.608722197872
 30
0.0
 41
30.00000000000038
 42
30.00000000000038
 43
30.00000000000038
 50
12.71607530785923
  0
TEXT
  5
C56A
330
2
100
AcDbEntity
  8
08-下線
100
AcDbText
 10
-1643.095776195323
 20
1471.12447495472
 30
0.0
 40
65.0
  1
%%UＡ部詳細図
  7
ｵﾘｼﾞﾅﾙｽﾀｲﾙ
 72
     1
 11
-1405.381490481037
 21
1457.753046383292
 31
0.0
100
AcDbText
 73
     1
  0
DIMENSION
  5
C58A
330
2
100
AcDbEntity
  8
01-寸法線
 48
0.5
100
AcDbDimension
  2
*D23
 10
-5365.381490481036
 20
4192.753046383291
 30
0.0
 11
-5399.131490481037
 21
4287.973046383291
 31
0.0
 70
    32
 71
     5
 42
45.0
  3
スタイル15
100
AcDbAlignedDimension
 13
-5165.381490481036
 23
4147.753046383292
 33
0.0
 14
-5165.381490481036
 24
4192.753046383291
 34
0.0
 50
90.0
100
AcDbRotatedDimension
  0
LINE
  5
C5B2
330
2
100
AcDbEntity
  8
02-外形線
 48
0.5
100
AcDbLine
 10
-6693.881490481037
 20
2981.253046383292
 30
0.0
 11
-6693.881490481037
 21
2964.253046383293
 31
0.0
  0
LINE
  5
C5B3
330
2
100
AcDbEntity
  8
02-外形線
 48
0.5
100
AcDbLine
 10
-6693.881490481039
 20
1131.253046383292
 30
0.0
 11
-6693.881490481039
 21
1114.253046383292
 31
0.0
  0
DIMENSION
  5
C5E2
330
2
100
AcDbEntity
  8
01-寸法線
 48
0.5
100
AcDbDimension
  2
*D24
 10
-3165.381490481036
 20
3847.753046383292
 30
0.0
 11
-4165.381490481036
 21
3881.503046383292
 31
0.0
 70
    32
 71
     5
 42
2000.0
  3
スタイル15
100
AcDbAlignedDimension
 13
-5165.381490481036
 23
4147.753046383292
 33
0.0
 14
-3165.381490481036
 24
4147.753046383292
 34
0.0
100
AcDbRotatedDimension
  0
LINE
  5
C63E
330
2
100
AcDbEntity
  8
02-外形線
 48
0.5
100
AcDbLine
 10
-1414.711493256248
 20
1262.653129639541
 30
0.0
 11
-1711.781463381075
 21
1262.653129639541
 31
0.0
  0
LINE
  5
C65A
330
2
100
AcDbEntity
  8
01-寸法線
 62
     4
 48
0.5
370
     9
100
AcDbLine
 10
-1396.378159922911
 20
1162.653129639541
 30
0.0
 11
-1129.711493256247
 21
1162.653129639541
 31
0.0
  0
LINE
  5
C65B
330
2
100
AcDbEntity
  8
01-寸法線
 62
     4
 48
0.5
370
     9
100
AcDbLine
 10
-1399.711493256248
 20
1262.653129639541
 30
0.0
 11
-1129.711493256247
 21
1262.653129639541
 31
0.0
  0
LINE
  5
C65C
330
2
100
AcDbEntity
  8
01-寸法線
 62
     4
 48
0.5
370
     9
100
AcDbLine
 10
-1144.711493256247
 20
1192.653129639541
 30
0.0
 11
-1144.711493256247
 21
1232.653129639541
 31
0.0
  0
INSERT
  5
C65D
330
2
100
AcDbEntity
  8
01-寸法線
 62
     4
 48
0.5
370
     9
100
AcDbBlockReference
  2
_OPEN
 10
-1144.711493256247
 20
1162.653129639541
 30
0.0
 41
30.0
 42
30.0
 43
30.0
 50
270.0
  0
INSERT
  5
C65E
330
2
100
AcDbEntity
  8
01-寸法線
 62
     4
 48
0.5
370
     9
100
AcDbBlockReference
  2
_OPEN
 10
-1144.711493256247
 20
1262.653129639541
 30
0.0
 41
30.0
 42
30.0
 43
30.0
 50
90.0
  0
MTEXT
  5
C65F
330
2
100
AcDbEntity
  8
01-寸法線
 62
     4
 48
0.5
100
AcDbMText
 10
-1178.461493256248
 20
1212.65312963954
 30
0.0
 40
52.5
 41
0.0
 71
     5
 72
     1
  1
\A1;25
  7
ｵﾘｼﾞﾅﾙｽﾀｲﾙ
 11
0.0000000000000001
 21
1.0
 31
0.0
 73
     1
 44
1.0
  0
LINE
  5
C667
330
2
100
AcDbEntity
  8
02-外形線
 48
0.5
100
AcDbLine
 10
-6690.380565668239
 20
4297.753046383292
 30
0.0
 11
-6691.21405313704
 21
4272.753046383292
 31
0.0
  0
LINE
  5
C673
330
2
100
AcDbEntity
  8
02-外形線
 48
0.5
100
AcDbLine
 10
-6289.548157147703
 20
4272.753046383292
 30
0.0
 11
-6323.291351233933
 21
4220.973012814021
 31
0.0
  0
LINE
  5
C674
330
2
100
AcDbEntity
  8
02-外形線
 48
0.5
100
AcDbLine
 10
-6287.882415636071
 20
4222.780801034335
 30
0.0
 11
-6292.929577845815
 21
4224.112357128606
 31
0.0
  0
LINE
  5
C675
330
2
100
AcDbEntity
  8
02-外形線
 48
0.5
100
AcDbLine
 10
-6323.291351233934
 20
4220.973012814023
 30
0.0
 11
-6322.738441403728
 21
4216.410123606769
 31
0.0
  0
LINE
  5
C676
330
2
100
AcDbEntity
  8
02-外形線
 48
0.5
100
AcDbLine
 10
-6311.631781406939
 20
4210.065673298448
 30
0.0
 11
-6316.221361858807
 21
4210.313500806682
 31
0.0
  0
LINE
  5
C677
330
2
100
AcDbEntity
  8
02-外形線
 48
0.5
100
AcDbLine
 10
-6292.929577845815
 20
4224.112357128606
 30
0.0
 11
-6311.631781406937
 21
4210.065673298448
 31
0.0
  0
LINE
  5
C678
330
2
100
AcDbEntity
  8
02-外形線
 48
0.5
100
AcDbLine
 10
-6316.221361858804
 20
4210.313500806682
 30
0.0
 11
-6322.738441403728
 21
4216.410123606769
 31
0.0
  0
LINE
  5
C679
330
2
100
AcDbEntity
  8
02-外形線
 48
0.5
100
AcDbLine
 10
-6287.882415636071
 20
4222.780801034335
 30
0.0
 11
-6285.381490481038
 21
4147.753046383292
 31
0.0
  0
LINE
  5
C67B
330
2
100
AcDbEntity
  8
02-外形線
 48
0.5
100
AcDbLine
 10
-6691.214823814371
 20
4272.753046383292
 30
0.0
 11
-6657.471629728141
 21
4220.973012814021
 31
0.0
  0
LINE
  5
C67C
330
2
100
AcDbEntity
  8
02-外形線
 48
0.5
100
AcDbLine
 10
-6692.880565326003
 20
4222.780801034335
 30
0.0
 11
-6687.833403116258
 21
4224.112357128606
 31
0.0
  0
LINE
  5
C67D
330
2
100
AcDbEntity
  8
02-外形線
 48
0.5
100
AcDbLine
 10
-6657.471629728139
 20
4220.973012814023
 30
0.0
 11
-6658.024539558344
 21
4216.410123606769
 31
0.0
  0
LINE
  5
C67E
330
2
100
AcDbEntity
  8
02-外形線
 48
0.5
100
AcDbLine
 10
-6669.131199555135
 20
4210.065673298448
 30
0.0
 11
-6664.541619103268
 21
4210.313500806682
 31
0.0
  0
LINE
  5
C67F
330
2
100
AcDbEntity
  8
02-外形線
 48
0.5
100
AcDbLine
 10
-6687.833403116258
 20
4224.112357128606
 30
0.0
 11
-6669.131199555137
 21
4210.065673298448
 31
0.0
  0
LINE
  5
C680
330
2
100
AcDbEntity
  8
02-外形線
 48
0.5
100
AcDbLine
 10
-6664.541619103269
 20
4210.313500806682
 30
0.0
 11
-6658.024539558344
 21
4216.410123606769
 31
0.0
  0
LINE
  5
C681
330
2
100
AcDbEntity
  8
02-外形線
 48
0.5
100
AcDbLine
 10
-6692.880098643678
 20
4222.780924155739
 30
0.0
 11
-6695.381490481037
 21
4147.753046383292
 31
0.0
  0
CIRCLE
  5
C686
330
2
100
AcDbEntity
  8
01-寸法線
 48
0.5
100
AcDbCircle
 10
-6288.715286391888
 20
4247.766923708814
 30
0.0
 40
75.0
  0
TEXT
  5
C687
330
2
100
AcDbEntity
  8
08-下線
100
AcDbText
 10
-6265.421572332662
 20
4345.50024807483
 30
0.0
 40
52.5
  1
Ａ部
  7
ｵﾘｼﾞﾅﾙｽﾀｲﾙ
 11
-6265.421572332662
 21
4334.700248074829
 31
0.0
100
AcDbText
 73
     1
  0
LINE
  5
C68B
330
2
100
AcDbEntity
  8
02-外形線
 48
0.5
100
AcDbLine
 10
-6691.214823814371
 20
3047.753046383292
 30
0.0
 11
-6691.214823814371
 21
1047.753046383292
 31
0.0
  0
LINE
  5
C68C
330
2
100
AcDbEntity
  8
02-外形線
 48
0.5
100
AcDbLine
 10
-6289.548157147702
 20
3047.753046383292
 30
0.0
 11
-6289.548157147702
 21
1047.753046383292
 31
0.0
  0
LINE
  5
C68D
330
2
100
AcDbEntity
  8
02-外形線
 48
0.5
100
AcDbLine
 10
-6692.88009864368
 20
3047.753046383292
 30
0.0
 11
-6692.88009864368
 21
1047.753046383292
 31
0.0
  0
LINE
  5
C68E
330
2
100
AcDbEntity
  8
02-外形線
 48
0.5
100
AcDbLine
 10
-6288.391725647136
 20
3047.753046383292
 30
0.0
 11
-6289.258615827471
 21
1047.753046383292
 31
0.0
  0
LINE
  5
C68F
330
2
100
AcDbEntity
  8
03-隠れ線
 48
0.5
100
AcDbLine
 10
-6292.929577845816
 20
3047.753046383292
 30
0.0
 11
-6292.929577845816
 21
1047.753046383292
 31
0.0
  0
LINE
  5
C690
330
2
100
AcDbEntity
  8
03-隠れ線
 48
0.5
100
AcDbLine
 10
-6687.833403116258
 20
3047.753046383292
 30
0.0
 11
-6687.833403116258
 21
1047.753046383292
 31
0.0
  0
LINE
  5
C691
330
2
100
AcDbEntity
  8
03-隠れ線
 48
0.5
100
AcDbLine
 10
-6657.471629728139
 20
3047.753046383292
 30
0.0
 11
-6657.471629728141
 21
1047.753046383292
 31
0.0
  0
LINE
  5
C692
330
2
100
AcDbEntity
  8
03-隠れ線
 48
0.5
100
AcDbLine
 10
-6323.291351233933
 20
3047.753046383292
 30
0.0
 11
-6323.291351233934
 21
1047.753046383292
 31
0.0
  0
LINE
  5
C694
330
2
100
AcDbEntity
  8
03-隠れ線
 48
0.5
100
AcDbLine
 10
-5165.381490481036
 20
4210.065673298448
 30
0.0
 11
-3165.381490481036
 21
4210.065673298448
 31
0.0
  0
LINE
  5
C695
330
2
100
AcDbEntity
  8
02-外形線
 48
0.5
100
AcDbLine
 10
-5165.381490481035
 20
4272.753046383292
 30
0.0
 11
-3165.381490481036
 21
4272.753046383293
 31
0.0
  0
LINE
  5
C696
330
2
100
AcDbEntity
  8
02-外形線
 48
0.5
100
AcDbLine
 10
-5165.381490481036
 20
4224.112357128606
 30
0.0
 11
-3165.381490481036
 21
4224.112357128606
 31
0.0
  0
LINE
  5
C697
330
2
100
AcDbEntity
  8
02-外形線
 48
0.5
100
AcDbLine
 10
-5165.381490481035
 20
4222.780801034335
 30
0.0
 11
-3165.381490481036
 21
4222.780801034335
 31
0.0
  0
DIMENSION
  5
C69B
330
2
100
AcDbEntity
  8
01-寸法線
 48
0.5
100
AcDbDimension
  2
*D25
 10
-2965.381490481036
 20
4272.753046383291
 30
0.0
 11
-2999.131490481037
 21
4178.01304638329
 31
0.0
 70
    32
 71
     5
 42
25.00000000000091
  3
スタイル15
100
AcDbAlignedDimension
 13
-3165.381490481036
 23
4297.753046383292
 33
0.0
 14
-3165.381490481036
 24
4272.753046383291
 34
0.0
 50
90.0
100
AcDbRotatedDimension
  0
LINE
  5
C6AC
330
2
100
AcDbEntity
  8
02-外形線
 48
0.5
100
AcDbLine
 10
-1454.548157147703
 20
4092.753046383291
 30
0.0
 11
-1488.291351233933
 21
4040.973012814021
 31
0.0
  0
LINE
  5
C6AD
330
2
100
AcDbEntity
  8
02-外形線
 48
0.5
100
AcDbLine
 10
-1856.214823814371
 20
4092.753046383291
 30
0.0
 11
-1822.471629728141
 21
4040.973012814021
 31
0.0
  0
LINE
  5
C6AE
330
2
100
AcDbEntity
  8
02-外形線
 48
0.5
100
AcDbLine
 10
-1829.541619103269
 20
4030.313500806681
 30
0.0
 11
-1823.024539558345
 21
4036.410123606769
 31
0.0
  0
LINE
  5
C6AF
330
2
100
AcDbEntity
  8
02-外形線
 48
0.5
100
AcDbLine
 10
-1852.833403116258
 20
4044.112357128605
 30
0.0
 11
-1834.131199555137
 21
4030.065673298447
 31
0.0
  0
LINE
  5
C6B0
330
2
100
AcDbEntity
  8
02-外形線
 48
0.5
100
AcDbLine
 10
-1834.131199555135
 20
4030.065673298447
 30
0.0
 11
-1829.541619103267
 21
4030.313500806681
 31
0.0
  0
LINE
  5
C6B1
330
2
100
AcDbEntity
  8
02-外形線
 48
0.5
100
AcDbLine
 10
-1822.471629728139
 20
4040.973012814021
 30
0.0
 11
-1823.024539558345
 21
4036.410123606769
 31
0.0
  0
LINE
  5
C6B2
330
2
100
AcDbEntity
  8
02-外形線
 48
0.5
100
AcDbLine
 10
-1857.880565326002
 20
4042.780801034335
 30
0.0
 11
-1852.833403116258
 21
4044.112357128605
 31
0.0
  0
LINE
  5
C6B3
330
2
100
AcDbEntity
  8
02-外形線
 48
0.5
100
AcDbLine
 10
-1452.882415636071
 20
4042.780801034335
 30
0.0
 11
-1457.929577845815
 21
4044.112357128605
 31
0.0
  0
LINE
  5
C6B4
330
2
100
AcDbEntity
  8
02-外形線
 48
0.5
100
AcDbLine
 10
-1488.291351233934
 20
4040.973012814021
 30
0.0
 11
-1487.738441403729
 21
4036.410123606769
 31
0.0
  0
LINE
  5
C6B5
330
2
100
AcDbEntity
  8
02-外形線
 48
0.5
100
AcDbLine
 10
-1476.631781406939
 20
4030.065673298447
 30
0.0
 11
-1481.221361858806
 21
4030.313500806681
 31
0.0
  0
LINE
  5
C6B6
330
2
100
AcDbEntity
  8
02-外形線
 48
0.5
100
AcDbLine
 10
-1457.929577845815
 20
4044.112357128605
 30
0.0
 11
-1476.631781406937
 21
4030.065673298447
 31
0.0
  0
LINE
  5
C6B7
330
2
100
AcDbEntity
  8
02-外形線
 48
0.5
100
AcDbLine
 10
-1481.221361858804
 20
4030.313500806681
 30
0.0
 11
-1487.738441403729
 21
4036.410123606769
 31
0.0
  0
LINE
  5
C6B8
330
2
100
AcDbEntity
  8
02-外形線
 48
0.5
100
AcDbLine
 10
-1452.882415636072
 20
4042.780801034335
 30
0.0
 11
-1450.381490481037
 21
3967.753046383291
 31
0.0
  0
LINE
  5
C6B9
330
2
100
AcDbEntity
  8
02-外形線
 48
0.5
100
AcDbLine
 10
-1856.21482381437
 20
4092.753046383291
 30
0.0
 11
-1855.381490481037
 21
4117.753046383293
 31
0.0
  0
LINE
  5
C6BA
330
2
100
AcDbEntity
  8
02-外形線
 48
0.5
100
AcDbLine
 10
-1454.548157147703
 20
3667.753046383292
 30
0.0
 11
-1454.548157147703
 21
3517.753046383293
 31
0.0
  0
LINE
  5
C6BB
330
2
100
AcDbEntity
  8
02-外形線
 48
0.5
100
AcDbLine
 10
-1452.882415636071
 20
3667.753046383293
 30
0.0
 11
-1452.882415636071
 21
3517.753046383293
 31
0.0
  0
LINE
  5
C6BC
330
2
100
AcDbEntity
  8
02-外形線
 48
0.5
100
AcDbLine
 10
-1856.21482381437
 20
3667.753046383293
 30
0.0
 11
-1856.21482381437
 21
3517.753046383293
 31
0.0
  0
LINE
  5
C6BD
330
2
100
AcDbEntity
  8
02-外形線
 48
0.5
100
AcDbLine
 10
-1857.880565326002
 20
3667.753046383293
 30
0.0
 11
-1857.880565326002
 21
3517.753046383293
 31
0.0
  0
LINE
  5
C6BE
330
2
100
AcDbEntity
  8
03-隠れ線
 48
0.5
100
AcDbLine
 10
-1852.833403116258
 20
3667.753046383293
 30
0.0
 11
-1852.833403116258
 21
3517.753046383293
 31
0.0
  0
LINE
  5
C6BF
330
2
100
AcDbEntity
  8
03-隠れ線
 48
0.5
100
AcDbLine
 10
-1457.929577845815
 20
3667.753046383293
 30
0.0
 11
-1457.929577845815
 21
3517.753046383293
 31
0.0
  0
LINE
  5
C6C0
330
2
100
AcDbEntity
  8
03-隠れ線
 48
0.5
100
AcDbLine
 10
-1488.291351233933
 20
3667.753046383293
 30
0.0
 11
-1488.291351233933
 21
3517.753046383293
 31
0.0
  0
LINE
  5
C6C1
330
2
100
AcDbEntity
  8
03-隠れ線
 48
0.5
100
AcDbLine
 10
-1822.47162972814
 20
3667.753046383293
 30
0.0
 11
-1822.47162972814
 21
3517.753046383293
 31
0.0
  0
LINE
  5
C6C2
330
2
100
AcDbEntity
  8
03-隠れ線
 48
0.5
100
AcDbLine
 10
-1100.381490481037
 20
4030.065673298446
 30
0.0
 11
-950.3814904810372
 21
4030.065673298446
 31
0.0
  0
LINE
  5
C6C3
330
2
100
AcDbEntity
  8
02-外形線
 48
0.5
100
AcDbLine
 10
-1100.381490481037
 20
4092.753046383291
 30
0.0
 11
-950.3814904810372
 21
4092.753046383291
 31
0.0
  0
LINE
  5
C6C4
330
2
100
AcDbEntity
  8
02-外形線
 48
0.5
100
AcDbLine
 10
-1100.381490481037
 20
4044.112357128605
 30
0.0
 11
-950.3814904810372
 21
4044.112357128605
 31
0.0
  0
LINE
  5
C6C5
330
2
100
AcDbEntity
  8
02-外形線
 48
0.5
100
AcDbLine
 10
-1100.381490481037
 20
4042.780801034335
 30
0.0
 11
-950.3814904810372
 21
4042.780801034335
 31
0.0
  0
TEXT
  5
D068
330
2
100
AcDbEntity
  8
08-下線
100
AcDbText
 10
-4370.781490481038
 20
2984.153046383291
 30
0.0
 40
52.5
  1
250\U+00D740\U+00D74.5
  7
ｵﾘｼﾞﾅﾙｽﾀｲﾙ
 72
     4
 11
-4140.381490481039
 21
3009.803046383292
 31
0.0
100
AcDbText
  0
DIMENSION
  5
D069
330
2
100
AcDbEntity
  8
01-寸法線
 48
0.5
100
AcDbDimension
  2
*D26
 10
-3470.381490481037
 20
3047.753046383292
 30
0.0
 11
-3515.381490481037
 21
3081.503046383292
 31
0.0
 70
    32
  1
30
 71
     5
 42
90.0
  3
スタイル15
100
AcDbAlignedDimension
 13
-3560.381490481037
 23
2637.753046383292
 33
0.0
 14
-3470.381490481037
 24
2637.753046383292
 34
0.0
100
AcDbRotatedDimension
  0
LINE
  5
D06A
330
2
100
AcDbEntity
  8
01-寸法線
 48
0.5
100
AcDbLine
 10
-3840.381490481037
 20
2697.753046383291
 30
0.0
 11
-3840.381490481039
 21
3047.753046383292
 31
0.0
  0
DIMENSION
  5
D06B
330
2
100
AcDbEntity
  8
01-寸法線
 48
0.5
100
AcDbDimension
  2
*D28
 10
-2915.381490481037
 20
2697.753046383291
 30
0.0
 11
-2949.131490481038
 21
2637.753046383291
 31
0.0
 70
    32
  1
40
 71
     5
 42
120.0
  3
スタイル15
100
AcDbAlignedDimension
 13
-3365.381490481037
 23
2577.753046383292
 33
0.0
 14
-3365.381490481037
 24
2697.753046383292
 34
0.0
 50
90.0
100
AcDbRotatedDimension
  0
DIMENSION
  5
D06C
330
2
100
AcDbEntity
  8
01-寸法線
 48
0.5
100
AcDbDimension
  2
*D27
 10
-3015.381490481037
 20
2615.253046383291
 30
0.0
 11
-3049.131490481038
 21
2753.073046383291
 31
0.0
 70
    32
  1
15
 71
     5
 42
45.0
  3
スタイル15
100
AcDbAlignedDimension
 13
-3492.881490481038
 23
2660.253046383292
 33
0.0
 14
-3492.881490481038
 24
2615.253046383292
 34
0.0
 50
90.0
100
AcDbRotatedDimension
1001
ACAD
1000
DSTYLE
1002
{
1070
   280
1070
     1
1002
}
  0
LINE
  5
D06D
330
2
100
AcDbEntity
  8
06-中心線
 48
0.5
100
AcDbLine
 10
-4315.381490481038
 20
2847.753046383292
 30
0.0
 11
-3165.381490481037
 21
2847.753046383292
 31
0.0
  0
TEXT
  5
D06E
330
2
100
AcDbEntity
  8
08-下線
100
AcDbText
 10
-3308.045788595131
 20
1812.653046383293
 30
0.0
 40
52.5
  1
(ﾒｯｷ)
  7
ｵﾘｼﾞﾅﾙｽﾀｲﾙ
 72
     4
 11
-3212.045788595131
 21
1839.803046383293
 31
0.0
100
AcDbText
  0
LINE
  5
D06F
330
2
100
AcDbEntity
  8
01-寸法線
 48
0.5
100
AcDbLine
 10
-3397.045788595131
 20
1877.753046383292
 30
0.0
 11
-3027.045788595131
 21
1877.753046383293
 31
0.0
  0
TEXT
  5
D070
330
2
100
AcDbEntity
  8
08-下線
100
AcDbText
 10
-3365.645788595131
 20
1888.253046383292
 30
0.0
 40
52.5
  1
ﾎﾞﾙﾄ M12
  7
ｵﾘｼﾞﾅﾙｽﾀｲﾙ
 72
     4
 11
-3212.045788595131
 21
1915.703046383292
 31
0.0
100
AcDbText
  0
LINE
  5
D071
330
2
100
AcDbEntity
  8
01-寸法線
 48
0.5
100
AcDbLine
 10
-3313.7896583782
 20
1252.753046383292
 30
0.0
 11
-2893.7896583782
 21
1252.753046383293
 31
0.0
  0
TEXT
  5
D072
330
2
100
AcDbEntity
  8
08-下線
100
AcDbText
 10
-3276.589658378201
 20
1263.553046383292
 30
0.0
 40
52.5
  1
ｲﾝｻｰﾄ M12
  7
ｵﾘｼﾞﾅﾙｽﾀｲﾙ
 72
     4
 11
-3103.789658378201
 21
1290.703046383292
 31
0.0
100
AcDbText
  0
LINE
  5
D073
330
2
100
AcDbEntity
  8
06-中心線
 48
0.5
100
AcDbLine
 10
-4315.381490481036
 20
1452.753046383292
 30
0.0
 11
-3165.381490481037
 21
1452.753046383292
 31
0.0
  0
TEXT
  5
D074
330
2
100
AcDbEntity
  8
08-下線
100
AcDbText
 10
-4719.581490481036
 20
713.5530463832918
 30
0.0
 40
52.5
  1
2.電気亜鉛ﾒｯｷ(JIS H 8610)2種3級または同等以上のもの
  7
ｵﾘｼﾞﾅﾙｽﾀｲﾙ
 11
-4719.581490481036
 21
702.7530463832918
 31
0.0
100
AcDbText
 73
     1
  0
TEXT
  5
D075
330
2
100
AcDbEntity
  8
08-下線
100
AcDbText
 10
-4719.581490481036
 20
963.5530463832918
 30
0.0
 40
52.5
  1
　連結ﾌﾟﾚｰﾄ、ﾎﾞﾙﾄ、ﾜｯｼｬｰ、ｲﾝｻｰﾄの仕様
  7
ｵﾘｼﾞﾅﾙｽﾀｲﾙ
 11
-4719.581490481036
 21
952.7530463832917
 31
0.0
100
AcDbText
 73
     1
  0
TEXT
  5
D076
330
2
100
AcDbEntity
  8
08-下線
100
AcDbText
 10
-4719.581490481036
 20
838.5530463832918
 30
0.0
 40
52.5
  1
1.材質はSS400または同等以上のもの
  7
ｵﾘｼﾞﾅﾙｽﾀｲﾙ
 11
-4719.581490481036
 21
827.7530463832917
 31
0.0
100
AcDbText
 73
     1
  0
LINE
  5
D077
330
2
100
AcDbEntity
  8
02-外形線
 48
0.5
100
AcDbLine
 10
-3489.881490481038
 20
1677.753046383292
 30
0.0
 11
-3489.881490481038
 21
1569.753046383292
 31
0.0
  0
LINE
  5
D078
330
2
100
AcDbEntity
  8
02-外形線
 48
0.5
100
AcDbLine
 10
-3540.881490481037
 20
1677.753046383292
 30
0.0
 11
-3540.881490481037
 21
1569.753046383292
 31
0.0
  0
LINE
  5
D079
330
2
100
AcDbEntity
  8
02-外形線
 48
0.5
100
AcDbLine
 10
-3497.381490481037
 20
1602.753046383291
 30
0.0
 11
-3497.381490481037
 21
1677.753046383292
 31
0.0
  0
LINE
  5
D07A
330
2
100
AcDbEntity
  8
02-外形線
 48
0.5
100
AcDbLine
 10
-3533.381490481037
 20
1677.753046383292
 30
0.0
 11
-3533.381490481037
 21
1602.753046383291
 31
0.0
  0
LINE
  5
D07B
330
2
100
AcDbEntity
  8
02-外形線
 48
0.5
100
AcDbLine
 10
-3947.381490481039
 20
1602.753046383291
 30
0.0
 11
-3947.381490481039
 21
1677.753046383292
 31
0.0
  0
LINE
  5
D07C
330
2
100
AcDbEntity
  8
02-外形線
 48
0.5
100
AcDbLine
 10
-3939.881490481038
 20
1677.753046383292
 30
0.0
 11
-3939.881490481038
 21
1569.753046383292
 31
0.0
  0
LINE
  5
D07D
330
2
100
AcDbEntity
  8
06-中心線
 48
0.5
100
AcDbLine
 10
-3215.381490481037
 20
1727.753046383291
 30
0.0
 11
-3215.381490481037
 21
1405.26041172995
 31
0.0
  0
LINE
  5
D07E
330
2
100
AcDbEntity
  8
02-外形線
 48
0.5
100
AcDbLine
 10
-3740.381490481037
 20
1677.753046383292
 30
0.0
 11
-3740.381490481037
 21
1452.753046383292
 31
0.0
  0
LINE
  5
D07F
330
2
100
AcDbEntity
  8
02-外形線
 48
0.5
100
AcDbLine
 10
-3990.881490481039
 20
1677.753046383292
 30
0.0
 11
-3990.881490481039
 21
1569.753046383292
 31
0.0
  0
LINE
  5
D080
330
2
100
AcDbEntity
  8
02-外形線
 48
0.5
100
AcDbLine
 10
-3983.381490481039
 20
1677.753046383292
 30
0.0
 11
-3983.381490481039
 21
1602.753046383291
 31
0.0
  0
LINE
  5
D081
330
2
100
AcDbEntity
  8
06-中心線
 48
0.5
100
AcDbLine
 10
-4265.381490481036
 20
1727.753046383291
 30
0.0
 11
-4265.381490481036
 21
1402.753046383292
 31
0.0
  0
LINE
  5
D082
330
2
100
AcDbEntity
  8
02-外形線
 48
0.5
100
AcDbLine
 10
-3939.881490481038
 20
1569.753046383292
 30
0.0
 11
-3923.381490481039
 21
1569.753046383292
 31
0.0
  0
LINE
  5
D083
330
2
100
AcDbEntity
  8
02-外形線
 48
0.5
100
AcDbLine
 10
-3923.381490481039
 20
1569.753046383292
 30
0.0
 11
-3923.381490481039
 21
1557.753046383291
 31
0.0
  0
LINE
  5
D084
330
2
100
AcDbEntity
  8
02-外形線
 48
0.5
100
AcDbLine
 10
-4007.381490481039
 20
1557.753046383291
 30
0.0
 11
-4007.381490481039
 21
1569.753046383292
 31
0.0
  0
LINE
  5
D085
330
2
100
AcDbEntity
  8
02-外形線
 48
0.5
100
AcDbLine
 10
-4007.381490481039
 20
1569.753046383292
 30
0.0
 11
-3990.881490481039
 21
1569.753046383292
 31
0.0
  0
LINE
  5
D086
330
2
100
AcDbEntity
  8
02-外形線
 48
0.5
100
AcDbLine
 10
-3983.381490481039
 20
1602.753046383291
 30
0.0
 11
-3947.381490481039
 21
1602.753046383291
 31
0.0
  0
LINE
  5
D087
330
2
100
AcDbEntity
  8
02-外形線
 48
0.5
100
AcDbLine
 10
-3923.381490481039
 20
1557.753046383291
 30
0.0
 11
-4007.381490481039
 21
1557.753046383291
 31
0.0
  0
LINE
  5
D088
330
2
100
AcDbEntity
  8
02-外形線
 48
0.5
100
AcDbLine
 10
-3983.381490481039
 20
1623.153046383291
 30
0.0
 11
-3947.381490481039
 21
1623.153046383291
 31
0.0
  0
LINE
  5
D089
330
2
100
AcDbEntity
  8
02-外形線
 48
0.5
100
AcDbLine
 10
-3983.381490481039
 20
1623.153046383291
 30
0.0
 11
-3947.381490481039
 21
1625.403046383291
 31
0.0
  0
LINE
  5
D08A
330
2
100
AcDbEntity
  8
02-外形線
 48
0.5
100
AcDbLine
 10
-3983.381490481039
 20
1629.153046383291
 30
0.0
 11
-3947.381490481039
 21
1631.403046383291
 31
0.0
  0
LINE
  5
D08B
330
2
100
AcDbEntity
  8
02-外形線
 48
0.5
100
AcDbLine
 10
-3983.381490481039
 20
1635.153046383291
 30
0.0
 11
-3947.381490481039
 21
1637.403046383291
 31
0.0
  0
LINE
  5
D08C
330
2
100
AcDbEntity
  8
01-寸法線
 48
0.5
100
AcDbLine
 10
-3489.881490481035
 20
1557.753046383291
 30
0.0
 11
-3313.7896583782
 21
1252.753046383292
 31
0.0
  0
LINE
  5
D08D
330
2
100
AcDbEntity
  8
02-外形線
 48
0.5
100
AcDbLine
 10
-3473.381490481037
 20
1557.753046383291
 30
0.0
 11
-3557.381490481037
 21
1557.753046383291
 31
0.0
  0
LINE
  5
D08E
330
2
100
AcDbEntity
  8
02-外形線
 48
0.5
100
AcDbLine
 10
-3557.381490481037
 20
1569.753046383292
 30
0.0
 11
-3540.881490481037
 21
1569.753046383292
 31
0.0
  0
LINE
  5
D08F
330
2
100
AcDbEntity
  8
02-外形線
 48
0.5
100
AcDbLine
 10
-3557.381490481037
 20
1557.753046383291
 30
0.0
 11
-3557.381490481037
 21
1569.753046383292
 31
0.0
  0
LINE
  5
D090
330
2
100
AcDbEntity
  8
02-外形線
 48
0.5
100
AcDbLine
 10
-3473.381490481037
 20
1569.753046383292
 30
0.0
 11
-3473.381490481037
 21
1557.753046383291
 31
0.0
  0
LINE
  5
D091
330
2
100
AcDbEntity
  8
02-外形線
 48
0.5
100
AcDbLine
 10
-3489.881490481038
 20
1569.753046383292
 30
0.0
 11
-3473.381490481037
 21
1569.753046383292
 31
0.0
  0
LINE
  5
D092
330
2
100
AcDbEntity
  8
02-外形線
 48
0.5
100
AcDbLine
 10
-3533.381490481037
 20
1635.153046383291
 30
0.0
 11
-3497.381490481037
 21
1637.403046383291
 31
0.0
  0
LINE
  5
D093
330
2
100
AcDbEntity
  8
02-外形線
 48
0.5
100
AcDbLine
 10
-3533.381490481037
 20
1629.153046383291
 30
0.0
 11
-3497.381490481037
 21
1631.403046383291
 31
0.0
  0
LINE
  5
D094
330
2
100
AcDbEntity
  8
02-外形線
 48
0.5
100
AcDbLine
 10
-3533.381490481037
 20
1602.753046383291
 30
0.0
 11
-3497.381490481037
 21
1602.753046383291
 31
0.0
  0
LINE
  5
D095
330
2
100
AcDbEntity
  8
02-外形線
 48
0.5
100
AcDbLine
 10
-3533.381490481037
 20
1623.153046383291
 30
0.0
 11
-3497.381490481037
 21
1623.153046383291
 31
0.0
  0
LINE
  5
D096
330
2
100
AcDbEntity
  8
02-外形線
 48
0.5
100
AcDbLine
 10
-3533.381490481037
 20
1623.153046383291
 30
0.0
 11
-3497.381490481037
 21
1625.403046383291
 31
0.0
  0
INSERT
  5
D097
330
2
100
AcDbEntity
  8
01-寸法線
 62
     4
 48
0.5
370
    13
100
AcDbBlockReference
  2
_OPEN
 10
-3489.881490481036
 20
1557.753046383292
 30
0.0
 41
29.99999999999993
 42
29.99999999999993
 43
29.99999999999993
 50
120.0000000000001
  0
LINE
  5
D098
330
2
100
AcDbEntity
  8
02-外形線
 48
0.5
100
AcDbLine
 10
-4115.381490481037
 20
1691.253046383292
 30
0.0
 11
-3365.381490481039
 21
1691.253046383292
 31
0.0
  0
LINE
  5
D099
330
2
100
AcDbEntity
  8
02-外形線
 48
0.5
100
AcDbLine
 10
-3365.381490481039
 20
1677.753046383292
 30
0.0
 11
-4115.381490481037
 21
1677.753046383292
 31
0.0
  0
LINE
  5
D09A
330
2
100
AcDbEntity
  8
02-外形線
 48
0.5
100
AcDbLine
 10
-4265.381490481036
 20
1677.753046383292
 30
0.0
 11
-3215.381490481037
 21
1677.753046383292
 31
0.0
  0
TEXT
  5
D09B
330
2
100
AcDbEntity
  8
08-下線
100
AcDbText
 10
-4339.073598827495
 20
1812.653046383292
 30
0.0
 40
52.5
  1
(ﾒｯｷ)
  7
ｵﾘｼﾞﾅﾙｽﾀｲﾙ
 72
     4
 11
-4243.073598827495
 21
1839.803046383292
 31
0.0
100
AcDbText
  0
LINE
  5
D09C
330
2
100
AcDbEntity
  8
01-寸法線
 48
0.5
100
AcDbLine
 10
-4004.381490481039
 20
1698.153046383291
 30
0.0
 11
-4108.073598827496
 21
1877.753046383293
 31
0.0
  0
LINE
  5
D09D
330
2
100
AcDbEntity
  8
02-外形線
 48
0.5
100
AcDbLine
 10
-4115.381490481037
 20
1691.253046383292
 30
0.0
 11
-4115.381490481037
 21
1677.753046383292
 31
0.0
  0
LINE
  5
D09E
330
2
100
AcDbEntity
  8
02-外形線
 48
0.5
100
AcDbLine
 10
-3926.381490481039
 20
1698.153046383291
 30
0.0
 11
-3926.381490481039
 21
1691.253046383292
 31
0.0
  0
LINE
  5
D09F
330
2
100
AcDbEntity
  8
02-外形線
 48
0.5
100
AcDbLine
 10
-3936.881490481038
 20
1722.153046383291
 30
0.0
 11
-3936.881490481038
 21
1698.153046383291
 31
0.0
  0
LINE
  5
D0A0
330
2
100
AcDbEntity
  8
02-外形線
 48
0.5
100
AcDbLine
 10
-4004.381490481039
 20
1691.253046383292
 30
0.0
 11
-4004.381490481039
 21
1698.153046383291
 31
0.0
  0
LINE
  5
D0A1
330
2
100
AcDbEntity
  8
02-外形線
 48
0.5
100
AcDbLine
 10
-3993.881490481039
 20
1698.153046383291
 30
0.0
 11
-3993.881490481039
 21
1722.153046383291
 31
0.0
  0
LINE
  5
D0A2
330
2
100
AcDbEntity
  8
02-外形線
 48
0.5
100
AcDbLine
 10
-3965.381490481039
 20
1698.153046383291
 30
0.0
 11
-3965.381490481039
 21
1722.153046383291
 31
0.0
  0
LINE
  5
D0A3
330
2
100
AcDbEntity
  8
02-外形線
 48
0.5
100
AcDbLine
 10
-3983.381490481039
 20
1677.153046383291
 30
0.0
 11
-3973.781490481033
 21
1677.753046383292
 31
0.0
  0
INSERT
  5
D0A4
330
2
100
AcDbEntity
  8
01-寸法線
 62
     4
 48
0.5
370
    13
100
AcDbBlockReference
  2
_OPEN
 10
-4004.381490481038
 20
1698.153046383292
 30
0.0
 41
30.00000000000021
 42
30.00000000000021
 43
30.00000000000021
 50
300.0000000000018
  0
LINE
  5
D0A5
330
2
100
AcDbEntity
  8
02-外形線
 48
0.5
100
AcDbLine
 10
-4004.381490481039
 20
1698.153046383291
 30
0.0
 11
-3926.381490481039
 21
1698.153046383291
 31
0.0
  0
LINE
  5
D0A6
330
2
100
AcDbEntity
  8
02-外形線
 48
0.5
100
AcDbLine
 10
-3993.881490481039
 20
1722.153046383291
 30
0.0
 11
-3936.881490481038
 21
1722.153046383291
 31
0.0
  0
LINE
  5
D0A7
330
2
100
AcDbEntity
  8
02-外形線
 48
0.5
100
AcDbLine
 10
-3983.381490481039
 20
1641.153046383291
 30
0.0
 11
-3947.381490481039
 21
1643.403046383291
 31
0.0
  0
LINE
  5
D0A8
330
2
100
AcDbEntity
  8
02-外形線
 48
0.5
100
AcDbLine
 10
-3983.381490481039
 20
1647.153046383291
 30
0.0
 11
-3947.381490481039
 21
1649.403046383291
 31
0.0
  0
LINE
  5
D0A9
330
2
100
AcDbEntity
  8
02-外形線
 48
0.5
100
AcDbLine
 10
-3983.381490481039
 20
1653.153046383291
 30
0.0
 11
-3947.381490481039
 21
1655.403046383291
 31
0.0
  0
LINE
  5
D0AA
330
2
100
AcDbEntity
  8
02-外形線
 48
0.5
100
AcDbLine
 10
-3983.381490481039
 20
1659.153046383291
 30
0.0
 11
-3947.381490481039
 21
1661.403046383291
 31
0.0
  0
LINE
  5
D0AB
330
2
100
AcDbEntity
  8
02-外形線
 48
0.5
100
AcDbLine
 10
-3983.381490481039
 20
1665.153046383291
 30
0.0
 11
-3947.381490481039
 21
1667.403046383291
 31
0.0
  0
LINE
  5
D0AC
330
2
100
AcDbEntity
  8
02-外形線
 48
0.5
100
AcDbLine
 10
-3983.381490481039
 20
1671.153046383291
 30
0.0
 11
-3947.381490481039
 21
1673.403046383291
 31
0.0
  0
TEXT
  5
D0AD
330
2
100
AcDbEntity
  8
08-下線
100
AcDbText
 10
-4339.073598827495
 20
1892.603046383291
 30
0.0
 40
52.5
  1
ﾜｯｼｬｰ
  7
ｵﾘｼﾞﾅﾙｽﾀｲﾙ
 72
     4
 11
-4243.073598827495
 21
1915.703046383292
 31
0.0
100
AcDbText
  0
LINE
  5
D0AE
330
2
100
AcDbEntity
  8
01-寸法線
 48
0.5
100
AcDbLine
 10
-4378.073598827495
 20
1877.753046383291
 30
0.0
 11
-4108.073598827496
 21
1877.753046383292
 31
0.0
  0
LINE
  5
D0AF
330
2
100
AcDbEntity
  8
01-寸法線
 48
0.5
100
AcDbLine
 10
-3486.881490481037
 20
1722.153046383291
 30
0.0
 11
-3397.045788595131
 21
1877.753046383293
 31
0.0
  0
LINE
  5
D0B0
330
2
100
AcDbEntity
  8
02-外形線
 48
0.5
100
AcDbLine
 10
-3543.881490481037
 20
1722.153046383291
 30
0.0
 11
-3486.881490481037
 21
1722.153046383291
 31
0.0
  0
LINE
  5
D0B1
330
2
100
AcDbEntity
  8
02-外形線
 48
0.5
100
AcDbLine
 10
-3554.381490481037
 20
1698.153046383291
 30
0.0
 11
-3476.381490481037
 21
1698.153046383291
 31
0.0
  0
LINE
  5
D0B2
330
2
100
AcDbEntity
  8
02-外形線
 48
0.5
100
AcDbLine
 10
-3543.881490481037
 20
1698.153046383291
 30
0.0
 11
-3543.881490481037
 21
1722.153046383291
 31
0.0
  0
LINE
  5
D0B3
330
2
100
AcDbEntity
  8
02-外形線
 48
0.5
100
AcDbLine
 10
-3554.381490481037
 20
1691.253046383292
 30
0.0
 11
-3554.381490481037
 21
1698.153046383291
 31
0.0
  0
LINE
  5
D0B4
330
2
100
AcDbEntity
  8
02-外形線
 48
0.5
100
AcDbLine
 10
-3486.881490481037
 20
1722.153046383291
 30
0.0
 11
-3486.881490481037
 21
1698.153046383291
 31
0.0
  0
LINE
  5
D0B5
330
2
100
AcDbEntity
  8
02-外形線
 48
0.5
100
AcDbLine
 10
-3476.381490481037
 20
1698.153046383291
 30
0.0
 11
-3476.381490481037
 21
1691.253046383292
 31
0.0
  0
INSERT
  5
D0B6
330
2
100
AcDbEntity
  8
01-寸法線
 62
     4
 48
0.5
370
    13
100
AcDbBlockReference
  2
_OPEN
 10
-3486.881490481037
 20
1722.153046383291
 30
0.0
 41
29.99999999999993
 42
29.99999999999993
 43
29.99999999999993
 50
239.9999999999999
  0
LINE
  5
D0B7
330
2
100
AcDbEntity
  8
02-外形線
 48
0.5
100
AcDbLine
 10
-3515.381490481037
 20
1698.153046383291
 30
0.0
 11
-3515.381490481037
 21
1722.153046383291
 31
0.0
  0
LINE
  5
D0B8
330
2
100
AcDbEntity
  8
02-外形線
 48
0.5
100
AcDbLine
 10
-3533.381490481037
 20
1677.153046383291
 30
0.0
 11
-3523.781490481032
 21
1677.753046383292
 31
0.0
  0
LINE
  5
D0B9
330
2
100
AcDbEntity
  8
02-外形線
 48
0.5
100
AcDbLine
 10
-3533.381490481037
 20
1671.153046383291
 30
0.0
 11
-3497.381490481037
 21
1673.403046383291
 31
0.0
  0
LINE
  5
D0BA
330
2
100
AcDbEntity
  8
02-外形線
 48
0.5
100
AcDbLine
 10
-3533.381490481037
 20
1665.153046383291
 30
0.0
 11
-3497.381490481037
 21
1667.403046383291
 31
0.0
  0
LINE
  5
D0BB
330
2
100
AcDbEntity
  8
02-外形線
 48
0.5
100
AcDbLine
 10
-3533.381490481037
 20
1659.153046383291
 30
0.0
 11
-3497.381490481037
 21
1661.403046383291
 31
0.0
  0
LINE
  5
D0BC
330
2
100
AcDbEntity
  8
02-外形線
 48
0.5
100
AcDbLine
 10
-3533.381490481037
 20
1653.153046383291
 30
0.0
 11
-3497.381490481037
 21
1655.403046383291
 31
0.0
  0
LINE
  5
D0BD
330
2
100
AcDbEntity
  8
02-外形線
 48
0.5
100
AcDbLine
 10
-3533.381490481037
 20
1647.153046383291
 30
0.0
 11
-3497.381490481037
 21
1649.403046383291
 31
0.0
  0
LINE
  5
D0BE
330
2
100
AcDbEntity
  8
02-外形線
 48
0.5
100
AcDbLine
 10
-3533.381490481037
 20
1641.153046383291
 30
0.0
 11
-3497.381490481037
 21
1643.403046383291
 31
0.0
  0
LINE
  5
D0BF
330
2
100
AcDbEntity
  8
02-外形線
 48
0.5
100
AcDbLine
 10
-3365.381490481039
 20
1691.253046383292
 30
0.0
 11
-3365.381490481039
 21
1677.753046383292
 31
0.0
  0
DIMENSION
  5
D0C0
330
2
100
AcDbEntity
  8
01-寸法線
 48
0.5
100
AcDbDimension
  2
*D31
 10
-3365.381490481037
 20
2202.753046383291
 30
0.0
 11
-3740.381490481037
 21
2236.503046383291
 31
0.0
 70
    32
  1
250
 71
     5
 42
750.0
  3
スタイル15
100
AcDbAlignedDimension
 13
-4115.381490481037
 23
2577.753046383292
 33
0.0
 14
-3365.381490481037
 24
2577.753046383292
 34
0.0
100
AcDbRotatedDimension
  0
DIMENSION
  5
D0C1
330
2
100
AcDbEntity
  8
01-寸法線
 48
0.5
100
AcDbDimension
  2
*D30
 10
-3515.381490481037
 20
2302.753046383292
 30
0.0
 11
-3627.881490481037
 21
2336.503046383292
 31
0.0
 70
    32
  1
75
 71
     5
 42
225.0
  3
スタイル15
100
AcDbAlignedDimension
 13
-3740.381490481037
 23
2502.753046383292
 33
0.0
 14
-3515.381490481037
 24
2577.753046383292
 34
0.0
100
AcDbRotatedDimension
1001
ACAD
1000
DSTYLE
1002
{
1070
   279
1070
     1
1002
}
  0
DIMENSION
  5
D0C2
330
2
100
AcDbEntity
  8
01-寸法線
 48
0.5
100
AcDbDimension
  2
*D29
 10
-3740.381490481037
 20
2302.753046383292
 30
0.0
 11
-3852.881490481037
 21
2336.503046383292
 31
0.0
 70
    32
  1
75
 71
     5
 42
225.0
  3
スタイル15
100
AcDbAlignedDimension
 13
-3965.381490481037
 23
2577.753046383292
 33
0.0
 14
-3740.381490481037
 24
2502.753046383292
 34
0.0
100
AcDbRotatedDimension
  0
LINE
  5
D0C3
330
2
100
AcDbEntity
  8
02-外形線
 48
0.5
100
AcDbLine
 10
-3740.381490481037
 20
2577.753046383292
 30
0.0
 11
-3740.381490481037
 21
2502.753046383292
 31
0.0
  0
LINE
  5
D0C4
330
2
100
AcDbEntity
  8
01-寸法線
 48
0.5
100
AcDbLine
 10
-3976.631490481037
 20
2618.267474798142
 30
0.0
 11
-4158.793830659561
 21
2302.753046383292
 31
0.0
  0
LINE
  5
D0C5
330
2
100
AcDbEntity
  8
06-中心線
 48
0.5
100
AcDbLine
 10
-3215.381490481037
 20
2897.753046383293
 30
0.0
 11
-3215.381490481037
 21
2452.753046383292
 31
0.0
  0
LINE
  5
D0C6
330
2
100
AcDbEntity
  8
06-中心線
 48
0.5
100
AcDbLine
 10
-4265.381490481038
 20
2897.753046383293
 30
0.0
 11
-4265.381490481038
 21
2452.753046383292
 31
0.0
  0
LINE
  5
D0C7
330
2
100
AcDbEntity
  8
02-外形線
 48
0.5
100
AcDbLine
 10
-4265.381490481036
 20
2502.753046383292
 30
0.0
 11
-3215.381490481037
 21
2502.753046383292
 31
0.0
  0
MTEXT
  5
D0C8
330
2
100
AcDbEntity
  8
01-寸法線
 62
     4
100
AcDbMText
 10
-4263.793830659561
 20
2336.503046383292
 30
0.0
 40
52.5
 41
0.0
 71
     5
 72
     1
  1
\U+03C615
  7
ｵﾘｼﾞﾅﾙｽﾀｲﾙ
 73
     1
 44
1.0
  0
LINE
  5
D0C9
330
2
100
AcDbEntity
  8
01-寸法線
 48
0.5
100
AcDbLine
 10
-4328.793830659561
 20
2302.753046383291
 30
0.0
 11
-4158.793830659561
 21
2302.753046383292
 31
0.0
  0
LINE
  5
D0CA
330
2
100
AcDbEntity
  8
02-外形線
 48
0.5
100
AcDbLine
 10
-4115.381490481037
 20
2697.753046383292
 30
0.0
 11
-3365.381490481037
 21
2697.753046383292
 31
0.0
  0
LINE
  5
D0CB
330
2
100
AcDbEntity
  8
02-外形線
 48
0.5
100
AcDbLine
 10
-3365.381490481037
 20
2577.753046383292
 30
0.0
 11
-4115.381490481037
 21
2577.753046383292
 31
0.0
  0
LINE
  5
D0CC
330
2
100
AcDbEntity
  8
02-外形線
 48
0.5
100
AcDbLine
 10
-4115.381490481037
 20
2577.753046383292
 30
0.0
 11
-4115.381490481037
 21
2697.753046383292
 31
0.0
  0
INSERT
  5
D0CD
330
2
100
AcDbEntity
  8
01-寸法線
 62
     4
 48
0.5
370
    13
100
AcDbBlockReference
  2
_OPEN
 10
-3976.631490481038
 20
2618.267474798143
 30
0.0
 41
29.99999999999998
 42
29.99999999999998
 43
29.99999999999998
 50
59.99999999999997
  0
CIRCLE
  5
D0CE
330
2
100
AcDbEntity
  8
02-外形線
 48
0.5
100
AcDbCircle
 10
-3965.381490481037
 20
2637.753046383292
 30
0.0
 40
18.0
  0
CIRCLE
  5
D0CF
330
2
100
AcDbEntity
  8
02-外形線
 48
0.5
100
AcDbCircle
 10
-3965.381490481037
 20
2637.753046383292
 30
0.0
 40
22.5
  0
LINE
  5
D0D0
330
2
100
AcDbEntity
  8
02-外形線
 48
0.5
100
AcDbLine
 10
-3740.381490481037
 20
2697.753046383292
 30
0.0
 11
-3740.381490481037
 21
2847.753046383292
 31
0.0
  0
ARC
  5
D0D1
330
2
100
AcDbEntity
  8
02-外形線
 48
0.5
100
AcDbCircle
 10
-3537.881490481037
 20
2637.753046383292
 30
0.0
 40
22.5
100
AcDbArc
 50
90.0
 51
270.0
  0
INSERT
  5
D0D2
330
2
100
AcDbEntity
  8
01-寸法線
 62
     4
 48
0.5
370
    13
100
AcDbBlockReference
  2
_OPEN
 10
-3840.381490481037
 20
2697.753046383291
 30
0.0
 41
30.0
 42
30.0
 43
30.0
 50
270.0
  0
LINE
  5
D0D3
330
2
100
AcDbEntity
  8
02-外形線
 48
0.5
100
AcDbLine
 10
-3365.381490481037
 20
2697.753046383292
 30
0.0
 11
-3365.381490481037
 21
2577.753046383292
 31
0.0
  0
ARC
  5
D0D4
330
2
100
AcDbEntity
  8
02-外形線
 48
0.5
100
AcDbCircle
 10
-3492.881490481038
 20
2637.753046383292
 30
0.0
 40
22.5
100
AcDbArc
 50
270.0
 51
90.0
  0
CIRCLE
  5
D0D5
330
2
100
AcDbEntity
  8
02-外形線
 48
0.5
100
AcDbCircle
 10
-3515.381490481037
 20
2637.753046383292
 30
0.0
 40
18.0
  0
LINE
  5
D0D6
330
2
100
AcDbEntity
  8
02-外形線
 48
0.5
100
AcDbLine
 10
-3537.881490481037
 20
2660.253046383292
 30
0.0
 11
-3492.881490481038
 21
2660.253046383292
 31
0.0
  0
LINE
  5
D0D7
330
2
100
AcDbEntity
  8
02-外形線
 48
0.5
100
AcDbLine
 10
-3537.881490481037
 20
2615.253046383292
 30
0.0
 11
-3492.881490481038
 21
2615.253046383292
 31
0.0
  0
TEXT
  5
D0D8
330
2
100
AcDbEntity
  8
08-下線
100
AcDbText
 10
-3199.789658378201
 20
1187.653046383293
 30
0.0
 40
52.5
  1
(ﾒｯｷ)
  7
ｵﾘｼﾞﾅﾙｽﾀｲﾙ
 72
     4
 11
-3103.789658378201
 21
1214.803046383293
 31
0.0
100
AcDbText
  0
TEXT
  5
D0D9
330
2
100
AcDbEntity
  8
08-下線
100
AcDbText
 10
-4025.638633338179
 20
3336.124474954721
 30
0.0
 40
65.0
  1
%%U連結部詳細図
  7
ｵﾘｼﾞﾅﾙｽﾀｲﾙ
 72
     1
 11
-3740.381490481037
 21
3322.753046383292
 31
0.0
100
AcDbText
 73
     1
  0
LINE
  5
D0DA
330
2
100
AcDbEntity
  8
01-寸法線
 48
0.5
100
AcDbLine
 10
-4440.381490481038
 20
3047.75304638329
 30
0.0
 11
-3840.381490481039
 21
3047.753046383292
 31
0.0
  0
TEXT
  5
D0DB
330
2
100
AcDbEntity
  8
08-下線
100
AcDbText
 10
-4409.181490481039
 20
3058.553046383291
 30
0.0
 40
52.5
  1
連結ﾌﾟﾚｰﾄ(ﾒｯｷ)
  7
ｵﾘｼﾞﾅﾙｽﾀｲﾙ
 72
     4
 11
-4140.381490481039
 21
3085.703046383291
 31
0.0
100
AcDbText
  0
LINE
  5
D1B5
330
2
100
AcDbEntity
  8
01-寸法線
 62
     4
 48
0.5
370
     9
100
AcDbLine
 10
-1189.834538875866
 20
969.9268367437271
 30
0.0
 11
-1089.89004817795
 21
973.2583197669912
 31
0.0
  0
LINE
  5
D1B6
330
2
100
AcDbEntity
  8
01-寸法線
 62
     4
 48
0.5
370
     9
100
AcDbLine
 10
-1196.497504922393
 20
1169.815818139553
 30
0.0
 11
-1096.553014224477
 21
1173.147301162817
 31
0.0
  0
LINE
  5
D1B7
330
2
100
AcDbEntity
  8
01-寸法線
 62
     4
 48
0.5
370
     9
100
AcDbLine
 10
-1105.881166689616
 20
1002.741944522876
 30
0.0
 11
-1110.545242922186
 21
1142.664231499953
 31
0.0
  0
INSERT
  5
D1B8
330
2
100
AcDbEntity
  8
01-寸法線
 62
     4
 48
0.5
370
     9
100
AcDbBlockReference
  2
_OPEN
 10
-1104.881721782637
 20
972.7585973135015
 30
0.0
 41
30.0
 42
30.0
 43
30.0
 50
271.9091524329964
  0
INSERT
  5
D1B9
330
2
100
AcDbEntity
  8
01-寸法線
 62
     4
 48
0.5
370
     9
100
AcDbBlockReference
  2
_OPEN
 10
-1111.544687829165
 20
1172.647578709328
 30
0.0
 41
30.0
 42
30.0
 43
30.0
 50
91.90915243299647
  0
MTEXT
  5
D1BD
330
2
100
AcDbEntity
  8
01-寸法線
 62
     4
 48
0.5
100
AcDbMText
 10
-1141.944470416447
 20
1071.578712491063
 30
0.0
 40
52.5
 41
0.0
 71
     5
 72
     1
  1
50
  7
ｵﾘｼﾞﾅﾙｽﾀｲﾙ
 11
-0.0348994967025007
 21
0.9993908270190956
 31
0.0
 73
     1
 44
1.0
  0
DIMENSION
  5
D373
330
2
100
AcDbEntity
  8
01-寸法線
 48
0.5
100
AcDbDimension
  2
*D36
 10
-6490.381490481036
 20
3249.271140919067
 30
0.0
 11
-6435.381490481038
 21
3283.021140919067
 31
0.0
 70
    32
 71
     5
 42
109.9999999999991
  3
スタイル15
100
AcDbAlignedDimension
 13
-6380.381490481037
 23
3047.753046383292
 33
0.0
 14
-6490.381490481036
 24
3047.753046383291
 34
0.0
100
AcDbRotatedDimension
1001
ACAD
1000
DSTYLE
1002
{
1070
   279
1070
     1
1002
}
  0
VIEWPORT
  5
295B
330
7
100
AcDbEntity
 67
     1
  8
0
100
AcDbViewport
 10
5.249999639556163
 20
3.999999883606677
 30
0.0
 40
15.11229656525498
 41
8.992999745766947
 68
     1
 69
     1
 12
5.249999639556163
 22
3.999999883606677
 13
0.0
 23
0.0
 14
10.0
 24
10.0
 15
10.0
 25
10.0
 16
0.0
 26
0.0
 36
1.0
 17
0.0
 27
0.0
 37
0.0
 42
50.0
 43
0.0
 44
0.0
 45
8.992999745766947
 50
0.0
 51
0.0
 72
   100
 90
    32800
  1

281
     0
 71
     1
 74
     0
110
0.0
120
0.0
130
0.0
111
1.0
121
0.0
131
0.0
112
0.0
122
1.0
132
0.0
 79
     0
146
0.0
170
     0
  0
VIEWPORT
  5
295D
330
7
100
AcDbEntity
 67
     1
  8
04-鉄筋線
100
AcDbViewport
 10
5.24999976158142
 20
3.99999976158142
 30
0.0
 40
8.399999618530271
 41
6.399999618530272
 68
     2
 69
     2
 12
3712.5
 22
2625.0
 13
0.0
 23
0.0
 14
100.0
 24
100.0
 15
0.0
 25
0.0
 16
0.0
 26
0.0
 36
1.0
 17
0.0
 27
0.0
 37
0.0
 42
50.0
 43
0.0
 44
0.0
 45
5340.1442243592
 50
0.0
 51
0.0
 72
   100
 90
    32768
  1

281
     0
 71
     1
 74
     0
110
0.0
120
0.0
130
0.0
111
1.0
121
0.0
131
0.0
112
0.0
122
1.0
132
0.0
 79
     0
146
0.0
170
     0
  0
ENDSEC
  0
SECTION
  2
OBJECTS
  0
DICTIONARY
  5
1A
330
0
100
AcDbDictionary
281
     1
  3
ACAD_CIP_PREVIOUS_PRODUCT_INFO
350
D221
  3
ACAD_COLOR
350
1FC9
  3
ACAD_DETAILVIEWSTYLE
350
D214
  3
ACAD_GROUP
350
18
  3
ACAD_LAYOUT
350
1FCC
  3
ACAD_MATERIAL
350
1FC8
  3
ACAD_MLEADERSTYLE
350
D210
  3
ACAD_MLINESTYLE
350
19
  3
ACAD_PLOTSETTINGS
350
1FCD
  3
ACAD_PLOTSTYLENAME
350
1FC6
  3
ACAD_SCALELIST
350
D1FE
  3
ACAD_SECTIONVIEWSTYLE
350
D212
  3
ACAD_TABLESTYLE
350
1FCA
  3
ACAD_VISUALSTYLE
350
D1E5
  3
ACDB_RECOMPOSE_DATA
350
D481
  3
AcDbVariableDictionary
350
1FDC
  3
AcDsDecomposeData
350
D487
  0
DICTIONARY
  5
D224
330
A
100
AcDbDictionary
280
     1
281
     1
  3
ACAD_LAYERSTATES
360
D225
  0
DICTIONARY
  5
D28B
330
4
100
AcDbDictionary
280
     1
281
     1
  3
ADSK_XREC_LAYER_RECONCILED
360
D28C
  0
DICTIONARY
  5
D28D
330
55A
100
AcDbDictionary
280
     1
281
     1
  3
ADSK_XREC_LAYER_RECONCILED
360
D28E
  0
DICTIONARY
  5
D28F
330
86C
100
AcDbDictionary
280
     1
281
     1
  3
ADSK_XREC_LAYER_RECONCILED
360
D290
  0
DICTIONARY
  5
D291
330
104E
100
AcDbDictionary
280
     1
281
     1
  3
ADSK_XREC_LAYER_RECONCILED
360
D292
  0
DICTIONARY
  5
D293
330
104F
100
AcDbDictionary
280
     1
281
     1
  3
ADSK_XREC_LAYER_RECONCILED
360
D294
  0
DICTIONARY
  5
D295
330
1050
100
AcDbDictionary
280
     1
281
     1
  3
ADSK_XREC_LAYER_RECONCILED
360
D296
  0
DICTIONARY
  5
D297
330
1051
100
AcDbDictionary
280
     1
281
     1
  3
ADSK_XREC_LAYER_RECONCILED
360
D298
  0
DICTIONARY
  5
D299
330
1052
100
AcDbDictionary
280
     1
281
     1
  3
ADSK_XREC_LAYER_RECONCILED
360
D29A
  0
DICTIONARY
  5
D29B
330
1053
100
AcDbDictionary
280
     1
281
     1
  3
ADSK_XREC_LAYER_RECONCILED
360
D29C
  0
DICTIONARY
  5
D29D
330
1054
100
AcDbDictionary
280
     1
281
     1
  3
ADSK_XREC_LAYER_RECONCILED
360
D29E
  0
DICTIONARY
  5
D29F
330
218B
100
AcDbDictionary
280
     1
281
     1
  3
ADSK_XREC_LAYER_RECONCILED
360
D2A0
  0
DICTIONARY
  5
D2A1
330
218C
100
AcDbDictionary
280
     1
281
     1
  3
ADSK_XREC_LAYER_RECONCILED
360
D2A2
  0
DICTIONARY
  5
D2A3
330
2B0E
100
AcDbDictionary
280
     1
281
     1
  3
ADSK_XREC_LAYER_RECONCILED
360
D2A4
  0
DICTIONARY
  5
D2A5
330
8DFB
100
AcDbDictionary
280
     1
281
     1
  3
ADSK_XREC_LAYER_RECONCILED
360
D2A6
  0
DICTIONARY
  5
D261
330
2
100
AcDbDictionary
280
     1
281
     1
  3
ACAD_SORTENTS
360
D262
  0
XRECORD
  5
D221
102
{ACAD_REACTORS
330
1A
102
}
330
1A
100
AcDbXrecord
280
     1
300
ACDLT
300
2013
300
ACDLT_F_S
  0
DICTIONARY
  5
1FC9
102
{ACAD_REACTORS
330
1A
102
}
330
1A
100
AcDbDictionary
281
     1
  0
DICTIONARY
  5
D214
102
{ACAD_REACTORS
330
1A
102
}
330
1A
100
AcDbDictionary
281
     1
  3
Imperial24
350
D215
  0
DICTIONARY
  5
18
102
{ACAD_REACTORS
330
1A
102
}
330
1A
100
AcDbDictionary
281
     1
  0
DICTIONARY
  5
1FCC
102
{ACAD_REACTORS
330
1A
102
}
330
1A
100
AcDbDictionary
281
     1
  3
Model
350
1FCE
  3
レイアウト1
350
1FCF
  0
DICTIONARY
  5
1FC8
102
{ACAD_REACTORS
330
1A
102
}
330
1A
100
AcDbDictionary
281
     1
  3
ByBlock
350
D1D5
  3
ByLayer
350
D1CD
  3
Global
350
D1DD
  0
DICTIONARY
  5
D210
102
{ACAD_REACTORS
330
1A
102
}
330
1A
100
AcDbDictionary
281
     1
  3
Standard
350
D211
  0
DICTIONARY
  5
19
102
{ACAD_REACTORS
330
1A
102
}
330
1A
100
AcDbDictionary
281
     1
  3
STANDARD
350
1C
  0
DICTIONARY
  5
1FCD
102
{ACAD_REACTORS
330
1A
102
}
330
1A
100
AcDbDictionary
281
     1
  0
ACDBDICTIONARYWDFLT
  5
1FC6
102
{ACAD_REACTORS
330
1A
102
}
330
1A
100
AcDbDictionary
281
     1
  3
Normal
350
1FC7
100
AcDbDictionaryWithDefault
340
1FC7
  0
DICTIONARY
  5
D1FE
102
{ACAD_REACTORS
330
1A
102
}
330
1A
100
AcDbDictionary
281
     1
  3
A0
350
D1FF
  3
A1
350
D200
  3
A2
350
D201
  3
A3
350
D202
  3
A4
350
D203
  3
A5
350
D204
  3
A6
350
D205
  3
A7
350
D206
  3
A8
350
D207
  3
A9
350
D208
  3
B0
350
D209
  3
B1
350
D20A
  3
B2
350
D20B
  3
B3
350
D20C
  3
B4
350
D20D
  3
B5
350
D20E
  3
B6
350
D20F
  0
DICTIONARY
  5
D212
102
{ACAD_REACTORS
330
1A
102
}
330
1A
100
AcDbDictionary
281
     1
  3
Imperial24
350
D213
  0
DICTIONARY
  5
1FCA
102
{ACAD_REACTORS
330
1A
102
}
330
1A
100
AcDbDictionary
281
     1
  3
Standard
350
1FCB
  0
DICTIONARY
  5
D1E5
102
{ACAD_REACTORS
330
1A
102
}
330
1A
100
AcDbDictionary
281
     1
  3
2dWireframe
350
D1EB
  3
Basic
350
D1EA
  3
Brighten
350
D1F1
  3
ColorChange
350
D1F5
  3
Conceptual
350
D1EE
  3
Dim
350
D1F0
  3
EdgeColorOff
350
D1FD
  3
Facepattern
350
D1F4
  3
Flat
350
D1E6
  3
FlatWithEdges
350
D1E7
  3
Gouraud
350
D1E8
  3
GouraudWithEdges
350
D1E9
  3
Hidden
350
D1ED
  3
JitterOff
350
D1FB
  3
Linepattern
350
D1F3
  3
OverhangOff
350
D1FC
  3
Realistic
350
D1EF
  3
Shaded
350
D1FA
  3
Shaded with edges
350
D1F9
  3
Shades of Gray
350
D1F6
  3
Sketchy
350
D1F7
  3
Thicken
350
D1F2
  3
Wireframe
350
D1EC
  3
X-Ray
350
D1F8
  0
XRECORD
  5
D481
102
{ACAD_REACTORS
330
1A
102
}
330
1A
100
AcDbXrecord
280
     1
 90
        1
330
1FCB
330
AC71
330
ACB9
  0
DICTIONARY
  5
1FDC
102
{ACAD_REACTORS
330
1A
102
}
330
1A
100
AcDbDictionary
281
     1
  3
CANNOSCALE
350
D450
  3
CMLEADERSTYLE
350
D44C
  3
CTABLESTYLE
350
1FDD
  3
CVIEWDETAILSTYLE
350
D44D
  3
CVIEWSECTIONSTYLE
350
D44E
  3
DIMASSOC
350
1FDE
  3
LAYEREVAL
350
D452
  3
LAYERNOTIFY
350
D453
  3
LIGHTINGUNITS
350
D451
  3
MSLTSCALE
350
D44F
  3
PROJECTNAME
350
1FDF
  3
XCLIPFRAME
350
D47E
  0
DICTIONARY
  5
D487
102
{ACAD_REACTORS
330
1A
102
}
330
1A
100
AcDbDictionary
281
     1
  3
AcDsRecords
350
D489
  3
AcDsSchemas
350
D488
1001
ACAD
1070
     2
  0
DICTIONARY
  5
D225
102
{ACAD_REACTORS
330
D224
102
}
330
D224
100
AcDbDictionary
281
     1
  0
XRECORD
  5
D28C
102
{ACAD_REACTORS
330
D28B
102
}
330
D28B
100
AcDbXrecord
280
     1
290
     1
  0
XRECORD
  5
D28E
102
{ACAD_REACTORS
330
D28D
102
}
330
D28D
100
AcDbXrecord
280
     1
290
     1
  0
XRECORD
  5
D290
102
{ACAD_REACTORS
330
D28F
102
}
330
D28F
100
AcDbXrecord
280
     1
290
     1
  0
XRECORD
  5
D292
102
{ACAD_REACTORS
330
D291
102
}
330
D291
100
AcDbXrecord
280
     1
290
     1
  0
XRECORD
  5
D294
102
{ACAD_REACTORS
330
D293
102
}
330
D293
100
AcDbXrecord
280
     1
290
     1
  0
XRECORD
  5
D296
102
{ACAD_REACTORS
330
D295
102
}
330
D295
100
AcDbXrecord
280
     1
290
     1
  0
XRECORD
  5
D298
102
{ACAD_REACTORS
330
D297
102
}
330
D297
100
AcDbXrecord
280
     1
290
     1
  0
XRECORD
  5
D29A
102
{ACAD_REACTORS
330
D299
102
}
330
D299
100
AcDbXrecord
280
     1
290
     1
  0
XRECORD
  5
D29C
102
{ACAD_REACTORS
330
D29B
102
}
330
D29B
100
AcDbXrecord
280
     1
290
     1
  0
XRECORD
  5
D29E
102
{ACAD_REACTORS
330
D29D
102
}
330
D29D
100
AcDbXrecord
280
     1
290
     1
  0
XRECORD
  5
D2A0
102
{ACAD_REACTORS
330
D29F
102
}
330
D29F
100
AcDbXrecord
280
     1
290
     1
  0
XRECORD
  5
D2A2
102
{ACAD_REACTORS
330
D2A1
102
}
330
D2A1
100
AcDbXrecord
280
     1
290
     1
  0
XRECORD
  5
D2A4
102
{ACAD_REACTORS
330
D2A3
102
}
330
D2A3
100
AcDbXrecord
280
     1
290
     1
  0
XRECORD
  5
D2A6
102
{ACAD_REACTORS
330
D2A5
102
}
330
D2A5
100
AcDbXrecord
280
     1
290
     1
  0
SORTENTSTABLE
  5
D262
102
{ACAD_REACTORS
330
D261
102
}
330
D261
100
AcDbSortentsTable
330
2
331
8F8B
  5
8F8E
331
C52C
  5
C531
331
C65A
  5
C65F
331
D078
  5
D07D
331
AC64
  5
ACAC
331
AD2A
  5
AD2C
331
D0BF
  5
D0C4
331
D080
  5
D085
331
C534
  5
C539
331
D088
  5
D08D
331
C6B1
  5
C6B6
331
C53C
  5
C541
331
D0C7
  5
D0CC
331
D0CF
  5
D0D4
331
C544
  5
C549
331
D090
  5
D095
331
8F93
  5
8F97
331
AD3A
  5
AD3E
331
ACCB
  5
AD13
331
AB37
  5
AB5D
331
ABF6
  5
AC2E
331
8DEC
  5
8DEE
331
9432
  5
9438
331
AE10
  5
AE6E
331
AC3D
  5
AC57
331
ADC1
  5
ADD5
331
C6B9
  5
C6BE
331
C54C
  5
C551
331
AFCE
  5
C51C
331
C5B3
  5
C65C
331
D098
  5
D09D
331
8F3C
  5
8F84
331
8C2D
  5
8C2F
331
D0A0
  5
D0A5
331
C6C1
  5
D068
331
C554
  5
C56A
331
D0D7
  5
D1B5
331
ADD9
  5
ADE2
331
AB5F
  5
AB61
331
D0A8
  5
D0AD
331
D069
  5
D06E
331
C692
  5
C69B
331
C51D
  5
C522
331
D1B5
  5
D1BD
331
D071
  5
D076
331
C525
  5
C52A
331
D0B0
  5
D0B5
331
D1BD
  5
D247
331
8636
  5
8636
331
8C65
  5
8CCB
331
AD5A
  5
ADAC
331
ACAC
  5
ACCB
331
AD13
  5
AD1B
331
8F84
  5
8F88
331
863E
  5
863E
331
AD1B
  5
AD1D
331
ADE9
  5
AE09
331
8CCD
  5
8CD5
331
8F8C
  5
8F91
331
9F91
  5
A07F
331
D079
  5
D07E
331
C52D
  5
C532
331
C65B
  5
C667
331
D0B8
  5
D0BD
331
AC2E
  5
AC4A
331
AD2B
  5
AD2D
331
93CB
  5
942D
331
8CD5
  5
8DEA
331
D0C0
  5
D0C5
331
C535
  5
C53A
331
D081
  5
D086
331
AD33
  5
AD35
331
D0C8
  5
D0CD
331
D089
  5
D08E
331
C53D
  5
C542
331
C673
  5
C678
331
C6B2
  5
C6B7
331
C67B
  5
C680
331
C545
  5
C54A
331
D091
  5
D096
331
94BA
  5
94BD
331
AE09
  5
AE0E
331
ADBA
  5
ADBF
331
AD3B
  5
AD3F
331
8DED
  5
8DFD
331
8C1E
  5
8C1E
331
94CA
  5
94CD
331
8DFD
  5
8DFF
331
8C26
  5
8C2D
331
938C
  5
93A6
331
D099
  5
D09E
331
C6BA
  5
C6BF
331
C54D
  5
C552
331
D0D0
  5
D0D5
331
ADD2
  5
ADD9
331
AE51
  5
AE8C
331
9443
  5
9447
331
8C2E
  5
8C64
331
C6C2
  5
D069
331
C555
  5
C58A
331
C68B
  5
C690
331
D0A1
  5
D0A6
331
D0D8
  5
D1B6
331
AD53
  5
AD5A
331
ADDA
  5
ADE3
331
D06A
  5
D06F
331
C51E
  5
C523
331
D0A9
  5
D0AE
331
D1B6
  5
D243
331
D0B1
  5
D0B6
331
C69B
  5
C6B0
331
C526
  5
C52B
331
D072
  5
D077
331
AB60
  5
ABCB
331
8637
  5
8637
331
ADE2
  5
ADE9
331
863F
  5
863F
331
94AB
  5
94B4
331
8CCE
  5
8CF9
331
AD1C
  5
AD2A
331
D0B9
  5
D0BE
331
C65C
  5
C673
331
C52E
  5
C533
331
D07A
  5
D07F
331
ADAB
  5
ADBC
331
AD2C
  5
AD33
331
D082
  5
D087
331
C536
  5
C53B
331
D0C1
  5
D0C6
331
AD34
  5
AD39
331
ADFA
  5
AE0A
331
D08A
  5
D08F
331
C6B3
  5
C6B8
331
C53E
  5
C543
331
C674
  5
C679
331
D0C9
  5
D0CE
331
C546
  5
C54B
331
C67C
  5
C681
331
D092
  5
D097
331
8F95
  5
8F98
331
ADBB
  5
ADC1
331
8C1F
  5
8C20
331
8DEE
  5
8DFE
331
AD3C
  5
AD40
331
AE0A
  5
AE0F
331
8DFE
  5
8F39
331
D09A
  5
D09F
331
C54E
  5
C553
331
C6BB
  5
C6C0
331
D0D1
  5
D0D6
331
94DB
  5
94E0
331
8C2F
  5
8C65
331
ADD3
  5
ADDA
331
D0A2
  5
D0A7
331
C68C
  5
C691
331
C556
  5
C5B2
331
C6C3
  5
D06A
331
D0D9
  5
D1B7
331
ADDB
  5
ADE4
331
AD54
  5
AD75
331
D0AA
  5
D0AF
331
D06B
  5
D070
331
C694
  5
C6AC
331
C51F
  5
C524
331
D1B7
  5
D244
331
D073
  5
D078
331
C527
  5
C52C
331
D0B2
  5
D0B7
331
94E3
  5
94E5
331
AB61
  5
ABE9
331
ADE3
  5
ADFA
331
8F86
  5
8F89
331
8640
  5
8640
331
94AC
  5
94B6
331
AC57
  5
AC71
331
AE72
  5
AE9E
331
8F8E
  5
8F93
331
94B4
  5
94BA
331
AD1D
  5
AD2B
331
D07B
  5
D080
331
C52F
  5
C534
331
C65D
  5
C674
331
D0BA
  5
D0BF
331
AD2D
  5
AD34
331
ABE9
  5
AC2C
331
ADAC
  5
ADBD
331
D0C2
  5
D0C7
331
C6AC
  5
C6B1
331
C537
  5
C53C
331
D083
  5
D088
331
AD35
  5
AD3A
331
D08B
  5
D090
331
C675
  5
C67B
331
C53F
  5
C544
331
C6B4
  5
C6B9
331
D0CA
  5
D0CF
331
C67D
  5
C686
331
C547
  5
C54C
331
D093
  5
D098
331
94BC
  5
94BE
331
942D
  5
942F
331
AE0B
  5
AE10
331
ADBC
  5
ADC6
331
8C20
  5
8C21
331
AD3D
  5
AD4D
331
94CC
  5
94CE
331
8DFF
  5
8F3A
331
D09B
  5
D0A0
331
C6BC
  5
C6C1
331
C54F
  5
C554
331
D0D2
  5
D0D7
331
ADD4
  5
ADDB
331
9445
  5
9449
331
93A6
  5
93B7
331
AD4D
  5
AD54
331
C6C4
  5
D06B
331
C557
  5
C5B3
331
C518
  5
C51D
331
C68D
  5
C692
331
D0A3
  5
D0A8
331
D0DA
  5
D1B8
331
AD55
  5
AD76
331
ADDC
  5
ADE5
331
D0AB
  5
D0B0
331
C695
  5
C6AD
331
C520
  5
C525
331
D06C
  5
D071
331
D1B8
  5
D245
331
D0B3
  5
D0B8
331
C63E
  5
C65E
331
D074
  5
D079
331
944D
  5
94AB
331
93B6
  5
93B8
331
94E4
  5
94E6
331
ADE4
  5
ADFD
331
C528
  5
C52D
331
AE73
  5
AF5B
331
93C6
  5
93CB
331
AD75
  5
ADAD
331
D0BB
  5
D0C0
331
C65E
  5
C675
331
C530
  5
C535
331
D07C
  5
D081
331
ADAD
  5
ADBE
331
D084
  5
D089
331
C6AD
  5
C6B2
331
C538
  5
C53D
331
D0C3
  5
D0C8
331
AD36
  5
AD3C
331
D08C
  5
D091
331
C6B5
  5
C6BA
331
C540
  5
C545
331
C676
  5
C67C
331
D0CB
  5
D0D0
331
C67E
  5
C687
331
D094
  5
D099
331
94BD
  5
94C6
331
942E
  5
9430
331
8F97
  5
938C
331
ADBD
  5
ADD2
331
8C21
  5
8C2C
331
AD3E
  5
AD4E
331
AE0C
  5
AE16
331
C548
  5
C54D
331
94CD
  5
94DB
331
AE9B
  5
C518
331
D09C
  5
D0A1
331
C686
  5
C68E
331
AF5B
  5
C51A
331
C550
  5
C555
331
C6BD
  5
C6C2
331
D0D3
  5
D0D8
331
ADD5
  5
ADDC
331
AA94
  5
AAE4
331
AD4E
  5
AD55
331
D0A4
  5
D0A9
331
C68E
  5
C694
331
C519
  5
C51E
331
C6C5
  5
D06C
331
D0DB
  5
D1B9
331
D0AC
  5
D0B1
331
D06D
  5
D072
331
C696
  5
C6AE
331
C521
  5
C526
331
D1B9
  5
D246
331
D075
  5
D07A
331
D0B4
  5
D0B9
331
94E5
  5
94E7
331
944E
  5
94AC
331
93B7
  5
93BF
331
ADE5
  5
ADFE
331
AAE4
  5
AB5C
331
93BF
  5
93C7
331
8F88
  5
8F8A
331
ABCB
  5
ABF6
331
C529
  5
C52E
331
93C7
  5
9429
331
94B6
  5
94BC
331
AD76
  5
ADBA
331
D0BC
  5
D0C1
331
C531
  5
C536
331
C65F
  5
C676
331
D07D
  5
D082
331
AE8C
  5
AF65
331
D0C4
  5
D0C9
331
C6AE
  5
C6B3
331
C539
  5
C53E
331
C667
  5
C677
331
D085
  5
D08A
331
ADFD
  5
AE0B
331
D08D
  5
D092
331
C677
  5
C67D
331
C541
  5
C546
331
C6B6
  5
C6BB
331
D0CC
  5
D0D1
331
D095
  5
D09A
331
C67F
  5
C68B
331
8CF9
  5
8DEC
331
94BE
  5
94C7
331
8F98
  5
93A0
331
942F
  5
9431
331
AC71
  5
ACB9
331
AE0D
  5
AE17
331
ADBE
  5
ADD3
331
94C6
  5
94CA
331
9437
  5
9439
331
AD3F
  5
AD4F
331
C549
  5
C54E
331
94CE
  5
94DF
331
943F
  5
9443
331
8F39
  5
8F3B
331
93A0
  5
93B6
331
ADC6
  5
ADD8
331
D09D
  5
D0A2
331
C6BE
  5
C6C3
331
C551
  5
C556
331
C687
  5
C68F
331
D0D4
  5
D0D9
331
AD4F
  5
AD58
331
9447
  5
944D
331
AB5C
  5
AB5E
331
AC4A
  5
AC64
331
C68F
  5
C695
331
C51A
  5
C51F
331
D0A5
  5
D0AA
331
D0AD
  5
D0B2
331
C697
  5
C6AF
331
C522
  5
C527
331
D06E
  5
D073
331
D0B5
  5
D0BA
331
D076
  5
D07B
331
8F41
  5
8F86
331
AAD5
  5
AB37
331
8C6A
  5
8CCD
331
93B8
  5
93C6
331
94E6
  5
9716
331
ADE6
  5
ADFF
331
8F89
  5
8F8B
331
9716
  5
9F9E
331
C52A
  5
C52F
331
ACB9
  5
AD12
331
AD77
  5
ADBB
331
D0BD
  5
D0C2
331
D07E
  5
D083
331
C532
  5
C537
331
AE8D
  5
AFCE
331
9F9E
  5
AA94
331
D086
  5
D08B
331
C6AF
  5
C6B4
331
C53A
  5
C53F
331
D0C5
  5
D0CA
331
ADFE
  5
AE0C
331
D0CD
  5
D0D2
331
C6B7
  5
C6BC
331
C542
  5
C547
331
C678
  5
C67E
331
D08E
  5
D093
331
D096
  5
D09B
331
8713
  5
8713
331
8F91
  5
8F95
331
8DEA
  5
8DED
331
8C1B
  5
8C1B
331
9430
  5
9432
331
AE0E
  5
AE51
331
AD40
  5
AD53
331
ADBF
  5
ADD4
331
9438
  5
943F
331
94C7
  5
94CC
331
C54A
  5
C54F
331
C680
  5
C68C
331
AE16
  5
AE72
331
8F3A
  5
8F3C
331
D09E
  5
D0A3
331
C6BF
  5
C6C4
331
C552
  5
C557
331
D0D5
  5
D0DA
331
AB5D
  5
AB5F
331
AD50
  5
AD59
331
94DF
  5
94E3
331
D0A6
  5
D0AB
331
C51B
  5
C520
331
AF65
  5
C51B
331
C55A
  5
C5E2
331
C690
  5
C696
331
ADDF
  5
ADE6
331
AE5E
  5
AE8D
331
D0AE
  5
D0B3
331
D06F
  5
D074
331
C56A
  5
C63E
331
C523
  5
C528
331
D077
  5
D07C
331
D0B6
  5
D0BB
331
AD58
  5
AD77
331
94E7
  5
9F91
331
AE6E
  5
AE9B
331
AD19
  5
AD1C
331
8CCB
  5
8CCE
331
8F8A
  5
8F8C
331
C58A
  5
C65A
331
C52B
  5
C530
331
AC2C
  5
AC3D
331
D0BE
  5
D0C3
331
C533
  5
C538
331
D07F
  5
D084
331
D0C6
  5
D0CB
331
D087
  5
D08C
331
C53B
  5
C540
331
C6B0
  5
C6B5
331
ADFF
  5
AE0D
331
C679
  5
C67F
331
C543
  5
C548
331
D08F
  5
D094
331
D0CE
  5
D0D3
331
D097
  5
D09C
331
9429
  5
942E
331
AD39
  5
AD3D
331
A07F
  5
AAD5
331
9431
  5
9437
331
AE0F
  5
AE5E
331
9439
  5
9441
331
C6B8
  5
C6BD
331
C5B2
  5
C65B
331
C54B
  5
C550
331
AE9E
  5
C519
331
C681
  5
C68D
331
AE17
  5
AE73
331
8F3B
  5
8F41
331
8C2C
  5
8C2E
331
9441
  5
9445
331
C5E2
  5
C65D
331
C553
  5
C55A
331
C6C0
  5
C6C5
331
D09F
  5
D0A4
331
D0D6
  5
D0DB
331
AB5E
  5
AB60
331
ADD8
  5
ADDF
331
D068
  5
D06D
331
C691
  5
C697
331
C51C
  5
C521
331
D0A7
  5
D0AC
331
D0AF
  5
D0B4
331
C524
  5
C529
331
D070
  5
D075
331
D0B7
  5
D0BC
331
9449
  5
944E
331
8C64
  5
8C6A
331
8635
  5
8635
331
94E0
  5
94E4
331
AD59
  5
ADAB
331
AD12
  5
AD19
331
863D
  5
863D
  0
ACDBDETAILVIEWSTYLE
  5
D215
102
{ACAD_XDICTIONARY
360
D449
102
}
102
{ACAD_REACTORS
330
D214
102
}
330
D214
100
AcDbModelDocViewStyle
 70
     0
  3
Imperial24
290
     0
100
AcDbDetailViewStyle
 70
     0
 71
     0
 90
        3
 71
     1
340
C
 62
   256
 40
0.24
340
0
 62
   256
 40
0.24
300

 40
0.36
280
     3
 71
     2
340
5
 90
       25
 62
   256
 71
     3
340
C
 62
   256
 40
0.24
 90
        1
 40
0.75
 90
        1
300
%<\AcVar ViewType \f "%tc1">% %<\AcVar ViewDetailId>%\PSCALE %<\AcVar ViewScale \f "%sn">%
 71
     4
340
5
 90
       25
 62
   256
340
5
 90
       25
 62
   256
280
     0
  0
LAYOUT
  5
1FCE
102
{ACAD_REACTORS
330
1FCC
102
}
330
1FCC
100
AcDbPlotSettings
  1

  2
\\DBSERVER1\Canon SEIZOU
  4
A4
  6

 40
5.873749732971191
 41
5.873747825622558
 42
5.873748779296875
 43
5.873748779296875
 44
209.9733276367187
 45
296.9259948730469
 46
-5.91
 47
-5.94
 48
-5354.693592560336
 49
2800.613080426188
140
-2384.693592560336
141
4900.613080426189
142
1.0
143
26.87
 70
 11940
 72
     1
 73
     1
 74
     1
  7
monochrome.ctb
 75
     0
147
0.0372162262746558
 76
     0
 77
     2
 78
   300
148
7866.314684342239
149
-189.3993866466226
100
AcDbLayout
  1
Model
 70
     1
 71
     0
 10
0.0
 20
0.0
 11
12.0
 21
9.0
 12
0.0
 22
0.0
 32
0.0
 14
0.0
 24
0.0
 34
0.0
 15
0.0
 25
0.0
 35
0.0
146
0.0
 13
0.0
 23
0.0
 33
0.0
 16
1.0
 26
0.0
 36
0.0
 17
0.0
 27
1.0
 37
0.0
 76
     0
330
2
331
D1CB
  0
LAYOUT
  5
1FCF
102
{ACAD_REACTORS
330
1FCC
102
}
330
1FCC
100
AcDbPlotSettings
  1

  2
none_device
  4
Letter_(8.50_x_11.00_Inches)
  6

 40
6.349999904632568
 41
6.349999904632568
 42
6.350006103515625
 43
6.350006103515625
 44
215.8999938964844
 45
279.3999938964844
 46
0.0
 47
0.0
 48
0.0
 49
0.0
140
0.0
141
0.0
142
1.0
143
1.0
 70
   688
 72
     0
 73
     1
 74
     5
  7
monochrome.ctb
 75
    16
147
1.0
 76
     0
 77
     2
 78
   300
148
0.0
149
0.0
100
AcDbLayout
  1
レイアウト1
 70
     0
 71
     1
 10
-0.2500002402958907
 20
-0.2499999962453767
 11
10.74999951940821
 21
8.249999763458731
 12
0.0
 22
0.0
 32
0.0
 14
1.049999952316284
 24
0.7999999523162842
 34
0.0
 15
9.449999570846555
 25
7.199999570846556
 35
0.0
146
0.0
 13
0.0
 23
0.0
 33
0.0
 16
1.0
 26
0.0
 36
0.0
 17
0.0
 27
1.0
 37
0.0
 76
     0
330
7
331
295B
  0
MATERIAL
  5
D1D5
102
{ACAD_XDICTIONARY
360
D1D6
102
}
102
{ACAD_REACTORS
330
1FC8
102
}
330
1FC8
100
AcDbMaterial
  1
ByBlock
 72
     0
 43
0.0008202099737533
 43
0.0
 43
0.0
 43
0.0
 43
0.0
 43
0.0008202099737533
 43
0.0
 43
0.0
 43
0.0
 43
0.0
 43
1.0
 43
0.0
 43
0.0
 43
0.0
 43
0.0
 43
1.0
 77
     0
 47
0.0008202099737533
 47
0.0
 47
0.0
 47
0.0
 47
0.0
 47
0.0008202099737533
 47
0.0
 47
0.0
 47
0.0
 47
0.0
 47
1.0
 47
0.0
 47
0.0
 47
0.0
 47
0.0
 47
1.0
171
     0
 49
0.0008202099737533
 49
0.0
 49
0.0
 49
0.0
 49
0.0
 49
0.0008202099737533
 49
0.0
 49
0.0
 49
0.0
 49
0.0
 49
1.0
 49
0.0
 49
0.0
 49
0.0
 49
0.0
 49
1.0
175
     0
142
0.0008202099737533
142
0.0
142
0.0
142
0.0
142
0.0
142
0.0008202099737533
142
0.0
142
0.0
142
0.0
142
0.0
142
1.0
142
0.0
142
0.0
142
0.0
142
0.0
142
1.0
179
     0
144
0.0008202099737533
144
0.0
144
0.0
144
0.0
144
0.0
144
0.0008202099737533
144
0.0
144
0.0
144
0.0
144
0.0
144
1.0
144
0.0
144
0.0
144
0.0
144
0.0
144
1.0
147
0.0008202099737533
147
0.0
147
0.0
147
0.0
147
0.0
147
0.0008202099737533
147
0.0
147
0.0
147
0.0
147
0.0
147
1.0
147
0.0
147
0.0
147
0.0
147
0.0
147
1.0
  0
MATERIAL
  5
D1CD
102
{ACAD_XDICTIONARY
360
D1CE
102
}
102
{ACAD_REACTORS
330
1FC8
102
}
330
1FC8
100
AcDbMaterial
  1
ByLayer
 72
     0
 43
0.0008202099737533
 43
0.0
 43
0.0
 43
0.0
 43
0.0
 43
0.0008202099737533
 43
0.0
 43
0.0
 43
0.0
 43
0.0
 43
1.0
 43
0.0
 43
0.0
 43
0.0
 43
0.0
 43
1.0
 77
     0
 47
0.0008202099737533
 47
0.0
 47
0.0
 47
0.0
 47
0.0
 47
0.0008202099737533
 47
0.0
 47
0.0
 47
0.0
 47
0.0
 47
1.0
 47
0.0
 47
0.0
 47
0.0
 47
0.0
 47
1.0
171
     0
 49
0.0008202099737533
 49
0.0
 49
0.0
 49
0.0
 49
0.0
 49
0.0008202099737533
 49
0.0
 49
0.0
 49
0.0
 49
0.0
 49
1.0
 49
0.0
 49
0.0
 49
0.0
 49
0.0
 49
1.0
175
     0
142
0.0008202099737533
142
0.0
142
0.0
142
0.0
142
0.0
142
0.0008202099737533
142
0.0
142
0.0
142
0.0
142
0.0
142
1.0
142
0.0
142
0.0
142
0.0
142
0.0
142
1.0
179
     0
144
0.0008202099737533
144
0.0
144
0.0
144
0.0
144
0.0
144
0.0008202099737533
144
0.0
144
0.0
144
0.0
144
0.0
144
1.0
144
0.0
144
0.0
144
0.0
144
0.0
144
1.0
147
0.0008202099737533
147
0.0
147
0.0
147
0.0
147
0.0
147
0.0008202099737533
147
0.0
147
0.0
147
0.0
147
0.0
147
1.0
147
0.0
147
0.0
147
0.0
147
0.0
147
1.0
  0
MATERIAL
  5
D1DD
102
{ACAD_XDICTIONARY
360
D1DE
102
}
102
{ACAD_REACTORS
330
1FC8
102
}
330
1FC8
100
AcDbMaterial
  1
Global
 72
     0
 43
0.0008202099737533
 43
0.0
 43
0.0
 43
0.0
 43
0.0
 43
0.0008202099737533
 43
0.0
 43
0.0
 43
0.0
 43
0.0
 43
1.0
 43
0.0
 43
0.0
 43
0.0
 43
0.0
 43
1.0
 77
     0
 47
0.0008202099737533
 47
0.0
 47
0.0
 47
0.0
 47
0.0
 47
0.0008202099737533
 47
0.0
 47
0.0
 47
0.0
 47
0.0
 47
1.0
 47
0.0
 47
0.0
 47
0.0
 47
0.0
 47
1.0
171
     0
 49
0.0008202099737533
 49
0.0
 49
0.0
 49
0.0
 49
0.0
 49
0.0008202099737533
 49
0.0
 49
0.0
 49
0.0
 49
0.0
 49
1.0
 49
0.0
 49
0.0
 49
0.0
 49
0.0
 49
1.0
175
     0
142
0.0008202099737533
142
0.0
142
0.0
142
0.0
142
0.0
142
0.0008202099737533
142
0.0
142
0.0
142
0.0
142
0.0
142
1.0
142
0.0
142
0.0
142
0.0
142
0.0
142
1.0
179
     0
144
0.0008202099737533
144
0.0
144
0.0
144
0.0
144
0.0
144
0.0008202099737533
144
0.0
144
0.0
144
0.0
144
0.0
144
1.0
144
0.0
144
0.0
144
0.0
144
0.0
144
1.0
147
0.0008202099737533
147
0.0
147
0.0
147
0.0
147
0.0
147
0.0008202099737533
147
0.0
147
0.0
147
0.0
147
0.0
147
1.0
147
0.0
147
0.0
147
0.0
147
0.0
147
1.0
  0
MLEADERSTYLE
  5
D211
102
{ACAD_XDICTIONARY
360
D4C1
102
}
102
{ACAD_REACTORS
330
D210
102
}
330
D210
100
AcDbMLeaderStyle
170
     2
171
     1
172
     0
 90
        2
 40
0.0
 41
0.0
173
     1
 91
-1056964608
340
E
 92
       -2
290
     1
 42
0.09
291
     1
 43
0.36
  3
Standard
 44
0.18
300

342
C
174
     1
178
     6
175
     1
176
     0
 93
-1056964608
 45
0.18
292
     0
297
     0
 46
0.18
 94
-1056964608
 47
1.0
 49
1.0
140
1.0
293
     1
141
0.0
294
     1
177
     0
142
1.0
295
     0
296
     0
143
0.125
1001
ACAD_MLEADERVER
1070
     2
  0
MLINESTYLE
  5
1C
102
{ACAD_REACTORS
330
19
102
}
330
19
100
AcDbMlineStyle
  2
STANDARD
 70
     0
  3

 62
     0
 51
90.0
 52
90.0
 71
     2
 49
0.5
 62
   256
  6
BYLAYER
 49
-0.5
 62
   256
  6
BYLAYER
  0
ACDBPLACEHOLDER
  5
1FC7
102
{ACAD_REACTORS
330
1FC6
102
}
330
1FC6
  0
SCALE
  5
D1FF
102
{ACAD_REACTORS
330
D1FE
102
}
330
D1FE
100
AcDbScale
 70
     0
300
1:1
140
1.0
141
1.0
290
     1
  0
SCALE
  5
D200
102
{ACAD_REACTORS
330
D1FE
102
}
330
D1FE
100
AcDbScale
 70
     0
300
1/128" = 1'-0"
140
0.0078125
141
12.0
290
     0
  0
SCALE
  5
D201
102
{ACAD_REACTORS
330
D1FE
102
}
330
D1FE
100
AcDbScale
 70
     0
300
1/64" = 1'-0"
140
0.015625
141
12.0
290
     0
  0
SCALE
  5
D202
102
{ACAD_REACTORS
330
D1FE
102
}
330
D1FE
100
AcDbScale
 70
     0
300
1/32" = 1'-0"
140
0.03125
141
12.0
290
     0
  0
SCALE
  5
D203
102
{ACAD_REACTORS
330
D1FE
102
}
330
D1FE
100
AcDbScale
 70
     0
300
1/16" = 1'-0"
140
0.0625
141
12.0
290
     0
  0
SCALE
  5
D204
102
{ACAD_REACTORS
330
D1FE
102
}
330
D1FE
100
AcDbScale
 70
     0
300
3/32" = 1'-0"
140
0.09375
141
12.0
290
     0
  0
SCALE
  5
D205
102
{ACAD_REACTORS
330
D1FE
102
}
330
D1FE
100
AcDbScale
 70
     0
300
1/8" = 1'-0"
140
0.125
141
12.0
290
     0
  0
SCALE
  5
D206
102
{ACAD_REACTORS
330
D1FE
102
}
330
D1FE
100
AcDbScale
 70
     0
300
3/16" = 1'-0"
140
0.1875
141
12.0
290
     0
  0
SCALE
  5
D207
102
{ACAD_REACTORS
330
D1FE
102
}
330
D1FE
100
AcDbScale
 70
     0
300
1/4" = 1'-0"
140
0.25
141
12.0
290
     0
  0
SCALE
  5
D208
102
{ACAD_REACTORS
330
D1FE
102
}
330
D1FE
100
AcDbScale
 70
     0
300
3/8" = 1'-0"
140
0.375
141
12.0
290
     0
  0
SCALE
  5
D209
102
{ACAD_REACTORS
330
D1FE
102
}
330
D1FE
100
AcDbScale
 70
     0
300
1/2" = 1'-0"
140
0.5
141
12.0
290
     0
  0
SCALE
  5
D20A
102
{ACAD_REACTORS
330
D1FE
102
}
330
D1FE
100
AcDbScale
 70
     0
300
3/4" = 1'-0"
140
0.75
141
12.0
290
     0
  0
SCALE
  5
D20B
102
{ACAD_REACTORS
330
D1FE
102
}
330
D1FE
100
AcDbScale
 70
     0
300
1" = 1'-0"
140
1.0
141
12.0
290
     0
  0
SCALE
  5
D20C
102
{ACAD_REACTORS
330
D1FE
102
}
330
D1FE
100
AcDbScale
 70
     0
300
1-1/2" = 1'-0"
140
1.5
141
12.0
290
     0
  0
SCALE
  5
D20D
102
{ACAD_REACTORS
330
D1FE
102
}
330
D1FE
100
AcDbScale
 70
     0
300
3" = 1'-0"
140
3.0
141
12.0
290
     0
  0
SCALE
  5
D20E
102
{ACAD_REACTORS
330
D1FE
102
}
330
D1FE
100
AcDbScale
 70
     0
300
6" = 1'-0"
140
6.0
141
12.0
290
     0
  0
SCALE
  5
D20F
102
{ACAD_REACTORS
330
D1FE
102
}
330
D1FE
100
AcDbScale
 70
     0
300
1'-0" = 1'-0"
140
12.0
141
12.0
290
     0
  0
ACDBSECTIONVIEWSTYLE
  5
D213
102
{ACAD_XDICTIONARY
360
D447
102
}
102
{ACAD_REACTORS
330
D212
102
}
330
D212
100
AcDbModelDocViewStyle
 70
     0
  3
Imperial24
290
     0
100
AcDbSectionViewStyle
 70
     0
 71
     0
 90
       78
 71
     1
340
C
 62
   256
 40
0.24
340
0
340
0
 62
   256
 40
0.24
300
I, O, Q, S, X, Z
 40
0.48
 90
        3
 40
0.18
 90
        1
 71
     2
340
5
 90
       25
 62
   256
340
5
 90
       50
 62
   256
 40
0.24
 40
0.0
 40
0.24
 71
     3
340
C
 62
   256
 40
0.24
 90
        1
 40
0.75
 90
        1
300
%<\AcVar ViewType \f "%tc1">% %<\AcVar ViewSectionStartId>%-%<\AcVar ViewSectionEndId>%\PSCALE %<\AcVar ViewScale \f "%sn">%
 71
     4
 62
   256
 62
   257
300
ANSI31
 40
1.0
 90
        0
290
     0
290
     0
 90
        6
 40
0.0
 40
1.570796326794896
 40
0.2617993877991494
 40
1.308996938995747
 40
-0.2617993877991494
 40
1.832595714594046
  0
TABLESTYLE
  5
1FCB
102
{ACAD_XDICTIONARY
360
D47F
102
}
102
{ACAD_REACTORS
330
1FCA
102
}
330
1FCA
100
AcDbTableStyle
  3
Standard
 70
     0
 71
     0
 40
0.06
 41
0.06
280
     0
281
     0
  7
STANDARD
140
0.18
170
     2
 62
     0
 63
     7
283
     0
274
    -2
284
     1
 64
     0
275
    -2
285
     1
 65
     0
276
    -2
286
     1
 66
     0
277
    -2
287
     1
 67
     0
278
    -2
288
     1
 68
     0
279
    -2
289
     1
 69
     0
  7
STANDARD
140
0.25
170
     5
 62
     0
 63
     7
283
     0
274
    -2
284
     1
 64
     0
275
    -2
285
     1
 65
     0
276
    -2
286
     1
 66
     0
277
    -2
287
     1
 67
     0
278
    -2
288
     1
 68
     0
279
    -2
289
     1
 69
     0
  7
STANDARD
140
0.18
170
     5
 62
     0
 63
     7
283
     0
274
    -2
284
     1
 64
     0
275
    -2
285
     1
 65
     0
276
    -2
286
     1
 66
     0
277
    -2
287
     1
 67
     0
278
    -2
288
     1
 68
     0
279
    -2
289
     1
 69
     0
  0
VISUALSTYLE
  5
D1EB
102
{ACAD_XDICTIONARY
360
D49A
102
}
102
{ACAD_REACTORS
330
D1E5
102
}
330
D1E5
100
AcDbVisualStyle
  2
2dWireframe
 70
     4
 71
     0
 72
     2
 73
     0
 90
        0
 40
-0.6
 41
-30.0
 62
     5
 63
     7
421
 16777215
 74
     1
 91
        4
 64
     7
 65
   257
 75
     1
175
     1
 42
1.0
 92
        0
 66
   257
 43
1.0
 76
     1
 77
     6
 78
     2
 67
     7
 79
     5
170
     0
171
     0
290
     0
174
     0
 93
        1
 44
0.0
173
     0
291
     0
 45
0.0
1001
ACAD
1000
AcDbSavedByObjectVersion
1070
     0
  0
VISUALSTYLE
  5
D1EA
102
{ACAD_XDICTIONARY
360
D498
102
}
102
{ACAD_REACTORS
330
D1E5
102
}
330
D1E5
100
AcDbVisualStyle
  2
Basic
 70
     7
 71
     1
 72
     0
 73
     1
 90
        0
 40
-0.6
 41
-30.0
 62
     5
 63
     7
421
 16777215
 74
     0
 91
        4
 64
     7
 65
   257
 75
     1
175
     1
 42
1.0
 92
        8
 66
     7
 43
1.0
 76
     1
 77
     6
 78
     2
 67
     7
 79
     5
170
     0
171
     0
290
     0
174
     0
 93
        1
 44
0.0
173
     0
291
     1
 45
0.0
1001
ACAD
1000
AcDbSavedByObjectVersion
1070
     0
  0
VISUALSTYLE
  5
D1F1
102
{ACAD_XDICTIONARY
360
D4A6
102
}
102
{ACAD_REACTORS
330
D1E5
102
}
330
D1E5
100
AcDbVisualStyle
  2
Brighten
 70
    12
 71
     2
 72
     2
 73
     0
 90
        0
 40
-0.6
 41
-30.0
 62
     5
 63
     7
421
 16777215
 74
     1
 91
        4
 64
     7
 65
   257
 75
     1
175
     1
 42
1.0
 92
        8
 66
     7
 43
1.0
 76
     1
 77
     6
 78
     2
 67
     7
 79
     5
170
     0
171
     0
290
     0
174
     0
 93
        1
 44
50.0
173
     0
291
     1
 45
0.0
1001
ACAD
1000
AcDbSavedByObjectVersion
1070
     0
  0
VISUALSTYLE
  5
D1F5
102
{ACAD_XDICTIONARY
360
D4AE
102
}
102
{ACAD_REACTORS
330
D1E5
102
}
330
D1E5
100
AcDbVisualStyle
  2
ColorChange
 70
    16
 71
     2
 72
     2
 73
     3
 90
        0
 40
-0.6
 41
-30.0
 62
     5
 63
     8
421
  8421504
 74
     1
 91
        4
 64
     7
 65
   257
 75
     1
175
     1
 42
1.0
 92
        8
 66
     8
424
  8421504
 43
1.0
 76
     1
 77
     6
 78
     2
 67
     7
 79
     5
170
     0
171
     0
290
     0
174
     0
 93
        1
 44
0.0
173
     0
291
     1
 45
0.0
1001
ACAD
1000
AcDbSavedByObjectVersion
1070
     0
  0
VISUALSTYLE
  5
D1EE
102
{ACAD_XDICTIONARY
360
D4A0
102
}
102
{ACAD_REACTORS
330
D1E5
102
}
330
D1E5
100
AcDbVisualStyle
  2
Conceptual
 70
     9
 71
     3
 72
     2
 73
     0
 90
        0
 40
-0.6
 41
-30.0
 62
     5
 63
     7
421
 16777215
 74
     2
 91
        2
 64
     7
 65
   257
 75
     1
175
     1
 42
179.0
 92
        8
 66
     7
 43
1.0
 76
     1
 77
     6
 78
     2
 67
     7
 79
     3
170
     0
171
     0
290
     0
174
     0
 93
        1
 44
0.0
173
     0
291
     0
 45
0.0
1001
ACAD
1000
AcDbSavedByObjectVersion
1070
     0
  0
VISUALSTYLE
  5
D1F0
102
{ACAD_XDICTIONARY
360
D4A4
102
}
102
{ACAD_REACTORS
330
D1E5
102
}
330
D1E5
100
AcDbVisualStyle
  2
Dim
 70
    11
 71
     2
 72
     2
 73
     0
 90
        0
 40
-0.6
 41
-30.0
 62
     5
 63
     7
421
 16777215
 74
     1
 91
        4
 64
     7
 65
   257
 75
     1
175
     1
 42
1.0
 92
        8
 66
     7
 43
1.0
 76
     1
 77
     6
 78
     2
 67
     7
 79
     5
170
     0
171
     0
290
     0
174
     0
 93
        1
 44
-50.0
173
     0
291
     1
 45
0.0
1001
ACAD
1000
AcDbSavedByObjectVersion
1070
     0
  0
VISUALSTYLE
  5
D1FD
102
{ACAD_XDICTIONARY
360
D4BE
102
}
102
{ACAD_REACTORS
330
D1E5
102
}
330
D1E5
100
AcDbVisualStyle
  2
EdgeColorOff
 70
    22
 71
     2
 72
     2
 73
     0
 90
        0
 40
-0.6
 41
-30.0
 62
     5
 63
     7
421
 16777215
 74
     1
 91
        4
 64
     7
 65
   257
 75
     1
175
     1
 42
1.0
 92
        8
 66
     7
 43
1.0
 76
     1
 77
     6
 78
     2
 67
     7
 79
     5
170
     0
171
     0
290
     0
174
     0
 93
        1
 44
0.0
173
     0
291
     1
 45
0.0
1001
ACAD
1000
AcDbSavedByObjectVersion
1070
     0
  0
VISUALSTYLE
  5
D1F4
102
{ACAD_XDICTIONARY
360
D4AC
102
}
102
{ACAD_REACTORS
330
D1E5
102
}
330
D1E5
100
AcDbVisualStyle
  2
Facepattern
 70
    15
 71
     2
 72
     2
 73
     0
 90
        0
 40
-0.6
 41
-30.0
 62
     5
 63
     7
421
 16777215
 74
     1
 91
        4
 64
     7
 65
   257
 75
     1
175
     1
 42
1.0
 92
        8
 66
     7
 43
1.0
 76
     1
 77
     6
 78
     2
 67
     7
 79
     5
170
     0
171
     0
290
     0
174
     0
 93
        1
 44
0.0
173
     0
291
     1
 45
0.0
1001
ACAD
1000
AcDbSavedByObjectVersion
1070
     0
  0
VISUALSTYLE
  5
D1E6
102
{ACAD_XDICTIONARY
360
D490
102
}
102
{ACAD_REACTORS
330
D1E5
102
}
330
D1E5
100
AcDbVisualStyle
  2
Flat
 70
     0
 71
     2
 72
     1
 73
     1
 90
        2
 40
-0.6
 41
30.0
 62
     5
 63
     7
421
 16777215
 74
     0
 91
        0
 64
     7
 65
   257
 75
     1
175
     1
 42
1.0
 92
        8
 66
     7
 43
1.0
 76
     1
 77
     6
 78
     2
 67
     7
 79
     5
170
     0
171
     0
290
     0
174
     0
 93
       13
 44
0.0
173
     0
291
     1
 45
0.0
1001
ACAD
1000
AcDbSavedByObjectVersion
1070
     0
  0
VISUALSTYLE
  5
D1E7
102
{ACAD_XDICTIONARY
360
D492
102
}
102
{ACAD_REACTORS
330
D1E5
102
}
330
D1E5
100
AcDbVisualStyle
  2
FlatWithEdges
 70
     1
 71
     2
 72
     1
 73
     1
 90
        2
 40
-0.6
 41
30.0
 62
     5
 63
     7
421
 16777215
 74
     1
 91
        0
 64
     7
 65
   257
 75
     1
175
     1
 42
1.0
 92
        0
 66
   257
 43
1.0
 76
     1
 77
     6
 78
     2
 67
     7
 79
     5
170
     0
171
     0
290
     0
174
     0
 93
       13
 44
0.0
173
     0
291
     1
 45
0.0
1001
ACAD
1000
AcDbSavedByObjectVersion
1070
     0
  0
VISUALSTYLE
  5
D1E8
102
{ACAD_XDICTIONARY
360
D494
102
}
102
{ACAD_REACTORS
330
D1E5
102
}
330
D1E5
100
AcDbVisualStyle
  2
Gouraud
 70
     2
 71
     2
 72
     2
 73
     1
 90
        2
 40
-0.6
 41
30.0
 62
     5
 63
     7
421
 16777215
 74
     0
 91
        0
 64
     7
 65
   257
 75
     1
175
     1
 42
1.0
 92
        0
 66
     7
 43
1.0
 76
     1
 77
     6
 78
     2
 67
     7
 79
     5
170
     0
171
     0
290
     0
174
     0
 93
       13
 44
0.0
173
     0
291
     1
 45
0.0
1001
ACAD
1000
AcDbSavedByObjectVersion
1070
     0
  0
VISUALSTYLE
  5
D1E9
102
{ACAD_XDICTIONARY
360
D496
102
}
102
{ACAD_REACTORS
330
D1E5
102
}
330
D1E5
100
AcDbVisualStyle
  2
GouraudWithEdges
 70
     3
 71
     2
 72
     2
 73
     1
 90
        2
 40
-0.6
 41
30.0
 62
     5
 63
     7
421
 16777215
 74
     1
 91
        0
 64
     7
 65
   257
 75
     1
175
     1
 42
1.0
 92
        0
 66
   257
 43
1.0
 76
     1
 77
     6
 78
     2
 67
     7
 79
     5
170
     0
171
     0
290
     0
174
     0
 93
       13
 44
0.0
173
     0
291
     1
 45
0.0
1001
ACAD
1000
AcDbSavedByObjectVersion
1070
     0
  0
VISUALSTYLE
  5
D1ED
102
{ACAD_XDICTIONARY
360
D49E
102
}
102
{ACAD_REACTORS
330
D1E5
102
}
330
D1E5
100
AcDbVisualStyle
  2
Hidden
 70
     6
 71
     1
 72
     2
 73
     2
 90
        0
 40
-0.6
 41
-30.0
 62
     5
 63
     7
421
 16777215
 74
     2
 91
        2
 64
     7
 65
   257
 75
     2
175
     1
 42
40.0
 92
        0
 66
   257
 43
1.0
 76
     1
 77
     6
 78
     2
 67
     7
 79
     3
170
     0
171
     0
290
     0
174
     0
 93
        1
 44
0.0
173
     0
291
     0
 45
0.0
1001
ACAD
1000
AcDbSavedByObjectVersion
1070
     0
  0
VISUALSTYLE
  5
D1FB
102
{ACAD_XDICTIONARY
360
D4BA
102
}
102
{ACAD_REACTORS
330
D1E5
102
}
330
D1E5
100
AcDbVisualStyle
  2
JitterOff
 70
    20
 71
     2
 72
     2
 73
     0
 90
        0
 40
-0.6
 41
-30.0
 62
     5
 63
     7
421
 16777215
 74
     1
 91
        4
 64
     7
 65
   257
 75
     1
175
     1
 42
1.0
 92
       10
 66
     7
 43
1.0
 76
     1
 77
     6
 78
     2
 67
     7
 79
     5
170
     0
171
     0
290
     0
174
     0
 93
        1
 44
0.0
173
     0
291
     1
 45
0.0
1001
ACAD
1000
AcDbSavedByObjectVersion
1070
     0
  0
VISUALSTYLE
  5
D1F3
102
{ACAD_XDICTIONARY
360
D4AA
102
}
102
{ACAD_REACTORS
330
D1E5
102
}
330
D1E5
100
AcDbVisualStyle
  2
Linepattern
 70
    14
 71
     2
 72
     2
 73
     0
 90
        0
 40
-0.6
 41
-30.0
 62
     5
 63
     7
421
 16777215
 74
     1
 91
        4
 64
     7
 65
   257
 75
     7
175
     7
 42
1.0
 92
        8
 66
     7
 43
1.0
 76
     1
 77
     6
 78
     2
 67
     7
 79
     5
170
     0
171
     0
290
     0
174
     0
 93
        1
 44
0.0
173
     0
291
     1
 45
0.0
1001
ACAD
1000
AcDbSavedByObjectVersion
1070
     0
  0
VISUALSTYLE
  5
D1FC
102
{ACAD_XDICTIONARY
360
D4BC
102
}
102
{ACAD_REACTORS
330
D1E5
102
}
330
D1E5
100
AcDbVisualStyle
  2
OverhangOff
 70
    21
 71
     2
 72
     2
 73
     0
 90
        0
 40
-0.6
 41
-30.0
 62
     5
 63
     7
421
 16777215
 74
     1
 91
        4
 64
     7
 65
   257
 75
     1
175
     1
 42
1.0
 92
        9
 66
     7
 43
1.0
 76
     1
 77
     6
 78
     2
 67
     7
 79
     5
170
     0
171
     0
290
     0
174
     0
 93
        1
 44
0.0
173
     0
291
     1
 45
0.0
1001
ACAD
1000
AcDbSavedByObjectVersion
1070
     0
  0
VISUALSTYLE
  5
D1EF
102
{ACAD_XDICTIONARY
360
D4A2
102
}
102
{ACAD_REACTORS
330
D1E5
102
}
330
D1E5
100
AcDbVisualStyle
  2
Realistic
 70
     8
 71
     2
 72
     3
 73
     0
 90
        2
 40
-0.6
 41
30.0
 62
     5
 63
     7
421
 16777215
 74
     0
 91
        0
 64
     7
 65
   257
 75
     1
175
     1
 42
1.0
 92
        8
 66
   257
 43
1.0
 76
     1
 77
     6
 78
     2
 67
     7
 79
     3
170
     0
171
     0
290
     0
174
     0
 93
       13
 44
0.0
173
     0
291
     0
 45
0.0
1001
ACAD
1000
AcDbSavedByObjectVersion
1070
     0
  0
VISUALSTYLE
  5
D1FA
102
{ACAD_XDICTIONARY
360
D4B8
102
}
102
{ACAD_REACTORS
330
D1E5
102
}
330
D1E5
100
AcDbVisualStyle
  2
Shaded
 70
    27
 71
     2
 72
     2
 73
     1
 90
        2
 40
-0.6
 41
30.0
 62
     5
 63
     7
421
 16777215
 74
     0
 91
        4
 64
     7
 65
   257
 75
     1
175
     1
 42
1.0
 92
        8
 66
   257
 43
1.0
 76
     1
 77
     6
 78
     2
 67
     8
425
  7895160
 79
     3
170
     0
171
     0
290
     0
174
     0
 93
        5
 44
0.0
173
     0
291
     0
 45
0.0
1001
ACAD
1000
AcDbSavedByObjectVersion
1070
     0
  0
VISUALSTYLE
  5
D1F9
102
{ACAD_XDICTIONARY
360
D4B6
102
}
102
{ACAD_REACTORS
330
D1E5
102
}
330
D1E5
100
AcDbVisualStyle
  2
Shaded with edges
 70
    26
 71
     2
 72
     2
 73
     1
 90
        2
 40
-0.6
 41
30.0
 62
     5
 63
     7
421
 16777215
 74
     1
 91
       10
 64
     7
 65
   257
 75
     2
175
     1
 42
1.0
 92
        8
 66
   257
 43
1.0
 76
     1
 77
     6
 78
     2
 67
     7
 79
     3
170
     0
171
     0
290
     0
174
     0
 93
        5
 44
0.0
173
     0
291
     0
 45
0.0
1001
ACAD
1000
AcDbSavedByObjectVersion
1070
     0
  0
VISUALSTYLE
  5
D1F6
102
{ACAD_XDICTIONARY
360
D4B0
102
}
102
{ACAD_REACTORS
330
D1E5
102
}
330
D1E5
100
AcDbVisualStyle
  2
Shades of Gray
 70
    23
 71
     2
 72
     2
 73
     3
 90
        0
 40
-0.6
 41
-30.0
 62
     5
 63
     7
421
 16777215
 74
     2
 91
        2
 64
     7
 65
     7
 75
     1
175
     1
 42
40.0
 92
        8
 66
     7
 43
1.0
 76
     1
 77
     6
 78
     2
 67
     7
 79
     3
170
     0
171
     0
290
     0
174
     0
 93
        1
 44
0.0
173
     0
291
     0
 45
0.0
1001
ACAD
1000
AcDbSavedByObjectVersion
1070
     0
  0
VISUALSTYLE
  5
D1F7
102
{ACAD_XDICTIONARY
360
D4B2
102
}
102
{ACAD_REACTORS
330
D1E5
102
}
330
D1E5
100
AcDbVisualStyle
  2
Sketchy
 70
    24
 71
     1
 72
     2
 73
     2
 90
        0
 40
-0.6
 41
-30.0
 62
     5
 63
     7
421
 16777215
 74
     2
 91
        2
 64
     7
 65
     7
 75
     1
175
     1
 42
40.0
 92
       11
 66
     7
 43
1.0
 76
     1
 77
     6
 78
     2
 67
     7
 79
     6
170
     0
171
     0
290
     0
174
     0
 93
        1
 44
0.0
173
     0
291
     0
 45
0.0
1001
ACAD
1000
AcDbSavedByObjectVersion
1070
     0
  0
VISUALSTYLE
  5
D1F2
102
{ACAD_XDICTIONARY
360
D4A8
102
}
102
{ACAD_REACTORS
330
D1E5
102
}
330
D1E5
100
AcDbVisualStyle
  2
Thicken
 70
    13
 71
     2
 72
     2
 73
     0
 90
        0
 40
-0.6
 41
-30.0
 62
     5
 63
     7
421
 16777215
 74
     1
 91
        4
 64
     7
 65
   257
 75
     1
175
     1
 42
1.0
 92
       12
 66
     7
 43
1.0
 76
     1
 77
     6
 78
     2
 67
     7
 79
     5
170
     0
171
     0
290
     0
174
     0
 93
        1
 44
0.0
173
     0
291
     1
 45
0.0
1001
ACAD
1000
AcDbSavedByObjectVersion
1070
     0
  0
VISUALSTYLE
  5
D1EC
102
{ACAD_XDICTIONARY
360
D49C
102
}
102
{ACAD_REACTORS
330
D1E5
102
}
330
D1E5
100
AcDbVisualStyle
  2
Wireframe
 70
     5
 71
     0
 72
     2
 73
     0
 90
        0
 40
-0.6
 41
-30.0
 62
     5
 63
     7
421
 16777215
 74
     1
 91
        4
 64
     7
 65
   257
 75
     1
175
     1
 42
1.0
 92
        0
 66
   257
 43
1.0
 76
     1
 77
     6
 78
     2
 67
     7
 79
     3
170
     0
171
     0
290
     0
174
     0
 93
        1
 44
0.0
173
     0
291
     0
 45
0.0
1001
ACAD
1000
AcDbSavedByObjectVersion
1070
     0
  0
VISUALSTYLE
  5
D1F8
102
{ACAD_XDICTIONARY
360
D4B4
102
}
102
{ACAD_REACTORS
330
D1E5
102
}
330
D1E5
100
AcDbVisualStyle
  2
X-Ray
 70
    25
 71
     2
 72
     2
 73
     1
 90
        1
 40
0.5
 41
-30.0
 62
     5
 63
     7
421
 16777215
 74
     1
 91
        0
 64
     7
 65
   257
 75
     1
175
     1
 42
1.0
 92
        8
 66
     7
 43
1.0
 76
     1
 77
     6
 78
     2
 67
     7
 79
     3
170
     0
171
     0
290
     0
174
     0
 93
       13
 44
0.0
173
     0
291
     0
 45
0.0
1001
ACAD
1000
AcDbSavedByObjectVersion
1070
     0
  0
DICTIONARYVAR
  5
D450
102
{ACAD_REACTORS
330
1FDC
102
}
330
1FDC
100
DictionaryVariables
280
     0
  1
1:1
  0
DICTIONARYVAR
  5
D44C
102
{ACAD_REACTORS
330
1FDC
102
}
330
1FDC
100
DictionaryVariables
280
     0
  1
STANDARD
  0
DICTIONARYVAR
  5
1FDD
102
{ACAD_REACTORS
330
1FDC
102
}
330
1FDC
100
DictionaryVariables
280
     0
  1
STANDARD
  0
DICTIONARYVAR
  5
D44D
102
{ACAD_REACTORS
330
1FDC
102
}
330
1FDC
100
DictionaryVariables
280
     0
  1
Imperial24
  0
DICTIONARYVAR
  5
D44E
102
{ACAD_REACTORS
330
1FDC
102
}
330
1FDC
100
DictionaryVariables
280
     0
  1
Imperial24
  0
DICTIONARYVAR
  5
1FDE
102
{ACAD_REACTORS
330
1FDC
102
}
330
1FDC
100
DictionaryVariables
280
     0
  1
1
  0
DICTIONARYVAR
  5
D452
102
{ACAD_REACTORS
330
1FDC
102
}
330
1FDC
100
DictionaryVariables
280
     0
  1
1
  0
DICTIONARYVAR
  5
D453
102
{ACAD_REACTORS
330
1FDC
102
}
330
1FDC
100
DictionaryVariables
280
     0
  1
15
  0
DICTIONARYVAR
  5
D451
102
{ACAD_REACTORS
330
1FDC
102
}
330
1FDC
100
DictionaryVariables
280
     0
  1
0
  0
DICTIONARYVAR
  5
D44F
102
{ACAD_REACTORS
330
1FDC
102
}
330
1FDC
100
DictionaryVariables
280
     0
  1
0
  0
DICTIONARYVAR
  5
1FDF
102
{ACAD_REACTORS
330
1FDC
102
}
330
1FDC
100
DictionaryVariables
280
     0
  1

  0
DICTIONARYVAR
  5
D47E
102
{ACAD_REACTORS
330
1FDC
102
}
330
1FDC
100
DictionaryVariables
280
     0
  1
2
  0
DICTIONARY
  5
D489
102
{ACAD_REACTORS
330
D487
102
}
330
D487
100
AcDbDictionary
281
     1
  0
DICTIONARY
  5
D488
102
{ACAD_REACTORS
330
D487
102
}
330
D487
100
AcDbDictionary
281
     1
  3
2129698960
350
D482
  3
2129698968
350
D483
  3
2129698976
350
D484
  3
2129698984
350
D485
  3
2129698992
350
D486
  0
DICTIONARY
  5
D449
330
D215
100
AcDbDictionary
280
     1
281
     1
  3
ACAD_XREC_ROUNDTRIP
360
D46C
  0
DICTIONARY
  5
D1D6
330
D1D5
100
AcDbDictionary
280
     1
281
     1
  3
ACAD_XREC_ROUNDTRIP
360
D48E
  3
BUMPTILE
360
D1D8
  3
DIFFUSETILE
360
D1D7
  3
OPACITYTILE
360
D1DB
  3
REFLECTIONTILE
360
D1DA
  3
REFRACTIONTILE
360
D1DC
  3
SPECULARTILE
360
D1D9
  0
DICTIONARY
  5
D1CE
330
D1CD
100
AcDbDictionary
280
     1
281
     1
  3
ACAD_XREC_ROUNDTRIP
360
D48D
  3
BUMPTILE
360
D1D0
  3
DIFFUSETILE
360
D1CF
  3
OPACITYTILE
360
D1D3
  3
REFLECTIONTILE
360
D1D2
  3
REFRACTIONTILE
360
D1D4
  3
SPECULARTILE
360
D1D1
  0
DICTIONARY
  5
D1DE
330
D1DD
100
AcDbDictionary
280
     1
281
     1
  3
ACAD_XREC_ROUNDTRIP
360
D48F
  3
BUMPTILE
360
D1E0
  3
DIFFUSETILE
360
D1DF
  3
OPACITYTILE
360
D1E3
  3
REFLECTIONTILE
360
D1E2
  3
REFRACTIONTILE
360
D1E4
  3
SPECULARTILE
360
D1E1
  0
DICTIONARY
  5
D4C1
330
D211
100
AcDbDictionary
280
     1
281
     1
  3
ACAD_XREC_ROUNDTRIP
360
D4C2
  0
DICTIONARY
  5
D447
330
D213
100
AcDbDictionary
280
     1
281
     1
  3
ACAD_XREC_ROUNDTRIP
360
D46B
  0
DICTIONARY
  5
D47F
330
1FCB
100
AcDbDictionary
280
     1
281
     1
  3
ACAD_ROUNDTRIP_2008_TABLESTYLE_CELLSTYLEMAP
360
D480
  3
ACAD_XREC_ROUNDTRIP
360
D48A
  0
DICTIONARY
  5
D49A
330
D1EB
100
AcDbDictionary
280
     1
281
     1
  3
ACAD_XREC_ROUNDTRIP
360
D49B
  0
DICTIONARY
  5
D498
330
D1EA
100
AcDbDictionary
280
     1
281
     1
  3
ACAD_XREC_ROUNDTRIP
360
D499
  0
DICTIONARY
  5
D4A6
330
D1F1
100
AcDbDictionary
280
     1
281
     1
  3
ACAD_XREC_ROUNDTRIP
360
D4A7
  0
DICTIONARY
  5
D4AE
330
D1F5
100
AcDbDictionary
280
     1
281
     1
  3
ACAD_XREC_ROUNDTRIP
360
D4AF
  0
DICTIONARY
  5
D4A0
330
D1EE
100
AcDbDictionary
280
     1
281
     1
  3
ACAD_XREC_ROUNDTRIP
360
D4A1
  0
DICTIONARY
  5
D4A4
330
D1F0
100
AcDbDictionary
280
     1
281
     1
  3
ACAD_XREC_ROUNDTRIP
360
D4A5
  0
DICTIONARY
  5
D4BE
330
D1FD
100
AcDbDictionary
280
     1
281
     1
  3
ACAD_XREC_ROUNDTRIP
360
D4BF
  0
DICTIONARY
  5
D4AC
330
D1F4
100
AcDbDictionary
280
     1
281
     1
  3
ACAD_XREC_ROUNDTRIP
360
D4AD
  0
DICTIONARY
  5
D490
330
D1E6
100
AcDbDictionary
280
     1
281
     1
  3
ACAD_XREC_ROUNDTRIP
360
D491
  0
DICTIONARY
  5
D492
330
D1E7
100
AcDbDictionary
280
     1
281
     1
  3
ACAD_XREC_ROUNDTRIP
360
D493
  0
DICTIONARY
  5
D494
330
D1E8
100
AcDbDictionary
280
     1
281
     1
  3
ACAD_XREC_ROUNDTRIP
360
D495
  0
DICTIONARY
  5
D496
330
D1E9
100
AcDbDictionary
280
     1
281
     1
  3
ACAD_XREC_ROUNDTRIP
360
D497
  0
DICTIONARY
  5
D49E
330
D1ED
100
AcDbDictionary
280
     1
281
     1
  3
ACAD_XREC_ROUNDTRIP
360
D49F
  0
DICTIONARY
  5
D4BA
330
D1FB
100
AcDbDictionary
280
     1
281
     1
  3
ACAD_XREC_ROUNDTRIP
360
D4BB
  0
DICTIONARY
  5
D4AA
330
D1F3
100
AcDbDictionary
280
     1
281
     1
  3
ACAD_XREC_ROUNDTRIP
360
D4AB
  0
DICTIONARY
  5
D4BC
330
D1FC
100
AcDbDictionary
280
     1
281
     1
  3
ACAD_XREC_ROUNDTRIP
360
D4BD
  0
DICTIONARY
  5
D4A2
330
D1EF
100
AcDbDictionary
280
     1
281
     1
  3
ACAD_XREC_ROUNDTRIP
360
D4A3
  0
DICTIONARY
  5
D4B8
330
D1FA
100
AcDbDictionary
280
     1
281
     1
  3
ACAD_XREC_ROUNDTRIP
360
D4B9
  0
DICTIONARY
  5
D4B6
330
D1F9
100
AcDbDictionary
280
     1
281
     1
  3
ACAD_XREC_ROUNDTRIP
360
D4B7
  0
DICTIONARY
  5
D4B0
330
D1F6
100
AcDbDictionary
280
     1
281
     1
  3
ACAD_XREC_ROUNDTRIP
360
D4B1
  0
DICTIONARY
  5
D4B2
330
D1F7
100
AcDbDictionary
280
     1
281
     1
  3
ACAD_XREC_ROUNDTRIP
360
D4B3
  0
DICTIONARY
  5
D4A8
330
D1F2
100
AcDbDictionary
280
     1
281
     1
  3
ACAD_XREC_ROUNDTRIP
360
D4A9
  0
DICTIONARY
  5
D49C
330
D1EC
100
AcDbDictionary
280
     1
281
     1
  3
ACAD_XREC_ROUNDTRIP
360
D49D
  0
DICTIONARY
  5
D4B4
330
D1F8
100
AcDbDictionary
280
     1
281
     1
  3
ACAD_XREC_ROUNDTRIP
360
D4B5
  0
XRECORD
  5
D482
102
{ACAD_REACTORS
330
D488
102
}
330
D488
100
AcDbXrecord
280
     1
  1
AcDb_Thumbnail_Schema
102
{ATTRRECORD
341
D483
  2
AcDbDs::TreatedAsObjectData
280
     1
291
     1
102
ATTRRECORD}
102
{ATTRRECORD
341
D484
  2
AcDbDs::Legacy
280
     1
291
     1
102
ATTRRECORD}
  2
AcDbDs::ID
280
    10
 91
        8
102
{ATTRRECORD
341
D485
  2
AcDs:Indexable
280
     1
291
     1
102
ATTRRECORD}
102
{ATTRRECORD
341
D486
  2
AcDbDs::HandleAttribute
280
     7
282
     1
102
ATTRRECORD}
  2
Thumbnail_Data
280
    15
 91
        0
  0
XRECORD
  5
D483
102
{ACAD_REACTORS
330
D488
102
}
330
D488
100
AcDbXrecord
280
     1
  1
AcDbDs::TreatedAsObjectDataSchema
  2
AcDbDs::TreatedAsObjectData
280
     1
 91
        0
  0
XRECORD
  5
D484
102
{ACAD_REACTORS
330
D488
102
}
330
D488
100
AcDbXrecord
280
     1
  1
AcDbDs::LegacySchema
  2
AcDbDs::Legacy
280
     1
 91
        0
  0
XRECORD
  5
D485
102
{ACAD_REACTORS
330
D488
102
}
330
D488
100
AcDbXrecord
280
     1
  1
AcDbDs::IndexedPropertySchema
  2
AcDs:Indexable
280
     1
 91
        0
  0
XRECORD
  5
D486
102
{ACAD_REACTORS
330
D488
102
}
330
D488
100
AcDbXrecord
280
     1
  1
AcDbDs::HandleAttributeSchema
  2
AcDbDs::HandleAttribute
280
     7
 91
        1
284
     1
  0
XRECORD
  5
D46C
102
{ACAD_REACTORS
330
D449
102
}
330
D449
100
AcDbXrecord
280
     1
102
DISPLAYNAME
  1
Imperial24
102
FLAGS
 90
        0
  0
XRECORD
  5
D48E
102
{ACAD_REACTORS
330
D1D6
102
}
330
D1D6
100
AcDbXrecord
280
     1
102
MATERIAL
148
0.0
149
0.0
149
0.0
 93
        0
 94
      127
282
     0
 72
     0
 77
     0
171
     0
175
     0
179
     0
273
     0
  0
XRECORD
  5
D1D8
102
{ACAD_REACTORS
330
D1D6
102
}
330
D1D6
100
AcDbXrecord
280
     1
270
     1
271
     1
  0
XRECORD
  5
D1D7
102
{ACAD_REACTORS
330
D1D6
102
}
330
D1D6
100
AcDbXrecord
280
     1
270
     1
271
     1
  0
XRECORD
  5
D1DB
102
{ACAD_REACTORS
330
D1D6
102
}
330
D1D6
100
AcDbXrecord
280
     1
270
     1
271
     1
  0
XRECORD
  5
D1DA
102
{ACAD_REACTORS
330
D1D6
102
}
330
D1D6
100
AcDbXrecord
280
     1
270
     1
271
     1
  0
XRECORD
  5
D1DC
102
{ACAD_REACTORS
330
D1D6
102
}
330
D1D6
100
AcDbXrecord
280
     1
270
     1
271
     1
  0
XRECORD
  5
D1D9
102
{ACAD_REACTORS
330
D1D6
102
}
330
D1D6
100
AcDbXrecord
280
     1
270
     1
271
     1
  0
XRECORD
  5
D48D
102
{ACAD_REACTORS
330
D1CE
102
}
330
D1CE
100
AcDbXrecord
280
     1
102
MATERIAL
148
0.0
149
0.0
149
0.0
 93
        0
 94
      127
282
     0
 72
     0
 77
     0
171
     0
175
     0
179
     0
273
     0
  0
XRECORD
  5
D1D0
102
{ACAD_REACTORS
330
D1CE
102
}
330
D1CE
100
AcDbXrecord
280
     1
270
     1
271
     1
  0
XRECORD
  5
D1CF
102
{ACAD_REACTORS
330
D1CE
102
}
330
D1CE
100
AcDbXrecord
280
     1
270
     1
271
     1
  0
XRECORD
  5
D1D3
102
{ACAD_REACTORS
330
D1CE
102
}
330
D1CE
100
AcDbXrecord
280
     1
270
     1
271
     1
  0
XRECORD
  5
D1D2
102
{ACAD_REACTORS
330
D1CE
102
}
330
D1CE
100
AcDbXrecord
280
     1
270
     1
271
     1
  0
XRECORD
  5
D1D4
102
{ACAD_REACTORS
330
D1CE
102
}
330
D1CE
100
AcDbXrecord
280
     1
270
     1
271
     1
  0
XRECORD
  5
D1D1
102
{ACAD_REACTORS
330
D1CE
102
}
330
D1CE
100
AcDbXrecord
280
     1
270
     1
271
     1
  0
XRECORD
  5
D48F
102
{ACAD_REACTORS
330
D1DE
102
}
330
D1DE
100
AcDbXrecord
280
     1
102
MATERIAL
148
0.0
149
0.0
149
0.0
 93
        0
 94
      127
282
     0
 72
     0
 77
     0
171
     0
175
     0
179
     0
273
     0
  0
XRECORD
  5
D1E0
102
{ACAD_REACTORS
330
D1DE
102
}
330
D1DE
100
AcDbXrecord
280
     1
270
     1
271
     1
  0
XRECORD
  5
D1DF
102
{ACAD_REACTORS
330
D1DE
102
}
330
D1DE
100
AcDbXrecord
280
     1
270
     1
271
     1
  0
XRECORD
  5
D1E3
102
{ACAD_REACTORS
330
D1DE
102
}
330
D1DE
100
AcDbXrecord
280
     1
270
     1
271
     1
  0
XRECORD
  5
D1E2
102
{ACAD_REACTORS
330
D1DE
102
}
330
D1DE
100
AcDbXrecord
280
     1
270
     1
271
     1
  0
XRECORD
  5
D1E4
102
{ACAD_REACTORS
330
D1DE
102
}
330
D1DE
100
AcDbXrecord
280
     1
270
     1
271
     1
  0
XRECORD
  5
D1E1
102
{ACAD_REACTORS
330
D1DE
102
}
330
D1DE
100
AcDbXrecord
280
     1
270
     1
271
     1
  0
XRECORD
  5
D4C2
102
{ACAD_REACTORS
330
D4C1
102
}
330
D4C1
100
AcDbXrecord
280
     1
102
ACAD_ROUNDTRIP_2012_MLEADER_STYLE
298
     1
  0
XRECORD
  5
D46B
102
{ACAD_REACTORS
330
D447
102
}
330
D447
100
AcDbXrecord
280
     1
102
DISPLAYNAME
  1
Imperial24
102
FLAGS
 90
        0
  0
CELLSTYLEMAP
  5
D480
102
{ACAD_REACTORS
330
D47F
102
}
330
D47F
100
AcDbCellStyleMap
 90
        3
300
CELLSTYLE
  1
TABLEFORMAT_BEGIN
 90
        5
170
     1
 91
        0
 92
    32768
 62
   257
 93
        1
300
CONTENTFORMAT
  1
CONTENTFORMAT_BEGIN
 90
        0
 91
        0
 92
        4
 93
        0
300

 40
0.0
140
1.0
 94
        5
 62
     0
340
C
144
0.25
309
CONTENTFORMAT_END
171
     0
 94
        6
 95
        1
302
GRIDFORMAT
  1
GRIDFORMAT_BEGIN
 90
        0
 91
        1
 62
     0
 92
       -2
340
0
 93
        0
 40
0.045
309
GRIDFORMAT_END
 95
        2
302
GRIDFORMAT
  1
GRIDFORMAT_BEGIN
 90
        0
 91
        1
 62
     0
 92
       -2
340
0
 93
        0
 40
0.045
309
GRIDFORMAT_END
 95
        4
302
GRIDFORMAT
  1
GRIDFORMAT_BEGIN
 90
        0
 91
        1
 62
     0
 92
       -2
340
0
 93
        0
 40
0.045
309
GRIDFORMAT_END
 95
        8
302
GRIDFORMAT
  1
GRIDFORMAT_BEGIN
 90
        0
 91
        1
 62
     0
 92
       -2
340
0
 93
        0
 40
0.045
309
GRIDFORMAT_END
 95
       16
302
GRIDFORMAT
  1
GRIDFORMAT_BEGIN
 90
        0
 91
        1
 62
     0
 92
       -2
340
0
 93
        0
 40
0.045
309
GRIDFORMAT_END
 95
       32
302
GRIDFORMAT
  1
GRIDFORMAT_BEGIN
 90
        0
 91
        1
 62
     0
 92
       -2
340
0
 93
        0
 40
0.045
309
GRIDFORMAT_END
309
TABLEFORMAT_END
  1
CELLSTYLE_BEGIN
 90
        1
 91
        1
300
_TITLE
309
CELLSTYLE_END
300
CELLSTYLE
  1
TABLEFORMAT_BEGIN
 90
        5
170
     1
 91
        0
 92
        0
 62
   257
 93
        1
300
CONTENTFORMAT
  1
CONTENTFORMAT_BEGIN
 90
        0
 91
        0
 92
        4
 93
        0
300

 40
0.0
140
1.0
 94
        5
 62
     0
340
C
144
0.18
309
CONTENTFORMAT_END
171
     0
 94
        6
 95
        1
302
GRIDFORMAT
  1
GRIDFORMAT_BEGIN
 90
        0
 91
        1
 62
     0
 92
       -2
340
0
 93
        0
 40
0.045
309
GRIDFORMAT_END
 95
        2
302
GRIDFORMAT
  1
GRIDFORMAT_BEGIN
 90
        0
 91
        1
 62
     0
 92
       -2
340
0
 93
        0
 40
0.045
309
GRIDFORMAT_END
 95
        4
302
GRIDFORMAT
  1
GRIDFORMAT_BEGIN
 90
        0
 91
        1
 62
     0
 92
       -2
340
0
 93
        0
 40
0.045
309
GRIDFORMAT_END
 95
        8
302
GRIDFORMAT
  1
GRIDFORMAT_BEGIN
 90
        0
 91
        1
 62
     0
 92
       -2
340
0
 93
        0
 40
0.045
309
GRIDFORMAT_END
 95
       16
302
GRIDFORMAT
  1
GRIDFORMAT_BEGIN
 90
        0
 91
        1
 62
     0
 92
       -2
340
0
 93
        0
 40
0.045
309
GRIDFORMAT_END
 95
       32
302
GRIDFORMAT
  1
GRIDFORMAT_BEGIN
 90
        0
 91
        1
 62
     0
 92
       -2
340
0
 93
        0
 40
0.045
309
GRIDFORMAT_END
309
TABLEFORMAT_END
  1
CELLSTYLE_BEGIN
 90
        2
 91
        1
300
_HEADER
309
CELLSTYLE_END
300
CELLSTYLE
  1
TABLEFORMAT_BEGIN
 90
        5
170
     1
 91
        0
 92
        0
 62
   257
 93
        1
300
CONTENTFORMAT
  1
CONTENTFORMAT_BEGIN
 90
        0
 91
        0
 92
        4
 93
        0
300

 40
0.0
140
1.0
 94
        2
 62
     0
340
C
144
0.18
309
CONTENTFORMAT_END
171
     0
 94
        6
 95
        1
302
GRIDFORMAT
  1
GRIDFORMAT_BEGIN
 90
        0
 91
        1
 62
     0
 92
       -2
340
0
 93
        0
 40
0.045
309
GRIDFORMAT_END
 95
        2
302
GRIDFORMAT
  1
GRIDFORMAT_BEGIN
 90
        0
 91
        1
 62
     0
 92
       -2
340
0
 93
        0
 40
0.045
309
GRIDFORMAT_END
 95
        4
302
GRIDFORMAT
  1
GRIDFORMAT_BEGIN
 90
        0
 91
        1
 62
     0
 92
       -2
340
0
 93
        0
 40
0.045
309
GRIDFORMAT_END
 95
        8
302
GRIDFORMAT
  1
GRIDFORMAT_BEGIN
 90
        0
 91
        1
 62
     0
 92
       -2
340
0
 93
        0
 40
0.045
309
GRIDFORMAT_END
 95
       16
302
GRIDFORMAT
  1
GRIDFORMAT_BEGIN
 90
        0
 91
        1
 62
     0
 92
       -2
340
0
 93
        0
 40
0.045
309
GRIDFORMAT_END
 95
       32
302
GRIDFORMAT
  1
GRIDFORMAT_BEGIN
 90
        0
 91
        1
 62
     0
 92
       -2
340
0
 93
        0
 40
0.045
309
GRIDFORMAT_END
309
TABLEFORMAT_END
  1
CELLSTYLE_BEGIN
 90
        3
 91
        2
300
_DATA
309
CELLSTYLE_END
  0
XRECORD
  5
D48A
102
{ACAD_REACTORS
330
D47F
102
}
330
D47F
100
AcDbXrecord
280
     1
102
ACAD_ROUNDTRIP_PRE2007_TABLESTYLE
 90
        4
 91
        0
  1

 92
        4
 93
        0
  2

 94
        4
 95
        0
  3

  0
XRECORD
  5
D49B
102
{ACAD_REACTORS
330
D49A
102
}
330
D49A
100
AcDbXrecord
280
     1
102
RTVSPost2010Prop28
280
     1
102
RTVSPost2010PropOp28
 70
     1
102
RTVSPost2010Prop29
280
     1
102
RTVSPost2010PropOp29
 70
     1
102
RTVSPost2010Prop30
280
     0
102
RTVSPost2010PropOp30
 70
     1
102
RTVSPost2010Prop31
280
     0
102
RTVSPost2010PropOp31
 70
     1
102
RTVSPost2010Prop32
280
     0
102
RTVSPost2010PropOp32
 70
     1
102
RTVSPost2010Prop33
280
     0
102
RTVSPost2010PropOp33
 70
     1
102
RTVSPost2010Prop34
280
     0
102
RTVSPost2010PropOp34
 70
     1
102
RTVSPost2010Prop35
280
     0
102
RTVSPost2010PropOp35
 70
     1
102
RTVSPost2010Prop36
280
     0
102
RTVSPost2010PropOp36
 70
     1
102
RTVSPost2010Prop37
 90
       50
102
RTVSPost2010PropOp37
 70
     1
102
RTVSPost2010Prop38
140
0.0
102
RTVSPost2010PropOp38
 70
     1
102
RTVSPost2010Prop39
140
1.0
102
RTVSPost2010PropOp39
 70
     1
102
RTVSPost2010Prop40
 90
        0
102
RTVSPost2010PropOp40
 70
     1
102
RTVSPost2010Prop41ColorIndex
 90
       18
102
RTVSPost2010Prop41ColorRGB
 90
        0
102
RTVSPost2010PropOp41
 70
     1
102
RTVSPost2010Prop42
 90
       50
102
RTVSPost2010PropOp42
 70
     1
102
RTVSPost2010Prop43
 90
        3
102
RTVSPost2010PropOp43
 70
     1
102
RTVSPost2010Prop44ColorIndex
 90
        5
102
RTVSPost2010Prop44ColorRGB
 90
      255
102
RTVSPost2010PropOp44
 70
     1
102
RTVSPost2010Prop45
280
     0
102
RTVSPost2010PropOp45
 70
     1
102
RTVSPost2010Prop46
 90
       50
102
RTVSPost2010PropOp46
 70
     1
102
RTVSPost2010Prop47
 90
       50
102
RTVSPost2010PropOp47
 70
     1
102
RTVSPost2010Prop48
 90
       50
102
RTVSPost2010PropOp48
 70
     1
102
RTVSPost2010Prop49
280
     0
102
RTVSPost2010PropOp49
 70
     1
102
RTVSPost2010Prop50
 90
       50
102
RTVSPost2010PropOp50
 70
     1
102
RTVSPost2010Prop51ColorIndex
 90
      256
102
RTVSPost2010Prop51ColorRGB
 90
-16777216
102
RTVSPost2010PropOp51
 70
     0
102
RTVSPost2010Prop52
140
1.0
102
RTVSPost2010PropOp52
 70
     0
102
RTVSPost2010Prop53
 90
        2
102
RTVSPost2010PropOp53
 70
     1
102
RTVSPost2010Prop54
  1
strokes_ogs.tif
102
RTVSPost2010PropOp54
 70
     1
102
RTVSPost2010Prop55
280
     0
102
RTVSPost2010PropOp55
 70
     1
102
RTVSPost2010Prop56
140
1.0
102
RTVSPost2010PropOp56
 70
     1
102
RTVSPost2010Prop57
140
1.0
102
RTVSPost2010PropOp57
 70
     1
102
RTVSPropertyOp0
 70
     1
102
RTVSPropertyOp1
 70
     1
102
RTVSPropertyOp2
 70
     1
102
RTVSPropertyOp3
 70
     1
102
RTVSPropertyOp4
 70
     1
102
RTVSPropertyOp5
 70
     1
102
RTVSPropertyOp6
 70
     1
102
RTVSPropertyOp7
 70
     1
102
RTVSPropertyOp8
 70
     1
102
RTVSPropertyOp9
 70
     1
102
RTVSPropertyOp10
 70
     1
102
RTVSPropertyOp11
 70
     1
102
RTVSPropertyOp12
 70
     1
102
RTVSPropertyOp13
 70
     1
102
RTVSPropertyOp14
 70
     1
102
RTVSPropertyOp15
 70
     1
102
RTVSPropertyOp16
 70
     1
102
RTVSPropertyOp17
 70
     1
102
RTVSPropertyOp18
 70
     1
102
RTVSPropertyOp19
 70
     1
102
RTVSPropertyOp20
 70
     1
102
RTVSPropertyOp21
 70
     1
102
RTVSPropertyOp22
 70
     1
102
RTVSPropertyOp23
 70
     1
102
RTVSPropertyOp24
 70
     1
102
RTVSPropertyOp25
 70
     1
102
RTVSPropertyOp26
 70
     1
102
RTVSPropertyOp27
 70
     1
102
RTVSPropertyOp28
 70
     1
102
RTVSPropertyOp29
 70
     1
102
RTVSPropertyOp30
 70
     1
102
RTVSPropertyOp31
 70
     1
102
RTVSPropertyOp32
 70
     1
102
RTVSPropertyOp33
 70
     1
102
RTVSPropertyOp34
 70
     1
102
RTVSPropertyOp35
 70
     1
102
RTVSPropertyOp36
 70
     1
102
RTVSPropertyOp37
 70
     1
102
RTVSPropertyOp38
 70
     1
102
RTVSPropertyOp39
 70
     1
102
RTVSPropertyOp40
 70
     1
102
RTVSPropertyOp41
 70
     1
102
RTVSPropertyOp42
 70
     1
102
RTVSPropertyOp43
 70
     1
102
RTVSPropertyOp44
 70
     1
102
RTVSPropertyOp45
 70
     1
102
RTVSPropertyOp46
 70
     1
102
RTVSPropertyOp47
 70
     1
102
RTVSPropertyOp48
 70
     1
102
RTVSPropertyOp49
 70
     1
102
RTVSPropertyOp50
 70
     1
102
RTVSPropertyOp51
 70
     0
102
RTVSPropertyOp52
 70
     0
102
RTVSPropertyOp53
 70
     1
102
RTVSPropertyOp54
 70
     1
102
RTVSPropertyOp55
 70
     1
102
RTVSPropertyOp56
 70
     1
102
RTVSPropertyOp57
 70
     1
102
RTVSPropertyOp58
 70
     1
102
RTVSPropertyOp59
 70
     1
102
RTVSPropertyOp60
 70
     1
102
RTVSPropertyOp61
 70
     1
102
RTVSPropertyOp62
 70
     1
  0
XRECORD
  5
D499
102
{ACAD_REACTORS
330
D498
102
}
330
D498
100
AcDbXrecord
280
     1
102
RTVSPost2010Prop28
280
     0
102
RTVSPost2010PropOp28
 70
     1
102
RTVSPost2010Prop29
280
     1
102
RTVSPost2010PropOp29
 70
     1
102
RTVSPost2010Prop30
280
     1
102
RTVSPost2010PropOp30
 70
     1
102
RTVSPost2010Prop31
280
     0
102
RTVSPost2010PropOp31
 70
     1
102
RTVSPost2010Prop32
280
     0
102
RTVSPost2010PropOp32
 70
     1
102
RTVSPost2010Prop33
280
     0
102
RTVSPost2010PropOp33
 70
     1
102
RTVSPost2010Prop34
280
     0
102
RTVSPost2010PropOp34
 70
     1
102
RTVSPost2010Prop35
280
     0
102
RTVSPost2010PropOp35
 70
     1
102
RTVSPost2010Prop36
280
     0
102
RTVSPost2010PropOp36
 70
     1
102
RTVSPost2010Prop37
 90
       50
102
RTVSPost2010PropOp37
 70
     1
102
RTVSPost2010Prop38
140
0.0
102
RTVSPost2010PropOp38
 70
     1
102
RTVSPost2010Prop39
140
1.0
102
RTVSPost2010PropOp39
 70
     1
102
RTVSPost2010Prop40
 90
        0
102
RTVSPost2010PropOp40
 70
     1
102
RTVSPost2010Prop41ColorIndex
 90
       18
102
RTVSPost2010Prop41ColorRGB
 90
        0
102
RTVSPost2010PropOp41
 70
     1
102
RTVSPost2010Prop42
 90
       50
102
RTVSPost2010PropOp42
 70
     1
102
RTVSPost2010Prop43
 90
        3
102
RTVSPost2010PropOp43
 70
     1
102
RTVSPost2010Prop44ColorIndex
 90
        5
102
RTVSPost2010Prop44ColorRGB
 90
      255
102
RTVSPost2010PropOp44
 70
     1
102
RTVSPost2010Prop45
280
     0
102
RTVSPost2010PropOp45
 70
     1
102
RTVSPost2010Prop46
 90
       50
102
RTVSPost2010PropOp46
 70
     1
102
RTVSPost2010Prop47
 90
       50
102
RTVSPost2010PropOp47
 70
     1
102
RTVSPost2010Prop48
 90
       50
102
RTVSPost2010PropOp48
 70
     1
102
RTVSPost2010Prop49
280
     0
102
RTVSPost2010PropOp49
 70
     1
102
RTVSPost2010Prop50
 90
       50
102
RTVSPost2010PropOp50
 70
     1
102
RTVSPost2010Prop51ColorIndex
 90
      256
102
RTVSPost2010Prop51ColorRGB
 90
-16777216
102
RTVSPost2010PropOp51
 70
     0
102
RTVSPost2010Prop52
140
1.0
102
RTVSPost2010PropOp52
 70
     0
102
RTVSPost2010Prop53
 90
        2
102
RTVSPost2010PropOp53
 70
     1
102
RTVSPost2010Prop54
  1
strokes_ogs.tif
102
RTVSPost2010PropOp54
 70
     1
102
RTVSPost2010Prop55
280
     0
102
RTVSPost2010PropOp55
 70
     1
102
RTVSPost2010Prop56
140
1.0
102
RTVSPost2010PropOp56
 70
     1
102
RTVSPost2010Prop57
140
1.0
102
RTVSPost2010PropOp57
 70
     1
102
RTVSPropertyOp0
 70
     1
102
RTVSPropertyOp1
 70
     1
102
RTVSPropertyOp2
 70
     1
102
RTVSPropertyOp3
 70
     1
102
RTVSPropertyOp4
 70
     1
102
RTVSPropertyOp5
 70
     1
102
RTVSPropertyOp6
 70
     1
102
RTVSPropertyOp7
 70
     1
102
RTVSPropertyOp8
 70
     1
102
RTVSPropertyOp9
 70
     1
102
RTVSPropertyOp10
 70
     1
102
RTVSPropertyOp11
 70
     1
102
RTVSPropertyOp12
 70
     1
102
RTVSPropertyOp13
 70
     1
102
RTVSPropertyOp14
 70
     1
102
RTVSPropertyOp15
 70
     1
102
RTVSPropertyOp16
 70
     1
102
RTVSPropertyOp17
 70
     1
102
RTVSPropertyOp18
 70
     1
102
RTVSPropertyOp19
 70
     1
102
RTVSPropertyOp20
 70
     1
102
RTVSPropertyOp21
 70
     1
102
RTVSPropertyOp22
 70
     1
102
RTVSPropertyOp23
 70
     1
102
RTVSPropertyOp24
 70
     1
102
RTVSPropertyOp25
 70
     1
102
RTVSPropertyOp26
 70
     1
102
RTVSPropertyOp27
 70
     1
102
RTVSPropertyOp28
 70
     1
102
RTVSPropertyOp29
 70
     1
102
RTVSPropertyOp30
 70
     1
102
RTVSPropertyOp31
 70
     1
102
RTVSPropertyOp32
 70
     1
102
RTVSPropertyOp33
 70
     1
102
RTVSPropertyOp34
 70
     1
102
RTVSPropertyOp35
 70
     1
102
RTVSPropertyOp36
 70
     1
102
RTVSPropertyOp37
 70
     1
102
RTVSPropertyOp38
 70
     1
102
RTVSPropertyOp39
 70
     1
102
RTVSPropertyOp40
 70
     1
102
RTVSPropertyOp41
 70
     1
102
RTVSPropertyOp42
 70
     1
102
RTVSPropertyOp43
 70
     1
102
RTVSPropertyOp44
 70
     1
102
RTVSPropertyOp45
 70
     1
102
RTVSPropertyOp46
 70
     1
102
RTVSPropertyOp47
 70
     1
102
RTVSPropertyOp48
 70
     1
102
RTVSPropertyOp49
 70
     1
102
RTVSPropertyOp50
 70
     1
102
RTVSPropertyOp51
 70
     0
102
RTVSPropertyOp52
 70
     0
102
RTVSPropertyOp53
 70
     1
102
RTVSPropertyOp54
 70
     1
102
RTVSPropertyOp55
 70
     1
102
RTVSPropertyOp56
 70
     1
102
RTVSPropertyOp57
 70
     1
102
RTVSPropertyOp58
 70
     1
102
RTVSPropertyOp59
 70
     1
102
RTVSPropertyOp60
 70
     1
102
RTVSPropertyOp61
 70
     1
102
RTVSPropertyOp62
 70
     1
  0
XRECORD
  5
D4A7
102
{ACAD_REACTORS
330
D4A6
102
}
330
D4A6
100
AcDbXrecord
280
     1
102
RTVSPost2010Prop28
280
     0
102
RTVSPost2010PropOp28
 70
     1
102
RTVSPost2010Prop29
280
     1
102
RTVSPost2010PropOp29
 70
     1
102
RTVSPost2010Prop30
280
     1
102
RTVSPost2010PropOp30
 70
     1
102
RTVSPost2010Prop31
280
     0
102
RTVSPost2010PropOp31
 70
     1
102
RTVSPost2010Prop32
280
     0
102
RTVSPost2010PropOp32
 70
     1
102
RTVSPost2010Prop33
280
     0
102
RTVSPost2010PropOp33
 70
     1
102
RTVSPost2010Prop34
280
     0
102
RTVSPost2010PropOp34
 70
     1
102
RTVSPost2010Prop35
280
     0
102
RTVSPost2010PropOp35
 70
     1
102
RTVSPost2010Prop36
280
     0
102
RTVSPost2010PropOp36
 70
     1
102
RTVSPost2010Prop37
 90
       50
102
RTVSPost2010PropOp37
 70
     1
102
RTVSPost2010Prop38
140
0.0
102
RTVSPost2010PropOp38
 70
     1
102
RTVSPost2010Prop39
140
1.0
102
RTVSPost2010PropOp39
 70
     1
102
RTVSPost2010Prop40
 90
        0
102
RTVSPost2010PropOp40
 70
     1
102
RTVSPost2010Prop41ColorIndex
 90
       18
102
RTVSPost2010Prop41ColorRGB
 90
        0
102
RTVSPost2010PropOp41
 70
     1
102
RTVSPost2010Prop42
 90
       50
102
RTVSPost2010PropOp42
 70
     1
102
RTVSPost2010Prop43
 90
        3
102
RTVSPost2010PropOp43
 70
     1
102
RTVSPost2010Prop44ColorIndex
 90
        5
102
RTVSPost2010Prop44ColorRGB
 90
      255
102
RTVSPost2010PropOp44
 70
     1
102
RTVSPost2010Prop45
280
     0
102
RTVSPost2010PropOp45
 70
     1
102
RTVSPost2010Prop46
 90
       50
102
RTVSPost2010PropOp46
 70
     1
102
RTVSPost2010Prop47
 90
       50
102
RTVSPost2010PropOp47
 70
     1
102
RTVSPost2010Prop48
 90
       50
102
RTVSPost2010PropOp48
 70
     1
102
RTVSPost2010Prop49
280
     0
102
RTVSPost2010PropOp49
 70
     1
102
RTVSPost2010Prop50
 90
       50
102
RTVSPost2010PropOp50
 70
     1
102
RTVSPost2010Prop51ColorIndex
 90
      256
102
RTVSPost2010Prop51ColorRGB
 90
-16777216
102
RTVSPost2010PropOp51
 70
     0
102
RTVSPost2010Prop52
140
1.0
102
RTVSPost2010PropOp52
 70
     0
102
RTVSPost2010Prop53
 90
        2
102
RTVSPost2010PropOp53
 70
     1
102
RTVSPost2010Prop54
  1
strokes_ogs.tif
102
RTVSPost2010PropOp54
 70
     1
102
RTVSPost2010Prop55
280
     0
102
RTVSPost2010PropOp55
 70
     1
102
RTVSPost2010Prop56
140
1.0
102
RTVSPost2010PropOp56
 70
     1
102
RTVSPost2010Prop57
140
1.0
102
RTVSPost2010PropOp57
 70
     1
102
RTVSPropertyOp0
 70
     1
102
RTVSPropertyOp1
 70
     1
102
RTVSPropertyOp2
 70
     1
102
RTVSPropertyOp3
 70
     1
102
RTVSPropertyOp4
 70
     1
102
RTVSPropertyOp5
 70
     1
102
RTVSPropertyOp6
 70
     1
102
RTVSPropertyOp7
 70
     1
102
RTVSPropertyOp8
 70
     1
102
RTVSPropertyOp9
 70
     1
102
RTVSPropertyOp10
 70
     1
102
RTVSPropertyOp11
 70
     1
102
RTVSPropertyOp12
 70
     1
102
RTVSPropertyOp13
 70
     1
102
RTVSPropertyOp14
 70
     1
102
RTVSPropertyOp15
 70
     1
102
RTVSPropertyOp16
 70
     1
102
RTVSPropertyOp17
 70
     1
102
RTVSPropertyOp18
 70
     1
102
RTVSPropertyOp19
 70
     1
102
RTVSPropertyOp20
 70
     1
102
RTVSPropertyOp21
 70
     1
102
RTVSPropertyOp22
 70
     1
102
RTVSPropertyOp23
 70
     1
102
RTVSPropertyOp24
 70
     1
102
RTVSPropertyOp25
 70
     1
102
RTVSPropertyOp26
 70
     1
102
RTVSPropertyOp27
 70
     1
102
RTVSPropertyOp28
 70
     1
102
RTVSPropertyOp29
 70
     1
102
RTVSPropertyOp30
 70
     1
102
RTVSPropertyOp31
 70
     1
102
RTVSPropertyOp32
 70
     1
102
RTVSPropertyOp33
 70
     1
102
RTVSPropertyOp34
 70
     1
102
RTVSPropertyOp35
 70
     1
102
RTVSPropertyOp36
 70
     1
102
RTVSPropertyOp37
 70
     1
102
RTVSPropertyOp38
 70
     1
102
RTVSPropertyOp39
 70
     1
102
RTVSPropertyOp40
 70
     1
102
RTVSPropertyOp41
 70
     1
102
RTVSPropertyOp42
 70
     1
102
RTVSPropertyOp43
 70
     1
102
RTVSPropertyOp44
 70
     1
102
RTVSPropertyOp45
 70
     1
102
RTVSPropertyOp46
 70
     1
102
RTVSPropertyOp47
 70
     1
102
RTVSPropertyOp48
 70
     1
102
RTVSPropertyOp49
 70
     1
102
RTVSPropertyOp50
 70
     1
102
RTVSPropertyOp51
 70
     0
102
RTVSPropertyOp52
 70
     0
102
RTVSPropertyOp53
 70
     1
102
RTVSPropertyOp54
 70
     1
102
RTVSPropertyOp55
 70
     1
102
RTVSPropertyOp56
 70
     1
102
RTVSPropertyOp57
 70
     1
102
RTVSPropertyOp58
 70
     1
102
RTVSPropertyOp59
 70
     1
102
RTVSPropertyOp60
 70
     1
102
RTVSPropertyOp61
 70
     1
102
RTVSPropertyOp62
 70
     1
  0
XRECORD
  5
D4AF
102
{ACAD_REACTORS
330
D4AE
102
}
330
D4AE
100
AcDbXrecord
280
     1
102
RTVSPost2010Prop28
280
     0
102
RTVSPost2010PropOp28
 70
     1
102
RTVSPost2010Prop29
280
     1
102
RTVSPost2010PropOp29
 70
     1
102
RTVSPost2010Prop30
280
     1
102
RTVSPost2010PropOp30
 70
     1
102
RTVSPost2010Prop31
280
     0
102
RTVSPost2010PropOp31
 70
     1
102
RTVSPost2010Prop32
280
     0
102
RTVSPost2010PropOp32
 70
     1
102
RTVSPost2010Prop33
280
     0
102
RTVSPost2010PropOp33
 70
     1
102
RTVSPost2010Prop34
280
     0
102
RTVSPost2010PropOp34
 70
     1
102
RTVSPost2010Prop35
280
     0
102
RTVSPost2010PropOp35
 70
     1
102
RTVSPost2010Prop36
280
     0
102
RTVSPost2010PropOp36
 70
     1
102
RTVSPost2010Prop37
 90
       50
102
RTVSPost2010PropOp37
 70
     1
102
RTVSPost2010Prop38
140
0.0
102
RTVSPost2010PropOp38
 70
     1
102
RTVSPost2010Prop39
140
1.0
102
RTVSPost2010PropOp39
 70
     1
102
RTVSPost2010Prop40
 90
        0
102
RTVSPost2010PropOp40
 70
     1
102
RTVSPost2010Prop41ColorIndex
 90
       18
102
RTVSPost2010Prop41ColorRGB
 90
        0
102
RTVSPost2010PropOp41
 70
     1
102
RTVSPost2010Prop42
 90
       50
102
RTVSPost2010PropOp42
 70
     1
102
RTVSPost2010Prop43
 90
        3
102
RTVSPost2010PropOp43
 70
     1
102
RTVSPost2010Prop44ColorIndex
 90
        5
102
RTVSPost2010Prop44ColorRGB
 90
      255
102
RTVSPost2010PropOp44
 70
     1
102
RTVSPost2010Prop45
280
     0
102
RTVSPost2010PropOp45
 70
     1
102
RTVSPost2010Prop46
 90
       50
102
RTVSPost2010PropOp46
 70
     1
102
RTVSPost2010Prop47
 90
       50
102
RTVSPost2010PropOp47
 70
     1
102
RTVSPost2010Prop48
 90
       50
102
RTVSPost2010PropOp48
 70
     1
102
RTVSPost2010Prop49
280
     0
102
RTVSPost2010PropOp49
 70
     1
102
RTVSPost2010Prop50
 90
       50
102
RTVSPost2010PropOp50
 70
     1
102
RTVSPost2010Prop51ColorIndex
 90
      256
102
RTVSPost2010Prop51ColorRGB
 90
-16777216
102
RTVSPost2010PropOp51
 70
     0
102
RTVSPost2010Prop52
140
1.0
102
RTVSPost2010PropOp52
 70
     0
102
RTVSPost2010Prop53
 90
        2
102
RTVSPost2010PropOp53
 70
     1
102
RTVSPost2010Prop54
  1
strokes_ogs.tif
102
RTVSPost2010PropOp54
 70
     1
102
RTVSPost2010Prop55
280
     0
102
RTVSPost2010PropOp55
 70
     1
102
RTVSPost2010Prop56
140
1.0
102
RTVSPost2010PropOp56
 70
     1
102
RTVSPost2010Prop57
140
1.0
102
RTVSPost2010PropOp57
 70
     1
102
RTVSPropertyOp0
 70
     1
102
RTVSPropertyOp1
 70
     1
102
RTVSPropertyOp2
 70
     1
102
RTVSPropertyOp3
 70
     1
102
RTVSPropertyOp4
 70
     1
102
RTVSPropertyOp5
 70
     1
102
RTVSPropertyOp6
 70
     1
102
RTVSPropertyOp7
 70
     1
102
RTVSPropertyOp8
 70
     1
102
RTVSPropertyOp9
 70
     1
102
RTVSPropertyOp10
 70
     1
102
RTVSPropertyOp11
 70
     1
102
RTVSPropertyOp12
 70
     1
102
RTVSPropertyOp13
 70
     1
102
RTVSPropertyOp14
 70
     1
102
RTVSPropertyOp15
 70
     1
102
RTVSPropertyOp16
 70
     1
102
RTVSPropertyOp17
 70
     1
102
RTVSPropertyOp18
 70
     1
102
RTVSPropertyOp19
 70
     1
102
RTVSPropertyOp20
 70
     1
102
RTVSPropertyOp21
 70
     1
102
RTVSPropertyOp22
 70
     1
102
RTVSPropertyOp23
 70
     1
102
RTVSPropertyOp24
 70
     1
102
RTVSPropertyOp25
 70
     1
102
RTVSPropertyOp26
 70
     1
102
RTVSPropertyOp27
 70
     1
102
RTVSPropertyOp28
 70
     1
102
RTVSPropertyOp29
 70
     1
102
RTVSPropertyOp30
 70
     1
102
RTVSPropertyOp31
 70
     1
102
RTVSPropertyOp32
 70
     1
102
RTVSPropertyOp33
 70
     1
102
RTVSPropertyOp34
 70
     1
102
RTVSPropertyOp35
 70
     1
102
RTVSPropertyOp36
 70
     1
102
RTVSPropertyOp37
 70
     1
102
RTVSPropertyOp38
 70
     1
102
RTVSPropertyOp39
 70
     1
102
RTVSPropertyOp40
 70
     1
102
RTVSPropertyOp41
 70
     1
102
RTVSPropertyOp42
 70
     1
102
RTVSPropertyOp43
 70
     1
102
RTVSPropertyOp44
 70
     1
102
RTVSPropertyOp45
 70
     1
102
RTVSPropertyOp46
 70
     1
102
RTVSPropertyOp47
 70
     1
102
RTVSPropertyOp48
 70
     1
102
RTVSPropertyOp49
 70
     1
102
RTVSPropertyOp50
 70
     1
102
RTVSPropertyOp51
 70
     0
102
RTVSPropertyOp52
 70
     0
102
RTVSPropertyOp53
 70
     1
102
RTVSPropertyOp54
 70
     1
102
RTVSPropertyOp55
 70
     1
102
RTVSPropertyOp56
 70
     1
102
RTVSPropertyOp57
 70
     1
102
RTVSPropertyOp58
 70
     1
102
RTVSPropertyOp59
 70
     1
102
RTVSPropertyOp60
 70
     1
102
RTVSPropertyOp61
 70
     1
102
RTVSPropertyOp62
 70
     1
  0
XRECORD
  5
D4A1
102
{ACAD_REACTORS
330
D4A0
102
}
330
D4A0
100
AcDbXrecord
280
     1
102
RTVSPost2010Prop28
280
     0
102
RTVSPost2010PropOp28
 70
     1
102
RTVSPost2010Prop29
280
     1
102
RTVSPost2010PropOp29
 70
     1
102
RTVSPost2010Prop30
280
     1
102
RTVSPost2010PropOp30
 70
     1
102
RTVSPost2010Prop31
280
     0
102
RTVSPost2010PropOp31
 70
     1
102
RTVSPost2010Prop32
280
     0
102
RTVSPost2010PropOp32
 70
     1
102
RTVSPost2010Prop33
280
     0
102
RTVSPost2010PropOp33
 70
     1
102
RTVSPost2010Prop34
280
     0
102
RTVSPost2010PropOp34
 70
     1
102
RTVSPost2010Prop35
280
     0
102
RTVSPost2010PropOp35
 70
     1
102
RTVSPost2010Prop36
280
     0
102
RTVSPost2010PropOp36
 70
     1
102
RTVSPost2010Prop37
 90
       50
102
RTVSPost2010PropOp37
 70
     1
102
RTVSPost2010Prop38
140
0.0
102
RTVSPost2010PropOp38
 70
     1
102
RTVSPost2010Prop39
140
1.0
102
RTVSPost2010PropOp39
 70
     1
102
RTVSPost2010Prop40
 90
        0
102
RTVSPost2010PropOp40
 70
     1
102
RTVSPost2010Prop41ColorIndex
 90
       18
102
RTVSPost2010Prop41ColorRGB
 90
        0
102
RTVSPost2010PropOp41
 70
     1
102
RTVSPost2010Prop42
 90
       50
102
RTVSPost2010PropOp42
 70
     1
102
RTVSPost2010Prop43
 90
        3
102
RTVSPost2010PropOp43
 70
     1
102
RTVSPost2010Prop44ColorIndex
 90
        5
102
RTVSPost2010Prop44ColorRGB
 90
      255
102
RTVSPost2010PropOp44
 70
     1
102
RTVSPost2010Prop45
280
     0
102
RTVSPost2010PropOp45
 70
     1
102
RTVSPost2010Prop46
 90
       50
102
RTVSPost2010PropOp46
 70
     1
102
RTVSPost2010Prop47
 90
       50
102
RTVSPost2010PropOp47
 70
     1
102
RTVSPost2010Prop48
 90
       50
102
RTVSPost2010PropOp48
 70
     1
102
RTVSPost2010Prop49
280
     0
102
RTVSPost2010PropOp49
 70
     1
102
RTVSPost2010Prop50
 90
       50
102
RTVSPost2010PropOp50
 70
     1
102
RTVSPost2010Prop51ColorIndex
 90
      256
102
RTVSPost2010Prop51ColorRGB
 90
-16777216
102
RTVSPost2010PropOp51
 70
     0
102
RTVSPost2010Prop52
140
1.0
102
RTVSPost2010PropOp52
 70
     0
102
RTVSPost2010Prop53
 90
        2
102
RTVSPost2010PropOp53
 70
     1
102
RTVSPost2010Prop54
  1
strokes_ogs.tif
102
RTVSPost2010PropOp54
 70
     1
102
RTVSPost2010Prop55
280
     0
102
RTVSPost2010PropOp55
 70
     1
102
RTVSPost2010Prop56
140
1.0
102
RTVSPost2010PropOp56
 70
     1
102
RTVSPost2010Prop57
140
1.0
102
RTVSPost2010PropOp57
 70
     1
102
RTVSPropertyOp0
 70
     1
102
RTVSPropertyOp1
 70
     1
102
RTVSPropertyOp2
 70
     1
102
RTVSPropertyOp3
 70
     1
102
RTVSPropertyOp4
 70
     1
102
RTVSPropertyOp5
 70
     1
102
RTVSPropertyOp6
 70
     1
102
RTVSPropertyOp7
 70
     1
102
RTVSPropertyOp8
 70
     1
102
RTVSPropertyOp9
 70
     1
102
RTVSPropertyOp10
 70
     1
102
RTVSPropertyOp11
 70
     1
102
RTVSPropertyOp12
 70
     1
102
RTVSPropertyOp13
 70
     1
102
RTVSPropertyOp14
 70
     1
102
RTVSPropertyOp15
 70
     1
102
RTVSPropertyOp16
 70
     1
102
RTVSPropertyOp17
 70
     1
102
RTVSPropertyOp18
 70
     1
102
RTVSPropertyOp19
 70
     1
102
RTVSPropertyOp20
 70
     1
102
RTVSPropertyOp21
 70
     1
102
RTVSPropertyOp22
 70
     1
102
RTVSPropertyOp23
 70
     1
102
RTVSPropertyOp24
 70
     1
102
RTVSPropertyOp25
 70
     1
102
RTVSPropertyOp26
 70
     1
102
RTVSPropertyOp27
 70
     1
102
RTVSPropertyOp28
 70
     1
102
RTVSPropertyOp29
 70
     1
102
RTVSPropertyOp30
 70
     1
102
RTVSPropertyOp31
 70
     1
102
RTVSPropertyOp32
 70
     1
102
RTVSPropertyOp33
 70
     1
102
RTVSPropertyOp34
 70
     1
102
RTVSPropertyOp35
 70
     1
102
RTVSPropertyOp36
 70
     1
102
RTVSPropertyOp37
 70
     1
102
RTVSPropertyOp38
 70
     1
102
RTVSPropertyOp39
 70
     1
102
RTVSPropertyOp40
 70
     1
102
RTVSPropertyOp41
 70
     1
102
RTVSPropertyOp42
 70
     1
102
RTVSPropertyOp43
 70
     1
102
RTVSPropertyOp44
 70
     1
102
RTVSPropertyOp45
 70
     1
102
RTVSPropertyOp46
 70
     1
102
RTVSPropertyOp47
 70
     1
102
RTVSPropertyOp48
 70
     1
102
RTVSPropertyOp49
 70
     1
102
RTVSPropertyOp50
 70
     1
102
RTVSPropertyOp51
 70
     0
102
RTVSPropertyOp52
 70
     0
102
RTVSPropertyOp53
 70
     1
102
RTVSPropertyOp54
 70
     1
102
RTVSPropertyOp55
 70
     1
102
RTVSPropertyOp56
 70
     1
102
RTVSPropertyOp57
 70
     1
102
RTVSPropertyOp58
 70
     1
102
RTVSPropertyOp59
 70
     1
102
RTVSPropertyOp60
 70
     1
102
RTVSPropertyOp61
 70
     1
102
RTVSPropertyOp62
 70
     1
  0
XRECORD
  5
D4A5
102
{ACAD_REACTORS
330
D4A4
102
}
330
D4A4
100
AcDbXrecord
280
     1
102
RTVSPost2010Prop28
280
     0
102
RTVSPost2010PropOp28
 70
     1
102
RTVSPost2010Prop29
280
     1
102
RTVSPost2010PropOp29
 70
     1
102
RTVSPost2010Prop30
280
     1
102
RTVSPost2010PropOp30
 70
     1
102
RTVSPost2010Prop31
280
     0
102
RTVSPost2010PropOp31
 70
     1
102
RTVSPost2010Prop32
280
     0
102
RTVSPost2010PropOp32
 70
     1
102
RTVSPost2010Prop33
280
     0
102
RTVSPost2010PropOp33
 70
     1
102
RTVSPost2010Prop34
280
     0
102
RTVSPost2010PropOp34
 70
     1
102
RTVSPost2010Prop35
280
     0
102
RTVSPost2010PropOp35
 70
     1
102
RTVSPost2010Prop36
280
     0
102
RTVSPost2010PropOp36
 70
     1
102
RTVSPost2010Prop37
 90
       50
102
RTVSPost2010PropOp37
 70
     1
102
RTVSPost2010Prop38
140
0.0
102
RTVSPost2010PropOp38
 70
     1
102
RTVSPost2010Prop39
140
1.0
102
RTVSPost2010PropOp39
 70
     1
102
RTVSPost2010Prop40
 90
        0
102
RTVSPost2010PropOp40
 70
     1
102
RTVSPost2010Prop41ColorIndex
 90
       18
102
RTVSPost2010Prop41ColorRGB
 90
        0
102
RTVSPost2010PropOp41
 70
     1
102
RTVSPost2010Prop42
 90
       50
102
RTVSPost2010PropOp42
 70
     1
102
RTVSPost2010Prop43
 90
        3
102
RTVSPost2010PropOp43
 70
     1
102
RTVSPost2010Prop44ColorIndex
 90
        5
102
RTVSPost2010Prop44ColorRGB
 90
      255
102
RTVSPost2010PropOp44
 70
     1
102
RTVSPost2010Prop45
280
     0
102
RTVSPost2010PropOp45
 70
     1
102
RTVSPost2010Prop46
 90
       50
102
RTVSPost2010PropOp46
 70
     1
102
RTVSPost2010Prop47
 90
       50
102
RTVSPost2010PropOp47
 70
     1
102
RTVSPost2010Prop48
 90
       50
102
RTVSPost2010PropOp48
 70
     1
102
RTVSPost2010Prop49
280
     0
102
RTVSPost2010PropOp49
 70
     1
102
RTVSPost2010Prop50
 90
       50
102
RTVSPost2010PropOp50
 70
     1
102
RTVSPost2010Prop51ColorIndex
 90
      256
102
RTVSPost2010Prop51ColorRGB
 90
-16777216
102
RTVSPost2010PropOp51
 70
     0
102
RTVSPost2010Prop52
140
1.0
102
RTVSPost2010PropOp52
 70
     0
102
RTVSPost2010Prop53
 90
        2
102
RTVSPost2010PropOp53
 70
     1
102
RTVSPost2010Prop54
  1
strokes_ogs.tif
102
RTVSPost2010PropOp54
 70
     1
102
RTVSPost2010Prop55
280
     0
102
RTVSPost2010PropOp55
 70
     1
102
RTVSPost2010Prop56
140
1.0
102
RTVSPost2010PropOp56
 70
     1
102
RTVSPost2010Prop57
140
1.0
102
RTVSPost2010PropOp57
 70
     1
102
RTVSPropertyOp0
 70
     1
102
RTVSPropertyOp1
 70
     1
102
RTVSPropertyOp2
 70
     1
102
RTVSPropertyOp3
 70
     1
102
RTVSPropertyOp4
 70
     1
102
RTVSPropertyOp5
 70
     1
102
RTVSPropertyOp6
 70
     1
102
RTVSPropertyOp7
 70
     1
102
RTVSPropertyOp8
 70
     1
102
RTVSPropertyOp9
 70
     1
102
RTVSPropertyOp10
 70
     1
102
RTVSPropertyOp11
 70
     1
102
RTVSPropertyOp12
 70
     1
102
RTVSPropertyOp13
 70
     1
102
RTVSPropertyOp14
 70
     1
102
RTVSPropertyOp15
 70
     1
102
RTVSPropertyOp16
 70
     1
102
RTVSPropertyOp17
 70
     1
102
RTVSPropertyOp18
 70
     1
102
RTVSPropertyOp19
 70
     1
102
RTVSPropertyOp20
 70
     1
102
RTVSPropertyOp21
 70
     1
102
RTVSPropertyOp22
 70
     1
102
RTVSPropertyOp23
 70
     1
102
RTVSPropertyOp24
 70
     1
102
RTVSPropertyOp25
 70
     1
102
RTVSPropertyOp26
 70
     1
102
RTVSPropertyOp27
 70
     1
102
RTVSPropertyOp28
 70
     1
102
RTVSPropertyOp29
 70
     1
102
RTVSPropertyOp30
 70
     1
102
RTVSPropertyOp31
 70
     1
102
RTVSPropertyOp32
 70
     1
102
RTVSPropertyOp33
 70
     1
102
RTVSPropertyOp34
 70
     1
102
RTVSPropertyOp35
 70
     1
102
RTVSPropertyOp36
 70
     1
102
RTVSPropertyOp37
 70
     1
102
RTVSPropertyOp38
 70
     1
102
RTVSPropertyOp39
 70
     1
102
RTVSPropertyOp40
 70
     1
102
RTVSPropertyOp41
 70
     1
102
RTVSPropertyOp42
 70
     1
102
RTVSPropertyOp43
 70
     1
102
RTVSPropertyOp44
 70
     1
102
RTVSPropertyOp45
 70
     1
102
RTVSPropertyOp46
 70
     1
102
RTVSPropertyOp47
 70
     1
102
RTVSPropertyOp48
 70
     1
102
RTVSPropertyOp49
 70
     1
102
RTVSPropertyOp50
 70
     1
102
RTVSPropertyOp51
 70
     0
102
RTVSPropertyOp52
 70
     0
102
RTVSPropertyOp53
 70
     1
102
RTVSPropertyOp54
 70
     1
102
RTVSPropertyOp55
 70
     1
102
RTVSPropertyOp56
 70
     1
102
RTVSPropertyOp57
 70
     1
102
RTVSPropertyOp58
 70
     1
102
RTVSPropertyOp59
 70
     1
102
RTVSPropertyOp60
 70
     1
102
RTVSPropertyOp61
 70
     1
102
RTVSPropertyOp62
 70
     1
  0
XRECORD
  5
D4BF
102
{ACAD_REACTORS
330
D4BE
102
}
330
D4BE
100
AcDbXrecord
280
     1
102
RTVSPost2010Prop28
280
     0
102
RTVSPost2010PropOp28
 70
     0
102
RTVSPost2010Prop29
280
     1
102
RTVSPost2010PropOp29
 70
     0
102
RTVSPost2010Prop30
280
     1
102
RTVSPost2010PropOp30
 70
     0
102
RTVSPost2010Prop31
280
     0
102
RTVSPost2010PropOp31
 70
     0
102
RTVSPost2010Prop32
280
     0
102
RTVSPost2010PropOp32
 70
     0
102
RTVSPost2010Prop33
280
     0
102
RTVSPost2010PropOp33
 70
     0
102
RTVSPost2010Prop34
280
     0
102
RTVSPost2010PropOp34
 70
     0
102
RTVSPost2010Prop35
280
     0
102
RTVSPost2010PropOp35
 70
     0
102
RTVSPost2010Prop36
280
     0
102
RTVSPost2010PropOp36
 70
     0
102
RTVSPost2010Prop37
 90
       50
102
RTVSPost2010PropOp37
 70
     0
102
RTVSPost2010Prop38
140
0.0
102
RTVSPost2010PropOp38
 70
     0
102
RTVSPost2010Prop39
140
1.0
102
RTVSPost2010PropOp39
 70
     0
102
RTVSPost2010Prop40
 90
        0
102
RTVSPost2010PropOp40
 70
     0
102
RTVSPost2010Prop41ColorIndex
 90
       18
102
RTVSPost2010Prop41ColorRGB
 90
        0
102
RTVSPost2010PropOp41
 70
     0
102
RTVSPost2010Prop42
 90
       50
102
RTVSPost2010PropOp42
 70
     0
102
RTVSPost2010Prop43
 90
        3
102
RTVSPost2010PropOp43
 70
     0
102
RTVSPost2010Prop44ColorIndex
 90
        5
102
RTVSPost2010Prop44ColorRGB
 90
      255
102
RTVSPost2010PropOp44
 70
     0
102
RTVSPost2010Prop45
280
     0
102
RTVSPost2010PropOp45
 70
     0
102
RTVSPost2010Prop46
 90
       50
102
RTVSPost2010PropOp46
 70
     0
102
RTVSPost2010Prop47
 90
       50
102
RTVSPost2010PropOp47
 70
     0
102
RTVSPost2010Prop48
 90
       50
102
RTVSPost2010PropOp48
 70
     0
102
RTVSPost2010Prop49
280
     0
102
RTVSPost2010PropOp49
 70
     0
102
RTVSPost2010Prop50
 90
       50
102
RTVSPost2010PropOp50
 70
     0
102
RTVSPost2010Prop51ColorIndex
 90
      256
102
RTVSPost2010Prop51ColorRGB
 90
-16777216
102
RTVSPost2010PropOp51
 70
     0
102
RTVSPost2010Prop52
140
1.0
102
RTVSPost2010PropOp52
 70
     0
102
RTVSPost2010Prop53
 90
        2
102
RTVSPost2010PropOp53
 70
     0
102
RTVSPost2010Prop54
  1
strokes_ogs.tif
102
RTVSPost2010PropOp54
 70
     0
102
RTVSPost2010Prop55
280
     0
102
RTVSPost2010PropOp55
 70
     0
102
RTVSPost2010Prop56
140
1.0
102
RTVSPost2010PropOp56
 70
     0
102
RTVSPost2010Prop57
140
1.0
102
RTVSPost2010PropOp57
 70
     0
102
RTVSPropertyOp0
 70
     0
102
RTVSPropertyOp1
 70
     0
102
RTVSPropertyOp2
 70
     0
102
RTVSPropertyOp3
 70
     0
102
RTVSPropertyOp4
 70
     0
102
RTVSPropertyOp5
 70
     0
102
RTVSPropertyOp6
 70
     0
102
RTVSPropertyOp7
 70
     0
102
RTVSPropertyOp8
 70
     0
102
RTVSPropertyOp9
 70
     0
102
RTVSPropertyOp10
 70
     0
102
RTVSPropertyOp11
 70
     0
102
RTVSPropertyOp12
 70
     0
102
RTVSPropertyOp13
 70
     0
102
RTVSPropertyOp14
 70
     2
102
RTVSPropertyOp15
 70
     0
102
RTVSPropertyOp16
 70
     0
102
RTVSPropertyOp17
 70
     0
102
RTVSPropertyOp18
 70
     0
102
RTVSPropertyOp19
 70
     0
102
RTVSPropertyOp20
 70
     0
102
RTVSPropertyOp21
 70
     0
102
RTVSPropertyOp22
 70
     0
102
RTVSPropertyOp23
 70
     0
102
RTVSPropertyOp24
 70
     0
102
RTVSPropertyOp25
 70
     0
102
RTVSPropertyOp26
 70
     0
102
RTVSPropertyOp27
 70
     0
102
RTVSPropertyOp28
 70
     0
102
RTVSPropertyOp29
 70
     0
102
RTVSPropertyOp30
 70
     0
102
RTVSPropertyOp31
 70
     0
102
RTVSPropertyOp32
 70
     0
102
RTVSPropertyOp33
 70
     0
102
RTVSPropertyOp34
 70
     0
102
RTVSPropertyOp35
 70
     0
102
RTVSPropertyOp36
 70
     0
102
RTVSPropertyOp37
 70
     0
102
RTVSPropertyOp38
 70
     0
102
RTVSPropertyOp39
 70
     0
102
RTVSPropertyOp40
 70
     0
102
RTVSPropertyOp41
 70
     0
102
RTVSPropertyOp42
 70
     0
102
RTVSPropertyOp43
 70
     0
102
RTVSPropertyOp44
 70
     0
102
RTVSPropertyOp45
 70
     0
102
RTVSPropertyOp46
 70
     0
102
RTVSPropertyOp47
 70
     0
102
RTVSPropertyOp48
 70
     0
102
RTVSPropertyOp49
 70
     0
102
RTVSPropertyOp50
 70
     0
102
RTVSPropertyOp51
 70
     0
102
RTVSPropertyOp52
 70
     0
102
RTVSPropertyOp53
 70
     0
102
RTVSPropertyOp54
 70
     0
102
RTVSPropertyOp55
 70
     0
102
RTVSPropertyOp56
 70
     0
102
RTVSPropertyOp57
 70
     0
102
RTVSPropertyOp58
 70
     1
102
RTVSPropertyOp59
 70
     1
102
RTVSPropertyOp60
 70
     1
102
RTVSPropertyOp61
 70
     1
102
RTVSPropertyOp62
 70
     1
  0
XRECORD
  5
D4AD
102
{ACAD_REACTORS
330
D4AC
102
}
330
D4AC
100
AcDbXrecord
280
     1
102
RTVSPost2010Prop28
280
     0
102
RTVSPost2010PropOp28
 70
     1
102
RTVSPost2010Prop29
280
     1
102
RTVSPost2010PropOp29
 70
     1
102
RTVSPost2010Prop30
280
     1
102
RTVSPost2010PropOp30
 70
     1
102
RTVSPost2010Prop31
280
     0
102
RTVSPost2010PropOp31
 70
     1
102
RTVSPost2010Prop32
280
     0
102
RTVSPost2010PropOp32
 70
     1
102
RTVSPost2010Prop33
280
     0
102
RTVSPost2010PropOp33
 70
     1
102
RTVSPost2010Prop34
280
     0
102
RTVSPost2010PropOp34
 70
     1
102
RTVSPost2010Prop35
280
     0
102
RTVSPost2010PropOp35
 70
     1
102
RTVSPost2010Prop36
280
     0
102
RTVSPost2010PropOp36
 70
     1
102
RTVSPost2010Prop37
 90
       50
102
RTVSPost2010PropOp37
 70
     1
102
RTVSPost2010Prop38
140
0.0
102
RTVSPost2010PropOp38
 70
     1
102
RTVSPost2010Prop39
140
1.0
102
RTVSPost2010PropOp39
 70
     1
102
RTVSPost2010Prop40
 90
        0
102
RTVSPost2010PropOp40
 70
     1
102
RTVSPost2010Prop41ColorIndex
 90
       18
102
RTVSPost2010Prop41ColorRGB
 90
        0
102
RTVSPost2010PropOp41
 70
     1
102
RTVSPost2010Prop42
 90
       50
102
RTVSPost2010PropOp42
 70
     1
102
RTVSPost2010Prop43
 90
        3
102
RTVSPost2010PropOp43
 70
     1
102
RTVSPost2010Prop44ColorIndex
 90
        5
102
RTVSPost2010Prop44ColorRGB
 90
      255
102
RTVSPost2010PropOp44
 70
     1
102
RTVSPost2010Prop45
280
     0
102
RTVSPost2010PropOp45
 70
     1
102
RTVSPost2010Prop46
 90
       50
102
RTVSPost2010PropOp46
 70
     1
102
RTVSPost2010Prop47
 90
       50
102
RTVSPost2010PropOp47
 70
     1
102
RTVSPost2010Prop48
 90
       50
102
RTVSPost2010PropOp48
 70
     1
102
RTVSPost2010Prop49
280
     0
102
RTVSPost2010PropOp49
 70
     1
102
RTVSPost2010Prop50
 90
       50
102
RTVSPost2010PropOp50
 70
     1
102
RTVSPost2010Prop51ColorIndex
 90
      256
102
RTVSPost2010Prop51ColorRGB
 90
-16777216
102
RTVSPost2010PropOp51
 70
     0
102
RTVSPost2010Prop52
140
1.0
102
RTVSPost2010PropOp52
 70
     0
102
RTVSPost2010Prop53
 90
        2
102
RTVSPost2010PropOp53
 70
     1
102
RTVSPost2010Prop54
  1
strokes_ogs.tif
102
RTVSPost2010PropOp54
 70
     1
102
RTVSPost2010Prop55
280
     0
102
RTVSPost2010PropOp55
 70
     1
102
RTVSPost2010Prop56
140
1.0
102
RTVSPost2010PropOp56
 70
     1
102
RTVSPost2010Prop57
140
1.0
102
RTVSPost2010PropOp57
 70
     1
102
RTVSPropertyOp0
 70
     1
102
RTVSPropertyOp1
 70
     1
102
RTVSPropertyOp2
 70
     1
102
RTVSPropertyOp3
 70
     1
102
RTVSPropertyOp4
 70
     1
102
RTVSPropertyOp5
 70
     1
102
RTVSPropertyOp6
 70
     1
102
RTVSPropertyOp7
 70
     1
102
RTVSPropertyOp8
 70
     1
102
RTVSPropertyOp9
 70
     1
102
RTVSPropertyOp10
 70
     1
102
RTVSPropertyOp11
 70
     1
102
RTVSPropertyOp12
 70
     1
102
RTVSPropertyOp13
 70
     1
102
RTVSPropertyOp14
 70
     1
102
RTVSPropertyOp15
 70
     1
102
RTVSPropertyOp16
 70
     1
102
RTVSPropertyOp17
 70
     1
102
RTVSPropertyOp18
 70
     1
102
RTVSPropertyOp19
 70
     1
102
RTVSPropertyOp20
 70
     1
102
RTVSPropertyOp21
 70
     1
102
RTVSPropertyOp22
 70
     1
102
RTVSPropertyOp23
 70
     1
102
RTVSPropertyOp24
 70
     1
102
RTVSPropertyOp25
 70
     1
102
RTVSPropertyOp26
 70
     1
102
RTVSPropertyOp27
 70
     1
102
RTVSPropertyOp28
 70
     1
102
RTVSPropertyOp29
 70
     1
102
RTVSPropertyOp30
 70
     1
102
RTVSPropertyOp31
 70
     1
102
RTVSPropertyOp32
 70
     1
102
RTVSPropertyOp33
 70
     1
102
RTVSPropertyOp34
 70
     1
102
RTVSPropertyOp35
 70
     1
102
RTVSPropertyOp36
 70
     1
102
RTVSPropertyOp37
 70
     1
102
RTVSPropertyOp38
 70
     1
102
RTVSPropertyOp39
 70
     1
102
RTVSPropertyOp40
 70
     1
102
RTVSPropertyOp41
 70
     1
102
RTVSPropertyOp42
 70
     1
102
RTVSPropertyOp43
 70
     1
102
RTVSPropertyOp44
 70
     1
102
RTVSPropertyOp45
 70
     1
102
RTVSPropertyOp46
 70
     1
102
RTVSPropertyOp47
 70
     1
102
RTVSPropertyOp48
 70
     1
102
RTVSPropertyOp49
 70
     1
102
RTVSPropertyOp50
 70
     1
102
RTVSPropertyOp51
 70
     0
102
RTVSPropertyOp52
 70
     0
102
RTVSPropertyOp53
 70
     1
102
RTVSPropertyOp54
 70
     1
102
RTVSPropertyOp55
 70
     1
102
RTVSPropertyOp56
 70
     1
102
RTVSPropertyOp57
 70
     1
102
RTVSPropertyOp58
 70
     1
102
RTVSPropertyOp59
 70
     1
102
RTVSPropertyOp60
 70
     1
102
RTVSPropertyOp61
 70
     1
102
RTVSPropertyOp62
 70
     1
  0
XRECORD
  5
D491
102
{ACAD_REACTORS
330
D490
102
}
330
D490
100
AcDbXrecord
280
     1
102
RTVSPost2010Prop28
280
     0
102
RTVSPost2010PropOp28
 70
     1
102
RTVSPost2010Prop29
280
     1
102
RTVSPost2010PropOp29
 70
     1
102
RTVSPost2010Prop30
280
     1
102
RTVSPost2010PropOp30
 70
     1
102
RTVSPost2010Prop31
280
     0
102
RTVSPost2010PropOp31
 70
     1
102
RTVSPost2010Prop32
280
     0
102
RTVSPost2010PropOp32
 70
     1
102
RTVSPost2010Prop33
280
     0
102
RTVSPost2010PropOp33
 70
     1
102
RTVSPost2010Prop34
280
     0
102
RTVSPost2010PropOp34
 70
     1
102
RTVSPost2010Prop35
280
     0
102
RTVSPost2010PropOp35
 70
     1
102
RTVSPost2010Prop36
280
     0
102
RTVSPost2010PropOp36
 70
     1
102
RTVSPost2010Prop37
 90
       50
102
RTVSPost2010PropOp37
 70
     1
102
RTVSPost2010Prop38
140
0.0
102
RTVSPost2010PropOp38
 70
     1
102
RTVSPost2010Prop39
140
1.0
102
RTVSPost2010PropOp39
 70
     1
102
RTVSPost2010Prop40
 90
        0
102
RTVSPost2010PropOp40
 70
     1
102
RTVSPost2010Prop41ColorIndex
 90
       18
102
RTVSPost2010Prop41ColorRGB
 90
        0
102
RTVSPost2010PropOp41
 70
     1
102
RTVSPost2010Prop42
 90
       50
102
RTVSPost2010PropOp42
 70
     1
102
RTVSPost2010Prop43
 90
        3
102
RTVSPost2010PropOp43
 70
     1
102
RTVSPost2010Prop44ColorIndex
 90
        5
102
RTVSPost2010Prop44ColorRGB
 90
      255
102
RTVSPost2010PropOp44
 70
     1
102
RTVSPost2010Prop45
280
     0
102
RTVSPost2010PropOp45
 70
     1
102
RTVSPost2010Prop46
 90
       50
102
RTVSPost2010PropOp46
 70
     1
102
RTVSPost2010Prop47
 90
       50
102
RTVSPost2010PropOp47
 70
     1
102
RTVSPost2010Prop48
 90
       50
102
RTVSPost2010PropOp48
 70
     1
102
RTVSPost2010Prop49
280
     0
102
RTVSPost2010PropOp49
 70
     1
102
RTVSPost2010Prop50
 90
       50
102
RTVSPost2010PropOp50
 70
     1
102
RTVSPost2010Prop51ColorIndex
 90
      256
102
RTVSPost2010Prop51ColorRGB
 90
-16777216
102
RTVSPost2010PropOp51
 70
     0
102
RTVSPost2010Prop52
140
1.0
102
RTVSPost2010PropOp52
 70
     0
102
RTVSPost2010Prop53
 90
        2
102
RTVSPost2010PropOp53
 70
     1
102
RTVSPost2010Prop54
  1
strokes_ogs.tif
102
RTVSPost2010PropOp54
 70
     1
102
RTVSPost2010Prop55
280
     0
102
RTVSPost2010PropOp55
 70
     1
102
RTVSPost2010Prop56
140
1.0
102
RTVSPost2010PropOp56
 70
     1
102
RTVSPost2010Prop57
140
1.0
102
RTVSPost2010PropOp57
 70
     1
102
RTVSPropertyOp0
 70
     1
102
RTVSPropertyOp1
 70
     1
102
RTVSPropertyOp2
 70
     1
102
RTVSPropertyOp3
 70
     1
102
RTVSPropertyOp4
 70
     1
102
RTVSPropertyOp5
 70
     1
102
RTVSPropertyOp6
 70
     1
102
RTVSPropertyOp7
 70
     1
102
RTVSPropertyOp8
 70
     1
102
RTVSPropertyOp9
 70
     1
102
RTVSPropertyOp10
 70
     1
102
RTVSPropertyOp11
 70
     1
102
RTVSPropertyOp12
 70
     1
102
RTVSPropertyOp13
 70
     1
102
RTVSPropertyOp14
 70
     1
102
RTVSPropertyOp15
 70
     1
102
RTVSPropertyOp16
 70
     1
102
RTVSPropertyOp17
 70
     1
102
RTVSPropertyOp18
 70
     1
102
RTVSPropertyOp19
 70
     1
102
RTVSPropertyOp20
 70
     1
102
RTVSPropertyOp21
 70
     1
102
RTVSPropertyOp22
 70
     1
102
RTVSPropertyOp23
 70
     1
102
RTVSPropertyOp24
 70
     1
102
RTVSPropertyOp25
 70
     1
102
RTVSPropertyOp26
 70
     1
102
RTVSPropertyOp27
 70
     1
102
RTVSPropertyOp28
 70
     1
102
RTVSPropertyOp29
 70
     1
102
RTVSPropertyOp30
 70
     1
102
RTVSPropertyOp31
 70
     1
102
RTVSPropertyOp32
 70
     1
102
RTVSPropertyOp33
 70
     1
102
RTVSPropertyOp34
 70
     1
102
RTVSPropertyOp35
 70
     1
102
RTVSPropertyOp36
 70
     1
102
RTVSPropertyOp37
 70
     1
102
RTVSPropertyOp38
 70
     1
102
RTVSPropertyOp39
 70
     1
102
RTVSPropertyOp40
 70
     1
102
RTVSPropertyOp41
 70
     1
102
RTVSPropertyOp42
 70
     1
102
RTVSPropertyOp43
 70
     1
102
RTVSPropertyOp44
 70
     1
102
RTVSPropertyOp45
 70
     1
102
RTVSPropertyOp46
 70
     1
102
RTVSPropertyOp47
 70
     1
102
RTVSPropertyOp48
 70
     1
102
RTVSPropertyOp49
 70
     1
102
RTVSPropertyOp50
 70
     1
102
RTVSPropertyOp51
 70
     0
102
RTVSPropertyOp52
 70
     0
102
RTVSPropertyOp53
 70
     1
102
RTVSPropertyOp54
 70
     1
102
RTVSPropertyOp55
 70
     1
102
RTVSPropertyOp56
 70
     1
102
RTVSPropertyOp57
 70
     1
102
RTVSPropertyOp58
 70
     1
102
RTVSPropertyOp59
 70
     1
102
RTVSPropertyOp60
 70
     1
102
RTVSPropertyOp61
 70
     1
102
RTVSPropertyOp62
 70
     1
  0
XRECORD
  5
D493
102
{ACAD_REACTORS
330
D492
102
}
330
D492
100
AcDbXrecord
280
     1
102
RTVSPost2010Prop28
280
     0
102
RTVSPost2010PropOp28
 70
     1
102
RTVSPost2010Prop29
280
     1
102
RTVSPost2010PropOp29
 70
     1
102
RTVSPost2010Prop30
280
     1
102
RTVSPost2010PropOp30
 70
     1
102
RTVSPost2010Prop31
280
     0
102
RTVSPost2010PropOp31
 70
     1
102
RTVSPost2010Prop32
280
     0
102
RTVSPost2010PropOp32
 70
     1
102
RTVSPost2010Prop33
280
     0
102
RTVSPost2010PropOp33
 70
     1
102
RTVSPost2010Prop34
280
     0
102
RTVSPost2010PropOp34
 70
     1
102
RTVSPost2010Prop35
280
     0
102
RTVSPost2010PropOp35
 70
     1
102
RTVSPost2010Prop36
280
     0
102
RTVSPost2010PropOp36
 70
     1
102
RTVSPost2010Prop37
 90
       50
102
RTVSPost2010PropOp37
 70
     1
102
RTVSPost2010Prop38
140
0.0
102
RTVSPost2010PropOp38
 70
     1
102
RTVSPost2010Prop39
140
1.0
102
RTVSPost2010PropOp39
 70
     1
102
RTVSPost2010Prop40
 90
        0
102
RTVSPost2010PropOp40
 70
     1
102
RTVSPost2010Prop41ColorIndex
 90
       18
102
RTVSPost2010Prop41ColorRGB
 90
        0
102
RTVSPost2010PropOp41
 70
     1
102
RTVSPost2010Prop42
 90
       50
102
RTVSPost2010PropOp42
 70
     1
102
RTVSPost2010Prop43
 90
        3
102
RTVSPost2010PropOp43
 70
     1
102
RTVSPost2010Prop44ColorIndex
 90
        5
102
RTVSPost2010Prop44ColorRGB
 90
      255
102
RTVSPost2010PropOp44
 70
     1
102
RTVSPost2010Prop45
280
     0
102
RTVSPost2010PropOp45
 70
     1
102
RTVSPost2010Prop46
 90
       50
102
RTVSPost2010PropOp46
 70
     1
102
RTVSPost2010Prop47
 90
       50
102
RTVSPost2010PropOp47
 70
     1
102
RTVSPost2010Prop48
 90
       50
102
RTVSPost2010PropOp48
 70
     1
102
RTVSPost2010Prop49
280
     0
102
RTVSPost2010PropOp49
 70
     1
102
RTVSPost2010Prop50
 90
       50
102
RTVSPost2010PropOp50
 70
     1
102
RTVSPost2010Prop51ColorIndex
 90
      256
102
RTVSPost2010Prop51ColorRGB
 90
-16777216
102
RTVSPost2010PropOp51
 70
     0
102
RTVSPost2010Prop52
140
1.0
102
RTVSPost2010PropOp52
 70
     0
102
RTVSPost2010Prop53
 90
        2
102
RTVSPost2010PropOp53
 70
     1
102
RTVSPost2010Prop54
  1
strokes_ogs.tif
102
RTVSPost2010PropOp54
 70
     1
102
RTVSPost2010Prop55
280
     0
102
RTVSPost2010PropOp55
 70
     1
102
RTVSPost2010Prop56
140
1.0
102
RTVSPost2010PropOp56
 70
     1
102
RTVSPost2010Prop57
140
1.0
102
RTVSPost2010PropOp57
 70
     1
102
RTVSPropertyOp0
 70
     1
102
RTVSPropertyOp1
 70
     1
102
RTVSPropertyOp2
 70
     1
102
RTVSPropertyOp3
 70
     1
102
RTVSPropertyOp4
 70
     1
102
RTVSPropertyOp5
 70
     1
102
RTVSPropertyOp6
 70
     1
102
RTVSPropertyOp7
 70
     1
102
RTVSPropertyOp8
 70
     1
102
RTVSPropertyOp9
 70
     1
102
RTVSPropertyOp10
 70
     1
102
RTVSPropertyOp11
 70
     1
102
RTVSPropertyOp12
 70
     1
102
RTVSPropertyOp13
 70
     1
102
RTVSPropertyOp14
 70
     1
102
RTVSPropertyOp15
 70
     1
102
RTVSPropertyOp16
 70
     1
102
RTVSPropertyOp17
 70
     1
102
RTVSPropertyOp18
 70
     1
102
RTVSPropertyOp19
 70
     1
102
RTVSPropertyOp20
 70
     1
102
RTVSPropertyOp21
 70
     1
102
RTVSPropertyOp22
 70
     1
102
RTVSPropertyOp23
 70
     1
102
RTVSPropertyOp24
 70
     1
102
RTVSPropertyOp25
 70
     1
102
RTVSPropertyOp26
 70
     1
102
RTVSPropertyOp27
 70
     1
102
RTVSPropertyOp28
 70
     1
102
RTVSPropertyOp29
 70
     1
102
RTVSPropertyOp30
 70
     1
102
RTVSPropertyOp31
 70
     1
102
RTVSPropertyOp32
 70
     1
102
RTVSPropertyOp33
 70
     1
102
RTVSPropertyOp34
 70
     1
102
RTVSPropertyOp35
 70
     1
102
RTVSPropertyOp36
 70
     1
102
RTVSPropertyOp37
 70
     1
102
RTVSPropertyOp38
 70
     1
102
RTVSPropertyOp39
 70
     1
102
RTVSPropertyOp40
 70
     1
102
RTVSPropertyOp41
 70
     1
102
RTVSPropertyOp42
 70
     1
102
RTVSPropertyOp43
 70
     1
102
RTVSPropertyOp44
 70
     1
102
RTVSPropertyOp45
 70
     1
102
RTVSPropertyOp46
 70
     1
102
RTVSPropertyOp47
 70
     1
102
RTVSPropertyOp48
 70
     1
102
RTVSPropertyOp49
 70
     1
102
RTVSPropertyOp50
 70
     1
102
RTVSPropertyOp51
 70
     0
102
RTVSPropertyOp52
 70
     0
102
RTVSPropertyOp53
 70
     1
102
RTVSPropertyOp54
 70
     1
102
RTVSPropertyOp55
 70
     1
102
RTVSPropertyOp56
 70
     1
102
RTVSPropertyOp57
 70
     1
102
RTVSPropertyOp58
 70
     1
102
RTVSPropertyOp59
 70
     1
102
RTVSPropertyOp60
 70
     1
102
RTVSPropertyOp61
 70
     1
102
RTVSPropertyOp62
 70
     1
  0
XRECORD
  5
D495
102
{ACAD_REACTORS
330
D494
102
}
330
D494
100
AcDbXrecord
280
     1
102
RTVSPost2010Prop28
280
     0
102
RTVSPost2010PropOp28
 70
     1
102
RTVSPost2010Prop29
280
     1
102
RTVSPost2010PropOp29
 70
     1
102
RTVSPost2010Prop30
280
     1
102
RTVSPost2010PropOp30
 70
     1
102
RTVSPost2010Prop31
280
     0
102
RTVSPost2010PropOp31
 70
     1
102
RTVSPost2010Prop32
280
     0
102
RTVSPost2010PropOp32
 70
     1
102
RTVSPost2010Prop33
280
     0
102
RTVSPost2010PropOp33
 70
     1
102
RTVSPost2010Prop34
280
     0
102
RTVSPost2010PropOp34
 70
     1
102
RTVSPost2010Prop35
280
     0
102
RTVSPost2010PropOp35
 70
     1
102
RTVSPost2010Prop36
280
     0
102
RTVSPost2010PropOp36
 70
     1
102
RTVSPost2010Prop37
 90
       50
102
RTVSPost2010PropOp37
 70
     1
102
RTVSPost2010Prop38
140
0.0
102
RTVSPost2010PropOp38
 70
     1
102
RTVSPost2010Prop39
140
1.0
102
RTVSPost2010PropOp39
 70
     1
102
RTVSPost2010Prop40
 90
        0
102
RTVSPost2010PropOp40
 70
     1
102
RTVSPost2010Prop41ColorIndex
 90
       18
102
RTVSPost2010Prop41ColorRGB
 90
        0
102
RTVSPost2010PropOp41
 70
     1
102
RTVSPost2010Prop42
 90
       50
102
RTVSPost2010PropOp42
 70
     1
102
RTVSPost2010Prop43
 90
        3
102
RTVSPost2010PropOp43
 70
     1
102
RTVSPost2010Prop44ColorIndex
 90
        5
102
RTVSPost2010Prop44ColorRGB
 90
      255
102
RTVSPost2010PropOp44
 70
     1
102
RTVSPost2010Prop45
280
     0
102
RTVSPost2010PropOp45
 70
     1
102
RTVSPost2010Prop46
 90
       50
102
RTVSPost2010PropOp46
 70
     1
102
RTVSPost2010Prop47
 90
       50
102
RTVSPost2010PropOp47
 70
     1
102
RTVSPost2010Prop48
 90
       50
102
RTVSPost2010PropOp48
 70
     1
102
RTVSPost2010Prop49
280
     0
102
RTVSPost2010PropOp49
 70
     1
102
RTVSPost2010Prop50
 90
       50
102
RTVSPost2010PropOp50
 70
     1
102
RTVSPost2010Prop51ColorIndex
 90
      256
102
RTVSPost2010Prop51ColorRGB
 90
-16777216
102
RTVSPost2010PropOp51
 70
     0
102
RTVSPost2010Prop52
140
1.0
102
RTVSPost2010PropOp52
 70
     0
102
RTVSPost2010Prop53
 90
        2
102
RTVSPost2010PropOp53
 70
     1
102
RTVSPost2010Prop54
  1
strokes_ogs.tif
102
RTVSPost2010PropOp54
 70
     1
102
RTVSPost2010Prop55
280
     0
102
RTVSPost2010PropOp55
 70
     1
102
RTVSPost2010Prop56
140
1.0
102
RTVSPost2010PropOp56
 70
     1
102
RTVSPost2010Prop57
140
1.0
102
RTVSPost2010PropOp57
 70
     1
102
RTVSPropertyOp0
 70
     1
102
RTVSPropertyOp1
 70
     1
102
RTVSPropertyOp2
 70
     1
102
RTVSPropertyOp3
 70
     1
102
RTVSPropertyOp4
 70
     1
102
RTVSPropertyOp5
 70
     1
102
RTVSPropertyOp6
 70
     1
102
RTVSPropertyOp7
 70
     1
102
RTVSPropertyOp8
 70
     1
102
RTVSPropertyOp9
 70
     1
102
RTVSPropertyOp10
 70
     1
102
RTVSPropertyOp11
 70
     1
102
RTVSPropertyOp12
 70
     1
102
RTVSPropertyOp13
 70
     1
102
RTVSPropertyOp14
 70
     1
102
RTVSPropertyOp15
 70
     1
102
RTVSPropertyOp16
 70
     1
102
RTVSPropertyOp17
 70
     1
102
RTVSPropertyOp18
 70
     1
102
RTVSPropertyOp19
 70
     1
102
RTVSPropertyOp20
 70
     1
102
RTVSPropertyOp21
 70
     1
102
RTVSPropertyOp22
 70
     1
102
RTVSPropertyOp23
 70
     1
102
RTVSPropertyOp24
 70
     1
102
RTVSPropertyOp25
 70
     1
102
RTVSPropertyOp26
 70
     1
102
RTVSPropertyOp27
 70
     1
102
RTVSPropertyOp28
 70
     1
102
RTVSPropertyOp29
 70
     1
102
RTVSPropertyOp30
 70
     1
102
RTVSPropertyOp31
 70
     1
102
RTVSPropertyOp32
 70
     1
102
RTVSPropertyOp33
 70
     1
102
RTVSPropertyOp34
 70
     1
102
RTVSPropertyOp35
 70
     1
102
RTVSPropertyOp36
 70
     1
102
RTVSPropertyOp37
 70
     1
102
RTVSPropertyOp38
 70
     1
102
RTVSPropertyOp39
 70
     1
102
RTVSPropertyOp40
 70
     1
102
RTVSPropertyOp41
 70
     1
102
RTVSPropertyOp42
 70
     1
102
RTVSPropertyOp43
 70
     1
102
RTVSPropertyOp44
 70
     1
102
RTVSPropertyOp45
 70
     1
102
RTVSPropertyOp46
 70
     1
102
RTVSPropertyOp47
 70
     1
102
RTVSPropertyOp48
 70
     1
102
RTVSPropertyOp49
 70
     1
102
RTVSPropertyOp50
 70
     1
102
RTVSPropertyOp51
 70
     0
102
RTVSPropertyOp52
 70
     0
102
RTVSPropertyOp53
 70
     1
102
RTVSPropertyOp54
 70
     1
102
RTVSPropertyOp55
 70
     1
102
RTVSPropertyOp56
 70
     1
102
RTVSPropertyOp57
 70
     1
102
RTVSPropertyOp58
 70
     1
102
RTVSPropertyOp59
 70
     1
102
RTVSPropertyOp60
 70
     1
102
RTVSPropertyOp61
 70
     1
102
RTVSPropertyOp62
 70
     1
  0
XRECORD
  5
D497
102
{ACAD_REACTORS
330
D496
102
}
330
D496
100
AcDbXrecord
280
     1
102
RTVSPost2010Prop28
280
     0
102
RTVSPost2010PropOp28
 70
     1
102
RTVSPost2010Prop29
280
     1
102
RTVSPost2010PropOp29
 70
     1
102
RTVSPost2010Prop30
280
     1
102
RTVSPost2010PropOp30
 70
     1
102
RTVSPost2010Prop31
280
     0
102
RTVSPost2010PropOp31
 70
     1
102
RTVSPost2010Prop32
280
     0
102
RTVSPost2010PropOp32
 70
     1
102
RTVSPost2010Prop33
280
     0
102
RTVSPost2010PropOp33
 70
     1
102
RTVSPost2010Prop34
280
     0
102
RTVSPost2010PropOp34
 70
     1
102
RTVSPost2010Prop35
280
     0
102
RTVSPost2010PropOp35
 70
     1
102
RTVSPost2010Prop36
280
     0
102
RTVSPost2010PropOp36
 70
     1
102
RTVSPost2010Prop37
 90
       50
102
RTVSPost2010PropOp37
 70
     1
102
RTVSPost2010Prop38
140
0.0
102
RTVSPost2010PropOp38
 70
     1
102
RTVSPost2010Prop39
140
1.0
102
RTVSPost2010PropOp39
 70
     1
102
RTVSPost2010Prop40
 90
        0
102
RTVSPost2010PropOp40
 70
     1
102
RTVSPost2010Prop41ColorIndex
 90
       18
102
RTVSPost2010Prop41ColorRGB
 90
        0
102
RTVSPost2010PropOp41
 70
     1
102
RTVSPost2010Prop42
 90
       50
102
RTVSPost2010PropOp42
 70
     1
102
RTVSPost2010Prop43
 90
        3
102
RTVSPost2010PropOp43
 70
     1
102
RTVSPost2010Prop44ColorIndex
 90
        5
102
RTVSPost2010Prop44ColorRGB
 90
      255
102
RTVSPost2010PropOp44
 70
     1
102
RTVSPost2010Prop45
280
     0
102
RTVSPost2010PropOp45
 70
     1
102
RTVSPost2010Prop46
 90
       50
102
RTVSPost2010PropOp46
 70
     1
102
RTVSPost2010Prop47
 90
       50
102
RTVSPost2010PropOp47
 70
     1
102
RTVSPost2010Prop48
 90
       50
102
RTVSPost2010PropOp48
 70
     1
102
RTVSPost2010Prop49
280
     0
102
RTVSPost2010PropOp49
 70
     1
102
RTVSPost2010Prop50
 90
       50
102
RTVSPost2010PropOp50
 70
     1
102
RTVSPost2010Prop51ColorIndex
 90
      256
102
RTVSPost2010Prop51ColorRGB
 90
-16777216
102
RTVSPost2010PropOp51
 70
     0
102
RTVSPost2010Prop52
140
1.0
102
RTVSPost2010PropOp52
 70
     0
102
RTVSPost2010Prop53
 90
        2
102
RTVSPost2010PropOp53
 70
     1
102
RTVSPost2010Prop54
  1
strokes_ogs.tif
102
RTVSPost2010PropOp54
 70
     1
102
RTVSPost2010Prop55
280
     0
102
RTVSPost2010PropOp55
 70
     1
102
RTVSPost2010Prop56
140
1.0
102
RTVSPost2010PropOp56
 70
     1
102
RTVSPost2010Prop57
140
1.0
102
RTVSPost2010PropOp57
 70
     1
102
RTVSPropertyOp0
 70
     1
102
RTVSPropertyOp1
 70
     1
102
RTVSPropertyOp2
 70
     1
102
RTVSPropertyOp3
 70
     1
102
RTVSPropertyOp4
 70
     1
102
RTVSPropertyOp5
 70
     1
102
RTVSPropertyOp6
 70
     1
102
RTVSPropertyOp7
 70
     1
102
RTVSPropertyOp8
 70
     1
102
RTVSPropertyOp9
 70
     1
102
RTVSPropertyOp10
 70
     1
102
RTVSPropertyOp11
 70
     1
102
RTVSPropertyOp12
 70
     1
102
RTVSPropertyOp13
 70
     1
102
RTVSPropertyOp14
 70
     1
102
RTVSPropertyOp15
 70
     1
102
RTVSPropertyOp16
 70
     1
102
RTVSPropertyOp17
 70
     1
102
RTVSPropertyOp18
 70
     1
102
RTVSPropertyOp19
 70
     1
102
RTVSPropertyOp20
 70
     1
102
RTVSPropertyOp21
 70
     1
102
RTVSPropertyOp22
 70
     1
102
RTVSPropertyOp23
 70
     1
102
RTVSPropertyOp24
 70
     1
102
RTVSPropertyOp25
 70
     1
102
RTVSPropertyOp26
 70
     1
102
RTVSPropertyOp27
 70
     1
102
RTVSPropertyOp28
 70
     1
102
RTVSPropertyOp29
 70
     1
102
RTVSPropertyOp30
 70
     1
102
RTVSPropertyOp31
 70
     1
102
RTVSPropertyOp32
 70
     1
102
RTVSPropertyOp33
 70
     1
102
RTVSPropertyOp34
 70
     1
102
RTVSPropertyOp35
 70
     1
102
RTVSPropertyOp36
 70
     1
102
RTVSPropertyOp37
 70
     1
102
RTVSPropertyOp38
 70
     1
102
RTVSPropertyOp39
 70
     1
102
RTVSPropertyOp40
 70
     1
102
RTVSPropertyOp41
 70
     1
102
RTVSPropertyOp42
 70
     1
102
RTVSPropertyOp43
 70
     1
102
RTVSPropertyOp44
 70
     1
102
RTVSPropertyOp45
 70
     1
102
RTVSPropertyOp46
 70
     1
102
RTVSPropertyOp47
 70
     1
102
RTVSPropertyOp48
 70
     1
102
RTVSPropertyOp49
 70
     1
102
RTVSPropertyOp50
 70
     1
102
RTVSPropertyOp51
 70
     0
102
RTVSPropertyOp52
 70
     0
102
RTVSPropertyOp53
 70
     1
102
RTVSPropertyOp54
 70
     1
102
RTVSPropertyOp55
 70
     1
102
RTVSPropertyOp56
 70
     1
102
RTVSPropertyOp57
 70
     1
102
RTVSPropertyOp58
 70
     1
102
RTVSPropertyOp59
 70
     1
102
RTVSPropertyOp60
 70
     1
102
RTVSPropertyOp61
 70
     1
102
RTVSPropertyOp62
 70
     1
  0
XRECORD
  5
D49F
102
{ACAD_REACTORS
330
D49E
102
}
330
D49E
100
AcDbXrecord
280
     1
102
RTVSPost2010Prop28
280
     0
102
RTVSPost2010PropOp28
 70
     1
102
RTVSPost2010Prop29
280
     1
102
RTVSPost2010PropOp29
 70
     1
102
RTVSPost2010Prop30
280
     1
102
RTVSPost2010PropOp30
 70
     1
102
RTVSPost2010Prop31
280
     0
102
RTVSPost2010PropOp31
 70
     1
102
RTVSPost2010Prop32
280
     0
102
RTVSPost2010PropOp32
 70
     1
102
RTVSPost2010Prop33
280
     0
102
RTVSPost2010PropOp33
 70
     1
102
RTVSPost2010Prop34
280
     0
102
RTVSPost2010PropOp34
 70
     1
102
RTVSPost2010Prop35
280
     0
102
RTVSPost2010PropOp35
 70
     1
102
RTVSPost2010Prop36
280
     0
102
RTVSPost2010PropOp36
 70
     1
102
RTVSPost2010Prop37
 90
       50
102
RTVSPost2010PropOp37
 70
     1
102
RTVSPost2010Prop38
140
0.0
102
RTVSPost2010PropOp38
 70
     1
102
RTVSPost2010Prop39
140
1.0
102
RTVSPost2010PropOp39
 70
     1
102
RTVSPost2010Prop40
 90
        0
102
RTVSPost2010PropOp40
 70
     1
102
RTVSPost2010Prop41ColorIndex
 90
       18
102
RTVSPost2010Prop41ColorRGB
 90
        0
102
RTVSPost2010PropOp41
 70
     1
102
RTVSPost2010Prop42
 90
       50
102
RTVSPost2010PropOp42
 70
     1
102
RTVSPost2010Prop43
 90
        3
102
RTVSPost2010PropOp43
 70
     1
102
RTVSPost2010Prop44ColorIndex
 90
        5
102
RTVSPost2010Prop44ColorRGB
 90
      255
102
RTVSPost2010PropOp44
 70
     1
102
RTVSPost2010Prop45
280
     0
102
RTVSPost2010PropOp45
 70
     1
102
RTVSPost2010Prop46
 90
       50
102
RTVSPost2010PropOp46
 70
     1
102
RTVSPost2010Prop47
 90
       50
102
RTVSPost2010PropOp47
 70
     1
102
RTVSPost2010Prop48
 90
       50
102
RTVSPost2010PropOp48
 70
     1
102
RTVSPost2010Prop49
280
     0
102
RTVSPost2010PropOp49
 70
     1
102
RTVSPost2010Prop50
 90
       50
102
RTVSPost2010PropOp50
 70
     1
102
RTVSPost2010Prop51ColorIndex
 90
      256
102
RTVSPost2010Prop51ColorRGB
 90
-16777216
102
RTVSPost2010PropOp51
 70
     0
102
RTVSPost2010Prop52
140
1.0
102
RTVSPost2010PropOp52
 70
     0
102
RTVSPost2010Prop53
 90
        2
102
RTVSPost2010PropOp53
 70
     1
102
RTVSPost2010Prop54
  1
strokes_ogs.tif
102
RTVSPost2010PropOp54
 70
     1
102
RTVSPost2010Prop55
280
     0
102
RTVSPost2010PropOp55
 70
     1
102
RTVSPost2010Prop56
140
1.0
102
RTVSPost2010PropOp56
 70
     1
102
RTVSPost2010Prop57
140
1.0
102
RTVSPost2010PropOp57
 70
     1
102
RTVSPropertyOp0
 70
     1
102
RTVSPropertyOp1
 70
     1
102
RTVSPropertyOp2
 70
     1
102
RTVSPropertyOp3
 70
     1
102
RTVSPropertyOp4
 70
     1
102
RTVSPropertyOp5
 70
     1
102
RTVSPropertyOp6
 70
     1
102
RTVSPropertyOp7
 70
     1
102
RTVSPropertyOp8
 70
     1
102
RTVSPropertyOp9
 70
     1
102
RTVSPropertyOp10
 70
     1
102
RTVSPropertyOp11
 70
     1
102
RTVSPropertyOp12
 70
     1
102
RTVSPropertyOp13
 70
     1
102
RTVSPropertyOp14
 70
     1
102
RTVSPropertyOp15
 70
     1
102
RTVSPropertyOp16
 70
     1
102
RTVSPropertyOp17
 70
     1
102
RTVSPropertyOp18
 70
     1
102
RTVSPropertyOp19
 70
     1
102
RTVSPropertyOp20
 70
     1
102
RTVSPropertyOp21
 70
     1
102
RTVSPropertyOp22
 70
     1
102
RTVSPropertyOp23
 70
     1
102
RTVSPropertyOp24
 70
     1
102
RTVSPropertyOp25
 70
     1
102
RTVSPropertyOp26
 70
     1
102
RTVSPropertyOp27
 70
     1
102
RTVSPropertyOp28
 70
     1
102
RTVSPropertyOp29
 70
     1
102
RTVSPropertyOp30
 70
     1
102
RTVSPropertyOp31
 70
     1
102
RTVSPropertyOp32
 70
     1
102
RTVSPropertyOp33
 70
     1
102
RTVSPropertyOp34
 70
     1
102
RTVSPropertyOp35
 70
     1
102
RTVSPropertyOp36
 70
     1
102
RTVSPropertyOp37
 70
     1
102
RTVSPropertyOp38
 70
     1
102
RTVSPropertyOp39
 70
     1
102
RTVSPropertyOp40
 70
     1
102
RTVSPropertyOp41
 70
     1
102
RTVSPropertyOp42
 70
     1
102
RTVSPropertyOp43
 70
     1
102
RTVSPropertyOp44
 70
     1
102
RTVSPropertyOp45
 70
     1
102
RTVSPropertyOp46
 70
     1
102
RTVSPropertyOp47
 70
     1
102
RTVSPropertyOp48
 70
     1
102
RTVSPropertyOp49
 70
     1
102
RTVSPropertyOp50
 70
     1
102
RTVSPropertyOp51
 70
     0
102
RTVSPropertyOp52
 70
     0
102
RTVSPropertyOp53
 70
     1
102
RTVSPropertyOp54
 70
     1
102
RTVSPropertyOp55
 70
     1
102
RTVSPropertyOp56
 70
     1
102
RTVSPropertyOp57
 70
     1
102
RTVSPropertyOp58
 70
     1
102
RTVSPropertyOp59
 70
     1
102
RTVSPropertyOp60
 70
     1
102
RTVSPropertyOp61
 70
     1
102
RTVSPropertyOp62
 70
     1
  0
XRECORD
  5
D4BB
102
{ACAD_REACTORS
330
D4BA
102
}
330
D4BA
100
AcDbXrecord
280
     1
102
RTVSPost2010Prop28
280
     0
102
RTVSPost2010PropOp28
 70
     0
102
RTVSPost2010Prop29
280
     1
102
RTVSPost2010PropOp29
 70
     0
102
RTVSPost2010Prop30
280
     1
102
RTVSPost2010PropOp30
 70
     0
102
RTVSPost2010Prop31
280
     0
102
RTVSPost2010PropOp31
 70
     0
102
RTVSPost2010Prop32
280
     0
102
RTVSPost2010PropOp32
 70
     0
102
RTVSPost2010Prop33
280
     0
102
RTVSPost2010PropOp33
 70
     0
102
RTVSPost2010Prop34
280
     0
102
RTVSPost2010PropOp34
 70
     0
102
RTVSPost2010Prop35
280
     0
102
RTVSPost2010PropOp35
 70
     0
102
RTVSPost2010Prop36
280
     0
102
RTVSPost2010PropOp36
 70
     0
102
RTVSPost2010Prop37
 90
       50
102
RTVSPost2010PropOp37
 70
     0
102
RTVSPost2010Prop38
140
0.0
102
RTVSPost2010PropOp38
 70
     0
102
RTVSPost2010Prop39
140
1.0
102
RTVSPost2010PropOp39
 70
     0
102
RTVSPost2010Prop40
 90
        0
102
RTVSPost2010PropOp40
 70
     0
102
RTVSPost2010Prop41ColorIndex
 90
       18
102
RTVSPost2010Prop41ColorRGB
 90
        0
102
RTVSPost2010PropOp41
 70
     0
102
RTVSPost2010Prop42
 90
       50
102
RTVSPost2010PropOp42
 70
     0
102
RTVSPost2010Prop43
 90
        3
102
RTVSPost2010PropOp43
 70
     0
102
RTVSPost2010Prop44ColorIndex
 90
        5
102
RTVSPost2010Prop44ColorRGB
 90
      255
102
RTVSPost2010PropOp44
 70
     0
102
RTVSPost2010Prop45
280
     0
102
RTVSPost2010PropOp45
 70
     0
102
RTVSPost2010Prop46
 90
       50
102
RTVSPost2010PropOp46
 70
     0
102
RTVSPost2010Prop47
 90
       50
102
RTVSPost2010PropOp47
 70
     0
102
RTVSPost2010Prop48
 90
       50
102
RTVSPost2010PropOp48
 70
     0
102
RTVSPost2010Prop49
280
     0
102
RTVSPost2010PropOp49
 70
     0
102
RTVSPost2010Prop50
 90
       50
102
RTVSPost2010PropOp50
 70
     0
102
RTVSPost2010Prop51ColorIndex
 90
      256
102
RTVSPost2010Prop51ColorRGB
 90
-16777216
102
RTVSPost2010PropOp51
 70
     0
102
RTVSPost2010Prop52
140
1.0
102
RTVSPost2010PropOp52
 70
     0
102
RTVSPost2010Prop53
 90
        2
102
RTVSPost2010PropOp53
 70
     0
102
RTVSPost2010Prop54
  1
strokes_ogs.tif
102
RTVSPost2010PropOp54
 70
     0
102
RTVSPost2010Prop55
280
     0
102
RTVSPost2010PropOp55
 70
     0
102
RTVSPost2010Prop56
140
1.0
102
RTVSPost2010PropOp56
 70
     0
102
RTVSPost2010Prop57
140
1.0
102
RTVSPost2010PropOp57
 70
     0
102
RTVSPropertyOp0
 70
     0
102
RTVSPropertyOp1
 70
     0
102
RTVSPropertyOp2
 70
     0
102
RTVSPropertyOp3
 70
     0
102
RTVSPropertyOp4
 70
     0
102
RTVSPropertyOp5
 70
     0
102
RTVSPropertyOp6
 70
     0
102
RTVSPropertyOp7
 70
     0
102
RTVSPropertyOp8
 70
     0
102
RTVSPropertyOp9
 70
     0
102
RTVSPropertyOp10
 70
     0
102
RTVSPropertyOp11
 70
     0
102
RTVSPropertyOp12
 70
     0
102
RTVSPropertyOp13
 70
     0
102
RTVSPropertyOp14
 70
     2
102
RTVSPropertyOp15
 70
     0
102
RTVSPropertyOp16
 70
     0
102
RTVSPropertyOp17
 70
     0
102
RTVSPropertyOp18
 70
     0
102
RTVSPropertyOp19
 70
     0
102
RTVSPropertyOp20
 70
     0
102
RTVSPropertyOp21
 70
     0
102
RTVSPropertyOp22
 70
     0
102
RTVSPropertyOp23
 70
     0
102
RTVSPropertyOp24
 70
     0
102
RTVSPropertyOp25
 70
     0
102
RTVSPropertyOp26
 70
     0
102
RTVSPropertyOp27
 70
     0
102
RTVSPropertyOp28
 70
     0
102
RTVSPropertyOp29
 70
     0
102
RTVSPropertyOp30
 70
     0
102
RTVSPropertyOp31
 70
     0
102
RTVSPropertyOp32
 70
     0
102
RTVSPropertyOp33
 70
     0
102
RTVSPropertyOp34
 70
     0
102
RTVSPropertyOp35
 70
     0
102
RTVSPropertyOp36
 70
     0
102
RTVSPropertyOp37
 70
     0
102
RTVSPropertyOp38
 70
     0
102
RTVSPropertyOp39
 70
     0
102
RTVSPropertyOp40
 70
     0
102
RTVSPropertyOp41
 70
     0
102
RTVSPropertyOp42
 70
     0
102
RTVSPropertyOp43
 70
     0
102
RTVSPropertyOp44
 70
     0
102
RTVSPropertyOp45
 70
     0
102
RTVSPropertyOp46
 70
     0
102
RTVSPropertyOp47
 70
     0
102
RTVSPropertyOp48
 70
     0
102
RTVSPropertyOp49
 70
     0
102
RTVSPropertyOp50
 70
     0
102
RTVSPropertyOp51
 70
     0
102
RTVSPropertyOp52
 70
     0
102
RTVSPropertyOp53
 70
     0
102
RTVSPropertyOp54
 70
     0
102
RTVSPropertyOp55
 70
     0
102
RTVSPropertyOp56
 70
     0
102
RTVSPropertyOp57
 70
     0
102
RTVSPropertyOp58
 70
     1
102
RTVSPropertyOp59
 70
     1
102
RTVSPropertyOp60
 70
     1
102
RTVSPropertyOp61
 70
     1
102
RTVSPropertyOp62
 70
     1
  0
XRECORD
  5
D4AB
102
{ACAD_REACTORS
330
D4AA
102
}
330
D4AA
100
AcDbXrecord
280
     1
102
RTVSPost2010Prop28
280
     0
102
RTVSPost2010PropOp28
 70
     1
102
RTVSPost2010Prop29
280
     1
102
RTVSPost2010PropOp29
 70
     1
102
RTVSPost2010Prop30
280
     1
102
RTVSPost2010PropOp30
 70
     1
102
RTVSPost2010Prop31
280
     0
102
RTVSPost2010PropOp31
 70
     1
102
RTVSPost2010Prop32
280
     0
102
RTVSPost2010PropOp32
 70
     1
102
RTVSPost2010Prop33
280
     0
102
RTVSPost2010PropOp33
 70
     1
102
RTVSPost2010Prop34
280
     0
102
RTVSPost2010PropOp34
 70
     1
102
RTVSPost2010Prop35
280
     0
102
RTVSPost2010PropOp35
 70
     1
102
RTVSPost2010Prop36
280
     0
102
RTVSPost2010PropOp36
 70
     1
102
RTVSPost2010Prop37
 90
       50
102
RTVSPost2010PropOp37
 70
     1
102
RTVSPost2010Prop38
140
0.0
102
RTVSPost2010PropOp38
 70
     1
102
RTVSPost2010Prop39
140
1.0
102
RTVSPost2010PropOp39
 70
     1
102
RTVSPost2010Prop40
 90
        0
102
RTVSPost2010PropOp40
 70
     1
102
RTVSPost2010Prop41ColorIndex
 90
       18
102
RTVSPost2010Prop41ColorRGB
 90
        0
102
RTVSPost2010PropOp41
 70
     1
102
RTVSPost2010Prop42
 90
       50
102
RTVSPost2010PropOp42
 70
     1
102
RTVSPost2010Prop43
 90
        3
102
RTVSPost2010PropOp43
 70
     1
102
RTVSPost2010Prop44ColorIndex
 90
        5
102
RTVSPost2010Prop44ColorRGB
 90
      255
102
RTVSPost2010PropOp44
 70
     1
102
RTVSPost2010Prop45
280
     0
102
RTVSPost2010PropOp45
 70
     1
102
RTVSPost2010Prop46
 90
       50
102
RTVSPost2010PropOp46
 70
     1
102
RTVSPost2010Prop47
 90
       50
102
RTVSPost2010PropOp47
 70
     1
102
RTVSPost2010Prop48
 90
       50
102
RTVSPost2010PropOp48
 70
     1
102
RTVSPost2010Prop49
280
     0
102
RTVSPost2010PropOp49
 70
     1
102
RTVSPost2010Prop50
 90
       50
102
RTVSPost2010PropOp50
 70
     1
102
RTVSPost2010Prop51ColorIndex
 90
      256
102
RTVSPost2010Prop51ColorRGB
 90
-16777216
102
RTVSPost2010PropOp51
 70
     0
102
RTVSPost2010Prop52
140
1.0
102
RTVSPost2010PropOp52
 70
     0
102
RTVSPost2010Prop53
 90
        2
102
RTVSPost2010PropOp53
 70
     1
102
RTVSPost2010Prop54
  1
strokes_ogs.tif
102
RTVSPost2010PropOp54
 70
     1
102
RTVSPost2010Prop55
280
     0
102
RTVSPost2010PropOp55
 70
     1
102
RTVSPost2010Prop56
140
1.0
102
RTVSPost2010PropOp56
 70
     1
102
RTVSPost2010Prop57
140
1.0
102
RTVSPost2010PropOp57
 70
     1
102
RTVSPropertyOp0
 70
     1
102
RTVSPropertyOp1
 70
     1
102
RTVSPropertyOp2
 70
     1
102
RTVSPropertyOp3
 70
     1
102
RTVSPropertyOp4
 70
     1
102
RTVSPropertyOp5
 70
     1
102
RTVSPropertyOp6
 70
     1
102
RTVSPropertyOp7
 70
     1
102
RTVSPropertyOp8
 70
     1
102
RTVSPropertyOp9
 70
     1
102
RTVSPropertyOp10
 70
     1
102
RTVSPropertyOp11
 70
     1
102
RTVSPropertyOp12
 70
     1
102
RTVSPropertyOp13
 70
     1
102
RTVSPropertyOp14
 70
     1
102
RTVSPropertyOp15
 70
     1
102
RTVSPropertyOp16
 70
     1
102
RTVSPropertyOp17
 70
     1
102
RTVSPropertyOp18
 70
     1
102
RTVSPropertyOp19
 70
     1
102
RTVSPropertyOp20
 70
     1
102
RTVSPropertyOp21
 70
     1
102
RTVSPropertyOp22
 70
     1
102
RTVSPropertyOp23
 70
     1
102
RTVSPropertyOp24
 70
     1
102
RTVSPropertyOp25
 70
     1
102
RTVSPropertyOp26
 70
     1
102
RTVSPropertyOp27
 70
     1
102
RTVSPropertyOp28
 70
     1
102
RTVSPropertyOp29
 70
     1
102
RTVSPropertyOp30
 70
     1
102
RTVSPropertyOp31
 70
     1
102
RTVSPropertyOp32
 70
     1
102
RTVSPropertyOp33
 70
     1
102
RTVSPropertyOp34
 70
     1
102
RTVSPropertyOp35
 70
     1
102
RTVSPropertyOp36
 70
     1
102
RTVSPropertyOp37
 70
     1
102
RTVSPropertyOp38
 70
     1
102
RTVSPropertyOp39
 70
     1
102
RTVSPropertyOp40
 70
     1
102
RTVSPropertyOp41
 70
     1
102
RTVSPropertyOp42
 70
     1
102
RTVSPropertyOp43
 70
     1
102
RTVSPropertyOp44
 70
     1
102
RTVSPropertyOp45
 70
     1
102
RTVSPropertyOp46
 70
     1
102
RTVSPropertyOp47
 70
     1
102
RTVSPropertyOp48
 70
     1
102
RTVSPropertyOp49
 70
     1
102
RTVSPropertyOp50
 70
     1
102
RTVSPropertyOp51
 70
     0
102
RTVSPropertyOp52
 70
     0
102
RTVSPropertyOp53
 70
     1
102
RTVSPropertyOp54
 70
     1
102
RTVSPropertyOp55
 70
     1
102
RTVSPropertyOp56
 70
     1
102
RTVSPropertyOp57
 70
     1
102
RTVSPropertyOp58
 70
     1
102
RTVSPropertyOp59
 70
     1
102
RTVSPropertyOp60
 70
     1
102
RTVSPropertyOp61
 70
     1
102
RTVSPropertyOp62
 70
     1
  0
XRECORD
  5
D4BD
102
{ACAD_REACTORS
330
D4BC
102
}
330
D4BC
100
AcDbXrecord
280
     1
102
RTVSPost2010Prop28
280
     0
102
RTVSPost2010PropOp28
 70
     0
102
RTVSPost2010Prop29
280
     1
102
RTVSPost2010PropOp29
 70
     0
102
RTVSPost2010Prop30
280
     1
102
RTVSPost2010PropOp30
 70
     0
102
RTVSPost2010Prop31
280
     0
102
RTVSPost2010PropOp31
 70
     0
102
RTVSPost2010Prop32
280
     0
102
RTVSPost2010PropOp32
 70
     0
102
RTVSPost2010Prop33
280
     0
102
RTVSPost2010PropOp33
 70
     0
102
RTVSPost2010Prop34
280
     0
102
RTVSPost2010PropOp34
 70
     0
102
RTVSPost2010Prop35
280
     0
102
RTVSPost2010PropOp35
 70
     0
102
RTVSPost2010Prop36
280
     0
102
RTVSPost2010PropOp36
 70
     0
102
RTVSPost2010Prop37
 90
       50
102
RTVSPost2010PropOp37
 70
     0
102
RTVSPost2010Prop38
140
0.0
102
RTVSPost2010PropOp38
 70
     0
102
RTVSPost2010Prop39
140
1.0
102
RTVSPost2010PropOp39
 70
     0
102
RTVSPost2010Prop40
 90
        0
102
RTVSPost2010PropOp40
 70
     0
102
RTVSPost2010Prop41ColorIndex
 90
       18
102
RTVSPost2010Prop41ColorRGB
 90
        0
102
RTVSPost2010PropOp41
 70
     0
102
RTVSPost2010Prop42
 90
       50
102
RTVSPost2010PropOp42
 70
     0
102
RTVSPost2010Prop43
 90
        3
102
RTVSPost2010PropOp43
 70
     0
102
RTVSPost2010Prop44ColorIndex
 90
        5
102
RTVSPost2010Prop44ColorRGB
 90
      255
102
RTVSPost2010PropOp44
 70
     0
102
RTVSPost2010Prop45
280
     0
102
RTVSPost2010PropOp45
 70
     0
102
RTVSPost2010Prop46
 90
       50
102
RTVSPost2010PropOp46
 70
     0
102
RTVSPost2010Prop47
 90
       50
102
RTVSPost2010PropOp47
 70
     0
102
RTVSPost2010Prop48
 90
       50
102
RTVSPost2010PropOp48
 70
     0
102
RTVSPost2010Prop49
280
     0
102
RTVSPost2010PropOp49
 70
     0
102
RTVSPost2010Prop50
 90
       50
102
RTVSPost2010PropOp50
 70
     0
102
RTVSPost2010Prop51ColorIndex
 90
      256
102
RTVSPost2010Prop51ColorRGB
 90
-16777216
102
RTVSPost2010PropOp51
 70
     0
102
RTVSPost2010Prop52
140
1.0
102
RTVSPost2010PropOp52
 70
     0
102
RTVSPost2010Prop53
 90
        2
102
RTVSPost2010PropOp53
 70
     0
102
RTVSPost2010Prop54
  1
strokes_ogs.tif
102
RTVSPost2010PropOp54
 70
     0
102
RTVSPost2010Prop55
280
     0
102
RTVSPost2010PropOp55
 70
     0
102
RTVSPost2010Prop56
140
1.0
102
RTVSPost2010PropOp56
 70
     0
102
RTVSPost2010Prop57
140
1.0
102
RTVSPost2010PropOp57
 70
     0
102
RTVSPropertyOp0
 70
     0
102
RTVSPropertyOp1
 70
     0
102
RTVSPropertyOp2
 70
     0
102
RTVSPropertyOp3
 70
     0
102
RTVSPropertyOp4
 70
     0
102
RTVSPropertyOp5
 70
     0
102
RTVSPropertyOp6
 70
     0
102
RTVSPropertyOp7
 70
     0
102
RTVSPropertyOp8
 70
     0
102
RTVSPropertyOp9
 70
     0
102
RTVSPropertyOp10
 70
     0
102
RTVSPropertyOp11
 70
     0
102
RTVSPropertyOp12
 70
     0
102
RTVSPropertyOp13
 70
     0
102
RTVSPropertyOp14
 70
     2
102
RTVSPropertyOp15
 70
     0
102
RTVSPropertyOp16
 70
     0
102
RTVSPropertyOp17
 70
     0
102
RTVSPropertyOp18
 70
     0
102
RTVSPropertyOp19
 70
     0
102
RTVSPropertyOp20
 70
     0
102
RTVSPropertyOp21
 70
     0
102
RTVSPropertyOp22
 70
     0
102
RTVSPropertyOp23
 70
     0
102
RTVSPropertyOp24
 70
     0
102
RTVSPropertyOp25
 70
     0
102
RTVSPropertyOp26
 70
     0
102
RTVSPropertyOp27
 70
     0
102
RTVSPropertyOp28
 70
     0
102
RTVSPropertyOp29
 70
     0
102
RTVSPropertyOp30
 70
     0
102
RTVSPropertyOp31
 70
     0
102
RTVSPropertyOp32
 70
     0
102
RTVSPropertyOp33
 70
     0
102
RTVSPropertyOp34
 70
     0
102
RTVSPropertyOp35
 70
     0
102
RTVSPropertyOp36
 70
     0
102
RTVSPropertyOp37
 70
     0
102
RTVSPropertyOp38
 70
     0
102
RTVSPropertyOp39
 70
     0
102
RTVSPropertyOp40
 70
     0
102
RTVSPropertyOp41
 70
     0
102
RTVSPropertyOp42
 70
     0
102
RTVSPropertyOp43
 70
     0
102
RTVSPropertyOp44
 70
     0
102
RTVSPropertyOp45
 70
     0
102
RTVSPropertyOp46
 70
     0
102
RTVSPropertyOp47
 70
     0
102
RTVSPropertyOp48
 70
     0
102
RTVSPropertyOp49
 70
     0
102
RTVSPropertyOp50
 70
     0
102
RTVSPropertyOp51
 70
     0
102
RTVSPropertyOp52
 70
     0
102
RTVSPropertyOp53
 70
     0
102
RTVSPropertyOp54
 70
     0
102
RTVSPropertyOp55
 70
     0
102
RTVSPropertyOp56
 70
     0
102
RTVSPropertyOp57
 70
     0
102
RTVSPropertyOp58
 70
     1
102
RTVSPropertyOp59
 70
     1
102
RTVSPropertyOp60
 70
     1
102
RTVSPropertyOp61
 70
     1
102
RTVSPropertyOp62
 70
     1
  0
XRECORD
  5
D4A3
102
{ACAD_REACTORS
330
D4A2
102
}
330
D4A2
100
AcDbXrecord
280
     1
102
RTVSPost2010Prop28
280
     0
102
RTVSPost2010PropOp28
 70
     1
102
RTVSPost2010Prop29
280
     1
102
RTVSPost2010PropOp29
 70
     1
102
RTVSPost2010Prop30
280
     1
102
RTVSPost2010PropOp30
 70
     1
102
RTVSPost2010Prop31
280
     0
102
RTVSPost2010PropOp31
 70
     1
102
RTVSPost2010Prop32
280
     0
102
RTVSPost2010PropOp32
 70
     1
102
RTVSPost2010Prop33
280
     0
102
RTVSPost2010PropOp33
 70
     1
102
RTVSPost2010Prop34
280
     0
102
RTVSPost2010PropOp34
 70
     1
102
RTVSPost2010Prop35
280
     0
102
RTVSPost2010PropOp35
 70
     1
102
RTVSPost2010Prop36
280
     0
102
RTVSPost2010PropOp36
 70
     1
102
RTVSPost2010Prop37
 90
       50
102
RTVSPost2010PropOp37
 70
     1
102
RTVSPost2010Prop38
140
0.0
102
RTVSPost2010PropOp38
 70
     1
102
RTVSPost2010Prop39
140
1.0
102
RTVSPost2010PropOp39
 70
     1
102
RTVSPost2010Prop40
 90
        0
102
RTVSPost2010PropOp40
 70
     1
102
RTVSPost2010Prop41ColorIndex
 90
       18
102
RTVSPost2010Prop41ColorRGB
 90
        0
102
RTVSPost2010PropOp41
 70
     1
102
RTVSPost2010Prop42
 90
       50
102
RTVSPost2010PropOp42
 70
     1
102
RTVSPost2010Prop43
 90
        3
102
RTVSPost2010PropOp43
 70
     1
102
RTVSPost2010Prop44ColorIndex
 90
        5
102
RTVSPost2010Prop44ColorRGB
 90
      255
102
RTVSPost2010PropOp44
 70
     1
102
RTVSPost2010Prop45
280
     0
102
RTVSPost2010PropOp45
 70
     1
102
RTVSPost2010Prop46
 90
       50
102
RTVSPost2010PropOp46
 70
     1
102
RTVSPost2010Prop47
 90
       50
102
RTVSPost2010PropOp47
 70
     1
102
RTVSPost2010Prop48
 90
       50
102
RTVSPost2010PropOp48
 70
     1
102
RTVSPost2010Prop49
280
     0
102
RTVSPost2010PropOp49
 70
     1
102
RTVSPost2010Prop50
 90
       50
102
RTVSPost2010PropOp50
 70
     1
102
RTVSPost2010Prop51ColorIndex
 90
      256
102
RTVSPost2010Prop51ColorRGB
 90
-16777216
102
RTVSPost2010PropOp51
 70
     0
102
RTVSPost2010Prop52
140
1.0
102
RTVSPost2010PropOp52
 70
     0
102
RTVSPost2010Prop53
 90
        2
102
RTVSPost2010PropOp53
 70
     1
102
RTVSPost2010Prop54
  1
strokes_ogs.tif
102
RTVSPost2010PropOp54
 70
     1
102
RTVSPost2010Prop55
280
     0
102
RTVSPost2010PropOp55
 70
     1
102
RTVSPost2010Prop56
140
1.0
102
RTVSPost2010PropOp56
 70
     1
102
RTVSPost2010Prop57
140
1.0
102
RTVSPost2010PropOp57
 70
     1
102
RTVSPropertyOp0
 70
     1
102
RTVSPropertyOp1
 70
     1
102
RTVSPropertyOp2
 70
     1
102
RTVSPropertyOp3
 70
     1
102
RTVSPropertyOp4
 70
     1
102
RTVSPropertyOp5
 70
     1
102
RTVSPropertyOp6
 70
     1
102
RTVSPropertyOp7
 70
     1
102
RTVSPropertyOp8
 70
     1
102
RTVSPropertyOp9
 70
     1
102
RTVSPropertyOp10
 70
     1
102
RTVSPropertyOp11
 70
     1
102
RTVSPropertyOp12
 70
     1
102
RTVSPropertyOp13
 70
     1
102
RTVSPropertyOp14
 70
     1
102
RTVSPropertyOp15
 70
     1
102
RTVSPropertyOp16
 70
     1
102
RTVSPropertyOp17
 70
     1
102
RTVSPropertyOp18
 70
     1
102
RTVSPropertyOp19
 70
     1
102
RTVSPropertyOp20
 70
     1
102
RTVSPropertyOp21
 70
     1
102
RTVSPropertyOp22
 70
     1
102
RTVSPropertyOp23
 70
     1
102
RTVSPropertyOp24
 70
     1
102
RTVSPropertyOp25
 70
     1
102
RTVSPropertyOp26
 70
     1
102
RTVSPropertyOp27
 70
     1
102
RTVSPropertyOp28
 70
     1
102
RTVSPropertyOp29
 70
     1
102
RTVSPropertyOp30
 70
     1
102
RTVSPropertyOp31
 70
     1
102
RTVSPropertyOp32
 70
     1
102
RTVSPropertyOp33
 70
     1
102
RTVSPropertyOp34
 70
     1
102
RTVSPropertyOp35
 70
     1
102
RTVSPropertyOp36
 70
     1
102
RTVSPropertyOp37
 70
     1
102
RTVSPropertyOp38
 70
     1
102
RTVSPropertyOp39
 70
     1
102
RTVSPropertyOp40
 70
     1
102
RTVSPropertyOp41
 70
     1
102
RTVSPropertyOp42
 70
     1
102
RTVSPropertyOp43
 70
     1
102
RTVSPropertyOp44
 70
     1
102
RTVSPropertyOp45
 70
     1
102
RTVSPropertyOp46
 70
     1
102
RTVSPropertyOp47
 70
     1
102
RTVSPropertyOp48
 70
     1
102
RTVSPropertyOp49
 70
     1
102
RTVSPropertyOp50
 70
     1
102
RTVSPropertyOp51
 70
     0
102
RTVSPropertyOp52
 70
     0
102
RTVSPropertyOp53
 70
     1
102
RTVSPropertyOp54
 70
     1
102
RTVSPropertyOp55
 70
     1
102
RTVSPropertyOp56
 70
     1
102
RTVSPropertyOp57
 70
     1
102
RTVSPropertyOp58
 70
     1
102
RTVSPropertyOp59
 70
     1
102
RTVSPropertyOp60
 70
     1
102
RTVSPropertyOp61
 70
     1
102
RTVSPropertyOp62
 70
     1
  0
XRECORD
  5
D4B9
102
{ACAD_REACTORS
330
D4B8
102
}
330
D4B8
100
AcDbXrecord
280
     1
102
RTVSPost2010Prop28
280
     0
102
RTVSPost2010PropOp28
 70
     1
102
RTVSPost2010Prop29
280
     1
102
RTVSPost2010PropOp29
 70
     1
102
RTVSPost2010Prop30
280
     1
102
RTVSPost2010PropOp30
 70
     1
102
RTVSPost2010Prop31
280
     0
102
RTVSPost2010PropOp31
 70
     1
102
RTVSPost2010Prop32
280
     0
102
RTVSPost2010PropOp32
 70
     1
102
RTVSPost2010Prop33
280
     0
102
RTVSPost2010PropOp33
 70
     1
102
RTVSPost2010Prop34
280
     0
102
RTVSPost2010PropOp34
 70
     1
102
RTVSPost2010Prop35
280
     0
102
RTVSPost2010PropOp35
 70
     1
102
RTVSPost2010Prop36
280
     0
102
RTVSPost2010PropOp36
 70
     1
102
RTVSPost2010Prop37
 90
       50
102
RTVSPost2010PropOp37
 70
     1
102
RTVSPost2010Prop38
140
0.0
102
RTVSPost2010PropOp38
 70
     1
102
RTVSPost2010Prop39
140
1.0
102
RTVSPost2010PropOp39
 70
     1
102
RTVSPost2010Prop40
 90
        0
102
RTVSPost2010PropOp40
 70
     1
102
RTVSPost2010Prop41ColorIndex
 90
       18
102
RTVSPost2010Prop41ColorRGB
 90
        0
102
RTVSPost2010PropOp41
 70
     1
102
RTVSPost2010Prop42
 90
       50
102
RTVSPost2010PropOp42
 70
     1
102
RTVSPost2010Prop43
 90
        3
102
RTVSPost2010PropOp43
 70
     1
102
RTVSPost2010Prop44ColorIndex
 90
        5
102
RTVSPost2010Prop44ColorRGB
 90
      255
102
RTVSPost2010PropOp44
 70
     1
102
RTVSPost2010Prop45
280
     0
102
RTVSPost2010PropOp45
 70
     1
102
RTVSPost2010Prop46
 90
       50
102
RTVSPost2010PropOp46
 70
     1
102
RTVSPost2010Prop47
 90
       50
102
RTVSPost2010PropOp47
 70
     1
102
RTVSPost2010Prop48
 90
       50
102
RTVSPost2010PropOp48
 70
     1
102
RTVSPost2010Prop49
280
     0
102
RTVSPost2010PropOp49
 70
     1
102
RTVSPost2010Prop50
 90
       50
102
RTVSPost2010PropOp50
 70
     1
102
RTVSPost2010Prop51ColorIndex
 90
      256
102
RTVSPost2010Prop51ColorRGB
 90
-16777216
102
RTVSPost2010PropOp51
 70
     0
102
RTVSPost2010Prop52
140
1.0
102
RTVSPost2010PropOp52
 70
     0
102
RTVSPost2010Prop53
 90
        2
102
RTVSPost2010PropOp53
 70
     1
102
RTVSPost2010Prop54
  1
strokes_ogs.tif
102
RTVSPost2010PropOp54
 70
     1
102
RTVSPost2010Prop55
280
     0
102
RTVSPost2010PropOp55
 70
     1
102
RTVSPost2010Prop56
140
1.0
102
RTVSPost2010PropOp56
 70
     1
102
RTVSPost2010Prop57
140
1.0
102
RTVSPost2010PropOp57
 70
     1
102
RTVSPropertyOp0
 70
     1
102
RTVSPropertyOp1
 70
     1
102
RTVSPropertyOp2
 70
     1
102
RTVSPropertyOp3
 70
     1
102
RTVSPropertyOp4
 70
     1
102
RTVSPropertyOp5
 70
     1
102
RTVSPropertyOp6
 70
     1
102
RTVSPropertyOp7
 70
     1
102
RTVSPropertyOp8
 70
     1
102
RTVSPropertyOp9
 70
     1
102
RTVSPropertyOp10
 70
     1
102
RTVSPropertyOp11
 70
     1
102
RTVSPropertyOp12
 70
     1
102
RTVSPropertyOp13
 70
     1
102
RTVSPropertyOp14
 70
     1
102
RTVSPropertyOp15
 70
     1
102
RTVSPropertyOp16
 70
     1
102
RTVSPropertyOp17
 70
     1
102
RTVSPropertyOp18
 70
     1
102
RTVSPropertyOp19
 70
     1
102
RTVSPropertyOp20
 70
     1
102
RTVSPropertyOp21
 70
     1
102
RTVSPropertyOp22
 70
     1
102
RTVSPropertyOp23
 70
     1
102
RTVSPropertyOp24
 70
     1
102
RTVSPropertyOp25
 70
     1
102
RTVSPropertyOp26
 70
     1
102
RTVSPropertyOp27
 70
     1
102
RTVSPropertyOp28
 70
     1
102
RTVSPropertyOp29
 70
     1
102
RTVSPropertyOp30
 70
     1
102
RTVSPropertyOp31
 70
     1
102
RTVSPropertyOp32
 70
     1
102
RTVSPropertyOp33
 70
     1
102
RTVSPropertyOp34
 70
     1
102
RTVSPropertyOp35
 70
     1
102
RTVSPropertyOp36
 70
     1
102
RTVSPropertyOp37
 70
     1
102
RTVSPropertyOp38
 70
     1
102
RTVSPropertyOp39
 70
     1
102
RTVSPropertyOp40
 70
     1
102
RTVSPropertyOp41
 70
     1
102
RTVSPropertyOp42
 70
     1
102
RTVSPropertyOp43
 70
     1
102
RTVSPropertyOp44
 70
     1
102
RTVSPropertyOp45
 70
     1
102
RTVSPropertyOp46
 70
     1
102
RTVSPropertyOp47
 70
     1
102
RTVSPropertyOp48
 70
     1
102
RTVSPropertyOp49
 70
     1
102
RTVSPropertyOp50
 70
     1
102
RTVSPropertyOp51
 70
     0
102
RTVSPropertyOp52
 70
     0
102
RTVSPropertyOp53
 70
     1
102
RTVSPropertyOp54
 70
     1
102
RTVSPropertyOp55
 70
     1
102
RTVSPropertyOp56
 70
     1
102
RTVSPropertyOp57
 70
     1
102
RTVSPropertyOp58
 70
     1
102
RTVSPropertyOp59
 70
     1
102
RTVSPropertyOp60
 70
     1
102
RTVSPropertyOp61
 70
     1
102
RTVSPropertyOp62
 70
     1
  0
XRECORD
  5
D4B7
102
{ACAD_REACTORS
330
D4B6
102
}
330
D4B6
100
AcDbXrecord
280
     1
102
RTVSPost2010Prop28
280
     0
102
RTVSPost2010PropOp28
 70
     1
102
RTVSPost2010Prop29
280
     1
102
RTVSPost2010PropOp29
 70
     1
102
RTVSPost2010Prop30
280
     1
102
RTVSPost2010PropOp30
 70
     1
102
RTVSPost2010Prop31
280
     0
102
RTVSPost2010PropOp31
 70
     1
102
RTVSPost2010Prop32
280
     0
102
RTVSPost2010PropOp32
 70
     1
102
RTVSPost2010Prop33
280
     0
102
RTVSPost2010PropOp33
 70
     1
102
RTVSPost2010Prop34
280
     0
102
RTVSPost2010PropOp34
 70
     1
102
RTVSPost2010Prop35
280
     0
102
RTVSPost2010PropOp35
 70
     1
102
RTVSPost2010Prop36
280
     0
102
RTVSPost2010PropOp36
 70
     1
102
RTVSPost2010Prop37
 90
       50
102
RTVSPost2010PropOp37
 70
     1
102
RTVSPost2010Prop38
140
0.0
102
RTVSPost2010PropOp38
 70
     1
102
RTVSPost2010Prop39
140
1.0
102
RTVSPost2010PropOp39
 70
     1
102
RTVSPost2010Prop40
 90
        0
102
RTVSPost2010PropOp40
 70
     1
102
RTVSPost2010Prop41ColorIndex
 90
       18
102
RTVSPost2010Prop41ColorRGB
 90
        0
102
RTVSPost2010PropOp41
 70
     1
102
RTVSPost2010Prop42
 90
       50
102
RTVSPost2010PropOp42
 70
     1
102
RTVSPost2010Prop43
 90
        3
102
RTVSPost2010PropOp43
 70
     1
102
RTVSPost2010Prop44ColorIndex
 90
        5
102
RTVSPost2010Prop44ColorRGB
 90
      255
102
RTVSPost2010PropOp44
 70
     1
102
RTVSPost2010Prop45
280
     0
102
RTVSPost2010PropOp45
 70
     1
102
RTVSPost2010Prop46
 90
       50
102
RTVSPost2010PropOp46
 70
     1
102
RTVSPost2010Prop47
 90
       50
102
RTVSPost2010PropOp47
 70
     1
102
RTVSPost2010Prop48
 90
       50
102
RTVSPost2010PropOp48
 70
     1
102
RTVSPost2010Prop49
280
     0
102
RTVSPost2010PropOp49
 70
     1
102
RTVSPost2010Prop50
 90
       50
102
RTVSPost2010PropOp50
 70
     1
102
RTVSPost2010Prop51ColorIndex
 90
      256
102
RTVSPost2010Prop51ColorRGB
 90
-16777216
102
RTVSPost2010PropOp51
 70
     0
102
RTVSPost2010Prop52
140
1.0
102
RTVSPost2010PropOp52
 70
     0
102
RTVSPost2010Prop53
 90
        2
102
RTVSPost2010PropOp53
 70
     1
102
RTVSPost2010Prop54
  1
strokes_ogs.tif
102
RTVSPost2010PropOp54
 70
     1
102
RTVSPost2010Prop55
280
     0
102
RTVSPost2010PropOp55
 70
     1
102
RTVSPost2010Prop56
140
1.0
102
RTVSPost2010PropOp56
 70
     1
102
RTVSPost2010Prop57
140
1.0
102
RTVSPost2010PropOp57
 70
     1
102
RTVSPropertyOp0
 70
     1
102
RTVSPropertyOp1
 70
     1
102
RTVSPropertyOp2
 70
     1
102
RTVSPropertyOp3
 70
     1
102
RTVSPropertyOp4
 70
     1
102
RTVSPropertyOp5
 70
     1
102
RTVSPropertyOp6
 70
     1
102
RTVSPropertyOp7
 70
     1
102
RTVSPropertyOp8
 70
     1
102
RTVSPropertyOp9
 70
     1
102
RTVSPropertyOp10
 70
     1
102
RTVSPropertyOp11
 70
     1
102
RTVSPropertyOp12
 70
     1
102
RTVSPropertyOp13
 70
     1
102
RTVSPropertyOp14
 70
     1
102
RTVSPropertyOp15
 70
     1
102
RTVSPropertyOp16
 70
     1
102
RTVSPropertyOp17
 70
     1
102
RTVSPropertyOp18
 70
     1
102
RTVSPropertyOp19
 70
     1
102
RTVSPropertyOp20
 70
     1
102
RTVSPropertyOp21
 70
     1
102
RTVSPropertyOp22
 70
     1
102
RTVSPropertyOp23
 70
     1
102
RTVSPropertyOp24
 70
     1
102
RTVSPropertyOp25
 70
     1
102
RTVSPropertyOp26
 70
     1
102
RTVSPropertyOp27
 70
     1
102
RTVSPropertyOp28
 70
     1
102
RTVSPropertyOp29
 70
     1
102
RTVSPropertyOp30
 70
     1
102
RTVSPropertyOp31
 70
     1
102
RTVSPropertyOp32
 70
     1
102
RTVSPropertyOp33
 70
     1
102
RTVSPropertyOp34
 70
     1
102
RTVSPropertyOp35
 70
     1
102
RTVSPropertyOp36
 70
     1
102
RTVSPropertyOp37
 70
     1
102
RTVSPropertyOp38
 70
     1
102
RTVSPropertyOp39
 70
     1
102
RTVSPropertyOp40
 70
     1
102
RTVSPropertyOp41
 70
     1
102
RTVSPropertyOp42
 70
     1
102
RTVSPropertyOp43
 70
     1
102
RTVSPropertyOp44
 70
     1
102
RTVSPropertyOp45
 70
     1
102
RTVSPropertyOp46
 70
     1
102
RTVSPropertyOp47
 70
     1
102
RTVSPropertyOp48
 70
     1
102
RTVSPropertyOp49
 70
     1
102
RTVSPropertyOp50
 70
     1
102
RTVSPropertyOp51
 70
     0
102
RTVSPropertyOp52
 70
     0
102
RTVSPropertyOp53
 70
     1
102
RTVSPropertyOp54
 70
     1
102
RTVSPropertyOp55
 70
     1
102
RTVSPropertyOp56
 70
     1
102
RTVSPropertyOp57
 70
     1
102
RTVSPropertyOp58
 70
     1
102
RTVSPropertyOp59
 70
     1
102
RTVSPropertyOp60
 70
     1
102
RTVSPropertyOp61
 70
     1
102
RTVSPropertyOp62
 70
     1
  0
XRECORD
  5
D4B1
102
{ACAD_REACTORS
330
D4B0
102
}
330
D4B0
100
AcDbXrecord
280
     1
102
RTVSPost2010Prop28
280
     0
102
RTVSPost2010PropOp28
 70
     1
102
RTVSPost2010Prop29
280
     1
102
RTVSPost2010PropOp29
 70
     1
102
RTVSPost2010Prop30
280
     1
102
RTVSPost2010PropOp30
 70
     1
102
RTVSPost2010Prop31
280
     0
102
RTVSPost2010PropOp31
 70
     1
102
RTVSPost2010Prop32
280
     0
102
RTVSPost2010PropOp32
 70
     1
102
RTVSPost2010Prop33
280
     0
102
RTVSPost2010PropOp33
 70
     1
102
RTVSPost2010Prop34
280
     0
102
RTVSPost2010PropOp34
 70
     1
102
RTVSPost2010Prop35
280
     0
102
RTVSPost2010PropOp35
 70
     1
102
RTVSPost2010Prop36
280
     0
102
RTVSPost2010PropOp36
 70
     1
102
RTVSPost2010Prop37
 90
       50
102
RTVSPost2010PropOp37
 70
     1
102
RTVSPost2010Prop38
140
0.0
102
RTVSPost2010PropOp38
 70
     1
102
RTVSPost2010Prop39
140
1.0
102
RTVSPost2010PropOp39
 70
     1
102
RTVSPost2010Prop40
 90
        0
102
RTVSPost2010PropOp40
 70
     1
102
RTVSPost2010Prop41ColorIndex
 90
       18
102
RTVSPost2010Prop41ColorRGB
 90
        0
102
RTVSPost2010PropOp41
 70
     1
102
RTVSPost2010Prop42
 90
       50
102
RTVSPost2010PropOp42
 70
     1
102
RTVSPost2010Prop43
 90
        3
102
RTVSPost2010PropOp43
 70
     1
102
RTVSPost2010Prop44ColorIndex
 90
        5
102
RTVSPost2010Prop44ColorRGB
 90
      255
102
RTVSPost2010PropOp44
 70
     1
102
RTVSPost2010Prop45
280
     0
102
RTVSPost2010PropOp45
 70
     1
102
RTVSPost2010Prop46
 90
       50
102
RTVSPost2010PropOp46
 70
     1
102
RTVSPost2010Prop47
 90
       50
102
RTVSPost2010PropOp47
 70
     1
102
RTVSPost2010Prop48
 90
       50
102
RTVSPost2010PropOp48
 70
     1
102
RTVSPost2010Prop49
280
     0
102
RTVSPost2010PropOp49
 70
     1
102
RTVSPost2010Prop50
 90
       50
102
RTVSPost2010PropOp50
 70
     1
102
RTVSPost2010Prop51ColorIndex
 90
      256
102
RTVSPost2010Prop51ColorRGB
 90
-16777216
102
RTVSPost2010PropOp51
 70
     0
102
RTVSPost2010Prop52
140
1.0
102
RTVSPost2010PropOp52
 70
     0
102
RTVSPost2010Prop53
 90
        2
102
RTVSPost2010PropOp53
 70
     1
102
RTVSPost2010Prop54
  1
strokes_ogs.tif
102
RTVSPost2010PropOp54
 70
     1
102
RTVSPost2010Prop55
280
     0
102
RTVSPost2010PropOp55
 70
     1
102
RTVSPost2010Prop56
140
1.0
102
RTVSPost2010PropOp56
 70
     1
102
RTVSPost2010Prop57
140
1.0
102
RTVSPost2010PropOp57
 70
     1
102
RTVSPropertyOp0
 70
     1
102
RTVSPropertyOp1
 70
     1
102
RTVSPropertyOp2
 70
     1
102
RTVSPropertyOp3
 70
     1
102
RTVSPropertyOp4
 70
     1
102
RTVSPropertyOp5
 70
     1
102
RTVSPropertyOp6
 70
     1
102
RTVSPropertyOp7
 70
     1
102
RTVSPropertyOp8
 70
     1
102
RTVSPropertyOp9
 70
     1
102
RTVSPropertyOp10
 70
     1
102
RTVSPropertyOp11
 70
     1
102
RTVSPropertyOp12
 70
     1
102
RTVSPropertyOp13
 70
     1
102
RTVSPropertyOp14
 70
     1
102
RTVSPropertyOp15
 70
     1
102
RTVSPropertyOp16
 70
     1
102
RTVSPropertyOp17
 70
     1
102
RTVSPropertyOp18
 70
     1
102
RTVSPropertyOp19
 70
     1
102
RTVSPropertyOp20
 70
     1
102
RTVSPropertyOp21
 70
     1
102
RTVSPropertyOp22
 70
     1
102
RTVSPropertyOp23
 70
     1
102
RTVSPropertyOp24
 70
     1
102
RTVSPropertyOp25
 70
     1
102
RTVSPropertyOp26
 70
     1
102
RTVSPropertyOp27
 70
     1
102
RTVSPropertyOp28
 70
     1
102
RTVSPropertyOp29
 70
     1
102
RTVSPropertyOp30
 70
     1
102
RTVSPropertyOp31
 70
     1
102
RTVSPropertyOp32
 70
     1
102
RTVSPropertyOp33
 70
     1
102
RTVSPropertyOp34
 70
     1
102
RTVSPropertyOp35
 70
     1
102
RTVSPropertyOp36
 70
     1
102
RTVSPropertyOp37
 70
     1
102
RTVSPropertyOp38
 70
     1
102
RTVSPropertyOp39
 70
     1
102
RTVSPropertyOp40
 70
     1
102
RTVSPropertyOp41
 70
     1
102
RTVSPropertyOp42
 70
     1
102
RTVSPropertyOp43
 70
     1
102
RTVSPropertyOp44
 70
     1
102
RTVSPropertyOp45
 70
     1
102
RTVSPropertyOp46
 70
     1
102
RTVSPropertyOp47
 70
     1
102
RTVSPropertyOp48
 70
     1
102
RTVSPropertyOp49
 70
     1
102
RTVSPropertyOp50
 70
     1
102
RTVSPropertyOp51
 70
     0
102
RTVSPropertyOp52
 70
     0
102
RTVSPropertyOp53
 70
     1
102
RTVSPropertyOp54
 70
     1
102
RTVSPropertyOp55
 70
     1
102
RTVSPropertyOp56
 70
     1
102
RTVSPropertyOp57
 70
     1
102
RTVSPropertyOp58
 70
     1
102
RTVSPropertyOp59
 70
     1
102
RTVSPropertyOp60
 70
     1
102
RTVSPropertyOp61
 70
     1
102
RTVSPropertyOp62
 70
     1
  0
XRECORD
  5
D4B3
102
{ACAD_REACTORS
330
D4B2
102
}
330
D4B2
100
AcDbXrecord
280
     1
102
RTVSPost2010Prop28
280
     0
102
RTVSPost2010PropOp28
 70
     1
102
RTVSPost2010Prop29
280
     1
102
RTVSPost2010PropOp29
 70
     1
102
RTVSPost2010Prop30
280
     1
102
RTVSPost2010PropOp30
 70
     1
102
RTVSPost2010Prop31
280
     0
102
RTVSPost2010PropOp31
 70
     1
102
RTVSPost2010Prop32
280
     0
102
RTVSPost2010PropOp32
 70
     1
102
RTVSPost2010Prop33
280
     0
102
RTVSPost2010PropOp33
 70
     1
102
RTVSPost2010Prop34
280
     0
102
RTVSPost2010PropOp34
 70
     1
102
RTVSPost2010Prop35
280
     0
102
RTVSPost2010PropOp35
 70
     1
102
RTVSPost2010Prop36
280
     0
102
RTVSPost2010PropOp36
 70
     1
102
RTVSPost2010Prop37
 90
       50
102
RTVSPost2010PropOp37
 70
     1
102
RTVSPost2010Prop38
140
0.0
102
RTVSPost2010PropOp38
 70
     1
102
RTVSPost2010Prop39
140
1.0
102
RTVSPost2010PropOp39
 70
     1
102
RTVSPost2010Prop40
 90
        0
102
RTVSPost2010PropOp40
 70
     1
102
RTVSPost2010Prop41ColorIndex
 90
       18
102
RTVSPost2010Prop41ColorRGB
 90
        0
102
RTVSPost2010PropOp41
 70
     1
102
RTVSPost2010Prop42
 90
       50
102
RTVSPost2010PropOp42
 70
     1
102
RTVSPost2010Prop43
 90
        3
102
RTVSPost2010PropOp43
 70
     1
102
RTVSPost2010Prop44ColorIndex
 90
        5
102
RTVSPost2010Prop44ColorRGB
 90
      255
102
RTVSPost2010PropOp44
 70
     1
102
RTVSPost2010Prop45
280
     0
102
RTVSPost2010PropOp45
 70
     1
102
RTVSPost2010Prop46
 90
       50
102
RTVSPost2010PropOp46
 70
     1
102
RTVSPost2010Prop47
 90
       50
102
RTVSPost2010PropOp47
 70
     1
102
RTVSPost2010Prop48
 90
       50
102
RTVSPost2010PropOp48
 70
     1
102
RTVSPost2010Prop49
280
     0
102
RTVSPost2010PropOp49
 70
     1
102
RTVSPost2010Prop50
 90
       50
102
RTVSPost2010PropOp50
 70
     1
102
RTVSPost2010Prop51ColorIndex
 90
      256
102
RTVSPost2010Prop51ColorRGB
 90
-16777216
102
RTVSPost2010PropOp51
 70
     0
102
RTVSPost2010Prop52
140
1.0
102
RTVSPost2010PropOp52
 70
     0
102
RTVSPost2010Prop53
 90
        2
102
RTVSPost2010PropOp53
 70
     1
102
RTVSPost2010Prop54
  1
strokes_ogs.tif
102
RTVSPost2010PropOp54
 70
     1
102
RTVSPost2010Prop55
280
     0
102
RTVSPost2010PropOp55
 70
     1
102
RTVSPost2010Prop56
140
1.0
102
RTVSPost2010PropOp56
 70
     1
102
RTVSPost2010Prop57
140
1.0
102
RTVSPost2010PropOp57
 70
     1
102
RTVSPropertyOp0
 70
     1
102
RTVSPropertyOp1
 70
     1
102
RTVSPropertyOp2
 70
     1
102
RTVSPropertyOp3
 70
     1
102
RTVSPropertyOp4
 70
     1
102
RTVSPropertyOp5
 70
     1
102
RTVSPropertyOp6
 70
     1
102
RTVSPropertyOp7
 70
     1
102
RTVSPropertyOp8
 70
     1
102
RTVSPropertyOp9
 70
     1
102
RTVSPropertyOp10
 70
     1
102
RTVSPropertyOp11
 70
     1
102
RTVSPropertyOp12
 70
     1
102
RTVSPropertyOp13
 70
     1
102
RTVSPropertyOp14
 70
     1
102
RTVSPropertyOp15
 70
     1
102
RTVSPropertyOp16
 70
     1
102
RTVSPropertyOp17
 70
     1
102
RTVSPropertyOp18
 70
     1
102
RTVSPropertyOp19
 70
     1
102
RTVSPropertyOp20
 70
     1
102
RTVSPropertyOp21
 70
     1
102
RTVSPropertyOp22
 70
     1
102
RTVSPropertyOp23
 70
     1
102
RTVSPropertyOp24
 70
     1
102
RTVSPropertyOp25
 70
     1
102
RTVSPropertyOp26
 70
     1
102
RTVSPropertyOp27
 70
     1
102
RTVSPropertyOp28
 70
     1
102
RTVSPropertyOp29
 70
     1
102
RTVSPropertyOp30
 70
     1
102
RTVSPropertyOp31
 70
     1
102
RTVSPropertyOp32
 70
     1
102
RTVSPropertyOp33
 70
     1
102
RTVSPropertyOp34
 70
     1
102
RTVSPropertyOp35
 70
     1
102
RTVSPropertyOp36
 70
     1
102
RTVSPropertyOp37
 70
     1
102
RTVSPropertyOp38
 70
     1
102
RTVSPropertyOp39
 70
     1
102
RTVSPropertyOp40
 70
     1
102
RTVSPropertyOp41
 70
     1
102
RTVSPropertyOp42
 70
     1
102
RTVSPropertyOp43
 70
     1
102
RTVSPropertyOp44
 70
     1
102
RTVSPropertyOp45
 70
     1
102
RTVSPropertyOp46
 70
     1
102
RTVSPropertyOp47
 70
     1
102
RTVSPropertyOp48
 70
     1
102
RTVSPropertyOp49
 70
     1
102
RTVSPropertyOp50
 70
     1
102
RTVSPropertyOp51
 70
     0
102
RTVSPropertyOp52
 70
     0
102
RTVSPropertyOp53
 70
     1
102
RTVSPropertyOp54
 70
     1
102
RTVSPropertyOp55
 70
     1
102
RTVSPropertyOp56
 70
     1
102
RTVSPropertyOp57
 70
     1
102
RTVSPropertyOp58
 70
     1
102
RTVSPropertyOp59
 70
     1
102
RTVSPropertyOp60
 70
     1
102
RTVSPropertyOp61
 70
     1
102
RTVSPropertyOp62
 70
     1
  0
XRECORD
  5
D4A9
102
{ACAD_REACTORS
330
D4A8
102
}
330
D4A8
100
AcDbXrecord
280
     1
102
RTVSPost2010Prop28
280
     0
102
RTVSPost2010PropOp28
 70
     1
102
RTVSPost2010Prop29
280
     1
102
RTVSPost2010PropOp29
 70
     1
102
RTVSPost2010Prop30
280
     1
102
RTVSPost2010PropOp30
 70
     1
102
RTVSPost2010Prop31
280
     0
102
RTVSPost2010PropOp31
 70
     1
102
RTVSPost2010Prop32
280
     0
102
RTVSPost2010PropOp32
 70
     1
102
RTVSPost2010Prop33
280
     0
102
RTVSPost2010PropOp33
 70
     1
102
RTVSPost2010Prop34
280
     0
102
RTVSPost2010PropOp34
 70
     1
102
RTVSPost2010Prop35
280
     0
102
RTVSPost2010PropOp35
 70
     1
102
RTVSPost2010Prop36
280
     0
102
RTVSPost2010PropOp36
 70
     1
102
RTVSPost2010Prop37
 90
       50
102
RTVSPost2010PropOp37
 70
     1
102
RTVSPost2010Prop38
140
0.0
102
RTVSPost2010PropOp38
 70
     1
102
RTVSPost2010Prop39
140
1.0
102
RTVSPost2010PropOp39
 70
     1
102
RTVSPost2010Prop40
 90
        0
102
RTVSPost2010PropOp40
 70
     1
102
RTVSPost2010Prop41ColorIndex
 90
       18
102
RTVSPost2010Prop41ColorRGB
 90
        0
102
RTVSPost2010PropOp41
 70
     1
102
RTVSPost2010Prop42
 90
       50
102
RTVSPost2010PropOp42
 70
     1
102
RTVSPost2010Prop43
 90
        3
102
RTVSPost2010PropOp43
 70
     1
102
RTVSPost2010Prop44ColorIndex
 90
        5
102
RTVSPost2010Prop44ColorRGB
 90
      255
102
RTVSPost2010PropOp44
 70
     1
102
RTVSPost2010Prop45
280
     0
102
RTVSPost2010PropOp45
 70
     1
102
RTVSPost2010Prop46
 90
       50
102
RTVSPost2010PropOp46
 70
     1
102
RTVSPost2010Prop47
 90
       50
102
RTVSPost2010PropOp47
 70
     1
102
RTVSPost2010Prop48
 90
       50
102
RTVSPost2010PropOp48
 70
     1
102
RTVSPost2010Prop49
280
     0
102
RTVSPost2010PropOp49
 70
     1
102
RTVSPost2010Prop50
 90
       50
102
RTVSPost2010PropOp50
 70
     1
102
RTVSPost2010Prop51ColorIndex
 90
      256
102
RTVSPost2010Prop51ColorRGB
 90
-16777216
102
RTVSPost2010PropOp51
 70
     0
102
RTVSPost2010Prop52
140
1.0
102
RTVSPost2010PropOp52
 70
     0
102
RTVSPost2010Prop53
 90
        2
102
RTVSPost2010PropOp53
 70
     1
102
RTVSPost2010Prop54
  1
strokes_ogs.tif
102
RTVSPost2010PropOp54
 70
     1
102
RTVSPost2010Prop55
280
     0
102
RTVSPost2010PropOp55
 70
     1
102
RTVSPost2010Prop56
140
1.0
102
RTVSPost2010PropOp56
 70
     1
102
RTVSPost2010Prop57
140
1.0
102
RTVSPost2010PropOp57
 70
     1
102
RTVSPropertyOp0
 70
     1
102
RTVSPropertyOp1
 70
     1
102
RTVSPropertyOp2
 70
     1
102
RTVSPropertyOp3
 70
     1
102
RTVSPropertyOp4
 70
     1
102
RTVSPropertyOp5
 70
     1
102
RTVSPropertyOp6
 70
     1
102
RTVSPropertyOp7
 70
     1
102
RTVSPropertyOp8
 70
     1
102
RTVSPropertyOp9
 70
     1
102
RTVSPropertyOp10
 70
     1
102
RTVSPropertyOp11
 70
     1
102
RTVSPropertyOp12
 70
     1
102
RTVSPropertyOp13
 70
     1
102
RTVSPropertyOp14
 70
     1
102
RTVSPropertyOp15
 70
     1
102
RTVSPropertyOp16
 70
     1
102
RTVSPropertyOp17
 70
     1
102
RTVSPropertyOp18
 70
     1
102
RTVSPropertyOp19
 70
     1
102
RTVSPropertyOp20
 70
     1
102
RTVSPropertyOp21
 70
     1
102
RTVSPropertyOp22
 70
     1
102
RTVSPropertyOp23
 70
     1
102
RTVSPropertyOp24
 70
     1
102
RTVSPropertyOp25
 70
     1
102
RTVSPropertyOp26
 70
     1
102
RTVSPropertyOp27
 70
     1
102
RTVSPropertyOp28
 70
     1
102
RTVSPropertyOp29
 70
     1
102
RTVSPropertyOp30
 70
     1
102
RTVSPropertyOp31
 70
     1
102
RTVSPropertyOp32
 70
     1
102
RTVSPropertyOp33
 70
     1
102
RTVSPropertyOp34
 70
     1
102
RTVSPropertyOp35
 70
     1
102
RTVSPropertyOp36
 70
     1
102
RTVSPropertyOp37
 70
     1
102
RTVSPropertyOp38
 70
     1
102
RTVSPropertyOp39
 70
     1
102
RTVSPropertyOp40
 70
     1
102
RTVSPropertyOp41
 70
     1
102
RTVSPropertyOp42
 70
     1
102
RTVSPropertyOp43
 70
     1
102
RTVSPropertyOp44
 70
     1
102
RTVSPropertyOp45
 70
     1
102
RTVSPropertyOp46
 70
     1
102
RTVSPropertyOp47
 70
     1
102
RTVSPropertyOp48
 70
     1
102
RTVSPropertyOp49
 70
     1
102
RTVSPropertyOp50
 70
     1
102
RTVSPropertyOp51
 70
     0
102
RTVSPropertyOp52
 70
     0
102
RTVSPropertyOp53
 70
     1
102
RTVSPropertyOp54
 70
     1
102
RTVSPropertyOp55
 70
     1
102
RTVSPropertyOp56
 70
     1
102
RTVSPropertyOp57
 70
     1
102
RTVSPropertyOp58
 70
     1
102
RTVSPropertyOp59
 70
     1
102
RTVSPropertyOp60
 70
     1
102
RTVSPropertyOp61
 70
     1
102
RTVSPropertyOp62
 70
     1
  0
XRECORD
  5
D49D
102
{ACAD_REACTORS
330
D49C
102
}
330
D49C
100
AcDbXrecord
280
     1
102
RTVSPost2010Prop28
280
     0
102
RTVSPost2010PropOp28
 70
     1
102
RTVSPost2010Prop29
280
     1
102
RTVSPost2010PropOp29
 70
     1
102
RTVSPost2010Prop30
280
     1
102
RTVSPost2010PropOp30
 70
     1
102
RTVSPost2010Prop31
280
     0
102
RTVSPost2010PropOp31
 70
     1
102
RTVSPost2010Prop32
280
     0
102
RTVSPost2010PropOp32
 70
     1
102
RTVSPost2010Prop33
280
     0
102
RTVSPost2010PropOp33
 70
     1
102
RTVSPost2010Prop34
280
     0
102
RTVSPost2010PropOp34
 70
     1
102
RTVSPost2010Prop35
280
     0
102
RTVSPost2010PropOp35
 70
     1
102
RTVSPost2010Prop36
280
     0
102
RTVSPost2010PropOp36
 70
     1
102
RTVSPost2010Prop37
 90
       50
102
RTVSPost2010PropOp37
 70
     1
102
RTVSPost2010Prop38
140
0.0
102
RTVSPost2010PropOp38
 70
     1
102
RTVSPost2010Prop39
140
1.0
102
RTVSPost2010PropOp39
 70
     1
102
RTVSPost2010Prop40
 90
        0
102
RTVSPost2010PropOp40
 70
     1
102
RTVSPost2010Prop41ColorIndex
 90
       18
102
RTVSPost2010Prop41ColorRGB
 90
        0
102
RTVSPost2010PropOp41
 70
     1
102
RTVSPost2010Prop42
 90
       50
102
RTVSPost2010PropOp42
 70
     1
102
RTVSPost2010Prop43
 90
        3
102
RTVSPost2010PropOp43
 70
     1
102
RTVSPost2010Prop44ColorIndex
 90
        5
102
RTVSPost2010Prop44ColorRGB
 90
      255
102
RTVSPost2010PropOp44
 70
     1
102
RTVSPost2010Prop45
280
     0
102
RTVSPost2010PropOp45
 70
     1
102
RTVSPost2010Prop46
 90
       50
102
RTVSPost2010PropOp46
 70
     1
102
RTVSPost2010Prop47
 90
       50
102
RTVSPost2010PropOp47
 70
     1
102
RTVSPost2010Prop48
 90
       50
102
RTVSPost2010PropOp48
 70
     1
102
RTVSPost2010Prop49
280
     0
102
RTVSPost2010PropOp49
 70
     1
102
RTVSPost2010Prop50
 90
       50
102
RTVSPost2010PropOp50
 70
     1
102
RTVSPost2010Prop51ColorIndex
 90
      256
102
RTVSPost2010Prop51ColorRGB
 90
-16777216
102
RTVSPost2010PropOp51
 70
     0
102
RTVSPost2010Prop52
140
1.0
102
RTVSPost2010PropOp52
 70
     0
102
RTVSPost2010Prop53
 90
        2
102
RTVSPost2010PropOp53
 70
     1
102
RTVSPost2010Prop54
  1
strokes_ogs.tif
102
RTVSPost2010PropOp54
 70
     1
102
RTVSPost2010Prop55
280
     0
102
RTVSPost2010PropOp55
 70
     1
102
RTVSPost2010Prop56
140
1.0
102
RTVSPost2010PropOp56
 70
     1
102
RTVSPost2010Prop57
140
1.0
102
RTVSPost2010PropOp57
 70
     1
102
RTVSPropertyOp0
 70
     1
102
RTVSPropertyOp1
 70
     1
102
RTVSPropertyOp2
 70
     1
102
RTVSPropertyOp3
 70
     1
102
RTVSPropertyOp4
 70
     1
102
RTVSPropertyOp5
 70
     1
102
RTVSPropertyOp6
 70
     1
102
RTVSPropertyOp7
 70
     1
102
RTVSPropertyOp8
 70
     1
102
RTVSPropertyOp9
 70
     1
102
RTVSPropertyOp10
 70
     1
102
RTVSPropertyOp11
 70
     1
102
RTVSPropertyOp12
 70
     1
102
RTVSPropertyOp13
 70
     1
102
RTVSPropertyOp14
 70
     1
102
RTVSPropertyOp15
 70
     1
102
RTVSPropertyOp16
 70
     1
102
RTVSPropertyOp17
 70
     1
102
RTVSPropertyOp18
 70
     1
102
RTVSPropertyOp19
 70
     1
102
RTVSPropertyOp20
 70
     1
102
RTVSPropertyOp21
 70
     1
102
RTVSPropertyOp22
 70
     1
102
RTVSPropertyOp23
 70
     1
102
RTVSPropertyOp24
 70
     1
102
RTVSPropertyOp25
 70
     1
102
RTVSPropertyOp26
 70
     1
102
RTVSPropertyOp27
 70
     1
102
RTVSPropertyOp28
 70
     1
102
RTVSPropertyOp29
 70
     1
102
RTVSPropertyOp30
 70
     1
102
RTVSPropertyOp31
 70
     1
102
RTVSPropertyOp32
 70
     1
102
RTVSPropertyOp33
 70
     1
102
RTVSPropertyOp34
 70
     1
102
RTVSPropertyOp35
 70
     1
102
RTVSPropertyOp36
 70
     1
102
RTVSPropertyOp37
 70
     1
102
RTVSPropertyOp38
 70
     1
102
RTVSPropertyOp39
 70
     1
102
RTVSPropertyOp40
 70
     1
102
RTVSPropertyOp41
 70
     1
102
RTVSPropertyOp42
 70
     1
102
RTVSPropertyOp43
 70
     1
102
RTVSPropertyOp44
 70
     1
102
RTVSPropertyOp45
 70
     1
102
RTVSPropertyOp46
 70
     1
102
RTVSPropertyOp47
 70
     1
102
RTVSPropertyOp48
 70
     1
102
RTVSPropertyOp49
 70
     1
102
RTVSPropertyOp50
 70
     1
102
RTVSPropertyOp51
 70
     0
102
RTVSPropertyOp52
 70
     0
102
RTVSPropertyOp53
 70
     1
102
RTVSPropertyOp54
 70
     1
102
RTVSPropertyOp55
 70
     1
102
RTVSPropertyOp56
 70
     1
102
RTVSPropertyOp57
 70
     1
102
RTVSPropertyOp58
 70
     1
102
RTVSPropertyOp59
 70
     1
102
RTVSPropertyOp60
 70
     1
102
RTVSPropertyOp61
 70
     1
102
RTVSPropertyOp62
 70
     1
  0
XRECORD
  5
D4B5
102
{ACAD_REACTORS
330
D4B4
102
}
330
D4B4
100
AcDbXrecord
280
     1
102
RTVSPost2010Prop28
280
     0
102
RTVSPost2010PropOp28
 70
     1
102
RTVSPost2010Prop29
280
     1
102
RTVSPost2010PropOp29
 70
     1
102
RTVSPost2010Prop30
280
     1
102
RTVSPost2010PropOp30
 70
     1
102
RTVSPost2010Prop31
280
     0
102
RTVSPost2010PropOp31
 70
     1
102
RTVSPost2010Prop32
280
     0
102
RTVSPost2010PropOp32
 70
     1
102
RTVSPost2010Prop33
280
     0
102
RTVSPost2010PropOp33
 70
     1
102
RTVSPost2010Prop34
280
     0
102
RTVSPost2010PropOp34
 70
     1
102
RTVSPost2010Prop35
280
     0
102
RTVSPost2010PropOp35
 70
     1
102
RTVSPost2010Prop36
280
     0
102
RTVSPost2010PropOp36
 70
     1
102
RTVSPost2010Prop37
 90
       50
102
RTVSPost2010PropOp37
 70
     1
102
RTVSPost2010Prop38
140
0.0
102
RTVSPost2010PropOp38
 70
     1
102
RTVSPost2010Prop39
140
1.0
102
RTVSPost2010PropOp39
 70
     1
102
RTVSPost2010Prop40
 90
        0
102
RTVSPost2010PropOp40
 70
     1
102
RTVSPost2010Prop41ColorIndex
 90
       18
102
RTVSPost2010Prop41ColorRGB
 90
        0
102
RTVSPost2010PropOp41
 70
     1
102
RTVSPost2010Prop42
 90
       50
102
RTVSPost2010PropOp42
 70
     1
102
RTVSPost2010Prop43
 90
        3
102
RTVSPost2010PropOp43
 70
     1
102
RTVSPost2010Prop44ColorIndex
 90
        5
102
RTVSPost2010Prop44ColorRGB
 90
      255
102
RTVSPost2010PropOp44
 70
     1
102
RTVSPost2010Prop45
280
     0
102
RTVSPost2010PropOp45
 70
     1
102
RTVSPost2010Prop46
 90
       50
102
RTVSPost2010PropOp46
 70
     1
102
RTVSPost2010Prop47
 90
       50
102
RTVSPost2010PropOp47
 70
     1
102
RTVSPost2010Prop48
 90
       50
102
RTVSPost2010PropOp48
 70
     1
102
RTVSPost2010Prop49
280
     0
102
RTVSPost2010PropOp49
 70
     1
102
RTVSPost2010Prop50
 90
       50
102
RTVSPost2010PropOp50
 70
     1
102
RTVSPost2010Prop51ColorIndex
 90
      256
102
RTVSPost2010Prop51ColorRGB
 90
-16777216
102
RTVSPost2010PropOp51
 70
     0
102
RTVSPost2010Prop52
140
1.0
102
RTVSPost2010PropOp52
 70
     0
102
RTVSPost2010Prop53
 90
        2
102
RTVSPost2010PropOp53
 70
     1
102
RTVSPost2010Prop54
  1
strokes_ogs.tif
102
RTVSPost2010PropOp54
 70
     1
102
RTVSPost2010Prop55
280
     0
102
RTVSPost2010PropOp55
 70
     1
102
RTVSPost2010Prop56
140
1.0
102
RTVSPost2010PropOp56
 70
     1
102
RTVSPost2010Prop57
140
1.0
102
RTVSPost2010PropOp57
 70
     1
102
RTVSPropertyOp0
 70
     1
102
RTVSPropertyOp1
 70
     1
102
RTVSPropertyOp2
 70
     1
102
RTVSPropertyOp3
 70
     1
102
RTVSPropertyOp4
 70
     1
102
RTVSPropertyOp5
 70
     1
102
RTVSPropertyOp6
 70
     1
102
RTVSPropertyOp7
 70
     1
102
RTVSPropertyOp8
 70
     1
102
RTVSPropertyOp9
 70
     1
102
RTVSPropertyOp10
 70
     1
102
RTVSPropertyOp11
 70
     1
102
RTVSPropertyOp12
 70
     1
102
RTVSPropertyOp13
 70
     1
102
RTVSPropertyOp14
 70
     1
102
RTVSPropertyOp15
 70
     1
102
RTVSPropertyOp16
 70
     1
102
RTVSPropertyOp17
 70
     1
102
RTVSPropertyOp18
 70
     1
102
RTVSPropertyOp19
 70
     1
102
RTVSPropertyOp20
 70
     1
102
RTVSPropertyOp21
 70
     1
102
RTVSPropertyOp22
 70
     1
102
RTVSPropertyOp23
 70
     1
102
RTVSPropertyOp24
 70
     1
102
RTVSPropertyOp25
 70
     1
102
RTVSPropertyOp26
 70
     1
102
RTVSPropertyOp27
 70
     1
102
RTVSPropertyOp28
 70
     1
102
RTVSPropertyOp29
 70
     1
102
RTVSPropertyOp30
 70
     1
102
RTVSPropertyOp31
 70
     1
102
RTVSPropertyOp32
 70
     1
102
RTVSPropertyOp33
 70
     1
102
RTVSPropertyOp34
 70
     1
102
RTVSPropertyOp35
 70
     1
102
RTVSPropertyOp36
 70
     1
102
RTVSPropertyOp37
 70
     1
102
RTVSPropertyOp38
 70
     1
102
RTVSPropertyOp39
 70
     1
102
RTVSPropertyOp40
 70
     1
102
RTVSPropertyOp41
 70
     1
102
RTVSPropertyOp42
 70
     1
102
RTVSPropertyOp43
 70
     1
102
RTVSPropertyOp44
 70
     1
102
RTVSPropertyOp45
 70
     1
102
RTVSPropertyOp46
 70
     1
102
RTVSPropertyOp47
 70
     1
102
RTVSPropertyOp48
 70
     1
102
RTVSPropertyOp49
 70
     1
102
RTVSPropertyOp50
 70
     1
102
RTVSPropertyOp51
 70
     0
102
RTVSPropertyOp52
 70
     0
102
RTVSPropertyOp53
 70
     1
102
RTVSPropertyOp54
 70
     1
102
RTVSPropertyOp55
 70
     1
102
RTVSPropertyOp56
 70
     1
102
RTVSPropertyOp57
 70
     1
102
RTVSPropertyOp58
 70
     1
102
RTVSPropertyOp59
 70
     1
102
RTVSPropertyOp60
 70
     1
102
RTVSPropertyOp61
 70
     1
102
RTVSPropertyOp62
 70
     1
  0
ENDSEC
  0
EOF
