  0
SECTION
  2
HEADER
  9
$ACADVER
  1
AC1015
  9
$ACADMAINTVER
 70
    20
  9
$DWGCODEPAGE
  3
ANSI_932
  9
$INSBASE
 10
0.0
 20
0.0
 30
0.0
  9
$EXTMIN
 10
0.0
 20
0.0
 30
0.0
  9
$EXTMAX
 10
1681.999993260642
 20
1187.999995240002
 30
0.0
  9
$LIMMIN
 10
0.0
 20
0.0
  9
$LIMMAX
 10
12.0
 20
9.0
  9
$ORTHOMODE
 70
     0
  9
$REGENMODE
 70
     1
  9
$FILLMODE
 70
     1
  9
$QTEXTMODE
 70
     0
  9
$MIRRTEXT
 70
     1
  9
$LTSCALE
 40
10.0
  9
$ATTMODE
 70
     1
  9
$TEXTSIZE
 40
5.0
  9
$TRACEWID
 40
0.05
  9
$TEXTSTYLE
  7
STANDARD
  9
$CLAYER
  8
D-STR-DIM
  9
$CELTYPE
  6
CONTINUOUS
  9
$CECOLOR
 62
   256
  9
$CELTSCALE
 40
1.0
  9
$DISPSILH
 70
     0
  9
$DIMSCALE
 40
1.0
  9
$DIMASZ
 40
1.0
  9
$DIMEXO
 40
2.0
  9
$DIMDLI
 40
0.0
  9
$DIMRND
 40
0.0
  9
$DIMDLE
 40
0.0
  9
$DIMEXE
 40
2.0
  9
$DIMTP
 40
0.0
  9
$DIMTM
 40
0.0
  9
$DIMTXT
 40
7.0
  9
$DIMCEN
 40
2.0
  9
$DIMTSZ
 40
0.0
  9
$DIMTOL
 70
     0
  9
$DIMLIM
 70
     0
  9
$DIMTIH
 70
     0
  9
$DIMTOH
 70
     0
  9
$DIMSE1
 70
     0
  9
$DIMSE2
 70
     0
  9
$DIMTAD
 70
     1
  9
$DIMZIN
 70
     8
  9
$DIMBLK
  1
Origin
  9
$DIMASO
 70
     1
  9
$DIMSHO
 70
     1
  9
$DIMPOST
  1

  9
$DIMAPOST
  1

  9
$DIMALT
 70
     0
  9
$DIMALTD
 70
     3
  9
$DIMALTF
 40
0.03937007874016
  9
$DIMLFAC
 40
1.0
  9
$DIMTOFL
 70
     1
  9
$DIMTVP
 40
0.0
  9
$DIMTIX
 70
     1
  9
$DIMSOXD
 70
     0
  9
$DIMSAH
 70
     0
  9
$DIMBLK1
  1

  9
$DIMBLK2
  1

  9
$DIMSTYLE
  2
2
  9
$DIMCLRD
 70
   256
  9
$DIMCLRE
 70
   256
  9
$DIMCLRT
 70
   256
  9
$DIMTFAC
 40
1.0
  9
$DIMGAP
 40
2.0
  9
$DIMJUST
 70
     0
  9
$DIMSD1
 70
     0
  9
$DIMSD2
 70
     0
  9
$DIMTOLJ
 70
     1
  9
$DIMTZIN
 70
     8
  9
$DIMALTZ
 70
     0
  9
$DIMALTTZ
 70
     0
  9
$DIMUPT
 70
     0
  9
$DIMDEC
 70
     0
  9
$DIMTDEC
 70
     0
  9
$DIMALTU
 70
     2
  9
$DIMALTTD
 70
     3
  9
$DIMTXSTY
  7
STANDARD
  9
$DIMAUNIT
 70
     1
  9
$DIMADEC
 70
     4
  9
$DIMALTRND
 40
0.0
  9
$DIMAZIN
 70
     0
  9
$DIMDSEP
 70
    46
  9
$DIMATFIT
 70
     3
  9
$DIMFRAC
 70
     0
  9
$DIMLDRBLK
  1
Origin
  9
$DIMLUNIT
 70
     2
  9
$DIMLWD
 70
    -2
  9
$DIMLWE
 70
    -2
  9
$DIMTMOVE
 70
     1
  9
$LUNITS
 70
     2
  9
$LUPREC
 70
     4
  9
$SKETCHINC
 40
0.1
  9
$FILLETRAD
 40
0.0
  9
$AUNITS
 70
     0
  9
$AUPREC
 70
     0
  9
$MENU
  1
.
  9
$ELEVATION
 40
0.0
  9
$PELEVATION
 40
0.0
  9
$THICKNESS
 40
0.0
  9
$LIMCHECK
 70
     0
  9
$CHAMFERA
 40
0.0
  9
$CHAMFERB
 40
0.0
  9
$CHAMFERC
 40
0.0
  9
$CHAMFERD
 40
0.0
  9
$SKPOLY
 70
     0
  9
$TDCREATE
 40
2452130.357449167
  9
$TDUCREATE
 40
2452129.982449167
  9
$TDUPDATE
 40
2454744.616873912
  9
$TDUUPDATE
 40
2454744.241873912
  9
$TDINDWG
 40
0.3913600000
  9
$TDUSRTIMER
 40
0.3913600000
  9
$USRTIMER
 70
     1
  9
$ANGBASE
 50
0.0
  9
$ANGDIR
 70
     0
  9
$PDMODE
 70
     2
  9
$PDSIZE
 40
0.0
  9
$PLINEWID
 40
0.0
  9
$SPLFRAME
 70
     0
  9
$SPLINETYPE
 70
     6
  9
$SPLINESEGS
 70
     8
  9
$HANDSEED
  5
ABC8
  9
$SURFTAB1
 70
     6
  9
$SURFTAB2
 70
     6
  9
$SURFTYPE
 70
     6
  9
$SURFU
 70
     6
  9
$SURFV
 70
     6
  9
$UCSBASE
  2

  9
$UCSNAME
  2

  9
$UCSORG
 10
0.0
 20
0.0
 30
0.0
  9
$UCSXDIR
 10
1.0
 20
0.0
 30
0.0
  9
$UCSYDIR
 10
0.0
 20
1.0
 30
0.0
  9
$UCSORTHOREF
  2

  9
$UCSORTHOVIEW
 70
     0
  9
$UCSORGTOP
 10
0.0
 20
0.0
 30
0.0
  9
$UCSORGBOTTOM
 10
0.0
 20
0.0
 30
0.0
  9
$UCSORGLEFT
 10
0.0
 20
0.0
 30
0.0
  9
$UCSORGRIGHT
 10
0.0
 20
0.0
 30
0.0
  9
$UCSORGFRONT
 10
0.0
 20
0.0
 30
0.0
  9
$UCSORGBACK
 10
0.0
 20
0.0
 30
0.0
  9
$PUCSBASE
  2

  9
$PUCSNAME
  2

  9
$PUCSORG
 10
0.0
 20
0.0
 30
0.0
  9
$PUCSXDIR
 10
1.0
 20
0.0
 30
0.0
  9
$PUCSYDIR
 10
0.0
 20
1.0
 30
0.0
  9
$PUCSORTHOREF
  2

  9
$PUCSORTHOVIEW
 70
     0
  9
$PUCSORGTOP
 10
0.0
 20
0.0
 30
0.0
  9
$PUCSORGBOTTOM
 10
0.0
 20
0.0
 30
0.0
  9
$PUCSORGLEFT
 10
0.0
 20
0.0
 30
0.0
  9
$PUCSORGRIGHT
 10
0.0
 20
0.0
 30
0.0
  9
$PUCSORGFRONT
 10
0.0
 20
0.0
 30
0.0
  9
$PUCSORGBACK
 10
0.0
 20
0.0
 30
0.0
  9
$USERI1
 70
     0
  9
$USERI2
 70
     0
  9
$USERI3
 70
     0
  9
$USERI4
 70
     0
  9
$USERI5
 70
     0
  9
$USERR1
 40
0.5
  9
$USERR2
 40
0.0
  9
$USERR3
 40
0.0
  9
$USERR4
 40
0.0
  9
$USERR5
 40
0.0
  9
$WORLDVIEW
 70
     1
  9
$SHADEDGE
 70
     3
  9
$SHADEDIF
 70
    70
  9
$TILEMODE
 70
     1
  9
$MAXACTVP
 70
    48
  9
$PINSBASE
 10
0.0
 20
0.0
 30
0.0
  9
$PLIMCHECK
 70
     0
  9
$PEXTMIN
 10
1.000000000000000E+20
 20
1.000000000000000E+20
 30
1.000000000000000E+20
  9
$PEXTMAX
 10
-1.000000000000000E+20
 20
-1.000000000000000E+20
 30
-1.000000000000000E+20
  9
$PLIMMIN
 10
0.0
 20
0.0
  9
$PLIMMAX
 10
12.0
 20
9.0
  9
$UNITMODE
 70
     0
  9
$VISRETAIN
 70
     1
  9
$PLINEGEN
 70
     0
  9
$PSLTSCALE
 70
     1
  9
$TREEDEPTH
 70
  3020
  9
$CMLSTYLE
  2

  9
$CMLJUST
 70
     0
  9
$CMLSCALE
 40
1.0
  9
$PROXYGRAPHICS
 70
     1
  9
$MEASUREMENT
 70
     0
  9
$CELWEIGHT
370
    -1
  9
$ENDCAPS
280
     0
  9
$JOINSTYLE
280
     0
  9
$LWDISPLAY
290
     0
  9
$INSUNITS
 70
     0
  9
$HYPERLINKBASE
  1

  9
$STYLESHEET
  1
canon国土交通省.ctb
  9
$XEDIT
290
     1
  9
$CEPSNTYPE
380
     0
  9
$PSTYLEMODE
290
     1
  9
$FINGERPRINTGUID
  2
{C6E6A0E0-8B8C-11D5-9A72-000629A6C5B5}
  9
$VERSIONGUID
  2
{319302D0-8F02-11D6-9BFF-000629A6C5B5}
  9
$EXTNAMES
290
     1
  9
$PSVPSCALE
 40
0.0
  9
$OLESTARTUP
290
     0
  0
ENDSEC
  0
SECTION
  2
CLASSES
  0
CLASS
  1
ACDBDICTIONARYWDFLT
  2
AcDbDictionaryWithDefault
  3
ObjectDBX Classes
 90
        0
280
     0
281
     0
  0
CLASS
  1
ACDBPLACEHOLDER
  2
AcDbPlaceHolder
  3
ObjectDBX Classes
 90
        0
280
     0
281
     0
  0
CLASS
  1
LAYOUT
  2
AcDbLayout
  3
ObjectDBX Classes
 90
        0
280
     0
281
     0
  0
CLASS
  1
DICTIONARYVAR
  2
AcDbDictionaryVar
  3
ObjectDBX Classes
 90
        0
280
     0
281
     0
  0
CLASS
  1
TABLESTYLE
  2
AcDbTableStyle
  3
ObjectDBX Classes
 90
     2047
280
     0
281
     0
  0
ENDSEC
  0
SECTION
  2
TABLES
  0
TABLE
  2
VPORT
  5
44
330
0
100
AcDbSymbolTable
 70
     2
  0
VPORT
  5
ABC2
330
44
100
AcDbSymbolTableRecord
100
AcDbViewportTableRecord
  2
*Active
 70
     0
 10
0.0
 20
0.0
 11
1.0
 21
1.0
 12
840.957089693679
 22
600.8895189911046
 13
0.0
 23
0.0
 14
1.0
 24
1.0
 15
0.0
 25
0.0
 16
0.0
 26
0.0
 36
1.0
 17
0.0
 27
0.0
 37
0.0
 40
1213.804919840025
 41
1.786538461538461
 42
50.0
 43
0.0
 44
0.0
 50
0.0
 51
0.0
 71
     0
 72
   100
 73
     1
 74
     3
 75
     0
 76
     0
 77
     0
 78
     0
281
     0
 65
     1
110
0.0
120
0.0
130
0.0
111
1.0
121
0.0
131
0.0
112
0.0
122
1.0
132
0.0
 79
     0
146
0.0
  0
ENDTAB
  0
TABLE
  2
LTYPE
  5
1E
330
0
100
AcDbSymbolTable
 70
     6
  0
LTYPE
  5
1F
330
1E
100
AcDbSymbolTableRecord
100
AcDbLinetypeTableRecord
  2
BYBLOCK
 70
     0
  3

 72
    65
 73
     0
 40
0.0
  0
LTYPE
  5
20
330
1E
100
AcDbSymbolTableRecord
100
AcDbLinetypeTableRecord
  2
BYLAYER
 70
     0
  3

 72
    65
 73
     0
 40
0.0
  0
LTYPE
  5
21
330
1E
100
AcDbSymbolTableRecord
100
AcDbLinetypeTableRecord
  2
CONTINUOUS
 70
     0
  3
Solid line
 72
    65
 73
     0
 40
0.0
  0
LTYPE
  5
25
330
1E
100
AcDbSymbolTableRecord
100
AcDbLinetypeTableRecord
  2
CENTER
 70
     0
  3
____ _ ____ _ ____ _ ____ _ ____ _ ____ _ ____
 72
    65
 73
     4
 40
2.0
 49
1.25
 74
     0
 49
-0.25
 74
     0
 49
0.25
 74
     0
 49
-0.25
 74
     0
  0
LTYPE
  5
96A0
330
1E
100
AcDbSymbolTableRecord
100
AcDbLinetypeTableRecord
  2
HIDDEN
 70
     0
  3
_ _ _ _ _ _ _ _ _ _ _ _ _ _ 
 72
    65
 73
     2
 40
9.524999999999998
 49
6.349999999999999
 74
     0
 49
-3.174999999999999
 74
     0
  0
LTYPE
  5
9CEF
330
1E
100
AcDbSymbolTableRecord
100
AcDbLinetypeTableRecord
  2
PHANTOM
 70
     0
  3
_____ _ _ _____ _ _ _____ _ _ 
 72
    65
 73
     6
 40
63.50000000000001
 49
31.75
 74
     0
 49
-6.349999999999999
 74
     0
 49
6.349999999999999
 74
     0
 49
-6.349999999999999
 74
     0
 49
6.349999999999999
 74
     0
 49
-6.349999999999999
 74
     0
  0
LTYPE
  5
9CF0
330
1E
100
AcDbSymbolTableRecord
100
AcDbLinetypeTableRecord
  2
DOT
 70
     0
  3
...........................
 72
    65
 73
     2
 40
6.349999999999999
 49
0.0
 74
     0
 49
-6.349999999999999
 74
     0
  0
LTYPE
  5
ABB2
330
1E
100
AcDbSymbolTableRecord
100
AcDbLinetypeTableRecord
  2
DASHED
 70
     0
  3
Dashed __ __ __ __ __ __ __ __ __ __ __ __ __ _
 72
    65
 73
     2
 40
0.75
 49
0.5
 74
     0
 49
-0.25
 74
     0
  0
ENDTAB
  0
TABLE
  2
LAYER
  5
2D
330
0
100
AcDbSymbolTable
 70
    15
  0
LAYER
  5
2E
330
2D
100
AcDbSymbolTableRecord
100
AcDbLayerTableRecord
  2
0
 70
     0
 62
     7
  6
CONTINUOUS
370
    13
390
281A
  0
LAYER
  5
2F18
330
2D
100
AcDbSymbolTableRecord
100
AcDbLayerTableRecord
  2
D-STR-DIM
 70
     0
 62
     7
  6
CONTINUOUS
370
    13
390
281A
  0
LAYER
  5
2F19
330
2D
100
AcDbSymbolTableRecord
100
AcDbLayerTableRecord
  2
D-TTL-TXT
 70
     0
 62
     7
  6
CONTINUOUS
370
    13
390
281A
  0
LAYER
  5
2F1A
330
2D
100
AcDbSymbolTableRecord
100
AcDbLayerTableRecord
  2
DEFPOINTS
 70
     0
 62
     7
  6
CONTINUOUS
290
     0
370
    13
390
281A
  0
LAYER
  5
2F1B
330
2D
100
AcDbSymbolTableRecord
100
AcDbLayerTableRecord
  2
D-STR
 70
     0
 62
     1
  6
CONTINUOUS
370
    18
390
281A
  0
LAYER
  5
2F1C
330
2D
100
AcDbSymbolTableRecord
100
AcDbLayerTableRecord
  2
D-TTL
 70
     0
 62
     2
  6
CONTINUOUS
370
    13
390
281A
  0
LAYER
  5
2F1D
330
2D
100
AcDbSymbolTableRecord
100
AcDbLayerTableRecord
  2
D-TTL-FRAM
 70
     0
 62
     2
  6
CONTINUOUS
290
     0
370
    13
390
281A
  0
LAYER
  5
2F1E
330
2D
100
AcDbSymbolTableRecord
100
AcDbLayerTableRecord
  2
D-BMK
 70
     0
 62
     2
  6
CENTER
370
    13
390
281A
  0
LAYER
  5
2F21
330
2D
100
AcDbSymbolTableRecord
100
AcDbLayerTableRecord
  2
D-MTR-FRAM
 70
     0
 62
     7
  6
CONTINUOUS
370
    13
390
281A
  0
LAYER
  5
2F22
330
2D
100
AcDbSymbolTableRecord
100
AcDbLayerTableRecord
  2
D-MTR
 70
     0
 62
     6
  6
CONTINUOUS
370
    13
390
281A
  0
LAYER
  5
2F23
330
2D
100
AcDbSymbolTableRecord
100
AcDbLayerTableRecord
  2
D-MTR-TXT
 70
     0
 62
     7
  6
CONTINUOUS
370
    13
390
281A
  0
LAYER
  5
2F24
330
2D
100
AcDbSymbolTableRecord
100
AcDbLayerTableRecord
  2
D-MTR-MTXT
 70
     0
 62
     7
  6
CONTINUOUS
370
    13
390
281A
  0
LAYER
  5
2F25
330
2D
100
AcDbSymbolTableRecord
100
AcDbLayerTableRecord
  2
D-STR-STR2
 70
     0
 62
     1
  6
CONTINUOUS
370
    18
390
281A
  0
LAYER
  5
877E
330
2D
100
AcDbSymbolTableRecord
100
AcDbLayerTableRecord
  2
D-STR-STR3
 70
     0
 62
     7
  6
CONTINUOUS
370
    13
390
281A
  0
LAYER
  5
96A1
330
2D
100
AcDbSymbolTableRecord
100
AcDbLayerTableRecord
  2
D-STR-HTXT
 70
     0
 62
     7
  6
CONTINUOUS
370
    13
390
281A
  0
ENDTAB
  0
TABLE
  2
STYLE
  5
2B
330
0
100
AcDbSymbolTable
 70
     3
  0
STYLE
  5
2C
330
2B
100
AcDbSymbolTableRecord
100
AcDbTextStyleTableRecord
  2
STANDARD
 70
     0
 40
0.0
 41
1.0
 50
0.0
 71
     0
 42
5.0
  3
txt
  4
bigfont
  0
STYLE
  5
2F26
330
2B
100
AcDbSymbolTableRecord
100
AcDbTextStyleTableRecord
  2
明朝
 70
     0
 40
0.0
 41
1.0
 50
0.0
 71
     0
 42
10.0
  3
MS PMincho.ttf
  4

1001
ACAD
1000
MS PMincho
1071
    32786
  0
STYLE
  5
ABB1
330
2B
100
AcDbSymbolTableRecord
100
AcDbTextStyleTableRecord
  2

 70
     1
 40
0.0
 41
1.0
 50
0.0
 71
     0
 42
5.0
  3
ltypeshp.shx
  4

  0
ENDTAB
  0
TABLE
  2
VIEW
  5
43
330
0
100
AcDbSymbolTable
 70
     0
  0
ENDTAB
  0
TABLE
  2
UCS
  5
42
330
0
100
AcDbSymbolTable
 70
     0
  0
ENDTAB
  0
TABLE
  2
APPID
  5
3F
330
0
100
AcDbSymbolTable
 70
     1
  0
APPID
  5
40
330
3F
100
AcDbSymbolTableRecord
100
AcDbRegAppTableRecord
  2
ACAD
 70
     0
  0
ENDTAB
  0
TABLE
  2
DIMSTYLE
  5
41
330
0
100
AcDbSymbolTable
 70
     2
100
AcDbDimStyleTable
 71
     2
340
2F27
340
281B
  0
DIMSTYLE
105
281B
330
41
100
AcDbSymbolTableRecord
100
AcDbDimStyleTableRecord
  2
Standard
 70
     0
340
2C
  0
DIMSTYLE
105
2F27
102
{ACAD_REACTORS
330
A405
330
A414
330
A421
330
A42E
330
A43D
330
A44C
330
A459
330
A466
330
A473
330
A480
330
A48F
330
A49C
330
A4A9
330
A4B6
330
A4C3
330
A612
330
A611
330
A656
330
A658
330
A659
330
A657
330
A6C9
330
A6E3
330
A6E4
330
A71B
330
A73E
330
A73F
330
A741
330
A768
330
A740
102
}
330
41
100
AcDbSymbolTableRecord
100
AcDbDimStyleTableRecord
  2
2
 70
     0
 41
1.0
 42
2.0
 43
0.0
 44
2.0
 73
     0
 74
     0
 77
     1
 78
     8
140
7.0
141
2.0
143
0.03937007874016
147
2.0
171
     3
172
     1
174
     1
176
   256
177
   256
178
   256
179
     4
271
     0
272
     0
274
     3
275
     1
279
     1
284
     8
340
2C
341
2856
342
2856
  0
ENDTAB
  0
TABLE
  2
BLOCK_RECORD
  5
45
330
0
100
AcDbSymbolTable
 70
    32
  0
BLOCK_RECORD
  5
46
102
{ACAD_XDICTIONARY
360
2849
102
}
330
45
100
AcDbSymbolTableRecord
100
AcDbBlockTableRecord
  2
*MODEL_SPACE
340
281E
  0
BLOCK_RECORD
  5
47
102
{ACAD_XDICTIONARY
360
284B
102
}
330
45
100
AcDbSymbolTableRecord
100
AcDbBlockTableRecord
  2
*PAPER_SPACE
340
281F
  0
BLOCK_RECORD
  5
2856
330
45
100
AcDbSymbolTableRecord
100
AcDbBlockTableRecord
  2
_Origin
340
0
102
{BLKREFS
331
AA56
331
AA57
331
AA5E
331
AA5F
331
AA6C
331
AA6D
331
AA74
331
AA75
331
AA7F
331
AA80
331
AA8A
331
AA8B
331
AA93
331
AA94
331
AA9C
331
AA9D
331
AAA5
331
AAA6
331
AAAE
331
AAAF
331
AAB7
331
AAB8
331
AAC0
331
AAC1
331
AACE
331
AACF
331
AAD6
331
AAD7
331
AADF
331
AAE0
331
AAE8
331
AAE9
331
AAF1
331
AAF2
331
AAFA
331
AAFB
331
AB03
331
AB04
331
AB0C
331
AB0D
331
AB15
331
AB16
331
AB1E
331
AB1F
331
AB27
331
AB28
331
AB30
331
AB31
331
AB3B
331
AB3C
331
AB46
331
AB47
331
AB4F
331
AB50
331
AB5D
331
AB5E
331
AB65
331
AB66
331
AB6E
331
AB6F
102
}
  0
BLOCK_RECORD
  5
9550
330
45
100
AcDbSymbolTableRecord
100
AcDbBlockTableRecord
  2
_Open
340
0
102
{BLKREFS
331
98C8
331
98EF
331
9901
331
991E
331
9941
331
A650
331
A738
331
A734
331
A766
331
A760
102
}
  0
BLOCK_RECORD
  5
A406
330
45
100
AcDbSymbolTableRecord
100
AcDbBlockTableRecord
  2
*D2
340
0
  0
BLOCK_RECORD
  5
A415
330
45
100
AcDbSymbolTableRecord
100
AcDbBlockTableRecord
  2
*D3
340
0
  0
BLOCK_RECORD
  5
A422
330
45
100
AcDbSymbolTableRecord
100
AcDbBlockTableRecord
  2
*D4
340
0
  0
BLOCK_RECORD
  5
A42F
330
45
100
AcDbSymbolTableRecord
100
AcDbBlockTableRecord
  2
*D5
340
0
  0
BLOCK_RECORD
  5
A43E
330
45
100
AcDbSymbolTableRecord
100
AcDbBlockTableRecord
  2
*D6
340
0
  0
BLOCK_RECORD
  5
A44D
330
45
100
AcDbSymbolTableRecord
100
AcDbBlockTableRecord
  2
*D7
340
0
  0
BLOCK_RECORD
  5
A45A
330
45
100
AcDbSymbolTableRecord
100
AcDbBlockTableRecord
  2
*D8
340
0
  0
BLOCK_RECORD
  5
A467
330
45
100
AcDbSymbolTableRecord
100
AcDbBlockTableRecord
  2
*D9
340
0
  0
BLOCK_RECORD
  5
A474
330
45
100
AcDbSymbolTableRecord
100
AcDbBlockTableRecord
  2
*D10
340
0
  0
BLOCK_RECORD
  5
A481
330
45
100
AcDbSymbolTableRecord
100
AcDbBlockTableRecord
  2
*D11
340
0
  0
BLOCK_RECORD
  5
A490
330
45
100
AcDbSymbolTableRecord
100
AcDbBlockTableRecord
  2
*D12
340
0
  0
BLOCK_RECORD
  5
A49D
330
45
100
AcDbSymbolTableRecord
100
AcDbBlockTableRecord
  2
*D13
340
0
  0
BLOCK_RECORD
  5
A4AA
330
45
100
AcDbSymbolTableRecord
100
AcDbBlockTableRecord
  2
*D14
340
0
  0
BLOCK_RECORD
  5
A4B7
330
45
100
AcDbSymbolTableRecord
100
AcDbBlockTableRecord
  2
*D15
340
0
  0
BLOCK_RECORD
  5
A4C4
330
45
100
AcDbSymbolTableRecord
100
AcDbBlockTableRecord
  2
*D16
340
0
  0
BLOCK_RECORD
  5
A613
330
45
100
AcDbSymbolTableRecord
100
AcDbBlockTableRecord
  2
*D17
340
0
  0
BLOCK_RECORD
  5
A61F
330
45
100
AcDbSymbolTableRecord
100
AcDbBlockTableRecord
  2
*D18
340
0
  0
BLOCK_RECORD
  5
A65A
330
45
100
AcDbSymbolTableRecord
100
AcDbBlockTableRecord
  2
*D19
340
0
  0
BLOCK_RECORD
  5
A666
330
45
100
AcDbSymbolTableRecord
100
AcDbBlockTableRecord
  2
*D20
340
0
  0
BLOCK_RECORD
  5
A672
330
45
100
AcDbSymbolTableRecord
100
AcDbBlockTableRecord
  2
*D21
340
0
  0
BLOCK_RECORD
  5
A67E
330
45
100
AcDbSymbolTableRecord
100
AcDbBlockTableRecord
  2
*D22
340
0
  0
BLOCK_RECORD
  5
A6CA
330
45
100
AcDbSymbolTableRecord
100
AcDbBlockTableRecord
  2
*D23
340
0
  0
BLOCK_RECORD
  5
A6E5
330
45
100
AcDbSymbolTableRecord
100
AcDbBlockTableRecord
  2
*D24
340
0
  0
BLOCK_RECORD
  5
A6F3
330
45
100
AcDbSymbolTableRecord
100
AcDbBlockTableRecord
  2
*D25
340
0
  0
BLOCK_RECORD
  5
A71C
330
45
100
AcDbSymbolTableRecord
100
AcDbBlockTableRecord
  2
*D26
340
0
  0
BLOCK_RECORD
  5
A76C
330
45
100
AcDbSymbolTableRecord
100
AcDbBlockTableRecord
  2
*D27
340
0
  0
BLOCK_RECORD
  5
A778
330
45
100
AcDbSymbolTableRecord
100
AcDbBlockTableRecord
  2
*D28
340
0
  0
BLOCK_RECORD
  5
A784
330
45
100
AcDbSymbolTableRecord
100
AcDbBlockTableRecord
  2
*D29
340
0
  0
BLOCK_RECORD
  5
A790
330
45
100
AcDbSymbolTableRecord
100
AcDbBlockTableRecord
  2
*D30
340
0
  0
BLOCK_RECORD
  5
A79C
330
45
100
AcDbSymbolTableRecord
100
AcDbBlockTableRecord
  2
*D31
340
0
  0
ENDTAB
  0
ENDSEC
  0
SECTION
  2
BLOCKS
  0
BLOCK
  5
48
330
46
100
AcDbEntity
  8
0
100
AcDbBlockBegin
  2
*MODEL_SPACE
 70
     0
 10
0.0
 20
0.0
 30
0.0
  3
*MODEL_SPACE
  1

  0
ENDBLK
  5
49
330
46
100
AcDbEntity
  8
0
100
AcDbBlockEnd
  0
BLOCK
  5
4A
330
47
100
AcDbEntity
 67
     1
  8
0
100
AcDbBlockBegin
  2
*PAPER_SPACE
 70
     0
 10
0.0
 20
0.0
 30
0.0
  3
*PAPER_SPACE
  1

  0
ENDBLK
  5
4B
330
47
100
AcDbEntity
 67
     1
  8
0
100
AcDbBlockEnd
  0
BLOCK
  5
2859
330
2856
100
AcDbEntity
  8
0
100
AcDbBlockBegin
  2
_Origin
 70
     0
 10
0.0
 20
0.0
 30
0.0
  3
_Origin
  1

  0
CIRCLE
  5
2857
330
2856
100
AcDbEntity
  8
0
  6
ByBlock
 62
     0
370
    -2
100
AcDbCircle
 10
0.0
 20
0.0
 30
0.0
 40
0.5
  0
LINE
  5
2858
330
2856
100
AcDbEntity
  8
0
  6
ByBlock
 62
     0
370
    -2
100
AcDbLine
 10
0.0
 20
0.0
 30
0.0
 11
-1.0
 21
0.0
 31
0.0
  0
ENDBLK
  5
285A
330
2856
100
AcDbEntity
  8
0
100
AcDbBlockEnd
  0
BLOCK
  5
9554
330
9550
100
AcDbEntity
  8
0
100
AcDbBlockBegin
  2
_Open
 70
     0
 10
0.0
 20
0.0
 30
0.0
  3
_Open
  1

  0
LINE
  5
9551
330
9550
100
AcDbEntity
  8
0
  6
ByBlock
 62
     0
370
    -2
100
AcDbLine
 10
-1.0
 20
0.1666666666666666
 30
0.0
 11
0.0
 21
0.0
 31
0.0
  0
LINE
  5
9552
330
9550
100
AcDbEntity
  8
0
  6
ByBlock
 62
     0
370
    -2
100
AcDbLine
 10
-1.0
 20
-0.1666666666666666
 30
0.0
 11
0.0
 21
0.0
 31
0.0
  0
LINE
  5
9553
330
9550
100
AcDbEntity
  8
0
  6
ByBlock
 62
     0
370
    -2
100
AcDbLine
 10
0.0
 20
0.0
 30
0.0
 11
-1.0
 21
0.0
 31
0.0
  0
ENDBLK
  5
9555
330
9550
100
AcDbEntity
  8
0
100
AcDbBlockEnd
  0
BLOCK
  5
A412
330
A406
100
AcDbEntity
  8
0
100
AcDbBlockBegin
  2
*D2
 70
     1
 10
0.0
 20
0.0
 30
0.0
  3
*D2
  1

  0
LINE
  5
AA85
330
A406
100
AcDbEntity
  8
D-STR-DIM
  6
Continuous
370
    -2
100
AcDbLine
 10
279.4975591116722
 20
793.1098508929856
 30
0.0
 11
279.4975591116722
 21
828.9247034495447
 31
0.0
  0
LINE
  5
AA86
330
A406
100
AcDbEntity
  8
D-STR-DIM
  6
Continuous
370
    -2
100
AcDbLine
 10
283.9975591116722
 20
793.1098508929856
 30
0.0
 11
283.9975591116722
 21
828.9247034495447
 31
0.0
  0
LINE
  5
AA87
330
A406
100
AcDbEntity
  8
D-STR-DIM
  6
Continuous
370
    -2
100
AcDbLine
 10
278.4975591116722
 20
826.9247034495448
 30
0.0
 11
277.4975591116722
 21
826.9247034495448
 31
0.0
  0
LINE
  5
AA88
330
A406
100
AcDbEntity
  8
D-STR-DIM
  6
Continuous
370
    -2
100
AcDbLine
 10
284.9975591116722
 20
826.9247034495448
 30
0.0
 11
285.9975591116722
 21
826.9247034495448
 31
0.0
  0
LINE
  5
AA89
330
A406
100
AcDbEntity
  8
D-STR-DIM
  6
Continuous
370
    -2
100
AcDbLine
 10
279.4975591116722
 20
826.9247034495448
 30
0.0
 11
283.9975591116722
 21
826.9247034495448
 31
0.0
  0
INSERT
  5
AA8A
330
A406
100
AcDbEntity
  8
D-STR-DIM
  6
Continuous
370
    -2
100
AcDbBlockReference
  2
_Origin
 10
279.4975591116722
 20
826.9247034495448
 30
0.0
  0
INSERT
  5
AA8B
330
A406
100
AcDbEntity
  8
D-STR-DIM
  6
Continuous
370
    -2
100
AcDbBlockReference
  2
_Origin
 10
283.9975591116722
 20
826.9247034495448
 30
0.0
 50
180.0
  0
MTEXT
  5
AA8C
330
A406
100
AcDbEntity
  8
D-STR-DIM
  6
Continuous
100
AcDbMText
 10
281.7475591116722
 20
832.4247034495448
 30
0.0
 40
7.0
 41
0.0
 71
     5
 72
     1
  1
\A1;4.5
 73
     1
 44
1.0
1001
ACAD
1000
MTEXTBEGIN
1070
    73
1070
     1
1070
    44
1040
1.0
1070
    74
1070
     0
1000
MTEXTEND
  0
POINT
  5
AA8D
330
A406
100
AcDbEntity
  8
DEFPOINTS
  6
Continuous
 62
     0
100
AcDbPoint
 10
279.4975591116722
 20
791.1098508929856
 30
0.0
  0
POINT
  5
AA8E
330
A406
100
AcDbEntity
  8
DEFPOINTS
  6
Continuous
 62
     0
100
AcDbPoint
 10
283.9975591116722
 20
791.1098508929856
 30
0.0
  0
POINT
  5
AA8F
330
A406
100
AcDbEntity
  8
DEFPOINTS
  6
Continuous
 62
     0
100
AcDbPoint
 10
283.9975591116722
 20
826.9247034495448
 30
0.0
  0
ENDBLK
  5
A413
330
A406
100
AcDbEntity
  8
0
100
AcDbBlockEnd
  0
BLOCK
  5
A41F
330
A415
100
AcDbEntity
  8
0
100
AcDbBlockBegin
  2
*D3
 70
     1
 10
0.0
 20
0.0
 30
0.0
  3
*D3
  1

  0
LINE
  5
AA90
330
A415
100
AcDbEntity
  8
D-STR-DIM
  6
Continuous
370
    -2
100
AcDbLine
 10
283.9975591116722
 20
793.1098508929856
 30
0.0
 11
283.9975591116722
 21
828.9247034495447
 31
0.0
  0
LINE
  5
AA91
330
A415
100
AcDbEntity
  8
D-STR-DIM
  6
Continuous
370
    -2
100
AcDbLine
 10
479.4975591116722
 20
780.1098508929856
 30
0.0
 11
479.4975591116722
 21
828.9247034495447
 31
0.0
  0
LINE
  5
AA92
330
A415
100
AcDbEntity
  8
D-STR-DIM
  6
Continuous
370
    -2
100
AcDbLine
 10
284.9975591116722
 20
826.9247034495448
 30
0.0
 11
478.4975591116721
 21
826.9247034495448
 31
0.0
  0
INSERT
  5
AA93
330
A415
100
AcDbEntity
  8
D-STR-DIM
  6
Continuous
370
    -2
100
AcDbBlockReference
  2
_Origin
 10
283.9975591116722
 20
826.9247034495448
 30
0.0
 50
180.0
  0
INSERT
  5
AA94
330
A415
100
AcDbEntity
  8
D-STR-DIM
  6
Continuous
370
    -2
100
AcDbBlockReference
  2
_Origin
 10
479.4975591116722
 20
826.9247034495448
 30
0.0
  0
MTEXT
  5
AA95
330
A415
100
AcDbEntity
  8
D-STR-DIM
  6
Continuous
100
AcDbMText
 10
381.7475591116722
 20
832.4247034495448
 30
0.0
 40
7.0
 41
0.0
 71
     5
 72
     1
  1
\A1;195.5
 73
     1
 44
1.0
1001
ACAD
1000
MTEXTBEGIN
1070
    73
1070
     1
1070
    44
1040
1.0
1070
    74
1070
     0
1000
MTEXTEND
  0
POINT
  5
AA96
330
A415
100
AcDbEntity
  8
DEFPOINTS
  6
Continuous
 62
     0
100
AcDbPoint
 10
283.9975591116722
 20
791.1098508929856
 30
0.0
  0
POINT
  5
AA97
330
A415
100
AcDbEntity
  8
DEFPOINTS
  6
Continuous
 62
     0
100
AcDbPoint
 10
479.4975591116722
 20
778.1098508929856
 30
0.0
  0
POINT
  5
AA98
330
A415
100
AcDbEntity
  8
DEFPOINTS
  6
Continuous
 62
     0
100
AcDbPoint
 10
479.4975591116722
 20
826.9247034495448
 30
0.0
  0
ENDBLK
  5
A420
330
A415
100
AcDbEntity
  8
0
100
AcDbBlockEnd
  0
BLOCK
  5
A42C
330
A422
100
AcDbEntity
  8
0
100
AcDbBlockBegin
  2
*D4
 70
     1
 10
0.0
 20
0.0
 30
0.0
  3
*D4
  1

  0
LINE
  5
AA99
330
A422
100
AcDbEntity
  8
D-STR-DIM
  6
Continuous
370
    -2
100
AcDbLine
 10
479.4975591116722
 20
780.1098508929856
 30
0.0
 11
479.4975591116722
 21
853.1098508929856
 31
0.0
  0
LINE
  5
AA9A
330
A422
100
AcDbEntity
  8
D-STR-DIM
  6
Continuous
370
    -2
100
AcDbLine
 10
279.4975591116722
 20
793.1098508929856
 30
0.0
 11
279.4975591116722
 21
853.1098508929856
 31
0.0
  0
LINE
  5
AA9B
330
A422
100
AcDbEntity
  8
D-STR-DIM
  6
Continuous
370
    -2
100
AcDbLine
 10
478.4975591116721
 20
851.1098508929856
 30
0.0
 11
280.4975591116722
 21
851.1098508929856
 31
0.0
  0
INSERT
  5
AA9C
330
A422
100
AcDbEntity
  8
D-STR-DIM
  6
Continuous
370
    -2
100
AcDbBlockReference
  2
_Origin
 10
479.4975591116722
 20
851.1098508929856
 30
0.0
  0
INSERT
  5
AA9D
330
A422
100
AcDbEntity
  8
D-STR-DIM
  6
Continuous
370
    -2
100
AcDbBlockReference
  2
_Origin
 10
279.4975591116722
 20
851.1098508929856
 30
0.0
 50
180.0
  0
MTEXT
  5
AA9E
330
A422
100
AcDbEntity
  8
D-STR-DIM
  6
Continuous
100
AcDbMText
 10
379.4975591116722
 20
856.6098508929856
 30
0.0
 40
7.0
 41
0.0
 71
     5
 72
     1
  1
\A1;200
 73
     1
 44
1.0
1001
ACAD
1000
MTEXTBEGIN
1070
    73
1070
     1
1070
    44
1040
1.0
1070
    74
1070
     0
1000
MTEXTEND
  0
POINT
  5
AA9F
330
A422
100
AcDbEntity
  8
DEFPOINTS
  6
Continuous
 62
     0
100
AcDbPoint
 10
479.4975591116722
 20
778.1098508929856
 30
0.0
  0
POINT
  5
AAA0
330
A422
100
AcDbEntity
  8
DEFPOINTS
  6
Continuous
 62
     0
100
AcDbPoint
 10
279.4975591116722
 20
791.1098508929856
 30
0.0
  0
POINT
  5
AAA1
330
A422
100
AcDbEntity
  8
DEFPOINTS
  6
Continuous
 62
     0
100
AcDbPoint
 10
279.4975591116722
 20
851.1098508929856
 30
0.0
  0
ENDBLK
  5
A42D
330
A422
100
AcDbEntity
  8
0
100
AcDbBlockEnd
  0
BLOCK
  5
A43B
330
A42F
100
AcDbEntity
  8
0
100
AcDbBlockBegin
  2
*D5
 70
     1
 10
0.0
 20
0.0
 30
0.0
  3
*D5
  1

  0
LINE
  5
AA7A
330
A42F
100
AcDbEntity
  8
D-STR-DIM
  6
Continuous
370
    -2
100
AcDbLine
 10
266.9975591116722
 20
796.6098508929856
 30
0.0
 11
236.9975591116722
 21
796.6098508929857
 31
0.0
  0
LINE
  5
AA7B
330
A42F
100
AcDbEntity
  8
D-STR-DIM
  6
Continuous
370
    -2
100
AcDbLine
 10
266.9975591116722
 20
792.1098508929856
 30
0.0
 11
236.9975591116722
 21
792.1098508929857
 31
0.0
  0
LINE
  5
AA7C
330
A42F
100
AcDbEntity
  8
D-STR-DIM
  6
Continuous
370
    -2
100
AcDbLine
 10
238.9975591116722
 20
797.6098508929857
 30
0.0
 11
238.9975591116722
 21
798.6098508929857
 31
0.0
  0
LINE
  5
AA7D
330
A42F
100
AcDbEntity
  8
D-STR-DIM
  6
Continuous
370
    -2
100
AcDbLine
 10
238.9975591116722
 20
791.1098508929857
 30
0.0
 11
238.9975591116722
 21
790.1098508929857
 31
0.0
  0
LINE
  5
AA7E
330
A42F
100
AcDbEntity
  8
D-STR-DIM
  6
Continuous
370
    -2
100
AcDbLine
 10
238.9975591116722
 20
796.6098508929857
 30
0.0
 11
238.9975591116722
 21
792.1098508929857
 31
0.0
  0
INSERT
  5
AA7F
330
A42F
100
AcDbEntity
  8
D-STR-DIM
  6
Continuous
370
    -2
100
AcDbBlockReference
  2
_Origin
 10
238.9975591116722
 20
796.6098508929857
 30
0.0
 50
270.0
  0
INSERT
  5
AA80
330
A42F
100
AcDbEntity
  8
D-STR-DIM
  6
Continuous
370
    -2
100
AcDbBlockReference
  2
_Origin
 10
238.9975591116722
 20
792.1098508929857
 30
0.0
 50
90.0
  0
MTEXT
  5
AA81
330
A42F
100
AcDbEntity
  8
D-STR-DIM
  6
Continuous
100
AcDbMText
 10
233.4975591116721
 20
794.3598508929857
 30
0.0
 40
7.0
 41
0.0
 71
     5
 72
     1
  1
\A1;4.5
 11
0.0000000000000001
 21
1.0
 31
0.0
 73
     1
 44
1.0
1001
ACAD
1000
MTEXTBEGIN
1070
    73
1070
     1
1070
    44
1040
1.0
1070
    74
1070
     0
1000
MTEXTEND
  0
POINT
  5
AA82
330
A42F
100
AcDbEntity
  8
DEFPOINTS
  6
Continuous
 62
     0
100
AcDbPoint
 10
268.9975591116722
 20
796.6098508929856
 30
0.0
  0
POINT
  5
AA83
330
A42F
100
AcDbEntity
  8
DEFPOINTS
  6
Continuous
 62
     0
100
AcDbPoint
 10
268.9975591116722
 20
792.1098508929856
 30
0.0
  0
POINT
  5
AA84
330
A42F
100
AcDbEntity
  8
DEFPOINTS
  6
Continuous
 62
     0
100
AcDbPoint
 10
238.9975591116722
 20
792.1098508929857
 30
0.0
  0
ENDBLK
  5
A43C
330
A42F
100
AcDbEntity
  8
0
100
AcDbBlockEnd
  0
BLOCK
  5
A44A
330
A43E
100
AcDbEntity
  8
0
100
AcDbBlockBegin
  2
*D6
 70
     1
 10
0.0
 20
0.0
 30
0.0
  3
*D6
  1

  0
LINE
  5
AA64
330
A43E
100
AcDbEntity
  8
D-STR-DIM
  6
Continuous
370
    -2
100
AcDbLine
 10
273.9975591116722
 20
767.1098508929856
 30
0.0
 11
273.9975591116722
 21
776.1098508929856
 31
0.0
  0
LINE
  5
AA65
330
A43E
100
AcDbEntity
  8
D-STR-DIM
  6
Continuous
370
    -2
100
AcDbLine
 10
279.4975591116722
 20
767.1098508929856
 30
0.0
 11
279.4975591116722
 21
776.1098508929856
 31
0.0
  0
LINE
  5
AA66
330
A43E
100
AcDbEntity
  8
D-STR-DIM
  6
Continuous
370
    -2
100
AcDbLine
 10
272.9975591116722
 20
774.1098508929856
 30
0.0
 11
271.9975591116722
 21
774.1098508929856
 31
0.0
  0
LINE
  5
AA67
330
A43E
100
AcDbEntity
  8
D-STR-DIM
  6
Continuous
370
    -2
100
AcDbLine
 10
280.4975591116722
 20
774.1098508929856
 30
0.0
 11
281.4975591116722
 21
774.1098508929856
 31
0.0
  0
LINE
  5
AA68
330
A43E
100
AcDbEntity
  8
D-STR-DIM
  6
Continuous
370
    -2
100
AcDbLine
 10
253.6852190297104
 20
774.1098508929856
 30
0.0
 11
273.9975591116722
 21
774.1098508929856
 31
0.0
  0
MTEXT
  5
AA69
330
A43E
100
AcDbEntity
  8
D-STR-DIM
  6
Continuous
100
AcDbMText
 10
262.6852190297104
 20
779.6098508929856
 30
0.0
 40
7.0
 41
0.0
 71
     5
 72
     1
  1
\A1;5.5
 73
     1
 44
1.0
1001
ACAD
1000
MTEXTBEGIN
1070
    73
1070
     1
1070
    44
1040
1.0
1070
    74
1070
     0
1000
MTEXTEND
  0
LINE
  5
AA6A
330
A43E
100
AcDbEntity
  8
D-STR-DIM
  6
Continuous
370
    -2
100
AcDbLine
 10
273.9975591116722
 20
774.1098508929856
 30
0.0
 11
279.4975591116722
 21
774.1098508929856
 31
0.0
  0
LINE
  5
AA6B
330
A43E
100
AcDbEntity
  8
D-STR-DIM
  6
Continuous
370
    -2
100
AcDbLine
 10
273.9975591116722
 20
774.1098508929856
 30
0.0
 11
279.4975591116722
 21
774.1098508929856
 31
0.0
  0
INSERT
  5
AA6C
330
A43E
100
AcDbEntity
  8
D-STR-DIM
  6
Continuous
370
    -2
100
AcDbBlockReference
  2
_Origin
 10
273.9975591116722
 20
774.1098508929856
 30
0.0
  0
INSERT
  5
AA6D
330
A43E
100
AcDbEntity
  8
D-STR-DIM
  6
Continuous
370
    -2
100
AcDbBlockReference
  2
_Origin
 10
279.4975591116722
 20
774.1098508929856
 30
0.0
 50
180.0
  0
POINT
  5
AA6E
330
A43E
100
AcDbEntity
  8
DEFPOINTS
  6
Continuous
 62
     0
100
AcDbPoint
 10
273.9975591116722
 20
765.1098508929855
 30
0.0
  0
POINT
  5
AA6F
330
A43E
100
AcDbEntity
  8
DEFPOINTS
  6
Continuous
 62
     0
100
AcDbPoint
 10
279.4975591116722
 20
765.1098508929855
 30
0.0
  0
POINT
  5
AA70
330
A43E
100
AcDbEntity
  8
DEFPOINTS
  6
Continuous
 62
     0
100
AcDbPoint
 10
279.4975591116722
 20
774.1098508929856
 30
0.0
  0
ENDBLK
  5
A44B
330
A43E
100
AcDbEntity
  8
0
100
AcDbBlockEnd
  0
BLOCK
  5
A457
330
A44D
100
AcDbEntity
  8
0
100
AcDbBlockBegin
  2
*D7
 70
     1
 10
0.0
 20
0.0
 30
0.0
  3
*D7
  1

  0
LINE
  5
AA71
330
A44D
100
AcDbEntity
  8
D-STR-DIM
  6
Continuous
370
    -2
100
AcDbLine
 10
268.9975591116722
 20
707.6098508929856
 30
0.0
 11
268.9975591116722
 21
677.6098508929855
 31
0.0
  0
LINE
  5
AA72
330
A44D
100
AcDbEntity
  8
D-STR-DIM
  6
Continuous
370
    -2
100
AcDbLine
 10
283.9975591116722
 20
713.1098508929856
 30
0.0
 11
283.9975591116722
 21
677.6098508929855
 31
0.0
  0
LINE
  5
AA73
330
A44D
100
AcDbEntity
  8
D-STR-DIM
  6
Continuous
370
    -2
100
AcDbLine
 10
269.9975591116722
 20
679.6098508929856
 30
0.0
 11
282.9975591116722
 21
679.6098508929856
 31
0.0
  0
INSERT
  5
AA74
330
A44D
100
AcDbEntity
  8
D-STR-DIM
  6
Continuous
370
    -2
100
AcDbBlockReference
  2
_Origin
 10
268.9975591116722
 20
679.6098508929856
 30
0.0
 50
180.0
  0
INSERT
  5
AA75
330
A44D
100
AcDbEntity
  8
D-STR-DIM
  6
Continuous
370
    -2
100
AcDbBlockReference
  2
_Origin
 10
283.9975591116722
 20
679.6098508929856
 30
0.0
  0
MTEXT
  5
AA76
330
A44D
100
AcDbEntity
  8
D-STR-DIM
  6
Continuous
100
AcDbMText
 10
276.4975591116722
 20
685.1098508929855
 30
0.0
 40
7.0
 41
0.0
 71
     5
 72
     1
  1
\A1;15
 73
     1
 44
1.0
1001
ACAD
1000
MTEXTBEGIN
1070
    73
1070
     1
1070
    44
1040
1.0
1070
    74
1070
     0
1000
MTEXTEND
  0
POINT
  5
AA77
330
A44D
100
AcDbEntity
  8
DEFPOINTS
  6
Continuous
 62
     0
100
AcDbPoint
 10
268.9975591116722
 20
709.6098508929856
 30
0.0
  0
POINT
  5
AA78
330
A44D
100
AcDbEntity
  8
DEFPOINTS
  6
Continuous
 62
     0
100
AcDbPoint
 10
283.9975591116722
 20
715.1098508929855
 30
0.0
  0
POINT
  5
AA79
330
A44D
100
AcDbEntity
  8
DEFPOINTS
  6
Continuous
 62
     0
100
AcDbPoint
 10
283.9975591116722
 20
679.6098508929856
 30
0.0
  0
ENDBLK
  5
A458
330
A44D
100
AcDbEntity
  8
0
100
AcDbBlockEnd
  0
BLOCK
  5
A464
330
A45A
100
AcDbEntity
  8
0
100
AcDbBlockBegin
  2
*D8
 70
     1
 10
0.0
 20
0.0
 30
0.0
  3
*D8
  1

  0
LINE
  5
AAA2
330
A45A
100
AcDbEntity
  8
D-STR-DIM
  6
Continuous
370
    -2
100
AcDbLine
 10
481.4975591116747
 20
778.1098508929856
 30
0.0
 11
516.4975591116748
 21
778.1098508929856
 31
0.0
  0
LINE
  5
AAA3
330
A45A
100
AcDbEntity
  8
D-STR-DIM
  6
Continuous
370
    -2
100
AcDbLine
 10
481.4975591116722
 20
728.1098508929854
 30
0.0
 11
516.4975591116747
 21
728.1098508929854
 31
0.0
  0
LINE
  5
AAA4
330
A45A
100
AcDbEntity
  8
D-STR-DIM
  6
Continuous
370
    -2
100
AcDbLine
 10
514.4975591116748
 20
777.1098508929855
 30
0.0
 11
514.4975591116747
 21
729.1098508929855
 31
0.0
  0
INSERT
  5
AAA5
330
A45A
100
AcDbEntity
  8
D-STR-DIM
  6
Continuous
370
    -2
100
AcDbBlockReference
  2
_Origin
 10
514.4975591116748
 20
778.1098508929856
 30
0.0
 50
90.0
  0
INSERT
  5
AAA6
330
A45A
100
AcDbEntity
  8
D-STR-DIM
  6
Continuous
370
    -2
100
AcDbBlockReference
  2
_Origin
 10
514.4975591116747
 20
728.1098508929854
 30
0.0
 50
270.0
  0
MTEXT
  5
AAA7
330
A45A
100
AcDbEntity
  8
D-STR-DIM
  6
Continuous
100
AcDbMText
 10
508.9975591116746
 20
753.1098508929856
 30
0.0
 40
7.0
 41
0.0
 71
     5
 72
     1
  1
\A1;50
 11
0.0000000000000001
 21
1.0
 31
0.0
 73
     1
 44
1.0
1001
ACAD
1000
MTEXTBEGIN
1070
    73
1070
     1
1070
    44
1040
1.0
1070
    74
1070
     0
1000
MTEXTEND
  0
POINT
  5
AAA8
330
A45A
100
AcDbEntity
  8
DEFPOINTS
  6
Continuous
 62
     0
100
AcDbPoint
 10
479.4975591116747
 20
778.1098508929856
 30
0.0
  0
POINT
  5
AAA9
330
A45A
100
AcDbEntity
  8
DEFPOINTS
  6
Continuous
 62
     0
100
AcDbPoint
 10
479.4975591116722
 20
728.1098508929854
 30
0.0
  0
POINT
  5
AAAA
330
A45A
100
AcDbEntity
  8
DEFPOINTS
  6
Continuous
 62
     0
100
AcDbPoint
 10
514.4975591116747
 20
728.1098508929854
 30
0.0
  0
ENDBLK
  5
A465
330
A45A
100
AcDbEntity
  8
0
100
AcDbBlockEnd
  0
BLOCK
  5
A471
330
A467
100
AcDbEntity
  8
0
100
AcDbBlockBegin
  2
*D9
 70
     1
 10
0.0
 20
0.0
 30
0.0
  3
*D9
  1

  0
LINE
  5
AAAB
330
A467
100
AcDbEntity
  8
D-STR-DIM
  6
Continuous
370
    -2
100
AcDbLine
 10
479.4975591116747
 20
780.1098508929856
 30
0.0
 11
479.4975591116747
 21
804.1098508929854
 31
0.0
  0
LINE
  5
AAAC
330
A467
100
AcDbEntity
  8
D-STR-DIM
  6
Continuous
370
    -2
100
AcDbLine
 10
459.4975591116722
 20
763.6098508929856
 30
0.0
 11
459.4975591116722
 21
804.1098508929854
 31
0.0
  0
LINE
  5
AAAD
330
A467
100
AcDbEntity
  8
D-STR-DIM
  6
Continuous
370
    -2
100
AcDbLine
 10
478.4975591116746
 20
802.1098508929854
 30
0.0
 11
460.4975591116722
 21
802.1098508929854
 31
0.0
  0
INSERT
  5
AAAE
330
A467
100
AcDbEntity
  8
D-STR-DIM
  6
Continuous
370
    -2
100
AcDbBlockReference
  2
_Origin
 10
479.4975591116747
 20
802.1098508929854
 30
0.0
  0
INSERT
  5
AAAF
330
A467
100
AcDbEntity
  8
D-STR-DIM
  6
Continuous
370
    -2
100
AcDbBlockReference
  2
_Origin
 10
459.4975591116722
 20
802.1098508929854
 30
0.0
 50
180.0
  0
MTEXT
  5
AAB0
330
A467
100
AcDbEntity
  8
D-STR-DIM
  6
Continuous
100
AcDbMText
 10
469.4975591116734
 20
807.6098508929854
 30
0.0
 40
7.0
 41
0.0
 71
     5
 72
     1
  1
\A1;20
 73
     1
 44
1.0
1001
ACAD
1000
MTEXTBEGIN
1070
    73
1070
     1
1070
    44
1040
1.0
1070
    74
1070
     0
1000
MTEXTEND
  0
POINT
  5
AAB1
330
A467
100
AcDbEntity
  8
DEFPOINTS
  6
Continuous
 62
     0
100
AcDbPoint
 10
479.4975591116747
 20
778.1098508929856
 30
0.0
  0
POINT
  5
AAB2
330
A467
100
AcDbEntity
  8
DEFPOINTS
  6
Continuous
 62
     0
100
AcDbPoint
 10
459.4975591116722
 20
761.6098508929856
 30
0.0
  0
POINT
  5
AAB3
330
A467
100
AcDbEntity
  8
DEFPOINTS
  6
Continuous
 62
     0
100
AcDbPoint
 10
459.4975591116722
 20
802.1098508929854
 30
0.0
  0
ENDBLK
  5
A472
330
A467
100
AcDbEntity
  8
0
100
AcDbBlockEnd
  0
BLOCK
  5
A47E
330
A474
100
AcDbEntity
  8
0
100
AcDbBlockBegin
  2
*D10
 70
     1
 10
0.0
 20
0.0
 30
0.0
  3
*D10
  1

  0
LINE
  5
AA5B
330
A474
100
AcDbEntity
  8
D-STR-DIM
  6
Continuous
370
    -2
100
AcDbLine
 10
285.9975591116722
 20
501.7553089988685
 30
0.0
 11
375.9975591116722
 21
501.7553089988685
 31
0.0
  0
LINE
  5
AA5C
330
A474
100
AcDbEntity
  8
D-STR-DIM
  6
Continuous
370
    -2
100
AcDbLine
 10
285.9975591116722
 20
543.6086694876669
 30
0.0
 11
375.9975591116722
 21
543.6086694876669
 31
0.0
  0
LINE
  5
AA5D
330
A474
100
AcDbEntity
  8
D-STR-DIM
  6
Continuous
370
    -2
100
AcDbLine
 10
373.9975591116722
 20
502.7553089988685
 30
0.0
 11
373.9975591116722
 21
542.6086694876669
 31
0.0
  0
INSERT
  5
AA5E
330
A474
100
AcDbEntity
  8
D-STR-DIM
  6
Continuous
370
    -2
100
AcDbBlockReference
  2
_Origin
 10
373.9975591116722
 20
501.7553089988685
 30
0.0
 50
270.0
  0
INSERT
  5
AA5F
330
A474
100
AcDbEntity
  8
D-STR-DIM
  6
Continuous
370
    -2
100
AcDbBlockReference
  2
_Origin
 10
373.9975591116722
 20
543.6086694876669
 30
0.0
 50
90.0
  0
MTEXT
  5
AA60
330
A474
100
AcDbEntity
  8
D-STR-DIM
  6
Continuous
100
AcDbMText
 10
368.4975591116721
 20
522.6819892432678
 30
0.0
 40
7.0
 41
0.0
 71
     5
 72
     1
  1
\A1;41.9
 11
0.0000000000000001
 21
1.0
 31
0.0
 73
     1
 44
1.0
1001
ACAD
1000
MTEXTBEGIN
1070
    73
1070
     1
1070
    44
1040
1.0
1070
    74
1070
     0
1000
MTEXTEND
  0
POINT
  5
AA61
330
A474
100
AcDbEntity
  8
DEFPOINTS
  6
Continuous
 62
     0
100
AcDbPoint
 10
283.9975591116722
 20
501.7553089988685
 30
0.0
  0
POINT
  5
AA62
330
A474
100
AcDbEntity
  8
DEFPOINTS
  6
Continuous
 62
     0
100
AcDbPoint
 10
283.9975591116722
 20
543.6086694876669
 30
0.0
  0
POINT
  5
AA63
330
A474
100
AcDbEntity
  8
DEFPOINTS
  6
Continuous
 62
     0
100
AcDbPoint
 10
373.9975591116722
 20
543.6086694876669
 30
0.0
  0
ENDBLK
  5
A47F
330
A474
100
AcDbEntity
  8
0
100
AcDbBlockEnd
  0
BLOCK
  5
A48D
330
A481
100
AcDbEntity
  8
0
100
AcDbBlockBegin
  2
*D11
 70
     1
 10
0.0
 20
0.0
 30
0.0
  3
*D11
  1

  0
LINE
  5
AA4E
330
A481
100
AcDbEntity
  8
D-STR-DIM
  6
Continuous
370
    -2
100
AcDbLine
 10
285.9975591116722
 20
543.6086694876669
 30
0.0
 11
375.9975591116722
 21
543.6086694876669
 31
0.0
  0
LINE
  5
AA4F
330
A481
100
AcDbEntity
  8
D-STR-DIM
  6
Continuous
370
    -2
100
AcDbLine
 10
285.9975591116722
 20
549.4086694876669
 30
0.0
 11
375.9975591116722
 21
549.4086694876669
 31
0.0
  0
LINE
  5
AA50
330
A481
100
AcDbEntity
  8
D-STR-DIM
  6
Continuous
370
    -2
100
AcDbLine
 10
373.9975591116722
 20
542.6086694876669
 30
0.0
 11
373.9975591116722
 21
541.6086694876669
 31
0.0
  0
LINE
  5
AA51
330
A481
100
AcDbEntity
  8
D-STR-DIM
  6
Continuous
370
    -2
100
AcDbLine
 10
373.9975591116722
 20
550.4086694876669
 30
0.0
 11
373.9975591116722
 21
551.4086694876668
 31
0.0
  0
LINE
  5
AA52
330
A481
100
AcDbEntity
  8
D-STR-DIM
  6
Continuous
370
    -2
100
AcDbLine
 10
373.9975591116722
 20
569.6626587765211
 30
0.0
 11
373.9975591116722
 21
549.4086694876669
 31
0.0
  0
MTEXT
  5
AA53
330
A481
100
AcDbEntity
  8
D-STR-DIM
  6
Continuous
100
AcDbMText
 10
368.4975591116721
 20
560.6626587765212
 30
0.0
 40
7.0
 41
0.0
 71
     5
 72
     1
  1
\A1;5.8
 11
0.0000000000000001
 21
1.0
 31
0.0
 73
     1
 44
1.0
1001
ACAD
1000
MTEXTBEGIN
1070
    73
1070
     1
1070
    44
1040
1.0
1070
    74
1070
     0
1000
MTEXTEND
  0
LINE
  5
AA54
330
A481
100
AcDbEntity
  8
D-STR-DIM
  6
Continuous
370
    -2
100
AcDbLine
 10
373.9975591116722
 20
543.6086694876669
 30
0.0
 11
373.9975591116722
 21
549.4086694876669
 31
0.0
  0
LINE
  5
AA55
330
A481
100
AcDbEntity
  8
D-STR-DIM
  6
Continuous
370
    -2
100
AcDbLine
 10
373.9975591116722
 20
543.6086694876669
 30
0.0
 11
373.9975591116722
 21
549.4086694876669
 31
0.0
  0
INSERT
  5
AA56
330
A481
100
AcDbEntity
  8
D-STR-DIM
  6
Continuous
370
    -2
100
AcDbBlockReference
  2
_Origin
 10
373.9975591116722
 20
543.6086694876669
 30
0.0
 50
90.0
  0
INSERT
  5
AA57
330
A481
100
AcDbEntity
  8
D-STR-DIM
  6
Continuous
370
    -2
100
AcDbBlockReference
  2
_Origin
 10
373.9975591116722
 20
549.4086694876669
 30
0.0
 50
270.0
  0
POINT
  5
AA58
330
A481
100
AcDbEntity
  8
DEFPOINTS
  6
Continuous
 62
     0
100
AcDbPoint
 10
283.9975591116722
 20
543.6086694876669
 30
0.0
  0
POINT
  5
AA59
330
A481
100
AcDbEntity
  8
DEFPOINTS
  6
Continuous
 62
     0
100
AcDbPoint
 10
283.9975591116722
 20
549.4086694876669
 30
0.0
  0
POINT
  5
AA5A
330
A481
100
AcDbEntity
  8
DEFPOINTS
  6
Continuous
 62
     0
100
AcDbPoint
 10
373.9975591116722
 20
549.4086694876669
 30
0.0
  0
ENDBLK
  5
A48E
330
A481
100
AcDbEntity
  8
0
100
AcDbBlockEnd
  0
BLOCK
  5
A49A
330
A490
100
AcDbEntity
  8
0
100
AcDbBlockBegin
  2
*D12
 70
     1
 10
0.0
 20
0.0
 30
0.0
  3
*D12
  1

  0
LINE
  5
AADC
330
A490
100
AcDbEntity
  8
D-STR-DIM
  6
Continuous
370
    -2
100
AcDbLine
 10
717.6263081261204
 20
549.4086694876669
 30
0.0
 11
747.6263081261204
 21
549.4086694876669
 31
0.0
  0
LINE
  5
AADD
330
A490
100
AcDbEntity
  8
D-STR-DIM
  6
Continuous
370
    -2
100
AcDbLine
 10
685.1263081261204
 20
534.4086694876668
 30
0.0
 11
747.6263081261204
 21
534.4086694876668
 31
0.0
  0
LINE
  5
AADE
330
A490
100
AcDbEntity
  8
D-STR-DIM
  6
Continuous
370
    -2
100
AcDbLine
 10
745.6263081261204
 20
548.4086694876668
 30
0.0
 11
745.6263081261204
 21
535.4086694876668
 31
0.0
  0
INSERT
  5
AADF
330
A490
100
AcDbEntity
  8
D-STR-DIM
  6
Continuous
370
    -2
100
AcDbBlockReference
  2
_Origin
 10
745.6263081261204
 20
549.4086694876669
 30
0.0
 50
90.0
  0
INSERT
  5
AAE0
330
A490
100
AcDbEntity
  8
D-STR-DIM
  6
Continuous
370
    -2
100
AcDbBlockReference
  2
_Origin
 10
745.6263081261204
 20
534.4086694876668
 30
0.0
 50
270.0
  0
MTEXT
  5
AAE1
330
A490
100
AcDbEntity
  8
D-STR-DIM
  6
Continuous
100
AcDbMText
 10
740.1263081261203
 20
541.908669487667
 30
0.0
 40
7.0
 41
0.0
 71
     5
 72
     1
  1
\A1;15
 11
0.0000000000000001
 21
1.0
 31
0.0
 73
     1
 44
1.0
1001
ACAD
1000
MTEXTBEGIN
1070
    73
1070
     1
1070
    44
1040
1.0
1070
    74
1070
     0
1000
MTEXTEND
  0
POINT
  5
AAE2
330
A490
100
AcDbEntity
  8
DEFPOINTS
  6
Continuous
 62
     0
100
AcDbPoint
 10
715.6263081261204
 20
549.4086694876669
 30
0.0
  0
POINT
  5
AAE3
330
A490
100
AcDbEntity
  8
DEFPOINTS
  6
Continuous
 62
     0
100
AcDbPoint
 10
683.1263081261204
 20
534.4086694876668
 30
0.0
  0
POINT
  5
AAE4
330
A490
100
AcDbEntity
  8
DEFPOINTS
  6
Continuous
 62
     0
100
AcDbPoint
 10
745.6263081261204
 20
534.4086694876668
 30
0.0
  0
ENDBLK
  5
A49B
330
A490
100
AcDbEntity
  8
0
100
AcDbBlockEnd
  0
BLOCK
  5
A4A7
330
A49D
100
AcDbEntity
  8
0
100
AcDbBlockBegin
  2
*D13
 70
     1
 10
0.0
 20
0.0
 30
0.0
  3
*D13
  1

  0
LINE
  5
AAF7
330
A49D
100
AcDbEntity
  8
D-STR-DIM
  6
Continuous
370
    -2
100
AcDbLine
 10
685.1263081261204
 20
534.4086694876668
 30
0.0
 11
747.6263081261204
 21
534.4086694876668
 31
0.0
  0
LINE
  5
AAF8
330
A49D
100
AcDbEntity
  8
D-STR-DIM
  6
Continuous
370
    -2
100
AcDbLine
 10
685.8763081261204
 20
484.4086694876668
 30
0.0
 11
747.6263081261204
 21
484.4086694876668
 31
0.0
  0
LINE
  5
AAF9
330
A49D
100
AcDbEntity
  8
D-STR-DIM
  6
Continuous
370
    -2
100
AcDbLine
 10
745.6263081261204
 20
533.4086694876669
 30
0.0
 11
745.6263081261204
 21
485.4086694876668
 31
0.0
  0
INSERT
  5
AAFA
330
A49D
100
AcDbEntity
  8
D-STR-DIM
  6
Continuous
370
    -2
100
AcDbBlockReference
  2
_Origin
 10
745.6263081261204
 20
534.4086694876668
 30
0.0
 50
90.0
  0
INSERT
  5
AAFB
330
A49D
100
AcDbEntity
  8
D-STR-DIM
  6
Continuous
370
    -2
100
AcDbBlockReference
  2
_Origin
 10
745.6263081261204
 20
484.4086694876668
 30
0.0
 50
270.0
  0
MTEXT
  5
AAFC
330
A49D
100
AcDbEntity
  8
D-STR-DIM
  6
Continuous
100
AcDbMText
 10
740.1263081261203
 20
509.4086694876669
 30
0.0
 40
7.0
 41
0.0
 71
     5
 72
     1
  1
\A1;50
 11
0.0000000000000001
 21
1.0
 31
0.0
 73
     1
 44
1.0
1001
ACAD
1000
MTEXTBEGIN
1070
    73
1070
     1
1070
    44
1040
1.0
1070
    74
1070
     0
1000
MTEXTEND
  0
POINT
  5
AAFD
330
A49D
100
AcDbEntity
  8
DEFPOINTS
  6
Continuous
 62
     0
100
AcDbPoint
 10
683.1263081261204
 20
534.4086694876668
 30
0.0
  0
POINT
  5
AAFE
330
A49D
100
AcDbEntity
  8
DEFPOINTS
  6
Continuous
 62
     0
100
AcDbPoint
 10
683.8763081261204
 20
484.4086694876668
 30
0.0
  0
POINT
  5
AAFF
330
A49D
100
AcDbEntity
  8
DEFPOINTS
  6
Continuous
 62
     0
100
AcDbPoint
 10
745.6263081261204
 20
484.4086694876668
 30
0.0
  0
ENDBLK
  5
A4A8
330
A49D
100
AcDbEntity
  8
0
100
AcDbBlockEnd
  0
BLOCK
  5
A4B4
330
A4AA
100
AcDbEntity
  8
0
100
AcDbBlockBegin
  2
*D14
 70
     1
 10
0.0
 20
0.0
 30
0.0
  3
*D14
  1

  0
LINE
  5
AB00
330
A4AA
100
AcDbEntity
  8
D-STR-DIM
  6
Continuous
370
    -2
100
AcDbLine
 10
685.8763081261204
 20
484.4086694876668
 30
0.0
 11
747.6263081261204
 21
484.4086694876668
 31
0.0
  0
LINE
  5
AB01
330
A4AA
100
AcDbEntity
  8
D-STR-DIM
  6
Continuous
370
    -2
100
AcDbLine
 10
717.6263081261204
 20
469.4086694876668
 30
0.0
 11
747.6263081261204
 21
469.4086694876668
 31
0.0
  0
LINE
  5
AB02
330
A4AA
100
AcDbEntity
  8
D-STR-DIM
  6
Continuous
370
    -2
100
AcDbLine
 10
745.6263081261204
 20
483.4086694876669
 30
0.0
 11
745.6263081261204
 21
470.4086694876669
 31
0.0
  0
INSERT
  5
AB03
330
A4AA
100
AcDbEntity
  8
D-STR-DIM
  6
Continuous
370
    -2
100
AcDbBlockReference
  2
_Origin
 10
745.6263081261204
 20
484.4086694876668
 30
0.0
 50
90.0
  0
INSERT
  5
AB04
330
A4AA
100
AcDbEntity
  8
D-STR-DIM
  6
Continuous
370
    -2
100
AcDbBlockReference
  2
_Origin
 10
745.6263081261204
 20
469.4086694876668
 30
0.0
 50
270.0
  0
MTEXT
  5
AB05
330
A4AA
100
AcDbEntity
  8
D-STR-DIM
  6
Continuous
100
AcDbMText
 10
740.1263081261203
 20
476.9086694876669
 30
0.0
 40
7.0
 41
0.0
 71
     5
 72
     1
  1
\A1;15
 11
0.0000000000000001
 21
1.0
 31
0.0
 73
     1
 44
1.0
1001
ACAD
1000
MTEXTBEGIN
1070
    73
1070
     1
1070
    44
1040
1.0
1070
    74
1070
     0
1000
MTEXTEND
  0
POINT
  5
AB06
330
A4AA
100
AcDbEntity
  8
DEFPOINTS
  6
Continuous
 62
     0
100
AcDbPoint
 10
683.8763081261204
 20
484.4086694876668
 30
0.0
  0
POINT
  5
AB07
330
A4AA
100
AcDbEntity
  8
DEFPOINTS
  6
Continuous
 62
     0
100
AcDbPoint
 10
715.6263081261204
 20
469.4086694876668
 30
0.0
  0
POINT
  5
AB08
330
A4AA
100
AcDbEntity
  8
DEFPOINTS
  6
Continuous
 62
     0
100
AcDbPoint
 10
745.6263081261204
 20
469.4086694876668
 30
0.0
  0
ENDBLK
  5
A4B5
330
A4AA
100
AcDbEntity
  8
0
100
AcDbBlockEnd
  0
BLOCK
  5
A4C1
330
A4B7
100
AcDbEntity
  8
0
100
AcDbBlockBegin
  2
*D15
 70
     1
 10
0.0
 20
0.0
 30
0.0
  3
*D15
  1

  0
LINE
  5
AAD3
330
A4B7
100
AcDbEntity
  8
D-STR-DIM
  6
Continuous
370
    -2
100
AcDbLine
 10
717.6263081261204
 20
549.4086694876669
 30
0.0
 11
777.6263081261204
 21
549.4086694876667
 31
0.0
  0
LINE
  5
AAD4
330
A4B7
100
AcDbEntity
  8
D-STR-DIM
  6
Continuous
370
    -2
100
AcDbLine
 10
717.6263081261204
 20
469.4086694876668
 30
0.0
 11
777.6263081261204
 21
469.4086694876668
 31
0.0
  0
LINE
  5
AAD5
330
A4B7
100
AcDbEntity
  8
D-STR-DIM
  6
Continuous
370
    -2
100
AcDbLine
 10
775.6263081261204
 20
548.4086694876667
 30
0.0
 11
775.6263081261204
 21
470.4086694876669
 31
0.0
  0
INSERT
  5
AAD6
330
A4B7
100
AcDbEntity
  8
D-STR-DIM
  6
Continuous
370
    -2
100
AcDbBlockReference
  2
_Origin
 10
775.6263081261204
 20
549.4086694876667
 30
0.0
 50
90.0
  0
INSERT
  5
AAD7
330
A4B7
100
AcDbEntity
  8
D-STR-DIM
  6
Continuous
370
    -2
100
AcDbBlockReference
  2
_Origin
 10
775.6263081261204
 20
469.4086694876668
 30
0.0
 50
270.0
  0
MTEXT
  5
AAD8
330
A4B7
100
AcDbEntity
  8
D-STR-DIM
  6
Continuous
100
AcDbMText
 10
770.1263081261203
 20
509.4086694876669
 30
0.0
 40
7.0
 41
0.0
 71
     5
 72
     1
  1
\A1;80
 11
0.0000000000000001
 21
1.0
 31
0.0
 73
     1
 44
1.0
1001
ACAD
1000
MTEXTBEGIN
1070
    73
1070
     1
1070
    44
1040
1.0
1070
    74
1070
     0
1000
MTEXTEND
  0
POINT
  5
AAD9
330
A4B7
100
AcDbEntity
  8
DEFPOINTS
  6
Continuous
 62
     0
100
AcDbPoint
 10
715.6263081261204
 20
549.4086694876669
 30
0.0
  0
POINT
  5
AADA
330
A4B7
100
AcDbEntity
  8
DEFPOINTS
  6
Continuous
 62
     0
100
AcDbPoint
 10
715.6263081261204
 20
469.4086694876668
 30
0.0
  0
POINT
  5
AADB
330
A4B7
100
AcDbEntity
  8
DEFPOINTS
  6
Continuous
 62
     0
100
AcDbPoint
 10
775.6263081261204
 20
469.4086694876668
 30
0.0
  0
ENDBLK
  5
A4C2
330
A4B7
100
AcDbEntity
  8
0
100
AcDbBlockEnd
  0
BLOCK
  5
A4CE
330
A4C4
100
AcDbEntity
  8
0
100
AcDbBlockBegin
  2
*D16
 70
     1
 10
0.0
 20
0.0
 30
0.0
  3
*D16
  1

  0
LINE
  5
AAEE
330
A4C4
100
AcDbEntity
  8
D-STR-DIM
  6
Continuous
370
    -2
100
AcDbLine
 10
628.6263081261203
 20
467.4086694876669
 30
0.0
 11
628.6263081261203
 21
437.4086694876669
 31
0.0
  0
LINE
  5
AAEF
330
A4C4
100
AcDbEntity
  8
D-STR-DIM
  6
Continuous
370
    -2
100
AcDbLine
 10
715.6263081261204
 20
467.4086694876669
 30
0.0
 11
715.6263081261204
 21
437.4086694876669
 31
0.0
  0
LINE
  5
AAF0
330
A4C4
100
AcDbEntity
  8
D-STR-DIM
  6
Continuous
370
    -2
100
AcDbLine
 10
629.6263081261204
 20
439.4086694876668
 30
0.0
 11
714.6263081261204
 21
439.4086694876668
 31
0.0
  0
INSERT
  5
AAF1
330
A4C4
100
AcDbEntity
  8
D-STR-DIM
  6
Continuous
370
    -2
100
AcDbBlockReference
  2
_Origin
 10
628.6263081261203
 20
439.4086694876668
 30
0.0
 50
180.0
  0
INSERT
  5
AAF2
330
A4C4
100
AcDbEntity
  8
D-STR-DIM
  6
Continuous
370
    -2
100
AcDbBlockReference
  2
_Origin
 10
715.6263081261204
 20
439.4086694876668
 30
0.0
  0
MTEXT
  5
AAF3
330
A4C4
100
AcDbEntity
  8
D-STR-DIM
  6
Continuous
100
AcDbMText
 10
672.1263081261204
 20
444.9086694876668
 30
0.0
 40
7.0
 41
0.0
 71
     5
 72
     1
  1
\A1;87
 73
     1
 44
1.0
1001
ACAD
1000
MTEXTBEGIN
1070
    73
1070
     1
1070
    44
1040
1.0
1070
    74
1070
     0
1000
MTEXTEND
  0
POINT
  5
AAF4
330
A4C4
100
AcDbEntity
  8
DEFPOINTS
  6
Continuous
 62
     0
100
AcDbPoint
 10
628.6263081261203
 20
469.4086694876668
 30
0.0
  0
POINT
  5
AAF5
330
A4C4
100
AcDbEntity
  8
DEFPOINTS
  6
Continuous
 62
     0
100
AcDbPoint
 10
715.6263081261204
 20
469.4086694876668
 30
0.0
  0
POINT
  5
AAF6
330
A4C4
100
AcDbEntity
  8
DEFPOINTS
  6
Continuous
 62
     0
100
AcDbPoint
 10
715.6263081261204
 20
439.4086694876668
 30
0.0
  0
ENDBLK
  5
A4CF
330
A4C4
100
AcDbEntity
  8
0
100
AcDbBlockEnd
  0
BLOCK
  5
A61D
330
A613
100
AcDbEntity
  8
0
100
AcDbBlockBegin
  2
*D17
 70
     1
 10
0.0
 20
0.0
 30
0.0
  3
*D17
  1

  0
LINE
  5
AAE5
330
A613
100
AcDbEntity
  8
D-STR-DIM
  6
Continuous
370
    -2
100
AcDbLine
 10
936.6354625290714
 20
493.6086694876669
 30
0.0
 11
1026.635462529071
 21
493.6086694876669
 31
0.0
  0
LINE
  5
AAE6
330
A613
100
AcDbEntity
  8
D-STR-DIM
  6
Continuous
370
    -2
100
AcDbLine
 10
936.6354625290714
 20
543.6086694876669
 30
0.0
 11
1026.635462529071
 21
543.6086694876669
 31
0.0
  0
LINE
  5
AAE7
330
A613
100
AcDbEntity
  8
D-STR-DIM
  6
Continuous
370
    -2
100
AcDbLine
 10
1024.635462529071
 20
494.6086694876669
 30
0.0
 11
1024.635462529071
 21
542.6086694876669
 31
0.0
  0
INSERT
  5
AAE8
330
A613
100
AcDbEntity
  8
D-STR-DIM
  6
Continuous
370
    -2
100
AcDbBlockReference
  2
_Origin
 10
1024.635462529071
 20
493.6086694876669
 30
0.0
 50
270.0
  0
INSERT
  5
AAE9
330
A613
100
AcDbEntity
  8
D-STR-DIM
  6
Continuous
370
    -2
100
AcDbBlockReference
  2
_Origin
 10
1024.635462529071
 20
543.6086694876669
 30
0.0
 50
90.0
  0
MTEXT
  5
AAEA
330
A613
100
AcDbEntity
  8
D-STR-DIM
  6
Continuous
100
AcDbMText
 10
1019.135462529071
 20
518.608669487667
 30
0.0
 40
7.0
 41
0.0
 71
     5
 72
     1
  1
\A1;50
 11
0.0000000000000001
 21
1.0
 31
0.0
 73
     1
 44
1.0
1001
ACAD
1000
MTEXTBEGIN
1070
    73
1070
     1
1070
    44
1040
1.0
1070
    74
1070
     0
1000
MTEXTEND
  0
POINT
  5
AAEB
330
A613
100
AcDbEntity
  8
DEFPOINTS
  6
Continuous
 62
     0
100
AcDbPoint
 10
934.6354625290715
 20
493.6086694876669
 30
0.0
  0
POINT
  5
AAEC
330
A613
100
AcDbEntity
  8
DEFPOINTS
  6
Continuous
 62
     0
100
AcDbPoint
 10
934.6354625290715
 20
543.6086694876669
 30
0.0
  0
POINT
  5
AAED
330
A613
100
AcDbEntity
  8
DEFPOINTS
  6
Continuous
 62
     0
100
AcDbPoint
 10
1024.635462529071
 20
543.6086694876669
 30
0.0
  0
ENDBLK
  5
A61E
330
A613
100
AcDbEntity
  8
0
100
AcDbBlockEnd
  0
BLOCK
  5
A62D
330
A61F
100
AcDbEntity
  8
0
100
AcDbBlockBegin
  2
*D18
 70
     1
 10
0.0
 20
0.0
 30
0.0
  3
*D18
  1

  0
LINE
  5
AAC6
330
A61F
100
AcDbEntity
  8
D-STR-DIM
  6
Continuous
370
    -2
100
AcDbLine
 10
936.6354625290714
 20
543.6086694876669
 30
0.0
 11
1026.635462529071
 21
543.6086694876669
 31
0.0
  0
LINE
  5
AAC7
330
A61F
100
AcDbEntity
  8
D-STR-DIM
  6
Continuous
370
    -2
100
AcDbLine
 10
936.6354625290714
 20
549.4086694876669
 30
0.0
 11
1026.635462529071
 21
549.4086694876669
 31
0.0
  0
LINE
  5
AAC8
330
A61F
100
AcDbEntity
  8
D-STR-DIM
  6
Continuous
370
    -2
100
AcDbLine
 10
1024.635462529071
 20
542.6086694876669
 30
0.0
 11
1024.635462529071
 21
541.6086694876669
 31
0.0
  0
LINE
  5
AAC9
330
A61F
100
AcDbEntity
  8
D-STR-DIM
  6
Continuous
370
    -2
100
AcDbLine
 10
1024.635462529071
 20
550.4086694876669
 30
0.0
 11
1024.635462529071
 21
551.4086694876668
 31
0.0
  0
LINE
  5
AACA
330
A61F
100
AcDbEntity
  8
D-STR-DIM
  6
Continuous
370
    -2
100
AcDbLine
 10
1024.635462529071
 20
569.6626587765211
 30
0.0
 11
1024.635462529071
 21
549.4086694876669
 31
0.0
  0
MTEXT
  5
AACB
330
A61F
100
AcDbEntity
  8
D-STR-DIM
  6
Continuous
100
AcDbMText
 10
1019.135462529071
 20
560.6626587765212
 30
0.0
 40
7.0
 41
0.0
 71
     5
 72
     1
  1
\A1;5.8
 11
0.0000000000000001
 21
1.0
 31
0.0
 73
     1
 44
1.0
1001
ACAD
1000
MTEXTBEGIN
1070
    73
1070
     1
1070
    44
1040
1.0
1070
    74
1070
     0
1000
MTEXTEND
  0
LINE
  5
AACC
330
A61F
100
AcDbEntity
  8
D-STR-DIM
  6
Continuous
370
    -2
100
AcDbLine
 10
1024.635462529071
 20
543.6086694876669
 30
0.0
 11
1024.635462529071
 21
549.4086694876669
 31
0.0
  0
LINE
  5
AACD
330
A61F
100
AcDbEntity
  8
D-STR-DIM
  6
Continuous
370
    -2
100
AcDbLine
 10
1024.635462529071
 20
543.6086694876669
 30
0.0
 11
1024.635462529071
 21
549.4086694876669
 31
0.0
  0
INSERT
  5
AACE
330
A61F
100
AcDbEntity
  8
D-STR-DIM
  6
Continuous
370
    -2
100
AcDbBlockReference
  2
_Origin
 10
1024.635462529071
 20
543.6086694876669
 30
0.0
 50
90.0
  0
INSERT
  5
AACF
330
A61F
100
AcDbEntity
  8
D-STR-DIM
  6
Continuous
370
    -2
100
AcDbBlockReference
  2
_Origin
 10
1024.635462529071
 20
549.4086694876669
 30
0.0
 50
270.0
  0
POINT
  5
AAD0
330
A61F
100
AcDbEntity
  8
DEFPOINTS
  6
Continuous
 62
     0
100
AcDbPoint
 10
934.6354625290715
 20
543.6086694876669
 30
0.0
  0
POINT
  5
AAD1
330
A61F
100
AcDbEntity
  8
DEFPOINTS
  6
Continuous
 62
     0
100
AcDbPoint
 10
934.6354625290715
 20
549.4086694876669
 30
0.0
  0
POINT
  5
AAD2
330
A61F
100
AcDbEntity
  8
DEFPOINTS
  6
Continuous
 62
     0
100
AcDbPoint
 10
1024.635462529071
 20
549.4086694876669
 30
0.0
  0
ENDBLK
  5
A62E
330
A61F
100
AcDbEntity
  8
0
100
AcDbBlockEnd
  0
BLOCK
  5
A664
330
A65A
100
AcDbEntity
  8
0
100
AcDbBlockBegin
  2
*D19
 70
     1
 10
0.0
 20
0.0
 30
0.0
  3
*D19
  1

  0
LINE
  5
AB24
330
A65A
100
AcDbEntity
  8
D-STR-DIM
  6
Continuous
370
    -2
100
AcDbLine
 10
934.6354625290715
 20
793.1098508929856
 30
0.0
 11
934.6354625290715
 21
828.9247034495447
 31
0.0
  0
LINE
  5
AB25
330
A65A
100
AcDbEntity
  8
D-STR-DIM
  6
Continuous
370
    -2
100
AcDbLine
 10
1180.135462529068
 20
780.1098508929856
 30
0.0
 11
1180.135462529068
 21
828.9247034495447
 31
0.0
  0
LINE
  5
AB26
330
A65A
100
AcDbEntity
  8
D-STR-DIM
  6
Continuous
370
    -2
100
AcDbLine
 10
935.6354625290714
 20
826.9247034495448
 30
0.0
 11
1179.135462529068
 21
826.9247034495448
 31
0.0
  0
INSERT
  5
AB27
330
A65A
100
AcDbEntity
  8
D-STR-DIM
  6
Continuous
370
    -2
100
AcDbBlockReference
  2
_Origin
 10
934.6354625290715
 20
826.9247034495448
 30
0.0
 50
180.0
  0
INSERT
  5
AB28
330
A65A
100
AcDbEntity
  8
D-STR-DIM
  6
Continuous
370
    -2
100
AcDbBlockReference
  2
_Origin
 10
1180.135462529068
 20
826.9247034495448
 30
0.0
  0
MTEXT
  5
AB29
330
A65A
100
AcDbEntity
  8
D-STR-DIM
  6
Continuous
100
AcDbMText
 10
1057.38546252907
 20
832.4247034495448
 30
0.0
 40
7.0
 41
0.0
 71
     5
 72
     1
  1
\A1;245.5
 73
     1
 44
1.0
1001
ACAD
1000
MTEXTBEGIN
1070
    73
1070
     1
1070
    44
1040
1.0
1070
    74
1070
     0
1000
MTEXTEND
  0
POINT
  5
AB2A
330
A65A
100
AcDbEntity
  8
DEFPOINTS
  6
Continuous
 62
     0
100
AcDbPoint
 10
934.6354625290715
 20
791.1098508929856
 30
0.0
  0
POINT
  5
AB2B
330
A65A
100
AcDbEntity
  8
DEFPOINTS
  6
Continuous
 62
     0
100
AcDbPoint
 10
1180.135462529068
 20
778.1098508929856
 30
0.0
  0
POINT
  5
AB2C
330
A65A
100
AcDbEntity
  8
DEFPOINTS
  6
Continuous
 62
     0
100
AcDbPoint
 10
1180.135462529068
 20
826.9247034495448
 30
0.0
  0
ENDBLK
  5
A665
330
A65A
100
AcDbEntity
  8
0
100
AcDbBlockEnd
  0
BLOCK
  5
A670
330
A666
100
AcDbEntity
  8
0
100
AcDbBlockBegin
  2
*D20
 70
     1
 10
0.0
 20
0.0
 30
0.0
  3
*D20
  1

  0
LINE
  5
AB2D
330
A666
100
AcDbEntity
  8
D-STR-DIM
  6
Continuous
370
    -2
100
AcDbLine
 10
1180.135462529068
 20
780.1098508929856
 30
0.0
 11
1180.135462529068
 21
853.1098508929856
 31
0.0
  0
LINE
  5
AB2E
330
A666
100
AcDbEntity
  8
D-STR-DIM
  6
Continuous
370
    -2
100
AcDbLine
 10
930.1354625290715
 20
793.1098508929856
 30
0.0
 11
930.1354625290715
 21
853.1098508929856
 31
0.0
  0
LINE
  5
AB2F
330
A666
100
AcDbEntity
  8
D-STR-DIM
  6
Continuous
370
    -2
100
AcDbLine
 10
1179.135462529068
 20
851.1098508929856
 30
0.0
 11
931.1354625290714
 21
851.1098508929856
 31
0.0
  0
INSERT
  5
AB30
330
A666
100
AcDbEntity
  8
D-STR-DIM
  6
Continuous
370
    -2
100
AcDbBlockReference
  2
_Origin
 10
1180.135462529068
 20
851.1098508929856
 30
0.0
  0
INSERT
  5
AB31
330
A666
100
AcDbEntity
  8
D-STR-DIM
  6
Continuous
370
    -2
100
AcDbBlockReference
  2
_Origin
 10
930.1354625290715
 20
851.1098508929856
 30
0.0
 50
180.0
  0
MTEXT
  5
AB32
330
A666
100
AcDbEntity
  8
D-STR-DIM
  6
Continuous
100
AcDbMText
 10
1055.13546252907
 20
856.6098508929856
 30
0.0
 40
7.0
 41
0.0
 71
     5
 72
     1
  1
\A1;250
 73
     1
 44
1.0
1001
ACAD
1000
MTEXTBEGIN
1070
    73
1070
     1
1070
    44
1040
1.0
1070
    74
1070
     0
1000
MTEXTEND
  0
POINT
  5
AB33
330
A666
100
AcDbEntity
  8
DEFPOINTS
  6
Continuous
 62
     0
100
AcDbPoint
 10
1180.135462529068
 20
778.1098508929856
 30
0.0
  0
POINT
  5
AB34
330
A666
100
AcDbEntity
  8
DEFPOINTS
  6
Continuous
 62
     0
100
AcDbPoint
 10
930.1354625290715
 20
791.1098508929856
 30
0.0
  0
POINT
  5
AB35
330
A666
100
AcDbEntity
  8
DEFPOINTS
  6
Continuous
 62
     0
100
AcDbPoint
 10
930.1354625290715
 20
851.1098508929856
 30
0.0
  0
ENDBLK
  5
A671
330
A666
100
AcDbEntity
  8
0
100
AcDbBlockEnd
  0
BLOCK
  5
A67C
330
A672
100
AcDbEntity
  8
0
100
AcDbBlockBegin
  2
*D21
 70
     1
 10
0.0
 20
0.0
 30
0.0
  3
*D21
  1

  0
LINE
  5
AB62
330
A672
100
AcDbEntity
  8
D-STR-DIM
  6
Continuous
370
    -2
100
AcDbLine
 10
1182.135462529071
 20
778.1098508929856
 30
0.0
 11
1217.135462529071
 21
778.1098508929856
 31
0.0
  0
LINE
  5
AB63
330
A672
100
AcDbEntity
  8
D-STR-DIM
  6
Continuous
370
    -2
100
AcDbLine
 10
1182.135462529068
 20
728.1098508929854
 30
0.0
 11
1217.135462529071
 21
728.1098508929854
 31
0.0
  0
LINE
  5
AB64
330
A672
100
AcDbEntity
  8
D-STR-DIM
  6
Continuous
370
    -2
100
AcDbLine
 10
1215.135462529071
 20
777.1098508929855
 30
0.0
 11
1215.135462529071
 21
729.1098508929855
 31
0.0
  0
INSERT
  5
AB65
330
A672
100
AcDbEntity
  8
D-STR-DIM
  6
Continuous
370
    -2
100
AcDbBlockReference
  2
_Origin
 10
1215.135462529071
 20
778.1098508929856
 30
0.0
 50
90.0
  0
INSERT
  5
AB66
330
A672
100
AcDbEntity
  8
D-STR-DIM
  6
Continuous
370
    -2
100
AcDbBlockReference
  2
_Origin
 10
1215.135462529071
 20
728.1098508929854
 30
0.0
 50
270.0
  0
MTEXT
  5
AB67
330
A672
100
AcDbEntity
  8
D-STR-DIM
  6
Continuous
100
AcDbMText
 10
1209.635462529071
 20
753.1098508929857
 30
0.0
 40
7.0
 41
0.0
 71
     5
 72
     1
  1
\A1;50
 11
0.0000000000000001
 21
1.0
 31
0.0
 73
     1
 44
1.0
1001
ACAD
1000
MTEXTBEGIN
1070
    73
1070
     1
1070
    44
1040
1.0
1070
    74
1070
     0
1000
MTEXTEND
  0
POINT
  5
AB68
330
A672
100
AcDbEntity
  8
DEFPOINTS
  6
Continuous
 62
     0
100
AcDbPoint
 10
1180.135462529071
 20
778.1098508929856
 30
0.0
  0
POINT
  5
AB69
330
A672
100
AcDbEntity
  8
DEFPOINTS
  6
Continuous
 62
     0
100
AcDbPoint
 10
1180.135462529068
 20
728.1098508929854
 30
0.0
  0
POINT
  5
AB6A
330
A672
100
AcDbEntity
  8
DEFPOINTS
  6
Continuous
 62
     0
100
AcDbPoint
 10
1215.135462529071
 20
728.1098508929854
 30
0.0
  0
ENDBLK
  5
A67D
330
A672
100
AcDbEntity
  8
0
100
AcDbBlockEnd
  0
BLOCK
  5
A688
330
A67E
100
AcDbEntity
  8
0
100
AcDbBlockBegin
  2
*D22
 70
     1
 10
0.0
 20
0.0
 30
0.0
  3
*D22
  1

  0
LINE
  5
AB6B
330
A67E
100
AcDbEntity
  8
D-STR-DIM
  6
Continuous
370
    -2
100
AcDbLine
 10
1180.135462529071
 20
780.1098508929856
 30
0.0
 11
1180.135462529071
 21
804.1098508929854
 31
0.0
  0
LINE
  5
AB6C
330
A67E
100
AcDbEntity
  8
D-STR-DIM
  6
Continuous
370
    -2
100
AcDbLine
 10
1160.135462529068
 20
763.6098508929856
 30
0.0
 11
1160.135462529068
 21
804.1098508929854
 31
0.0
  0
LINE
  5
AB6D
330
A67E
100
AcDbEntity
  8
D-STR-DIM
  6
Continuous
370
    -2
100
AcDbLine
 10
1179.135462529071
 20
802.1098508929854
 30
0.0
 11
1161.135462529069
 21
802.1098508929854
 31
0.0
  0
INSERT
  5
AB6E
330
A67E
100
AcDbEntity
  8
D-STR-DIM
  6
Continuous
370
    -2
100
AcDbBlockReference
  2
_Origin
 10
1180.135462529071
 20
802.1098508929854
 30
0.0
  0
INSERT
  5
AB6F
330
A67E
100
AcDbEntity
  8
D-STR-DIM
  6
Continuous
370
    -2
100
AcDbBlockReference
  2
_Origin
 10
1160.135462529068
 20
802.1098508929854
 30
0.0
 50
180.0
  0
MTEXT
  5
AB70
330
A67E
100
AcDbEntity
  8
D-STR-DIM
  6
Continuous
100
AcDbMText
 10
1170.13546252907
 20
807.6098508929854
 30
0.0
 40
7.0
 41
0.0
 71
     5
 72
     1
  1
\A1;20
 73
     1
 44
1.0
1001
ACAD
1000
MTEXTBEGIN
1070
    73
1070
     1
1070
    44
1040
1.0
1070
    74
1070
     0
1000
MTEXTEND
  0
POINT
  5
AB71
330
A67E
100
AcDbEntity
  8
DEFPOINTS
  6
Continuous
 62
     0
100
AcDbPoint
 10
1180.135462529071
 20
778.1098508929856
 30
0.0
  0
POINT
  5
AB72
330
A67E
100
AcDbEntity
  8
DEFPOINTS
  6
Continuous
 62
     0
100
AcDbPoint
 10
1160.135462529068
 20
761.6098508929856
 30
0.0
  0
POINT
  5
AB73
330
A67E
100
AcDbEntity
  8
DEFPOINTS
  6
Continuous
 62
     0
100
AcDbPoint
 10
1160.135462529068
 20
802.1098508929854
 30
0.0
  0
ENDBLK
  5
A689
330
A67E
100
AcDbEntity
  8
0
100
AcDbBlockEnd
  0
BLOCK
  5
A6D6
330
A6CA
100
AcDbEntity
  8
0
100
AcDbBlockBegin
  2
*D23
 70
     1
 10
0.0
 20
0.0
 30
0.0
  3
*D23
  1

  0
LINE
  5
AB36
330
A6CA
100
AcDbEntity
  8
D-STR-DIM
  6
Continuous
370
    -2
100
AcDbLine
 10
930.1354625290715
 20
793.1098508929856
 30
0.0
 11
930.1354625290715
 21
828.9247034495447
 31
0.0
  0
LINE
  5
AB37
330
A6CA
100
AcDbEntity
  8
D-STR-DIM
  6
Continuous
370
    -2
100
AcDbLine
 10
934.6354625290715
 20
793.1098508929856
 30
0.0
 11
934.6354625290715
 21
828.9247034495447
 31
0.0
  0
LINE
  5
AB38
330
A6CA
100
AcDbEntity
  8
D-STR-DIM
  6
Continuous
370
    -2
100
AcDbLine
 10
929.1354625290715
 20
826.9247034495448
 30
0.0
 11
928.1354625290715
 21
826.9247034495448
 31
0.0
  0
LINE
  5
AB39
330
A6CA
100
AcDbEntity
  8
D-STR-DIM
  6
Continuous
370
    -2
100
AcDbLine
 10
935.6354625290714
 20
826.9247034495448
 30
0.0
 11
936.6354625290714
 21
826.9247034495448
 31
0.0
  0
LINE
  5
AB3A
330
A6CA
100
AcDbEntity
  8
D-STR-DIM
  6
Continuous
370
    -2
100
AcDbLine
 10
930.1354625290715
 20
826.9247034495448
 30
0.0
 11
934.6354625290715
 21
826.9247034495448
 31
0.0
  0
INSERT
  5
AB3B
330
A6CA
100
AcDbEntity
  8
D-STR-DIM
  6
Continuous
370
    -2
100
AcDbBlockReference
  2
_Origin
 10
930.1354625290715
 20
826.9247034495448
 30
0.0
  0
INSERT
  5
AB3C
330
A6CA
100
AcDbEntity
  8
D-STR-DIM
  6
Continuous
370
    -2
100
AcDbBlockReference
  2
_Origin
 10
934.6354625290715
 20
826.9247034495448
 30
0.0
 50
180.0
  0
MTEXT
  5
AB3D
330
A6CA
100
AcDbEntity
  8
D-STR-DIM
  6
Continuous
100
AcDbMText
 10
932.3854625290714
 20
832.4247034495448
 30
0.0
 40
7.0
 41
0.0
 71
     5
 72
     1
  1
\A1;4.5
 73
     1
 44
1.0
1001
ACAD
1000
MTEXTBEGIN
1070
    73
1070
     1
1070
    44
1040
1.0
1070
    74
1070
     0
1000
MTEXTEND
  0
POINT
  5
AB3E
330
A6CA
100
AcDbEntity
  8
DEFPOINTS
  6
Continuous
 62
     0
100
AcDbPoint
 10
930.1354625290715
 20
791.1098508929856
 30
0.0
  0
POINT
  5
AB3F
330
A6CA
100
AcDbEntity
  8
DEFPOINTS
  6
Continuous
 62
     0
100
AcDbPoint
 10
934.6354625290715
 20
791.1098508929856
 30
0.0
  0
POINT
  5
AB40
330
A6CA
100
AcDbEntity
  8
DEFPOINTS
  6
Continuous
 62
     0
100
AcDbPoint
 10
934.6354625290715
 20
826.9247034495448
 30
0.0
  0
ENDBLK
  5
A6D7
330
A6CA
100
AcDbEntity
  8
0
100
AcDbBlockEnd
  0
BLOCK
  5
A6F1
330
A6E5
100
AcDbEntity
  8
0
100
AcDbBlockBegin
  2
*D24
 70
     1
 10
0.0
 20
0.0
 30
0.0
  3
*D24
  1

  0
LINE
  5
AB41
330
A6E5
100
AcDbEntity
  8
D-STR-DIM
  6
Continuous
370
    -2
100
AcDbLine
 10
917.6354625290715
 20
796.6098508929856
 30
0.0
 11
887.6354625290714
 21
796.6098508929856
 31
0.0
  0
LINE
  5
AB42
330
A6E5
100
AcDbEntity
  8
D-STR-DIM
  6
Continuous
370
    -2
100
AcDbLine
 10
917.6354625290715
 20
792.1098508929856
 30
0.0
 11
887.6354625290714
 21
792.1098508929856
 31
0.0
  0
LINE
  5
AB43
330
A6E5
100
AcDbEntity
  8
D-STR-DIM
  6
Continuous
370
    -2
100
AcDbLine
 10
889.6354625290713
 20
797.6098508929855
 30
0.0
 11
889.6354625290713
 21
798.6098508929856
 31
0.0
  0
LINE
  5
AB44
330
A6E5
100
AcDbEntity
  8
D-STR-DIM
  6
Continuous
370
    -2
100
AcDbLine
 10
889.6354625290713
 20
791.1098508929856
 30
0.0
 11
889.6354625290713
 21
790.1098508929856
 31
0.0
  0
LINE
  5
AB45
330
A6E5
100
AcDbEntity
  8
D-STR-DIM
  6
Continuous
370
    -2
100
AcDbLine
 10
889.6354625290713
 20
796.6098508929856
 30
0.0
 11
889.6354625290713
 21
792.1098508929856
 31
0.0
  0
INSERT
  5
AB46
330
A6E5
100
AcDbEntity
  8
D-STR-DIM
  6
Continuous
370
    -2
100
AcDbBlockReference
  2
_Origin
 10
889.6354625290713
 20
796.6098508929856
 30
0.0
 50
270.0
  0
INSERT
  5
AB47
330
A6E5
100
AcDbEntity
  8
D-STR-DIM
  6
Continuous
370
    -2
100
AcDbBlockReference
  2
_Origin
 10
889.6354625290713
 20
792.1098508929856
 30
0.0
 50
90.0
  0
MTEXT
  5
AB48
330
A6E5
100
AcDbEntity
  8
D-STR-DIM
  6
Continuous
100
AcDbMText
 10
884.1354625290712
 20
794.3598508929858
 30
0.0
 40
7.0
 41
0.0
 71
     5
 72
     1
  1
\A1;4.5
 11
0.0000000000000001
 21
1.0
 31
0.0
 73
     1
 44
1.0
1001
ACAD
1000
MTEXTBEGIN
1070
    73
1070
     1
1070
    44
1040
1.0
1070
    74
1070
     0
1000
MTEXTEND
  0
POINT
  5
AB49
330
A6E5
100
AcDbEntity
  8
DEFPOINTS
  6
Continuous
 62
     0
100
AcDbPoint
 10
919.6354625290714
 20
796.6098508929856
 30
0.0
  0
POINT
  5
AB4A
330
A6E5
100
AcDbEntity
  8
DEFPOINTS
  6
Continuous
 62
     0
100
AcDbPoint
 10
919.6354625290714
 20
792.1098508929856
 30
0.0
  0
POINT
  5
AB4B
330
A6E5
100
AcDbEntity
  8
DEFPOINTS
  6
Continuous
 62
     0
100
AcDbPoint
 10
889.6354625290713
 20
792.1098508929856
 30
0.0
  0
ENDBLK
  5
A6F2
330
A6E5
100
AcDbEntity
  8
0
100
AcDbBlockEnd
  0
BLOCK
  5
A701
330
A6F3
100
AcDbEntity
  8
0
100
AcDbBlockBegin
  2
*D25
 70
     1
 10
0.0
 20
0.0
 30
0.0
  3
*D25
  1

  0
LINE
  5
AB55
330
A6F3
100
AcDbEntity
  8
D-STR-DIM
  6
Continuous
370
    -2
100
AcDbLine
 10
924.6354625290715
 20
767.1098508929856
 30
0.0
 11
924.6354625290715
 21
776.1098508929856
 31
0.0
  0
LINE
  5
AB56
330
A6F3
100
AcDbEntity
  8
D-STR-DIM
  6
Continuous
370
    -2
100
AcDbLine
 10
930.1354625290715
 20
767.1098508929856
 30
0.0
 11
930.1354625290715
 21
776.1098508929856
 31
0.0
  0
LINE
  5
AB57
330
A6F3
100
AcDbEntity
  8
D-STR-DIM
  6
Continuous
370
    -2
100
AcDbLine
 10
923.6354625290713
 20
774.1098508929856
 30
0.0
 11
922.6354625290714
 21
774.1098508929856
 31
0.0
  0
LINE
  5
AB58
330
A6F3
100
AcDbEntity
  8
D-STR-DIM
  6
Continuous
370
    -2
100
AcDbLine
 10
931.1354625290714
 20
774.1098508929856
 30
0.0
 11
932.1354625290714
 21
774.1098508929856
 31
0.0
  0
LINE
  5
AB59
330
A6F3
100
AcDbEntity
  8
D-STR-DIM
  6
Continuous
370
    -2
100
AcDbLine
 10
904.3231224471096
 20
774.1098508929856
 30
0.0
 11
924.6354625290715
 21
774.1098508929856
 31
0.0
  0
MTEXT
  5
AB5A
330
A6F3
100
AcDbEntity
  8
D-STR-DIM
  6
Continuous
100
AcDbMText
 10
913.3231224471096
 20
779.6098508929856
 30
0.0
 40
7.0
 41
0.0
 71
     5
 72
     1
  1
\A1;5.5
 73
     1
 44
1.0
1001
ACAD
1000
MTEXTBEGIN
1070
    73
1070
     1
1070
    44
1040
1.0
1070
    74
1070
     0
1000
MTEXTEND
  0
LINE
  5
AB5B
330
A6F3
100
AcDbEntity
  8
D-STR-DIM
  6
Continuous
370
    -2
100
AcDbLine
 10
924.6354625290715
 20
774.1098508929856
 30
0.0
 11
930.1354625290715
 21
774.1098508929856
 31
0.0
  0
LINE
  5
AB5C
330
A6F3
100
AcDbEntity
  8
D-STR-DIM
  6
Continuous
370
    -2
100
AcDbLine
 10
924.6354625290715
 20
774.1098508929856
 30
0.0
 11
930.1354625290715
 21
774.1098508929856
 31
0.0
  0
INSERT
  5
AB5D
330
A6F3
100
AcDbEntity
  8
D-STR-DIM
  6
Continuous
370
    -2
100
AcDbBlockReference
  2
_Origin
 10
924.6354625290715
 20
774.1098508929856
 30
0.0
  0
INSERT
  5
AB5E
330
A6F3
100
AcDbEntity
  8
D-STR-DIM
  6
Continuous
370
    -2
100
AcDbBlockReference
  2
_Origin
 10
930.1354625290715
 20
774.1098508929856
 30
0.0
 50
180.0
  0
POINT
  5
AB5F
330
A6F3
100
AcDbEntity
  8
DEFPOINTS
  6
Continuous
 62
     0
100
AcDbPoint
 10
924.6354625290715
 20
765.1098508929855
 30
0.0
  0
POINT
  5
AB60
330
A6F3
100
AcDbEntity
  8
DEFPOINTS
  6
Continuous
 62
     0
100
AcDbPoint
 10
930.1354625290715
 20
765.1098508929855
 30
0.0
  0
POINT
  5
AB61
330
A6F3
100
AcDbEntity
  8
DEFPOINTS
  6
Continuous
 62
     0
100
AcDbPoint
 10
930.1354625290715
 20
774.1098508929856
 30
0.0
  0
ENDBLK
  5
A702
330
A6F3
100
AcDbEntity
  8
0
100
AcDbBlockEnd
  0
BLOCK
  5
A726
330
A71C
100
AcDbEntity
  8
0
100
AcDbBlockBegin
  2
*D26
 70
     1
 10
0.0
 20
0.0
 30
0.0
  3
*D26
  1

  0
LINE
  5
AB4C
330
A71C
100
AcDbEntity
  8
D-STR-DIM
  6
Continuous
370
    -2
100
AcDbLine
 10
919.6354625290714
 20
707.6098508929856
 30
0.0
 11
919.6354625290714
 21
677.6098508929855
 31
0.0
  0
LINE
  5
AB4D
330
A71C
100
AcDbEntity
  8
D-STR-DIM
  6
Continuous
370
    -2
100
AcDbLine
 10
934.6354625290715
 20
713.1098508929856
 30
0.0
 11
934.6354625290715
 21
677.6098508929855
 31
0.0
  0
LINE
  5
AB4E
330
A71C
100
AcDbEntity
  8
D-STR-DIM
  6
Continuous
370
    -2
100
AcDbLine
 10
920.6354625290714
 20
679.6098508929856
 30
0.0
 11
933.6354625290715
 21
679.6098508929856
 31
0.0
  0
INSERT
  5
AB4F
330
A71C
100
AcDbEntity
  8
D-STR-DIM
  6
Continuous
370
    -2
100
AcDbBlockReference
  2
_Origin
 10
919.6354625290714
 20
679.6098508929856
 30
0.0
 50
180.0
  0
INSERT
  5
AB50
330
A71C
100
AcDbEntity
  8
D-STR-DIM
  6
Continuous
370
    -2
100
AcDbBlockReference
  2
_Origin
 10
934.6354625290715
 20
679.6098508929856
 30
0.0
  0
MTEXT
  5
AB51
330
A71C
100
AcDbEntity
  8
D-STR-DIM
  6
Continuous
100
AcDbMText
 10
927.1354625290713
 20
685.1098508929855
 30
0.0
 40
7.0
 41
0.0
 71
     5
 72
     1
  1
\A1;15
 73
     1
 44
1.0
1001
ACAD
1000
MTEXTBEGIN
1070
    73
1070
     1
1070
    44
1040
1.0
1070
    74
1070
     0
1000
MTEXTEND
  0
POINT
  5
AB52
330
A71C
100
AcDbEntity
  8
DEFPOINTS
  6
Continuous
 62
     0
100
AcDbPoint
 10
919.6354625290714
 20
709.6098508929856
 30
0.0
  0
POINT
  5
AB53
330
A71C
100
AcDbEntity
  8
DEFPOINTS
  6
Continuous
 62
     0
100
AcDbPoint
 10
934.6354625290715
 20
715.1098508929855
 30
0.0
  0
POINT
  5
AB54
330
A71C
100
AcDbEntity
  8
DEFPOINTS
  6
Continuous
 62
     0
100
AcDbPoint
 10
934.6354625290715
 20
679.6098508929856
 30
0.0
  0
ENDBLK
  5
A727
330
A71C
100
AcDbEntity
  8
0
100
AcDbBlockEnd
  0
BLOCK
  5
A776
330
A76C
100
AcDbEntity
  8
0
100
AcDbBlockBegin
  2
*D27
 70
     1
 10
0.0
 20
0.0
 30
0.0
  3
*D27
  1

  0
LINE
  5
AAB4
330
A76C
100
AcDbEntity
  8
D-STR-DIM
  6
Continuous
370
    -2
100
AcDbLine
 10
1417.322657457303
 20
549.4086694876669
 30
0.0
 11
1447.322657457303
 21
549.4086694876669
 31
0.0
  0
LINE
  5
AAB5
330
A76C
100
AcDbEntity
  8
D-STR-DIM
  6
Continuous
370
    -2
100
AcDbLine
 10
1384.822657457303
 20
534.4086694876668
 30
0.0
 11
1447.322657457303
 21
534.4086694876668
 31
0.0
  0
LINE
  5
AAB6
330
A76C
100
AcDbEntity
  8
D-STR-DIM
  6
Continuous
370
    -2
100
AcDbLine
 10
1445.322657457303
 20
548.4086694876668
 30
0.0
 11
1445.322657457303
 21
535.4086694876668
 31
0.0
  0
INSERT
  5
AAB7
330
A76C
100
AcDbEntity
  8
D-STR-DIM
  6
Continuous
370
    -2
100
AcDbBlockReference
  2
_Origin
 10
1445.322657457303
 20
549.4086694876669
 30
0.0
 50
90.0
  0
INSERT
  5
AAB8
330
A76C
100
AcDbEntity
  8
D-STR-DIM
  6
Continuous
370
    -2
100
AcDbBlockReference
  2
_Origin
 10
1445.322657457303
 20
534.4086694876668
 30
0.0
 50
270.0
  0
MTEXT
  5
AAB9
330
A76C
100
AcDbEntity
  8
D-STR-DIM
  6
Continuous
100
AcDbMText
 10
1439.822657457303
 20
541.908669487667
 30
0.0
 40
7.0
 41
0.0
 71
     5
 72
     1
  1
\A1;15
 11
0.0000000000000001
 21
1.0
 31
0.0
 73
     1
 44
1.0
1001
ACAD
1000
MTEXTBEGIN
1070
    73
1070
     1
1070
    44
1040
1.0
1070
    74
1070
     0
1000
MTEXTEND
  0
POINT
  5
AABA
330
A76C
100
AcDbEntity
  8
DEFPOINTS
  6
Continuous
 62
     0
100
AcDbPoint
 10
1415.322657457303
 20
549.4086694876669
 30
0.0
  0
POINT
  5
AABB
330
A76C
100
AcDbEntity
  8
DEFPOINTS
  6
Continuous
 62
     0
100
AcDbPoint
 10
1382.822657457303
 20
534.4086694876668
 30
0.0
  0
POINT
  5
AABC
330
A76C
100
AcDbEntity
  8
DEFPOINTS
  6
Continuous
 62
     0
100
AcDbPoint
 10
1445.322657457303
 20
534.4086694876668
 30
0.0
  0
ENDBLK
  5
A777
330
A76C
100
AcDbEntity
  8
0
100
AcDbBlockEnd
  0
BLOCK
  5
A782
330
A778
100
AcDbEntity
  8
0
100
AcDbBlockBegin
  2
*D28
 70
     1
 10
0.0
 20
0.0
 30
0.0
  3
*D28
  1

  0
LINE
  5
AB12
330
A778
100
AcDbEntity
  8
D-STR-DIM
  6
Continuous
370
    -2
100
AcDbLine
 10
1384.822657457303
 20
534.4086694876668
 30
0.0
 11
1447.322657457303
 21
534.4086694876668
 31
0.0
  0
LINE
  5
AB13
330
A778
100
AcDbEntity
  8
D-STR-DIM
  6
Continuous
370
    -2
100
AcDbLine
 10
1385.572657457303
 20
484.4086694876668
 30
0.0
 11
1447.322657457303
 21
484.4086694876668
 31
0.0
  0
LINE
  5
AB14
330
A778
100
AcDbEntity
  8
D-STR-DIM
  6
Continuous
370
    -2
100
AcDbLine
 10
1445.322657457303
 20
533.4086694876669
 30
0.0
 11
1445.322657457303
 21
485.4086694876668
 31
0.0
  0
INSERT
  5
AB15
330
A778
100
AcDbEntity
  8
D-STR-DIM
  6
Continuous
370
    -2
100
AcDbBlockReference
  2
_Origin
 10
1445.322657457303
 20
534.4086694876668
 30
0.0
 50
90.0
  0
INSERT
  5
AB16
330
A778
100
AcDbEntity
  8
D-STR-DIM
  6
Continuous
370
    -2
100
AcDbBlockReference
  2
_Origin
 10
1445.322657457303
 20
484.4086694876668
 30
0.0
 50
270.0
  0
MTEXT
  5
AB17
330
A778
100
AcDbEntity
  8
D-STR-DIM
  6
Continuous
100
AcDbMText
 10
1439.822657457303
 20
509.4086694876671
 30
0.0
 40
7.0
 41
0.0
 71
     5
 72
     1
  1
\A1;50
 11
0.0000000000000001
 21
1.0
 31
0.0
 73
     1
 44
1.0
1001
ACAD
1000
MTEXTBEGIN
1070
    73
1070
     1
1070
    44
1040
1.0
1070
    74
1070
     0
1000
MTEXTEND
  0
POINT
  5
AB18
330
A778
100
AcDbEntity
  8
DEFPOINTS
  6
Continuous
 62
     0
100
AcDbPoint
 10
1382.822657457303
 20
534.4086694876668
 30
0.0
  0
POINT
  5
AB19
330
A778
100
AcDbEntity
  8
DEFPOINTS
  6
Continuous
 62
     0
100
AcDbPoint
 10
1383.572657457303
 20
484.4086694876668
 30
0.0
  0
POINT
  5
AB1A
330
A778
100
AcDbEntity
  8
DEFPOINTS
  6
Continuous
 62
     0
100
AcDbPoint
 10
1445.322657457303
 20
484.4086694876668
 30
0.0
  0
ENDBLK
  5
A783
330
A778
100
AcDbEntity
  8
0
100
AcDbBlockEnd
  0
BLOCK
  5
A78E
330
A784
100
AcDbEntity
  8
0
100
AcDbBlockBegin
  2
*D29
 70
     1
 10
0.0
 20
0.0
 30
0.0
  3
*D29
  1

  0
LINE
  5
AB1B
330
A784
100
AcDbEntity
  8
D-STR-DIM
  6
Continuous
370
    -2
100
AcDbLine
 10
1385.572657457303
 20
484.4086694876668
 30
0.0
 11
1447.322657457303
 21
484.4086694876668
 31
0.0
  0
LINE
  5
AB1C
330
A784
100
AcDbEntity
  8
D-STR-DIM
  6
Continuous
370
    -2
100
AcDbLine
 10
1417.322657457303
 20
469.4086694876668
 30
0.0
 11
1447.322657457303
 21
469.4086694876668
 31
0.0
  0
LINE
  5
AB1D
330
A784
100
AcDbEntity
  8
D-STR-DIM
  6
Continuous
370
    -2
100
AcDbLine
 10
1445.322657457303
 20
483.4086694876668
 30
0.0
 11
1445.322657457303
 21
470.4086694876669
 31
0.0
  0
INSERT
  5
AB1E
330
A784
100
AcDbEntity
  8
D-STR-DIM
  6
Continuous
370
    -2
100
AcDbBlockReference
  2
_Origin
 10
1445.322657457303
 20
484.4086694876668
 30
0.0
 50
90.0
  0
INSERT
  5
AB1F
330
A784
100
AcDbEntity
  8
D-STR-DIM
  6
Continuous
370
    -2
100
AcDbBlockReference
  2
_Origin
 10
1445.322657457303
 20
469.4086694876668
 30
0.0
 50
270.0
  0
MTEXT
  5
AB20
330
A784
100
AcDbEntity
  8
D-STR-DIM
  6
Continuous
100
AcDbMText
 10
1439.822657457303
 20
476.9086694876671
 30
0.0
 40
7.0
 41
0.0
 71
     5
 72
     1
  1
\A1;15
 11
0.0000000000000001
 21
1.0
 31
0.0
 73
     1
 44
1.0
1001
ACAD
1000
MTEXTBEGIN
1070
    73
1070
     1
1070
    44
1040
1.0
1070
    74
1070
     0
1000
MTEXTEND
  0
POINT
  5
AB21
330
A784
100
AcDbEntity
  8
DEFPOINTS
  6
Continuous
 62
     0
100
AcDbPoint
 10
1383.572657457303
 20
484.4086694876668
 30
0.0
  0
POINT
  5
AB22
330
A784
100
AcDbEntity
  8
DEFPOINTS
  6
Continuous
 62
     0
100
AcDbPoint
 10
1415.322657457303
 20
469.4086694876668
 30
0.0
  0
POINT
  5
AB23
330
A784
100
AcDbEntity
  8
DEFPOINTS
  6
Continuous
 62
     0
100
AcDbPoint
 10
1445.322657457303
 20
469.4086694876668
 30
0.0
  0
ENDBLK
  5
A78F
330
A784
100
AcDbEntity
  8
0
100
AcDbBlockEnd
  0
BLOCK
  5
A79A
330
A790
100
AcDbEntity
  8
0
100
AcDbBlockBegin
  2
*D30
 70
     1
 10
0.0
 20
0.0
 30
0.0
  3
*D30
  1

  0
LINE
  5
AABD
330
A790
100
AcDbEntity
  8
D-STR-DIM
  6
Continuous
370
    -2
100
AcDbLine
 10
1417.322657457303
 20
549.4086694876669
 30
0.0
 11
1477.322657457303
 21
549.4086694876669
 31
0.0
  0
LINE
  5
AABE
330
A790
100
AcDbEntity
  8
D-STR-DIM
  6
Continuous
370
    -2
100
AcDbLine
 10
1417.322657457303
 20
469.4086694876668
 30
0.0
 11
1477.322657457303
 21
469.4086694876668
 31
0.0
  0
LINE
  5
AABF
330
A790
100
AcDbEntity
  8
D-STR-DIM
  6
Continuous
370
    -2
100
AcDbLine
 10
1475.322657457303
 20
548.4086694876668
 30
0.0
 11
1475.322657457303
 21
470.4086694876669
 31
0.0
  0
INSERT
  5
AAC0
330
A790
100
AcDbEntity
  8
D-STR-DIM
  6
Continuous
370
    -2
100
AcDbBlockReference
  2
_Origin
 10
1475.322657457303
 20
549.4086694876669
 30
0.0
 50
90.0
  0
INSERT
  5
AAC1
330
A790
100
AcDbEntity
  8
D-STR-DIM
  6
Continuous
370
    -2
100
AcDbBlockReference
  2
_Origin
 10
1475.322657457303
 20
469.4086694876668
 30
0.0
 50
270.0
  0
MTEXT
  5
AAC2
330
A790
100
AcDbEntity
  8
D-STR-DIM
  6
Continuous
100
AcDbMText
 10
1469.822657457303
 20
509.4086694876671
 30
0.0
 40
7.0
 41
0.0
 71
     5
 72
     1
  1
\A1;80
 11
0.0000000000000001
 21
1.0
 31
0.0
 73
     1
 44
1.0
1001
ACAD
1000
MTEXTBEGIN
1070
    73
1070
     1
1070
    44
1040
1.0
1070
    74
1070
     0
1000
MTEXTEND
  0
POINT
  5
AAC3
330
A790
100
AcDbEntity
  8
DEFPOINTS
  6
Continuous
 62
     0
100
AcDbPoint
 10
1415.322657457303
 20
549.4086694876669
 30
0.0
  0
POINT
  5
AAC4
330
A790
100
AcDbEntity
  8
DEFPOINTS
  6
Continuous
 62
     0
100
AcDbPoint
 10
1415.322657457303
 20
469.4086694876668
 30
0.0
  0
POINT
  5
AAC5
330
A790
100
AcDbEntity
  8
DEFPOINTS
  6
Continuous
 62
     0
100
AcDbPoint
 10
1475.322657457303
 20
469.4086694876668
 30
0.0
  0
ENDBLK
  5
A79B
330
A790
100
AcDbEntity
  8
0
100
AcDbBlockEnd
  0
BLOCK
  5
A7A6
330
A79C
100
AcDbEntity
  8
0
100
AcDbBlockBegin
  2
*D31
 70
     1
 10
0.0
 20
0.0
 30
0.0
  3
*D31
  1

  0
LINE
  5
AB09
330
A79C
100
AcDbEntity
  8
D-STR-DIM
  6
Continuous
370
    -2
100
AcDbLine
 10
1328.322657457303
 20
467.4086694876669
 30
0.0
 11
1328.322657457303
 21
437.4086694876669
 31
0.0
  0
LINE
  5
AB0A
330
A79C
100
AcDbEntity
  8
D-STR-DIM
  6
Continuous
370
    -2
100
AcDbLine
 10
1415.322657457303
 20
467.4086694876669
 30
0.0
 11
1415.322657457303
 21
437.4086694876669
 31
0.0
  0
LINE
  5
AB0B
330
A79C
100
AcDbEntity
  8
D-STR-DIM
  6
Continuous
370
    -2
100
AcDbLine
 10
1329.322657457303
 20
439.4086694876668
 30
0.0
 11
1414.322657457303
 21
439.4086694876668
 31
0.0
  0
INSERT
  5
AB0C
330
A79C
100
AcDbEntity
  8
D-STR-DIM
  6
Continuous
370
    -2
100
AcDbBlockReference
  2
_Origin
 10
1328.322657457303
 20
439.4086694876668
 30
0.0
 50
180.0
  0
INSERT
  5
AB0D
330
A79C
100
AcDbEntity
  8
D-STR-DIM
  6
Continuous
370
    -2
100
AcDbBlockReference
  2
_Origin
 10
1415.322657457303
 20
439.4086694876668
 30
0.0
  0
MTEXT
  5
AB0E
330
A79C
100
AcDbEntity
  8
D-STR-DIM
  6
Continuous
100
AcDbMText
 10
1371.822657457303
 20
444.9086694876668
 30
0.0
 40
7.0
 41
0.0
 71
     5
 72
     1
  1
\A1;87
 73
     1
 44
1.0
1001
ACAD
1000
MTEXTBEGIN
1070
    73
1070
     1
1070
    44
1040
1.0
1070
    74
1070
     0
1000
MTEXTEND
  0
POINT
  5
AB0F
330
A79C
100
AcDbEntity
  8
DEFPOINTS
  6
Continuous
 62
     0
100
AcDbPoint
 10
1328.322657457303
 20
469.4086694876668
 30
0.0
  0
POINT
  5
AB10
330
A79C
100
AcDbEntity
  8
DEFPOINTS
  6
Continuous
 62
     0
100
AcDbPoint
 10
1415.322657457303
 20
469.4086694876668
 30
0.0
  0
POINT
  5
AB11
330
A79C
100
AcDbEntity
  8
DEFPOINTS
  6
Continuous
 62
     0
100
AcDbPoint
 10
1415.322657457303
 20
439.4086694876668
 30
0.0
  0
ENDBLK
  5
A7A7
330
A79C
100
AcDbEntity
  8
0
100
AcDbBlockEnd
  0
ENDSEC
  0
SECTION
  2
ENTITIES
  0
TEXT
  5
652E
330
46
100
AcDbEntity
  8
D-TTL-TXT
100
AcDbText
 10
617.0434428708813
 20
1103.569016893227
 30
0.0
 40
19.99999999999998
  1
通信用受金物詳細図
100
AcDbText
  0
TEXT
  5
652F
330
46
100
AcDbEntity
  8
D-TTL-TXT
100
AcDbText
 10
896.7522046012446
 20
1102.768936973234
 30
0.0
 40
9.999999000000094
  1
S = 1/2
100
AcDbText
  0
LWPOLYLINE
  5
6530
330
46
100
AcDbEntity
  8
D-TTL
 48
20.0
100
AcDbPolyline
 90
        4
 70
     1
 43
0.0
 10
0.0
 20
0.0
 10
1681.999993260642
 20
0.0
 10
1681.999993260642
 20
1187.999995240002
 10
0.0
 20
1187.999995240002
  0
LWPOLYLINE
  5
6531
330
46
100
AcDbEntity
  8
D-TTL
 48
20.0
100
AcDbPolyline
 90
        4
 70
     1
 43
0.0
 10
79.99999967942676
 20
39.99999983973101
 10
1641.999993420917
 20
39.99999983973101
 10
1641.999993420917
 20
1147.999995400271
 10
79.99999967942676
 20
1147.999995400271
  0
TEXT
  5
6532
330
46
100
AcDbEntity
  8
D-TTL-TXT
  6
Continuous
100
AcDbText
 10
1600.56336615838
 20
1136.178187022014
 30
0.0
 40
6.999999971952856
  1
A4A28
 72
     4
 11
1616.896699426269
 21
1139.67818700799
 31
0.0
100
AcDbText
  0
LINE
  5
6533
330
46
100
AcDbEntity
  8
D-TTL-TXT
  6
Continuous
100
AcDbLine
 10
1567.999993717411
 20
1147.999995400271
 30
0.0
 11
1641.999993420915
 21
1147.999995400271
 31
0.0
  0
LINE
  5
6534
330
46
100
AcDbEntity
  8
D-TTL-TXT
  6
Continuous
100
AcDbLine
 10
1567.999993717411
 20
1131.999995464379
 30
0.0
 11
1641.999993420915
 21
1131.999995464379
 31
0.0
  0
LINE
  5
6535
330
46
100
AcDbEntity
  8
D-TTL-TXT
  6
Continuous
100
AcDbLine
 10
1591.999993621251
 20
1147.999995400271
 30
0.0
 11
1591.999993621251
 21
1131.999995464379
 31
0.0
  0
LINE
  5
6536
330
46
100
AcDbEntity
  8
D-TTL-TXT
  6
Continuous
100
AcDbLine
 10
1567.999993717411
 20
1147.999995400271
 30
0.0
 11
1567.999993717411
 21
1131.999995464379
 31
0.0
  0
TEXT
  5
6537
330
46
100
AcDbEntity
  8
D-TTL-TXT
  6
Continuous
100
AcDbText
 10
1573.142849696825
 20
1135.99999544835
 30
0.0
 40
6.999999971952856
  1
図番
100
AcDbText
  0
LINE
  5
6538
330
46
100
AcDbEntity
  8
D-TTL-TXT
  6
Continuous
100
AcDbLine
 10
1641.999993420915
 20
1147.999995400271
 30
0.0
 11
1641.999993420915
 21
1131.999995464379
 31
0.0
  0
LINE
  5
653C
330
46
100
AcDbEntity
  8
D-TTL-FRAM
 48
20.0
100
AcDbLine
 10
1641.999993420926
 20
159.9999993589317
 30
0.0
 11
1441.999994222274
 21
159.9999993589317
 31
0.0
  0
LINE
  5
6542
330
46
100
AcDbEntity
  8
D-TTL-FRAM
 48
20.0
100
AcDbLine
 10
1441.999994222274
 20
159.9999993589317
 30
0.0
 11
1441.999994222274
 21
39.99999983973976
 31
0.0
  0
TEXT
  5
6F23
330
46
100
AcDbEntity
  8
D-TTL-TXT
100
AcDbText
 10
319.9488164566192
 20
952.9588655802843
 30
0.0
 40
14.0
  1
受金物　L=200
 72
     1
 11
383.8821497899526
 21
952.9588655802843
 31
0.0
100
AcDbText
  0
TEXT
  5
6F25
330
46
100
AcDbEntity
  8
D-TTL-TXT
100
AcDbText
 10
991.5935783007256
 20
952.9588655802843
 30
0.0
 40
14.0
  1
受金物　L=250
 72
     1
 11
1056.693578300725
 21
952.9588655802843
 31
0.0
100
AcDbText
  0
TEXT
  5
9853
330
46
100
AcDbEntity
  8
D-MTR-MTXT
  6
Continuous
100
AcDbText
 10
1121.679375602644
 20
126.344710996032
 30
0.0
 40
10.5
  1
溶融亜鉛めっきHDZ35
100
AcDbText
  0
TEXT
  5
9854
330
46
100
AcDbEntity
  8
D-MTR-MTXT
  6
Continuous
100
AcDbText
 10
1121.679375602644
 20
162.9014685915126
 30
0.0
 40
10.5
  1
溶融亜鉛めっきHDZ35
100
AcDbText
  0
LWPOLYLINE
  5
9855
330
46
100
AcDbEntity
  8
D-MTR-FRAM
  6
Continuous
100
AcDbPolyline
 90
        4
 70
     1
 43
0.0
 10
922.1427486974317
 20
123.4996809873992
 10
1352.644395371436
 20
123.4996809873992
 10
1352.644395371438
 20
293.7267113693206
 10
922.1427486974334
 20
293.7267113693206
  0
LINE
  5
9856
330
46
100
AcDbEntity
  8
D-MTR-FRAM
  6
Continuous
100
AcDbLine
 10
922.1427486974317
 20
160.0564385828797
 30
0.0
 11
1352.644395371434
 21
160.0564385828797
 31
0.0
  0
LINE
  5
9857
330
46
100
AcDbEntity
  8
D-MTR-FRAM
  6
Continuous
100
AcDbLine
 10
1352.644395371436
 20
251.4483325715805
 30
0.0
 11
922.1427486974334
 21
251.4483325715805
 31
0.0
  0
LINE
  5
9858
330
46
100
AcDbEntity
  8
D-MTR-FRAM
  6
Continuous
100
AcDbLine
 10
922.1427486974334
 20
269.7267113693206
 30
0.0
 11
1352.644395371436
 21
269.7267113693206
 31
0.0
  0
LINE
  5
9859
330
46
100
AcDbEntity
  8
D-MTR-FRAM
  6
Continuous
100
AcDbLine
 10
922.1427486974334
 20
233.1699537738405
 30
0.0
 11
1352.644395371436
 21
233.1699537738405
 31
0.0
  0
TEXT
  5
985A
330
46
100
AcDbEntity
  8
D-MTR-MTXT
  6
Continuous
100
AcDbText
 10
1121.679375602645
 20
236.0149837824729
 30
0.0
 40
10.5
  1
溶融亜鉛めっきHDZ45
100
AcDbText
  0
LINE
  5
985B
330
46
100
AcDbEntity
  8
D-MTR-FRAM
  6
Continuous
100
AcDbLine
 10
922.1427486974334
 20
196.6131961783599
 30
0.0
 11
1352.644395371436
 21
196.6131961783599
 31
0.0
  0
LINE
  5
985C
330
46
100
AcDbEntity
  8
D-MTR-FRAM
  6
Continuous
100
AcDbLine
 10
1352.644395371436
 20
214.8915749761
 30
0.0
 11
922.1427486974334
 21
214.8915749761
 31
0.0
  0
TEXT
  5
985D
330
46
100
AcDbEntity
  8
D-MTR-MTXT
  6
Continuous
100
AcDbText
 10
1121.679375602645
 20
217.6688945583146
 30
0.0
 40
10.5
  1
溶融亜鉛めっきHDZ45
100
AcDbText
  0
TEXT
  5
985E
330
46
100
AcDbEntity
  8
D-MTR-MTXT
  6
Continuous
100
AcDbText
 10
1121.679375602645
 20
199.4582261869927
 30
0.0
 40
10.5
  1
溶融亜鉛めっきHDZ45
100
AcDbText
  0
TEXT
  5
985F
330
46
100
AcDbEntity
  8
D-MTR-MTXT
  6
Continuous
100
AcDbText
 10
1121.679375602645
 20
181.1121369628344
 30
0.0
 40
10.5
  1
角根丸頭ﾎﾞﾙﾄ（M12×30:A形1種)
100
AcDbText
  0
LINE
  5
9860
330
46
100
AcDbEntity
  8
D-MTR-FRAM
  6
Continuous
100
AcDbLine
 10
1034.049586450365
 20
269.5912905164823
 30
0.0
 11
1034.049586450363
 21
123.4996809873992
 31
0.0
  0
LINE
  5
9861
330
46
100
AcDbEntity
  8
D-MTR-FRAM
  6
Continuous
100
AcDbLine
 10
1112.393572034434
 20
269.7267113693206
 30
0.0
 11
1112.393572034433
 21
123.4996809873992
 31
0.0
  0
LINE
  5
9862
330
46
100
AcDbEntity
  8
D-MTR-FRAM
  6
Continuous
100
AcDbLine
 10
949.9213499457773
 20
269.5912905164823
 30
0.0
 11
949.9213499457756
 21
123.4996809873992
 31
0.0
  0
TEXT
  5
9863
330
46
100
AcDbEntity
  8
D-MTR-MTXT
  6
Continuous
100
AcDbText
 10
964.8174355902311
 20
199.3905157605763
 30
0.0
 40
10.5
  1
支持ピン
100
AcDbText
  0
TEXT
  5
9864
330
46
100
AcDbEntity
  8
D-MTR-MTXT
  6
Continuous
100
AcDbText
 10
1044.846341079864
 20
199.3905157605763
 30
0.0
 40
10.5
  1
SWCH
100
AcDbText
  0
TEXT
  5
9865
330
46
100
AcDbEntity
  8
D-MTR-MTXT
  6
Continuous
100
AcDbText
 10
931.1382034128442
 20
199.3594282751392
 30
0.0
 40
10.5
  1
3
 11
931.1382034128442
 21
209.8594282751392
 31
0.0
100
AcDbText
 73
     3
  0
TEXT
  5
9866
330
46
100
AcDbEntity
  8
D-MTR-MTXT
  6
Continuous
100
AcDbText
 10
964.8174355902311
 20
172.1121369628363
 30
0.0
 40
10.5
  1
固定用ﾎﾞﾙﾄ
100
AcDbText
  0
TEXT
  5
9867
330
46
100
AcDbEntity
  8
D-MTR-MTXT
  6
Continuous
100
AcDbText
 10
965.0824106689242
 20
135.2770005696161
 30
0.0
 40
10.5
  1
固定用ﾅｯﾄ
100
AcDbText
  0
TEXT
  5
9868
330
46
100
AcDbEntity
  8
D-MTR-MTXT
  6
Continuous
100
AcDbText
 10
931.1292822572541
 20
135.2459130841807
 30
0.0
 40
10.5
  1
5
 11
931.1292822572541
 21
145.7459130841807
 31
0.0
100
AcDbText
 73
     3
  0
TEXT
  5
9869
330
46
100
AcDbEntity
  8
D-MTR-MTXT
  6
Continuous
100
AcDbText
 10
931.1382034128442
 20
172.0810494774014
 30
0.0
 40
10.5
  1
4
 11
931.1382034128442
 21
182.5810494774014
 31
0.0
100
AcDbText
 73
     3
  0
TEXT
  5
986A
330
46
100
AcDbEntity
  8
D-MTR-MTXT
  6
Continuous
100
AcDbText
 10
1044.846341079862
 20
135.2770005696156
 30
0.0
 40
10.5
  1
SWCH
100
AcDbText
  0
TEXT
  5
986B
330
46
100
AcDbEntity
  8
D-MTR-MTXT
  6
Continuous
100
AcDbText
 10
1044.846341079864
 20
172.1121369628363
 30
0.0
 40
10.5
  1
SWCH
100
AcDbText
  0
TEXT
  5
986C
330
46
100
AcDbEntity
  8
D-MTR-MTXT
  6
Continuous
100
AcDbText
 10
1134.124600113192
 20
144.5553793673562
 30
0.0
 40
10.5
  1
M12用
100
AcDbText
  0
TEXT
  5
986D
330
46
100
AcDbEntity
  8
D-MTR-MTXT
  6
Continuous
100
AcDbText
 10
970.5537295561976
 20
235.9472733560556
 30
0.0
 40
10.5
  1
本　体
100
AcDbText
  0
TEXT
  5
986E
330
46
100
AcDbEntity
  8
D-MTR-TXT
  6
Continuous
100
AcDbText
 10
972.3560216991314
 20
254.2256521537952
 30
0.0
 40
10.5
  1
品　名
100
AcDbText
  0
TEXT
  5
986F
330
46
100
AcDbEntity
  8
D-MTR
  6
Continuous
100
AcDbText
 10
932.183688854308
 20
273.2516910758773
 30
0.0
 40
15.0
  1
通信用受金物（L=250）
100
AcDbText
  0
TEXT
  5
9870
330
46
100
AcDbEntity
  8
D-MTR-MTXT
  6
Continuous
100
AcDbText
 10
962.7894610111898
 20
217.668894558316
 30
0.0
 40
10.5
  1
取付ﾌﾟﾚｰﾄ
100
AcDbText
  0
TEXT
  5
9871
330
46
100
AcDbEntity
  8
D-MTR-TXT
  6
Continuous
100
AcDbText
 10
925.7731081313767
 20
252.865847826341
 30
0.0
 40
10.5
  1
符号
 11
925.7731081313767
 21
263.365847826341
 31
0.0
100
AcDbText
 73
     3
  0
TEXT
  5
9872
330
46
100
AcDbEntity
  8
D-MTR-MTXT
  6
Continuous
100
AcDbText
 10
931.1382034128442
 20
217.6378070728797
 30
0.0
 40
10.5
  1
2
 11
931.1382034128442
 21
228.1378070728797
 31
0.0
100
AcDbText
 73
     3
  0
TEXT
  5
9873
330
46
100
AcDbEntity
  8
D-MTR-MTXT
  6
Continuous
100
AcDbText
 10
932.418371423661
 20
235.9161858706197
 30
0.0
 40
10.5
  1
1
 11
932.418371423661
 21
246.4161858706197
 31
0.0
100
AcDbText
 73
     3
  0
TEXT
  5
9874
330
46
100
AcDbEntity
  8
D-MTR-TXT
  6
Continuous
100
AcDbText
 10
1055.353104736418
 20
254.2256521537952
 30
0.0
 40
10.5
  1
材　質
100
AcDbText
  0
TEXT
  5
9875
330
46
100
AcDbEntity
  8
D-MTR-MTXT
  6
Continuous
100
AcDbText
 10
1044.846341079864
 20
235.9472733560556
 30
0.0
 40
10.5
  1
SPHC
100
AcDbText
  0
TEXT
  5
9876
330
46
100
AcDbEntity
  8
D-MTR-MTXT
  6
Continuous
100
AcDbText
 10
1044.846341079864
 20
217.6688945583155
 30
0.0
 40
10.5
  1
SPHC
100
AcDbText
  0
TEXT
  5
9877
330
46
100
AcDbEntity
  8
D-MTR-TXT
  6
Continuous
100
AcDbText
 10
1194.288824517975
 20
254.2256521537952
 30
0.0
 40
10.5
  1
規　格
100
AcDbText
  0
LINE
  5
9889
330
46
100
AcDbEntity
  8
D-MTR-FRAM
  6
Continuous
100
AcDbLine
 10
1324.100554770149
 20
269.5912905164823
 30
0.0
 11
1324.100554770147
 21
123.4996809873992
 31
0.0
  0
TEXT
  5
988A
330
46
100
AcDbEntity
  8
D-MTR-MTXT
  6
Continuous
100
AcDbText
 10
1337.802224729988
 20
199.3594282751401
 30
0.0
 40
10.5
  1
1
 11
1337.802224729988
 21
209.8594282751401
 31
0.0
100
AcDbText
 73
     3
  0
TEXT
  5
988B
330
46
100
AcDbEntity
  8
D-MTR-MTXT
  6
Continuous
100
AcDbText
 10
1337.802224729986
 20
135.2459130841794
 30
0.0
 40
10.5
  1
1
 11
1337.802224729986
 21
145.7459130841794
 31
0.0
100
AcDbText
 73
     3
  0
TEXT
  5
988C
330
46
100
AcDbEntity
  8
D-MTR-MTXT
  6
Continuous
100
AcDbText
 10
1337.802224729988
 20
172.0810494773995
 30
0.0
 40
10.5
  1
1
 11
1337.802224729988
 21
182.5810494773995
 31
0.0
100
AcDbText
 73
     3
  0
TEXT
  5
988F
330
46
100
AcDbEntity
  8
D-MTR-TXT
  6
Continuous
100
AcDbText
 10
1326.897478254663
 20
252.865847826341
 30
0.0
 40
10.5
  1
数量
 11
1326.897478254663
 21
263.365847826341
 31
0.0
100
AcDbText
 73
     3
  0
TEXT
  5
9890
330
46
100
AcDbEntity
  8
D-MTR-MTXT
  6
Continuous
100
AcDbText
 10
1337.802224729989
 20
217.6378070728802
 30
0.0
 40
10.5
  1
1
 11
1337.802224729989
 21
228.1378070728802
 31
0.0
100
AcDbText
 73
     3
  0
TEXT
  5
9891
330
46
100
AcDbEntity
  8
D-MTR-MTXT
  6
Continuous
100
AcDbText
 10
1337.802224729989
 20
235.9161858706202
 30
0.0
 40
10.5
  1
1
 11
1337.802224729989
 21
246.4161858706202
 31
0.0
100
AcDbText
 73
     3
  0
CIRCLE
  5
98B3
330
46
100
AcDbEntity
  8
D-STR-HTXT
  6
Continuous
100
AcDbCircle
 10
247.271320354891
 20
555.2581662396598
 30
0.0
 40
9.0
  0
MTEXT
  5
98B4
330
46
100
AcDbEntity
  8
D-STR-HTXT
  6
Continuous
100
AcDbMText
 10
247.271320354891
 20
555.2581662396598
 30
0.0
 40
10.5
 41
22.8991
 71
     5
 72
     5
  1
3
 73
     1
 44
1.0
1001
ACAD
1000
MTEXTBEGIN
1070
    73
1070
     1
1070
    44
1040
1.0
1070
    74
1070
     0
1000
MTEXTEND
  0
MTEXT
  5
98B5
330
46
100
AcDbEntity
  8
D-STR-HTXT
  6
Continuous
100
AcDbMText
 10
257.2271826779734
 20
502.3936173617187
 30
0.0
 40
10.5
 41
22.8991
 71
     5
 72
     5
  1
2
 73
     1
 44
1.0
1001
ACAD
1000
MTEXTBEGIN
1070
    73
1070
     1
1070
    44
1040
1.0
1070
    74
1070
     0
1000
MTEXTEND
  0
CIRCLE
  5
98B6
330
46
100
AcDbEntity
  8
D-STR-HTXT
  6
Continuous
100
AcDbCircle
 10
257.2271826779734
 20
502.3936173617187
 30
0.0
 40
9.0
  0
LINE
  5
98C7
330
46
100
AcDbEntity
  8
D-STR-HTXT
  6
Continuous
100
AcDbLine
 10
263.1394067888477
 20
544.2909679022656
 30
0.0
 11
256.3815880497273
 21
549.4327865081088
 31
0.0
1001
ACAD
1000
DSTYLE
1002
{
1070
    41
1040
6.0
1070
   341
1005
9550
1070
   147
1040
5.0
1070
    77
1070
     0
1002
}
  0
INSERT
  5
98C8
330
46
100
AcDbEntity
  8
D-STR-HTXT
  6
Continuous
100
AcDbBlockReference
  2
_Open
 10
267.9143789535697
 20
540.6578369073592
 30
0.0
 41
-5.999999999999235
 42
6.0
 43
6.0
 50
142.7335980990317
1001
ACAD
1000
DSTYLE
1002
{
1070
    41
1040
6.0
1070
   341
1005
9550
1070
   147
1040
5.0
1070
    77
1070
     0
1002
}
  0
CIRCLE
  5
98CC
330
46
100
AcDbEntity
  8
D-STR-HTXT
  6
Continuous
100
AcDbCircle
 10
416.1410507467821
 20
562.8058362058282
 30
0.0
 40
9.0
  0
MTEXT
  5
98D4
330
46
100
AcDbEntity
  8
D-STR-HTXT
  6
Continuous
100
AcDbMText
 10
416.1410507467821
 20
562.8058362058282
 30
0.0
 40
10.5
 41
22.8991
 71
     5
 72
     5
  1
1
 73
     1
 44
1.0
1001
ACAD
1000
MTEXTBEGIN
1070
    73
1070
     1
1070
    44
1040
1.0
1070
    74
1070
     0
1000
MTEXTEND
  0
LINE
  5
98E8
330
46
100
AcDbEntity
  8
D-STR-HTXT
  6
Continuous
100
AcDbLine
 10
263.1048299526433
 20
744.7171518561451
 30
0.0
 11
238.097988089874
 21
730.2794449750843
 31
0.0
1001
ACAD
1000
DSTYLE
1002
{
1070
    41
1040
6.0
1070
   341
1005
9550
1070
   147
1040
5.0
1070
    77
1070
     0
1002
}
  0
CIRCLE
  5
98E9
330
46
100
AcDbEntity
  8
D-STR-HTXT
  6
Continuous
100
AcDbCircle
 10
225.6464059105338
 20
725.6057075699602
 30
0.0
 40
9.0
  0
MTEXT
  5
98EA
330
46
100
AcDbEntity
  8
D-STR-HTXT
  6
Continuous
100
AcDbMText
 10
225.6464059105338
 20
725.6057075699602
 30
0.0
 40
10.5
 41
22.8991
 71
     5
 72
     5
  1
3
 73
     1
 44
1.0
1001
ACAD
1000
MTEXTBEGIN
1070
    73
1070
     1
1070
    44
1040
1.0
1070
    74
1070
     0
1000
MTEXTEND
  0
INSERT
  5
98EF
330
46
100
AcDbEntity
  8
D-STR-HTXT
  6
Continuous
100
AcDbBlockReference
  2
_Open
 10
268.300982375355
 20
747.7171518561394
 30
0.0
 41
-5.999999999999178
 42
6.0
 43
6.0
 50
210.0000000000103
1001
ACAD
1000
DSTYLE
1002
{
1070
    41
1040
6.0
1070
   341
1005
9550
1070
   147
1040
5.0
1070
    77
1070
     0
1002
}
  0
LINE
  5
98F9
330
46
100
AcDbEntity
  8
D-STR-HTXT
  6
Continuous
100
AcDbLine
 10
270.7717262227056
 20
800.6882865443861
 30
0.0
 11
234.1213299616816
 21
834.6545879565901
 31
0.0
1001
ACAD
1000
DSTYLE
1002
{
1070
    41
1040
6.0
1070
   341
1005
9550
1070
   147
1040
5.0
1070
    77
1070
     0
1002
}
  0
INSERT
  5
9901
330
46
100
AcDbEntity
  8
D-STR-HTXT
  6
Continuous
100
AcDbBlockReference
  2
_Open
 10
275.1724491902878
 20
796.6098508929856
 30
0.0
 41
-5.99999999999942
 42
6.0
 43
6.0
 50
137.1767275510342
1001
ACAD
1000
DSTYLE
1002
{
1070
    41
1040
6.0
1070
   341
1005
9550
1070
   147
1040
5.0
1070
    77
1070
     0
1002
}
  0
MTEXT
  5
9906
330
46
100
AcDbEntity
  8
D-STR-HTXT
  6
Continuous
100
AcDbMText
 10
225.6464059105338
 20
839.1245816919083
 30
0.0
 40
10.5
 41
22.89912
 71
     5
 72
     5
  1
2
 73
     1
 44
1.0
1001
ACAD
1000
MTEXTBEGIN
1070
    73
1070
     1
1070
    44
1040
1.0
1070
    74
1070
     0
1000
MTEXTEND
  0
CIRCLE
  5
9907
330
46
100
AcDbEntity
  8
D-STR-HTXT
  6
Continuous
100
AcDbCircle
 10
225.6464059105338
 20
839.1245816919083
 30
0.0
 40
9.0
  0
CIRCLE
  5
990E
330
46
100
AcDbEntity
  8
D-STR-HTXT
  6
Continuous
100
AcDbCircle
 10
382.9270068000201
 20
790.7073496729017
 30
0.0
 40
9.0
  0
MTEXT
  5
990F
330
46
100
AcDbEntity
  8
D-STR-HTXT
  6
Continuous
100
AcDbMText
 10
382.9270068000201
 20
790.7073496729017
 30
0.0
 40
10.5
 41
22.8991
 71
     5
 72
     5
  1
1
 73
     1
 44
1.0
1001
ACAD
1000
MTEXTBEGIN
1070
    73
1070
     1
1070
    44
1040
1.0
1070
    74
1070
     0
1000
MTEXTEND
  0
INSERT
  5
991E
330
46
100
AcDbEntity
  8
D-STR-HTXT
  6
Continuous
100
AcDbBlockReference
  2
_Open
 10
695.3773559402245
 20
553.0884781980025
 30
0.0
 41
-5.999999999999388
 42
6.0
 43
6.0
 50
39.80557109227014
1001
ACAD
1000
DSTYLE
1002
{
1070
    41
1040
6.0
1070
   341
1005
9550
1070
   147
1040
5.0
1070
    77
1070
     0
1002
}
  0
LINE
  5
991F
330
46
100
AcDbEntity
  8
D-STR-HTXT
  6
Continuous
100
AcDbLine
 10
664.9364441925367
 20
541.5201145249279
 30
0.0
 11
623.1551402549403
 21
563.5502566011068
 31
0.0
1001
ACAD
1000
DSTYLE
1002
{
1070
    41
1040
6.0
1070
   341
1005
9550
1070
   147
1040
5.0
1070
    77
1070
     0
1002
}
  0
INSERT
  5
9941
330
46
100
AcDbEntity
  8
D-STR-HTXT
  6
Continuous
100
AcDbBlockReference
  2
_Open
 10
670.2438587954461
 20
538.7216595524762
 30
0.0
 41
-5.999999999999332
 42
6.0
 43
6.0
 50
152.1985412200751
1001
ACAD
1000
DSTYLE
1002
{
1070
    41
1040
6.0
1070
   341
1005
9550
1070
   147
1040
5.0
1070
    77
1070
     0
1002
}
  0
CIRCLE
  5
994C
330
46
100
AcDbEntity
  8
D-STR-HTXT
  6
Continuous
100
AcDbCircle
 10
614.023045921168
 20
569.1376320040895
 30
0.0
 40
9.0
  0
MTEXT
  5
994D
330
46
100
AcDbEntity
  8
D-STR-HTXT
  6
Continuous
100
AcDbMText
 10
614.023045921168
 20
569.1376320040895
 30
0.0
 40
10.5
 41
22.8991
 71
     5
 72
     5
  1
3
 73
     1
 44
1.0
1001
ACAD
1000
MTEXTBEGIN
1070
    73
1070
     1
1070
    44
1040
1.0
1070
    74
1070
     0
1000
MTEXTEND
  0
CIRCLE
  5
9951
330
46
100
AcDbEntity
  8
D-STR-HTXT
  6
Continuous
100
AcDbCircle
 10
722.3178802857321
 20
573.1625863505119
 30
0.0
 40
9.0
  0
LINE
  5
9952
330
46
100
AcDbEntity
  8
D-STR-HTXT
  6
Continuous
100
AcDbLine
 10
699.9866836178077
 20
556.9295845959896
 30
0.0
 11
712.9479877507767
 21
567.7306713734428
 31
0.0
1001
ACAD
1000
DSTYLE
1002
{
1070
    41
1040
6.0
1070
   341
1005
9550
1070
   147
1040
5.0
1070
    77
1070
     0
1002
}
  0
MTEXT
  5
9953
330
46
100
AcDbEntity
  8
D-STR-HTXT
  6
Continuous
100
AcDbMText
 10
722.3178802857321
 20
573.1625863505119
 30
0.0
 40
10.5
 41
22.8991
 71
     5
 72
     5
  1
1
 73
     1
 44
1.0
1001
ACAD
1000
MTEXTBEGIN
1070
    73
1070
     1
1070
    44
1040
1.0
1070
    74
1070
     0
1000
MTEXTEND
  0
LINE
  5
9E82
330
46
100
AcDbEntity
  8
D-STR
  6
Continuous
100
AcDbLine
 10
1176.176780848815
 20
545.0407142651283
 30
0.0
 11
934.6354625290715
 21
493.6086694876669
 31
0.0
  0
LINE
  5
9E83
330
46
100
AcDbEntity
  8
D-STR
  6
DASHED
100
AcDbLine
 10
934.7952626117749
 20
540.4126619886819
 30
0.0
 11
1180.135462529072
 21
552.6796495504209
 31
0.0
  0
LINE
  5
9E84
330
46
100
AcDbEntity
  8
D-STR
  6
Continuous
100
AcDbLine
 10
934.6354625290715
 20
543.6086694876669
 30
0.0
 11
1180.135462529072
 21
555.8836470389287
 31
0.0
  0
ARC
  5
9E86
330
46
100
AcDbEntity
  8
D-STR
  6
Continuous
100
AcDbCircle
 10
924.6354625290715
 20
544.4086694876668
 30
0.0
 40
4.999999999999999
100
AcDbArc
 50
90.0
 51
180.0
  0
LINE
  5
9E8A
330
46
100
AcDbEntity
  8
D-BMK
  6
CENTER
100
AcDbLine
 10
909.6354625290715
 20
484.4086694876668
 30
0.0
 11
944.6354625290714
 21
484.4086694876668
 31
0.0
  0
LINE
  5
9E8B
330
46
100
AcDbEntity
  8
D-BMK
  6
CENTER
100
AcDbLine
 10
910.1354625290714
 20
534.4086694876668
 30
0.0
 11
944.6354625290714
 21
534.4086694876668
 31
0.0
  0
LINE
  5
9E8C
330
46
100
AcDbEntity
  8
D-STR
  6
Continuous
100
AcDbLine
 10
919.6354625290714
 20
544.4086694876668
 30
0.0
 11
919.6354625290714
 21
474.4086694876669
 31
0.0
  0
LINE
  5
9E8D
330
46
100
AcDbEntity
  8
D-STR
  6
DASHED
100
AcDbLine
 10
930.1354625290715
 20
549.4086694876669
 30
0.0
 11
930.1354625290715
 21
469.4086694876668
 31
0.0
  0
LINE
  5
9E8E
330
46
100
AcDbEntity
  8
D-STR
  6
Continuous
100
AcDbLine
 10
934.6354625290715
 20
549.4086694876669
 30
0.0
 11
934.6354625290715
 21
469.4086694876668
 31
0.0
  0
LINE
  5
9E8F
330
46
100
AcDbEntity
  8
D-STR
  6
Continuous
100
AcDbLine
 10
924.6354625290715
 20
469.4086694876668
 30
0.0
 11
934.6354625290715
 21
469.4086694876668
 31
0.0
  0
ARC
  5
9E90
330
46
100
AcDbEntity
  8
D-STR
  6
Continuous
100
AcDbCircle
 10
924.6354625290715
 20
474.4086694876669
 30
0.0
 40
4.999999999999999
100
AcDbArc
 50
180.0
 51
270.0
  0
ARC
  5
9E91
330
46
100
AcDbEntity
  8
D-STR-STR2
  6
Continuous
100
AcDbCircle
 10
931.6354625290713
 20
534.4086694876668
 30
0.0
 40
14.9999999999999
100
AcDbArc
 50
143.1301023541664
 51
216.8698976458336
  0
LINE
  5
9E92
330
46
100
AcDbEntity
  8
D-STR-STR2
  6
DASHED
100
AcDbLine
 10
922.6354625290719
 20
546.4086694876669
 30
0.0
 11
922.6354625290719
 21
522.4086694876668
 31
0.0
  0
LINE
  5
9E93
330
46
100
AcDbEntity
  8
D-STR-STR2
  6
DASHED
100
AcDbLine
 10
924.6354625290718
 20
546.4086694876669
 30
0.0
 11
924.6354625290718
 21
522.4086694876668
 31
0.0
  0
ARC
  5
9E94
330
46
100
AcDbEntity
  8
D-STR-STR2
  6
DASHED
100
AcDbCircle
 10
931.6354625290713
 20
534.4086694876668
 30
0.0
 40
14.9999999999999
100
AcDbArc
 50
216.8698976458336
 51
233.1301023541586
  0
LINE
  5
9E95
330
46
100
AcDbEntity
  8
D-STR-STR2
  6
DASHED
100
AcDbLine
 10
922.6354625290719
 20
522.4086694876668
 30
0.0
 11
924.6354625290718
 21
522.4086694876668
 31
0.0
  0
LINE
  5
9E96
330
46
100
AcDbEntity
  8
D-STR-STR2
  6
DASHED
100
AcDbLine
 10
936.6354625290719
 20
528.4086694876669
 30
0.0
 11
924.6354625290718
 21
528.4086694876669
 31
0.0
  0
LINE
  5
9E97
330
46
100
AcDbEntity
  8
D-STR-STR2
  6
DASHED
100
AcDbLine
 10
924.6354625290718
 20
540.4086694876668
 30
0.0
 11
936.6354625290719
 21
540.4086694876668
 31
0.0
  0
LINE
  5
9E98
330
46
100
AcDbEntity
  8
D-STR
  6
Continuous
100
AcDbLine
 10
924.6354625290715
 20
549.4086694876669
 30
0.0
 11
934.6354625290715
 21
549.4086694876669
 31
0.0
  0
ARC
  5
9E99
330
46
100
AcDbEntity
  8
D-STR-STR2
  6
DASHED
100
AcDbCircle
 10
931.6354625290713
 20
534.4086694876668
 30
0.0
 40
14.9999999999999
100
AcDbArc
 50
126.8698976458414
 51
143.1301023541664
  0
LINE
  5
9E9A
330
46
100
AcDbEntity
  8
D-STR-STR2
  6
DASHED
100
AcDbLine
 10
922.6354625290719
 20
546.4086694876669
 30
0.0
 11
924.6354625290718
 21
546.4086694876669
 31
0.0
  0
LINE
  5
9E9B
330
46
100
AcDbEntity
  8
D-STR-STR2
  6
DASHED
100
AcDbLine
 10
936.6354625290719
 20
540.4086694876668
 30
0.0
 11
936.6354625290719
 21
528.4086694876669
 31
0.0
  0
LINE
  5
9E9C
330
46
100
AcDbEntity
  8
D-STR-STR3
  6
PHANTOM
100
AcDbLine
 10
1181.044272663998
 20
543.9384813793913
 30
0.0
 11
1141.100456689038
 21
535.5843545889258
 31
0.0
  0
LINE
  5
9E9D
330
46
100
AcDbEntity
  8
D-STR-STR3
  6
PHANTOM
100
AcDbLine
 10
1164.654801205863
 20
555.1096153883338
 30
0.0
 11
1140.18536879176
 21
553.8861460051353
 31
0.0
  0
LINE
  5
9E9E
330
46
100
AcDbEntity
  8
D-STR-STR3
  6
PHANTOM
100
AcDbLine
 10
1180.63483778752
 20
545.8961236046007
 30
0.0
 11
1140.999350463031
 21
537.6064828071807
 31
0.0
  0
LINE
  5
9E9F
330
46
100
AcDbEntity
  8
D-STR-STR3
  6
PHANTOM
100
AcDbLine
 10
1140.08549374007
 20
555.8836506920008
 30
0.0
 11
1164.554926154173
 21
557.1071200751991
 31
0.0
  0
LINE
  5
9EA0
330
46
100
AcDbEntity
  8
D-STR-STR3
  6
PHANTOM
100
AcDbLine
 10
1141.100456689038
 20
535.5843545889258
 30
0.0
 11
1140.08549374007
 21
555.8836506920006
 31
0.0
  0
LINE
  5
9EAB
330
46
100
AcDbEntity
  8
D-STR-STR3
  6
PHANTOM
100
AcDbLine
 10
1182.627699081595
 20
546.0888666819469
 30
0.0
 11
1181.508748142877
 21
568.4679263835282
 31
0.0
  0
LINE
  5
9EAC
330
46
100
AcDbEntity
  8
D-STR-STR3
  6
PHANTOM
100
AcDbLine
 10
1180.63483778752
 20
545.8961236046007
 30
0.0
 11
1179.511243456011
 21
568.3680513318385
 31
0.0
  0
LINE
  5
9EAD
330
46
100
AcDbEntity
  8
D-BMK
  6
PHANTOM
100
AcDbLine
 10
1159.854978380109
 20
560.9936532999777
 30
0.0
 11
1160.479026676134
 21
548.512664553996
 31
0.0
  0
ARC
  5
9EAE
330
46
100
AcDbEntity
  8
D-STR
  6
Continuous
100
AcDbCircle
 10
1175.135462529071
 20
549.931077866842
 30
0.0
 40
4.999999999999999
100
AcDbArc
 50
282.0206178971556
 51
0.0
  0
ARC
  5
9EAF
330
46
100
AcDbEntity
  8
D-STR
  6
PHANTOM
100
AcDbCircle
 10
1175.135462529072
 20
549.931077866842
 30
0.0
 40
4.999999999999999
100
AcDbArc
 50
282.0206178971556
 51
0.0
  0
ARC
  5
9EB3
330
46
100
AcDbEntity
  8
D-STR-STR3
  6
PHANTOM
100
AcDbCircle
 10
1180.630194394729
 20
545.9889916302572
 30
0.0
 40
1.999999999999999
100
AcDbArc
 50
282.0206178971556
 51
2.862399999998995
  0
ARC
  5
9EB4
330
46
100
AcDbEntity
  8
D-STR-STR3
  6
PHANTOM
100
AcDbCircle
 10
1164.030582132803
 20
567.5940196812437
 30
0.0
 40
10.5
100
AcDbArc
 50
272.862400000012
 51
2.862399999998995
  0
ARC
  5
9EB5
330
46
100
AcDbEntity
  8
D-STR-STR3
  6
PHANTOM
100
AcDbCircle
 10
1164.030582132803
 20
567.5940196812437
 30
0.0
 40
12.5
100
AcDbArc
 50
272.862400000012
 51
2.862399999998995
  0
LINE
  5
9EB6
330
46
100
AcDbEntity
  8
D-STR-STR3
  6
PHANTOM
100
AcDbLine
 10
1163.231578979481
 20
553.5365805844174
 30
0.0
 11
1157.239064918885
 21
553.2369554293482
 31
0.0
  0
LINE
  5
9EB7
330
46
100
AcDbEntity
  8
D-STR-STR3
  6
PHANTOM
100
AcDbLine
 10
1157.164158630117
 20
554.7350839444975
 30
0.0
 11
1157.239064918885
 21
553.2369554293482
 31
0.0
  0
LINE
  5
9EB8
330
46
100
AcDbEntity
  8
D-STR-STR3
  6
PHANTOM
100
AcDbLine
 10
1163.156672690714
 20
555.0347090995664
 30
0.0
 11
1163.231578979481
 21
553.5365805844174
 31
0.0
  0
LINE
  5
9EB9
330
46
100
AcDbEntity
  8
D-STR
  6
DOT
100
AcDbLine
 10
1180.135462529072
 20
555.8836470389287
 30
0.0
 11
1180.135462529072
 21
549.931077866842
 31
0.0
  0
LINE
  5
9EBA
330
46
100
AcDbEntity
  8
D-STR
  6
Continuous
100
AcDbLine
 10
1180.135462529072
 20
555.8836470389287
 30
0.0
 11
1180.135462529072
 21
549.931077866842
 31
0.0
  0
LINE
  5
9EBB
330
46
100
AcDbEntity
  8
D-STR-STR3
  6
PHANTOM
100
AcDbLine
 10
1176.514986425712
 20
568.2182387543041
 30
0.0
 11
1179.511243456011
 21
568.3680513318385
 31
0.0
  0
LINE
  5
9EBC
330
46
100
AcDbEntity
  8
D-STR-STR3
  6
PHANTOM
100
AcDbLine
 10
1176.415111374023
 20
570.2157434411697
 30
0.0
 11
1179.411368404321
 21
570.3655560187042
 31
0.0
  0
ARC
  5
9EBD
330
46
100
AcDbEntity
  8
D-STR-STR3
  6
PHANTOM
100
AcDbCircle
 10
1176.514986425712
 20
568.2182387543041
 30
0.0
 40
1.999999999999999
100
AcDbArc
 50
92.86240000001201
 51
182.862399999999
  0
ARC
  5
9EBE
330
46
100
AcDbEntity
  8
D-STR-STR3
  6
PHANTOM
100
AcDbCircle
 10
1179.511243456011
 20
568.3680513318385
 30
0.0
 40
1.999999999999999
100
AcDbArc
 50
2.862399999998995
 51
92.86240000001201
  0
LINE
  5
9EC4
330
46
100
AcDbEntity
  8
D-STR
  6
DASHED
100
AcDbLine
 10
934.6354625290715
 20
731.3098508929854
 30
0.0
 11
1180.135462529071
 21
731.3098508929854
 31
0.0
  0
LINE
  5
9EC5
330
46
100
AcDbEntity
  8
D-STR
  6
DASHED
100
AcDbLine
 10
934.6354625290715
 20
774.9098508929855
 30
0.0
 11
1180.135462529071
 21
774.9098508929855
 31
0.0
  0
LINE
  5
9EC6
330
46
100
AcDbEntity
  8
D-STR
  6
Continuous
100
AcDbLine
 10
934.6354625290715
 20
728.1098508929854
 30
0.0
 11
1180.135462529071
 21
728.1098508929854
 31
0.0
  0
LINE
  5
9EC7
330
46
100
AcDbEntity
  8
D-STR
  6
Continuous
100
AcDbLine
 10
934.6354625290715
 20
778.1098508929856
 30
0.0
 11
1180.135462529071
 21
778.1098508929856
 31
0.0
  0
LINE
  5
9EC8
330
46
100
AcDbEntity
  8
D-BMK
  6
CENTER
100
AcDbLine
 10
910.1354625290714
 20
753.1098508929856
 30
0.0
 11
1250.135462529071
 21
753.1098508929856
 31
0.0
  0
ARC
  5
9ECD
330
46
100
AcDbEntity
  8
D-STR
  6
Continuous
100
AcDbCircle
 10
936.6354625290714
 20
745.6098508929856
 30
0.0
 40
4.999999999999999
100
AcDbArc
 50
270.0
 51
0.0
  0
LINE
  5
9ECE
330
46
100
AcDbEntity
  8
D-STR
  6
Continuous
100
AcDbLine
 10
934.6354625290715
 20
791.1098508929856
 30
0.0
 11
934.6354625290715
 21
715.1098508929855
 31
0.0
  0
LINE
  5
9ECF
330
46
100
AcDbEntity
  8
D-STR
  6
Continuous
100
AcDbLine
 10
930.1354625290715
 20
791.1098508929856
 30
0.0
 11
930.1354625290715
 21
715.1098508929855
 31
0.0
  0
ARC
  5
9EDB
330
46
100
AcDbEntity
  8
D-STR
  6
Continuous
100
AcDbCircle
 10
929.1354625290715
 20
715.1098508929855
 30
0.0
 40
5.5
100
AcDbArc
 50
270.0
 51
0.0
  0
LINE
  5
9EDC
330
46
100
AcDbEntity
  8
D-STR
  6
Continuous
100
AcDbLine
 10
919.6354625290714
 20
714.1098508929855
 30
0.0
 11
929.1354625290715
 21
714.1098508929855
 31
0.0
  0
LINE
  5
9EDD
330
46
100
AcDbEntity
  8
D-STR
  6
Continuous
100
AcDbLine
 10
919.6354625290714
 20
709.6098508929856
 30
0.0
 11
929.1354625290715
 21
709.6098508929856
 31
0.0
  0
LINE
  5
9EDE
330
46
100
AcDbEntity
  8
D-STR
  6
Continuous
100
AcDbLine
 10
919.6354625290714
 20
709.6098508929856
 30
0.0
 11
919.6354625290714
 21
714.1098508929855
 31
0.0
  0
ARC
  5
9EDF
330
46
100
AcDbEntity
  8
D-STR
  6
Continuous
100
AcDbCircle
 10
929.1354625290715
 20
715.1098508929855
 30
0.0
 40
0.9999999999999998
100
AcDbArc
 50
270.0
 51
0.0
  0
ARC
  5
9EF1
330
46
100
AcDbEntity
  8
D-STR
  6
Continuous
100
AcDbCircle
 10
936.6354625290714
 20
760.6098508929854
 30
0.0
 40
4.999999999999999
100
AcDbArc
 50
0.0
 51
90.0
  0
ARC
  5
9EF2
330
46
100
AcDbEntity
  8
D-STR-STR2
  6
Continuous
100
AcDbCircle
 10
931.6354625290713
 20
753.1098508929856
 30
0.0
 40
14.9999999999999
100
AcDbArc
 50
126.8698976458414
 51
233.1301023541586
  0
LINE
  5
9EF3
330
46
100
AcDbEntity
  8
D-STR-STR2
  6
Continuous
100
AcDbLine
 10
922.6354625290714
 20
765.1098508929855
 30
0.0
 11
922.6354625290714
 21
741.1098508929856
 31
0.0
  0
LINE
  5
9EF4
330
46
100
AcDbEntity
  8
D-STR-STR2
  6
Continuous
100
AcDbLine
 10
924.6354625290715
 20
765.1098508929855
 30
0.0
 11
924.6354625290715
 21
741.1098508929856
 31
0.0
  0
LINE
  5
9EF6
330
46
100
AcDbEntity
  8
D-STR-STR2
  6
Continuous
100
AcDbLine
 10
936.6354625290714
 20
747.1098508929856
 30
0.0
 11
934.6354625290715
 21
747.1098508929856
 31
0.0
  0
LINE
  5
9EF7
330
46
100
AcDbEntity
  8
D-STR-STR2
  6
Continuous
100
AcDbLine
 10
934.6354625290715
 20
759.1098508929856
 30
0.0
 11
936.6354625290714
 21
759.1098508929856
 31
0.0
  0
LINE
  5
9EF8
330
46
100
AcDbEntity
  8
D-STR
  6
Continuous
100
AcDbLine
 10
934.6354625290715
 20
740.6098508929856
 30
0.0
 11
936.6354625290714
 21
740.6098508929856
 31
0.0
  0
LINE
  5
9EF9
330
46
100
AcDbEntity
  8
D-STR-STR2
  6
Continuous
100
AcDbLine
 10
924.6354625290715
 20
747.1098508929856
 30
0.0
 11
930.1354625290715
 21
747.1098508929856
 31
0.0
  0
LINE
  5
9EFA
330
46
100
AcDbEntity
  8
D-STR-STR2
  6
Continuous
100
AcDbLine
 10
922.6354625290714
 20
741.1098508929856
 30
0.0
 11
924.6354625290715
 21
741.1098508929856
 31
0.0
  0
LINE
  5
9EFB
330
46
100
AcDbEntity
  8
D-STR-STR2
  6
DASHED
100
AcDbLine
 10
934.6354625290715
 20
747.1098508929856
 30
0.0
 11
930.1354625290715
 21
747.1098508929856
 31
0.0
  0
LINE
  5
9EFC
330
46
100
AcDbEntity
  8
D-STR-STR2
  6
Continuous
100
AcDbLine
 10
924.6354625290715
 20
759.1098508929856
 30
0.0
 11
930.1354625290715
 21
759.1098508929856
 31
0.0
  0
LINE
  5
9EFD
330
46
100
AcDbEntity
  8
D-STR-STR2
  6
DASHED
100
AcDbLine
 10
930.1354625290715
 20
759.1098508929856
 30
0.0
 11
934.6354625290715
 21
759.1098508929856
 31
0.0
  0
LINE
  5
9EFE
330
46
100
AcDbEntity
  8
D-STR
  6
Continuous
100
AcDbLine
 10
941.6354625290715
 20
760.6098508929854
 30
0.0
 11
941.6354625290715
 21
745.6098508929856
 31
0.0
  0
LINE
  5
9EFF
330
46
100
AcDbEntity
  8
D-STR-STR2
  6
Continuous
100
AcDbLine
 10
936.6354625290714
 20
759.1098508929856
 30
0.0
 11
936.6354625290714
 21
747.1098508929856
 31
0.0
  0
LINE
  5
9F03
330
46
100
AcDbEntity
  8
D-STR
  6
Continuous
100
AcDbLine
 10
934.6354625290715
 20
765.6098508929854
 30
0.0
 11
936.6354625290714
 21
765.6098508929854
 31
0.0
  0
LINE
  5
9F04
330
46
100
AcDbEntity
  8
D-STR
  6
Continuous
100
AcDbLine
 10
930.1354625290715
 20
765.8667335509716
 30
0.0
 11
930.1354625290715
 21
777.1098508929855
 31
0.0
  0
LINE
  5
9F07
330
46
100
AcDbEntity
  8
D-STR-STR2
  6
Continuous
100
AcDbLine
 10
922.6354625290714
 20
765.1098508929855
 30
0.0
 11
924.6354625290715
 21
765.1098508929855
 31
0.0
  0
ARC
  5
9F0C
330
46
100
AcDbEntity
  8
D-STR
  6
Continuous
100
AcDbCircle
 10
929.1354625290715
 20
791.1098508929856
 30
0.0
 40
5.5
100
AcDbArc
 50
0.0
 51
90.0
  0
LINE
  5
9F0E
330
46
100
AcDbEntity
  8
D-STR
  6
Continuous
100
AcDbLine
 10
919.6354625290714
 20
792.1098508929856
 30
0.0
 11
929.1354625290715
 21
792.1098508929856
 31
0.0
  0
LINE
  5
9F0F
330
46
100
AcDbEntity
  8
D-STR
  6
Continuous
100
AcDbLine
 10
919.6354625290714
 20
796.6098508929856
 30
0.0
 11
929.1354625290715
 21
796.6098508929856
 31
0.0
  0
LINE
  5
9F10
330
46
100
AcDbEntity
  8
D-STR
  6
Continuous
100
AcDbLine
 10
919.6354625290714
 20
796.6098508929856
 30
0.0
 11
919.6354625290714
 21
792.1098508929856
 31
0.0
  0
ARC
  5
9F11
330
46
100
AcDbEntity
  8
D-STR
  6
Continuous
100
AcDbCircle
 10
929.1354625290715
 20
791.1098508929856
 30
0.0
 40
0.9999999999999998
100
AcDbArc
 50
0.0
 51
90.0
  0
LINE
  5
9F19
330
46
100
AcDbEntity
  8
D-STR-STR3
  6
PHANTOM
100
AcDbLine
 10
1140.135462529071
 20
726.1098508929856
 30
0.0
 11
1182.135462529071
 21
726.1098508929856
 31
0.0
  0
LINE
  5
9F1A
330
46
100
AcDbEntity
  8
D-STR-STR3
  6
PHANTOM
100
AcDbLine
 10
1140.135462529071
 20
780.1098508929856
 30
0.0
 11
1182.135462529071
 21
780.1098508929856
 31
0.0
  0
LINE
  5
9F1B
330
46
100
AcDbEntity
  8
D-STR-STR3
  6
PHANTOM
100
AcDbLine
 10
1140.135462529071
 20
728.1098508929856
 30
0.0
 11
1180.135462529071
 21
728.1098508929856
 31
0.0
  0
LINE
  5
9F1C
330
46
100
AcDbEntity
  8
D-STR-STR3
  6
PHANTOM
100
AcDbLine
 10
1140.135462529071
 20
778.1098508929856
 30
0.0
 11
1180.135462529071
 21
778.1098508929856
 31
0.0
  0
LINE
  5
9F1E
330
46
100
AcDbEntity
  8
D-STR-STR3
  6
PHANTOM
100
AcDbLine
 10
1140.135462529071
 20
780.1098508929856
 30
0.0
 11
1140.135462529071
 21
726.1098508929856
 31
0.0
  0
LINE
  5
9F24
330
46
100
AcDbEntity
  8
D-STR-STR3
  6
PHANTOM
100
AcDbLine
 10
1175.135462529071
 20
780.1098508929856
 30
0.0
 11
1175.135462529071
 21
726.1098508929856
 31
0.0
  0
LINE
  5
9F25
330
46
100
AcDbEntity
  8
D-STR-STR3
  6
PHANTOM
100
AcDbLine
 10
1180.135462529071
 20
778.1098508929856
 30
0.0
 11
1180.135462529071
 21
728.1098508929856
 31
0.0
  0
LINE
  5
9F26
330
46
100
AcDbEntity
  8
D-STR-STR3
  6
PHANTOM
100
AcDbLine
 10
1182.135462529071
 20
780.1098508929856
 30
0.0
 11
1182.135462529071
 21
726.1098508929856
 31
0.0
  0
LINE
  5
9F28
330
46
100
AcDbEntity
  8
D-STR
  6
Continuous
100
AcDbLine
 10
1180.135462529071
 20
778.1098508929856
 30
0.0
 11
1180.135462529071
 21
728.1098508929854
 31
0.0
  0
CIRCLE
  5
9F34
330
46
100
AcDbEntity
  8
D-STR-STR3
  6
Continuous
100
AcDbCircle
 10
1160.135462529071
 20
753.1098508929856
 30
0.0
 40
3.5
  0
LINE
  5
9F35
330
46
100
AcDbEntity
  8
D-BMK
  6
PHANTOM
100
AcDbLine
 10
1160.135462529071
 20
761.6098508929856
 30
0.0
 11
1160.135462529071
 21
744.6098508929856
 31
0.0
  0
LINE
  5
A153
330
46
100
AcDbEntity
  8
D-STR
  6
Continuous
100
AcDbLine
 10
475.538877431416
 20
542.5407188371727
 30
0.0
 11
283.9975591116722
 21
501.7553089988685
 31
0.0
  0
LINE
  5
A154
330
46
100
AcDbEntity
  8
D-STR
  6
DASHED
100
AcDbLine
 10
284.1573591943756
 20
540.4126619886819
 30
0.0
 11
479.4975591116724
 21
550.1796541224653
 31
0.0
  0
LINE
  5
A155
330
46
100
AcDbEntity
  8
D-STR
  6
Continuous
100
AcDbLine
 10
283.9975591116722
 20
543.6086694876669
 30
0.0
 11
479.4975591116724
 21
553.3836516109731
 31
0.0
  0
ARC
  5
A158
330
46
100
AcDbEntity
  8
D-STR
  6
Continuous
100
AcDbCircle
 10
273.9975591116722
 20
544.4086694876668
 30
0.0
 40
4.999999999999999
100
AcDbArc
 50
90.0
 51
180.0
  0
LINE
  5
A15E
330
46
100
AcDbEntity
  8
D-STR
  6
Continuous
100
AcDbLine
 10
268.9975591116722
 20
544.4086694876668
 30
0.0
 11
268.9975591116722
 21
474.4086694876669
 31
0.0
  0
LINE
  5
A15F
330
46
100
AcDbEntity
  8
D-STR
  6
DASHED
100
AcDbLine
 10
279.4975591116722
 20
549.4086694876669
 30
0.0
 11
279.4975591116722
 21
469.4086694876668
 31
0.0
  0
LINE
  5
A160
330
46
100
AcDbEntity
  8
D-STR
  6
Continuous
100
AcDbLine
 10
283.9975591116722
 20
549.4086694876669
 30
0.0
 11
283.9975591116722
 21
469.4086694876668
 31
0.0
  0
LINE
  5
A161
330
46
100
AcDbEntity
  8
D-BMK
  6
CENTER
100
AcDbLine
 10
258.9975591116722
 20
484.4086694876668
 30
0.0
 11
293.9975591116722
 21
484.4086694876668
 31
0.0
  0
ARC
  5
A162
330
46
100
AcDbEntity
  8
D-STR
  6
Continuous
100
AcDbCircle
 10
273.9975591116722
 20
474.4086694876669
 30
0.0
 40
4.999999999999999
100
AcDbArc
 50
180.0
 51
270.0
  0
LINE
  5
A163
330
46
100
AcDbEntity
  8
D-STR
  6
Continuous
100
AcDbLine
 10
273.9975591116722
 20
469.4086694876668
 30
0.0
 11
283.9975591116722
 21
469.4086694876668
 31
0.0
  0
LINE
  5
A164
330
46
100
AcDbEntity
  8
D-BMK
  6
CENTER
100
AcDbLine
 10
259.4975591116722
 20
534.4086694876668
 30
0.0
 11
293.9975591116722
 21
534.4086694876668
 31
0.0
  0
ARC
  5
A165
330
46
100
AcDbEntity
  8
D-STR-STR2
  6
Continuous
100
AcDbCircle
 10
280.9975591116722
 20
534.4086694876668
 30
0.0
 40
14.9999999999999
100
AcDbArc
 50
143.1301023541585
 51
216.8698976458414
  0
LINE
  5
A166
330
46
100
AcDbEntity
  8
D-STR-STR2
  6
DASHED
100
AcDbLine
 10
271.9975591116725
 20
546.4086694876669
 30
0.0
 11
271.9975591116725
 21
522.4086694876668
 31
0.0
  0
LINE
  5
A167
330
46
100
AcDbEntity
  8
D-STR-STR2
  6
DASHED
100
AcDbLine
 10
273.9975591116724
 20
546.4086694876669
 30
0.0
 11
273.9975591116724
 21
522.4086694876668
 31
0.0
  0
LINE
  5
A168
330
46
100
AcDbEntity
  8
D-STR-STR2
  6
DASHED
100
AcDbLine
 10
271.9975591116725
 20
522.4086694876668
 30
0.0
 11
273.9975591116724
 21
522.4086694876668
 31
0.0
  0
ARC
  5
A169
330
46
100
AcDbEntity
  8
D-STR-STR2
  6
DASHED
100
AcDbCircle
 10
280.9975591116722
 20
534.4086694876668
 30
0.0
 40
14.9999999999999
100
AcDbArc
 50
216.8698976458414
 51
233.1301023541586
  0
LINE
  5
A16A
330
46
100
AcDbEntity
  8
D-STR-STR2
  6
DASHED
100
AcDbLine
 10
271.9975591116725
 20
546.4086694876669
 30
0.0
 11
273.9975591116724
 21
546.4086694876669
 31
0.0
  0
ARC
  5
A16D
330
46
100
AcDbEntity
  8
D-STR-STR2
  6
DASHED
100
AcDbCircle
 10
280.9975591116722
 20
534.4086694876668
 30
0.0
 40
14.9999999999999
100
AcDbArc
 50
126.8698976458414
 51
143.1301023541585
  0
LINE
  5
A16E
330
46
100
AcDbEntity
  8
D-STR-STR2
  6
DASHED
100
AcDbLine
 10
285.9975591116724
 20
540.4086694876668
 30
0.0
 11
285.9975591116724
 21
528.4086694876669
 31
0.0
  0
LINE
  5
A16F
330
46
100
AcDbEntity
  8
D-STR-STR2
  6
DASHED
100
AcDbLine
 10
285.9975591116724
 20
528.4086694876669
 30
0.0
 11
273.9975591116724
 21
528.4086694876669
 31
0.0
  0
LINE
  5
A170
330
46
100
AcDbEntity
  8
D-STR-STR2
  6
DASHED
100
AcDbLine
 10
273.9975591116724
 20
540.4086694876668
 30
0.0
 11
285.9975591116724
 21
540.4086694876668
 31
0.0
  0
LINE
  5
A171
330
46
100
AcDbEntity
  8
D-STR
  6
Continuous
100
AcDbLine
 10
273.9975591116722
 20
549.4086694876669
 30
0.0
 11
283.9975591116722
 21
549.4086694876669
 31
0.0
  0
LINE
  5
A179
330
46
100
AcDbEntity
  8
D-STR-STR3
  6
PHANTOM
100
AcDbLine
 10
440.4625532716391
 20
533.08435916097
 30
0.0
 11
439.447590322671
 21
553.383655264045
 31
0.0
  0
LINE
  5
A17A
330
46
100
AcDbEntity
  8
D-STR-STR3
  6
PHANTOM
100
AcDbLine
 10
481.9897956641955
 20
543.588871253991
 30
0.0
 11
480.8708447254775
 21
565.9679309555726
 31
0.0
  0
LINE
  5
A17B
330
46
100
AcDbEntity
  8
D-STR-STR3
  6
PHANTOM
100
AcDbLine
 10
479.9969343701206
 20
543.3961281766451
 30
0.0
 11
478.873340038612
 21
565.868055903883
 31
0.0
  0
LINE
  5
A17C
330
46
100
AcDbEntity
  8
D-BMK
  6
PHANTOM
100
AcDbLine
 10
459.2170749627095
 20
558.4936578720219
 30
0.0
 11
459.8411232587355
 21
546.0126691260405
 31
0.0
  0
LINE
  5
A17D
330
46
100
AcDbEntity
  8
D-STR
  6
Continuous
100
AcDbLine
 10
479.4975591116724
 20
553.3836516109731
 30
0.0
 11
479.4975591116724
 21
547.4310824388864
 31
0.0
  0
LINE
  5
A17E
330
46
100
AcDbEntity
  8
D-STR-STR3
  6
PHANTOM
100
AcDbLine
 10
480.4063692465986
 20
541.4384859514354
 30
0.0
 11
440.4625532716391
 21
533.0843591609703
 31
0.0
  0
LINE
  5
A17F
330
46
100
AcDbEntity
  8
D-STR-STR3
  6
PHANTOM
100
AcDbLine
 10
479.9969343701206
 20
543.3961281766451
 30
0.0
 11
440.3614470456316
 21
535.1064873792251
 31
0.0
  0
ARC
  5
A180
330
46
100
AcDbEntity
  8
D-STR
  6
Continuous
100
AcDbCircle
 10
474.4975591116724
 20
547.4310824388864
 30
0.0
 40
4.999999999999999
100
AcDbArc
 50
282.020617897143
 51
0.0
  0
ARC
  5
A181
330
46
100
AcDbEntity
  8
D-STR-STR3
  6
PHANTOM
100
AcDbCircle
 10
479.9922909773297
 20
543.4889962023014
 30
0.0
 40
1.999999999999999
100
AcDbArc
 50
282.0206178971556
 51
2.862399999998995
  0
LINE
  5
A182
330
46
100
AcDbEntity
  8
D-STR-STR3
  6
PHANTOM
100
AcDbLine
 10
462.5936755620821
 20
551.0365851564615
 30
0.0
 11
456.6011615014854
 21
550.7369600013926
 31
0.0
  0
LINE
  5
A183
330
46
100
AcDbEntity
  8
D-STR-STR3
  6
PHANTOM
100
AcDbLine
 10
464.016897788464
 20
552.609619960378
 30
0.0
 11
439.5474653743606
 21
551.3861505771794
 31
0.0
  0
LINE
  5
A184
330
46
100
AcDbEntity
  8
D-STR-STR3
  6
PHANTOM
100
AcDbLine
 10
439.447590322671
 20
553.383655264045
 30
0.0
 11
463.9170227367745
 21
554.6071246472435
 31
0.0
  0
LINE
  5
A187
330
46
100
AcDbEntity
  8
D-STR-STR3
  6
PHANTOM
100
AcDbLine
 10
456.5262552127182
 20
552.2350885165417
 30
0.0
 11
456.6011615014854
 21
550.7369600013926
 31
0.0
  0
ARC
  5
A188
330
46
100
AcDbEntity
  8
D-STR-STR3
  6
PHANTOM
100
AcDbCircle
 10
463.3926787154036
 20
565.0940242532881
 30
0.0
 40
10.5
100
AcDbArc
 50
272.862399999999
 51
2.862399999998995
  0
ARC
  5
A189
330
46
100
AcDbEntity
  8
D-STR-STR3
  6
PHANTOM
100
AcDbCircle
 10
463.3926787154036
 20
565.0940242532881
 30
0.0
 40
12.5
100
AcDbArc
 50
272.862399999999
 51
2.862399999998995
  0
LINE
  5
A18A
330
46
100
AcDbEntity
  8
D-STR-STR3
  6
PHANTOM
100
AcDbLine
 10
475.8770830083135
 20
565.7182433263483
 30
0.0
 11
478.873340038612
 21
565.868055903883
 31
0.0
  0
LINE
  5
A18B
330
46
100
AcDbEntity
  8
D-STR-STR3
  6
PHANTOM
100
AcDbLine
 10
475.7772079566239
 20
567.7157480132141
 30
0.0
 11
478.7734649869221
 21
567.8655605907484
 31
0.0
  0
LINE
  5
A18C
330
46
100
AcDbEntity
  8
D-STR-STR3
  6
PHANTOM
100
AcDbLine
 10
462.5187692733147
 20
552.5347136716109
 30
0.0
 11
462.5936755620821
 21
551.0365851564615
 31
0.0
  0
ARC
  5
A18D
330
46
100
AcDbEntity
  8
D-STR-STR3
  6
PHANTOM
100
AcDbCircle
 10
475.8770830083135
 20
565.7182433263483
 30
0.0
 40
1.999999999999999
100
AcDbArc
 50
92.86239999999899
 51
182.862399999999
  0
ARC
  5
A18E
330
46
100
AcDbEntity
  8
D-STR-STR3
  6
PHANTOM
100
AcDbCircle
 10
478.873340038612
 20
565.868055903883
 30
0.0
 40
1.999999999999999
100
AcDbArc
 50
2.862399999998995
 51
92.86239999999899
  0
LINE
  5
A1A2
330
46
100
AcDbEntity
  8
D-STR
  6
DASHED
100
AcDbLine
 10
283.9975591116722
 20
731.3098508929854
 30
0.0
 11
479.4975591116722
 21
731.3098508929854
 31
0.0
  0
LINE
  5
A1A3
330
46
100
AcDbEntity
  8
D-STR
  6
DASHED
100
AcDbLine
 10
283.9975591116722
 20
774.9098508929855
 30
0.0
 11
479.4975591116722
 21
774.9098508929855
 31
0.0
  0
LINE
  5
A1A4
330
46
100
AcDbEntity
  8
D-STR
  6
Continuous
100
AcDbLine
 10
283.9975591116722
 20
728.1098508929854
 30
0.0
 11
479.4975591116722
 21
728.1098508929854
 31
0.0
  0
LINE
  5
A1A5
330
46
100
AcDbEntity
  8
D-STR
  6
Continuous
100
AcDbLine
 10
283.9975591116722
 20
778.1098508929856
 30
0.0
 11
479.4975591116722
 21
778.1098508929856
 31
0.0
  0
LINE
  5
A1A6
330
46
100
AcDbEntity
  8
D-BMK
  6
CENTER
100
AcDbLine
 10
259.4975591116722
 20
753.1098508929856
 30
0.0
 11
499.4975591116721
 21
753.1098508929856
 31
0.0
  0
ARC
  5
A1A7
330
46
100
AcDbEntity
  8
D-STR
  6
Continuous
100
AcDbCircle
 10
285.9975591116722
 20
745.6098508929856
 30
0.0
 40
4.999999999999999
100
AcDbArc
 50
270.0
 51
0.0
  0
LINE
  5
A1A8
330
46
100
AcDbEntity
  8
D-STR
  6
Continuous
100
AcDbLine
 10
283.9975591116722
 20
791.1098508929856
 30
0.0
 11
283.9975591116722
 21
715.1098508929855
 31
0.0
  0
LINE
  5
A1A9
330
46
100
AcDbEntity
  8
D-STR
  6
Continuous
100
AcDbLine
 10
279.4975591116722
 20
791.1098508929856
 30
0.0
 11
279.4975591116722
 21
715.1098508929855
 31
0.0
  0
LINE
  5
A1B1
330
46
100
AcDbEntity
  8
D-STR
  6
Continuous
100
AcDbLine
 10
268.9975591116722
 20
714.1098508929855
 30
0.0
 11
278.4975591116722
 21
714.1098508929855
 31
0.0
  0
LINE
  5
A1B2
330
46
100
AcDbEntity
  8
D-STR
  6
Continuous
100
AcDbLine
 10
268.9975591116722
 20
709.6098508929856
 30
0.0
 11
278.4975591116722
 21
709.6098508929856
 31
0.0
  0
LINE
  5
A1B3
330
46
100
AcDbEntity
  8
D-STR
  6
Continuous
100
AcDbLine
 10
268.9975591116722
 20
709.6098508929856
 30
0.0
 11
268.9975591116722
 21
714.1098508929855
 31
0.0
  0
ARC
  5
A1B4
330
46
100
AcDbEntity
  8
D-STR
  6
Continuous
100
AcDbCircle
 10
278.4975591116722
 20
715.1098508929855
 30
0.0
 40
5.5
100
AcDbArc
 50
270.0
 51
0.0
  0
ARC
  5
A1B5
330
46
100
AcDbEntity
  8
D-STR
  6
Continuous
100
AcDbCircle
 10
278.4975591116722
 20
715.1098508929855
 30
0.0
 40
0.9999999999999998
100
AcDbArc
 50
270.0
 51
0.0
  0
ARC
  5
A1C2
330
46
100
AcDbEntity
  8
D-STR
  6
Continuous
100
AcDbCircle
 10
285.9975591116722
 20
760.6098508929854
 30
0.0
 40
4.999999999999999
100
AcDbArc
 50
0.0
 51
90.0
  0
ARC
  5
A1C3
330
46
100
AcDbEntity
  8
D-STR-STR2
  6
Continuous
100
AcDbCircle
 10
280.997559111672
 20
753.1098508929856
 30
0.0
 40
14.9999999999999
100
AcDbArc
 50
126.8698976458414
 51
233.1301023541586
  0
LINE
  5
A1C4
330
46
100
AcDbEntity
  8
D-STR-STR2
  6
Continuous
100
AcDbLine
 10
271.9975591116722
 20
765.1098508929855
 30
0.0
 11
271.9975591116722
 21
741.1098508929856
 31
0.0
  0
LINE
  5
A1C5
330
46
100
AcDbEntity
  8
D-STR-STR2
  6
Continuous
100
AcDbLine
 10
273.9975591116722
 20
765.1098508929855
 30
0.0
 11
273.9975591116722
 21
741.1098508929856
 31
0.0
  0
LINE
  5
A1C6
330
46
100
AcDbEntity
  8
D-STR-STR2
  6
Continuous
100
AcDbLine
 10
271.9975591116722
 20
741.1098508929856
 30
0.0
 11
273.9975591116722
 21
741.1098508929856
 31
0.0
  0
LINE
  5
A1C8
330
46
100
AcDbEntity
  8
D-STR-STR2
  6
Continuous
100
AcDbLine
 10
285.9975591116722
 20
759.1098508929856
 30
0.0
 11
285.9975591116722
 21
747.1098508929856
 31
0.0
  0
LINE
  5
A1C9
330
46
100
AcDbEntity
  8
D-STR-STR2
  6
DASHED
100
AcDbLine
 10
283.9975591116722
 20
747.1098508929856
 30
0.0
 11
279.4975591116722
 21
747.1098508929856
 31
0.0
  0
LINE
  5
A1CA
330
46
100
AcDbEntity
  8
D-STR-STR2
  6
Continuous
100
AcDbLine
 10
273.9975591116722
 20
747.1098508929856
 30
0.0
 11
279.4975591116722
 21
747.1098508929856
 31
0.0
  0
LINE
  5
A1CB
330
46
100
AcDbEntity
  8
D-STR-STR2
  6
Continuous
100
AcDbLine
 10
285.9975591116722
 20
747.1098508929856
 30
0.0
 11
283.9975591116722
 21
747.1098508929856
 31
0.0
  0
LINE
  5
A1CC
330
46
100
AcDbEntity
  8
D-STR
  6
Continuous
100
AcDbLine
 10
283.9975591116722
 20
740.6098508929856
 30
0.0
 11
285.9975591116722
 21
740.6098508929856
 31
0.0
  0
LINE
  5
A1CD
330
46
100
AcDbEntity
  8
D-STR-STR2
  6
DASHED
100
AcDbLine
 10
279.4975591116722
 20
759.1098508929856
 30
0.0
 11
283.9975591116722
 21
759.1098508929856
 31
0.0
  0
LINE
  5
A1CE
330
46
100
AcDbEntity
  8
D-STR-STR2
  6
Continuous
100
AcDbLine
 10
273.9975591116722
 20
759.1098508929856
 30
0.0
 11
279.4975591116722
 21
759.1098508929856
 31
0.0
  0
LINE
  5
A1CF
330
46
100
AcDbEntity
  8
D-STR-STR2
  6
Continuous
100
AcDbLine
 10
283.9975591116722
 20
759.1098508929856
 30
0.0
 11
285.9975591116722
 21
759.1098508929856
 31
0.0
  0
LINE
  5
A1D3
330
46
100
AcDbEntity
  8
D-STR-STR2
  6
Continuous
100
AcDbLine
 10
271.9975591116722
 20
765.1098508929855
 30
0.0
 11
273.9975591116722
 21
765.1098508929855
 31
0.0
  0
LINE
  5
A1D4
330
46
100
AcDbEntity
  8
D-STR
  6
Continuous
100
AcDbLine
 10
279.4975591116722
 20
765.8667335509716
 30
0.0
 11
279.4975591116722
 21
777.1098508929855
 31
0.0
  0
LINE
  5
A1D8
330
46
100
AcDbEntity
  8
D-STR
  6
Continuous
100
AcDbLine
 10
283.9975591116722
 20
765.6098508929854
 30
0.0
 11
285.9975591116722
 21
765.6098508929854
 31
0.0
  0
LINE
  5
A1D9
330
46
100
AcDbEntity
  8
D-STR
  6
Continuous
100
AcDbLine
 10
290.9975591116722
 20
760.6098508929854
 30
0.0
 11
290.9975591116722
 21
745.6098508929856
 31
0.0
  0
LINE
  5
A1E0
330
46
100
AcDbEntity
  8
D-STR
  6
Continuous
100
AcDbLine
 10
268.9975591116722
 20
792.1098508929856
 30
0.0
 11
278.4975591116722
 21
792.1098508929856
 31
0.0
  0
LINE
  5
A1E1
330
46
100
AcDbEntity
  8
D-STR
  6
Continuous
100
AcDbLine
 10
268.9975591116722
 20
796.6098508929856
 30
0.0
 11
278.4975591116722
 21
796.6098508929856
 31
0.0
  0
LINE
  5
A1E2
330
46
100
AcDbEntity
  8
D-STR
  6
Continuous
100
AcDbLine
 10
268.9975591116722
 20
796.6098508929856
 30
0.0
 11
268.9975591116722
 21
792.1098508929856
 31
0.0
  0
ARC
  5
A1E3
330
46
100
AcDbEntity
  8
D-STR
  6
Continuous
100
AcDbCircle
 10
278.4975591116722
 20
791.1098508929856
 30
0.0
 40
5.5
100
AcDbArc
 50
0.0
 51
90.0
  0
ARC
  5
A1E4
330
46
100
AcDbEntity
  8
D-STR
  6
Continuous
100
AcDbCircle
 10
278.4975591116722
 20
791.1098508929856
 30
0.0
 40
0.9999999999999998
100
AcDbArc
 50
0.0
 51
90.0
  0
LINE
  5
A1EA
330
46
100
AcDbEntity
  8
D-STR-STR3
  6
PHANTOM
100
AcDbLine
 10
476.4975591116747
 20
780.1098508929856
 30
0.0
 11
476.4975591116747
 21
726.1098508929856
 31
0.0
  0
LINE
  5
A1EB
330
46
100
AcDbEntity
  8
D-STR
  6
PHANTOM
100
AcDbLine
 10
479.4975591116747
 20
778.1098508929856
 30
0.0
 11
479.4975591116747
 21
728.1098508929856
 31
0.0
  0
LINE
  5
A1EC
330
46
100
AcDbEntity
  8
D-STR-STR3
  6
PHANTOM
100
AcDbLine
 10
481.4975591116749
 20
780.1098508929856
 30
0.0
 11
481.4975591116749
 21
726.1098508929856
 31
0.0
  0
LINE
  5
A1ED
330
46
100
AcDbEntity
  8
D-STR-STR3
  6
PHANTOM
100
AcDbLine
 10
439.4975591116745
 20
780.1098508929856
 30
0.0
 11
439.4975591116745
 21
726.1098508929856
 31
0.0
  0
LINE
  5
A1EF
330
46
100
AcDbEntity
  8
D-STR
  6
Continuous
100
AcDbLine
 10
479.4975591116722
 20
778.1098508929856
 30
0.0
 11
479.4975591116722
 21
728.1098508929854
 31
0.0
  0
LINE
  5
A1F0
330
46
100
AcDbEntity
  8
D-STR-STR3
  6
PHANTOM
100
AcDbLine
 10
439.4975591116745
 20
726.1098508929856
 30
0.0
 11
481.4975591116749
 21
726.1098508929856
 31
0.0
  0
LINE
  5
A1F1
330
46
100
AcDbEntity
  8
D-STR
  6
PHANTOM
100
AcDbLine
 10
439.4975591116745
 20
728.1098508929856
 30
0.0
 11
479.4975591116747
 21
728.1098508929856
 31
0.0
  0
LINE
  5
A1F8
330
46
100
AcDbEntity
  8
D-STR-STR3
  6
PHANTOM
100
AcDbLine
 10
439.4975591116745
 20
780.1098508929856
 30
0.0
 11
481.4975591116749
 21
780.1098508929856
 31
0.0
  0
LINE
  5
A1F9
330
46
100
AcDbEntity
  8
D-STR
  6
PHANTOM
100
AcDbLine
 10
439.4975591116745
 20
778.1098508929856
 30
0.0
 11
479.4975591116747
 21
778.1098508929856
 31
0.0
  0
CIRCLE
  5
A1FB
330
46
100
AcDbEntity
  8
D-STR-STR3
  6
PHANTOM
100
AcDbCircle
 10
459.4975591116722
 20
753.1098508929856
 30
0.0
 40
3.5
  0
LINE
  5
A201
330
46
100
AcDbEntity
  8
D-BMK
  6
PHANTOM
100
AcDbLine
 10
459.4975591116747
 20
761.6098508929856
 30
0.0
 11
459.4975591116747
 21
744.6098508929854
 31
0.0
  0
LINE
  5
A202
330
46
100
AcDbEntity
  8
D-BMK
  6
PHANTOM
100
AcDbLine
 10
459.4975591116722
 20
761.6098508929856
 30
0.0
 11
459.4975591116722
 21
744.6098508929856
 31
0.0
  0
LINE
  5
A21D
330
46
100
AcDbEntity
  8
D-STR
  6
DASHED
100
AcDbLine
 10
693.9263081261203
 20
543.6086694876669
 30
0.0
 11
650.3263081261204
 21
543.6086694876669
 31
0.0
  0
LINE
  5
A21F
330
46
100
AcDbEntity
  8
D-BMK
  6
CENTER
100
AcDbLine
 10
661.1263081261204
 20
534.4086694876668
 30
0.0
 11
683.1263081261204
 21
534.4086694876668
 31
0.0
  0
LINE
  5
A220
330
46
100
AcDbEntity
  8
D-BMK
  6
CENTER
100
AcDbLine
 10
660.3763081261204
 20
484.4086694876668
 30
0.0
 11
683.8763081261204
 21
484.4086694876668
 31
0.0
  0
LINE
  5
A221
330
46
100
AcDbEntity
  8
D-STR
  6
Continuous
100
AcDbLine
 10
692.9263081261206
 20
553.3836516109731
 30
0.0
 11
651.3263081261202
 21
553.3836516109731
 31
0.0
  0
LINE
  5
A222
330
46
100
AcDbEntity
  8
D-STR
  6
Continuous
100
AcDbLine
 10
692.9263081261206
 20
550.1836516109731
 30
0.0
 11
651.3263081261202
 21
550.1836516109731
 31
0.0
  0
LINE
  5
A223
330
46
100
AcDbEntity
  8
D-STR
  6
Continuous
100
AcDbLine
 10
693.9263081261203
 20
540.4086694876668
 30
0.0
 11
650.3263081261204
 21
540.4086694876668
 31
0.0
  0
LINE
  5
A224
330
46
100
AcDbEntity
  8
D-STR
  6
Continuous
100
AcDbLine
 10
715.6263081261204
 20
469.4086694876668
 30
0.0
 11
628.6263081261203
 21
469.4086694876668
 31
0.0
  0
ARC
  5
A225
330
46
100
AcDbEntity
  8
D-STR
  6
Continuous
100
AcDbCircle
 10
651.3263081261202
 20
549.1836516109731
 30
0.0
 40
4.2
100
AcDbArc
 50
90.0
 51
180.0
  0
ARC
  5
A226
330
46
100
AcDbEntity
  8
D-STR
  6
Continuous
100
AcDbCircle
 10
651.3263081261202
 20
549.1836516109731
 30
0.0
 40
0.9999999999999998
100
AcDbArc
 50
90.0
 51
180.0
  0
LINE
  5
A22B
330
46
100
AcDbEntity
  8
D-STR
  6
DASHED
100
AcDbLine
 10
631.8263081261204
 20
549.4086694876669
 30
0.0
 11
631.8263081261204
 21
469.4086694876668
 31
0.0
  0
LINE
  5
A22C
330
46
100
AcDbEntity
  8
D-STR
  6
Continuous
100
AcDbLine
 10
628.6263081261203
 20
549.4086694876669
 30
0.0
 11
628.6263081261203
 21
469.4086694876668
 31
0.0
  0
LINE
  5
A22E
330
46
100
AcDbEntity
  8
D-STR
  6
Continuous
100
AcDbLine
 10
647.132340201211
 20
549.4086694876669
 30
0.0
 11
628.6263081261203
 21
549.4086694876669
 31
0.0
  0
LINE
  5
A22F
330
46
100
AcDbEntity
  8
D-STR
  6
Continuous
100
AcDbLine
 10
650.3263081261204
 20
549.1836516109731
 30
0.0
 11
650.3263081261204
 21
501.7553089988685
 31
0.0
  0
LINE
  5
A230
330
46
100
AcDbEntity
  8
D-STR
  6
Continuous
100
AcDbLine
 10
647.1263081261204
 20
549.1836516109731
 30
0.0
 11
647.1263081261204
 21
501.7553089988685
 31
0.0
  0
LINE
  5
A232
330
46
100
AcDbEntity
  8
D-STR
  6
Continuous
100
AcDbLine
 10
650.3263081261204
 20
501.7553089988685
 30
0.0
 11
647.1263081261204
 21
501.7553089988685
 31
0.0
  0
ARC
  5
A237
330
46
100
AcDbEntity
  8
D-STR
  6
Continuous
100
AcDbCircle
 10
692.9263081261206
 20
549.1836516109731
 30
0.0
 40
4.2
100
AcDbArc
 50
0.0
 51
90.0
  0
ARC
  5
A238
330
46
100
AcDbEntity
  8
D-STR
  6
Continuous
100
AcDbCircle
 10
692.9263081261206
 20
549.1836516109731
 30
0.0
 40
0.9999999999999998
100
AcDbArc
 50
0.0
 51
90.0
  0
LINE
  5
A239
330
46
100
AcDbEntity
  8
D-BMK
  6
CENTER
100
AcDbLine
 10
672.1263081261204
 20
586.5976540594174
 30
0.0
 11
672.1263081261204
 21
459.4086694876668
 31
0.0
  0
LINE
  5
A241
330
46
100
AcDbEntity
  8
D-STR
  6
DASHED
100
AcDbLine
 10
712.4263081261204
 20
549.4086694876669
 30
0.0
 11
712.4263081261204
 21
469.4086694876668
 31
0.0
  0
LINE
  5
A242
330
46
100
AcDbEntity
  8
D-STR
  6
Continuous
100
AcDbLine
 10
715.6263081261204
 20
549.4086694876669
 30
0.0
 11
715.6263081261204
 21
469.4086694876668
 31
0.0
  0
LINE
  5
A243
330
46
100
AcDbEntity
  8
D-STR-STR2
  6
Continuous
100
AcDbLine
 10
665.3763081261204
 20
491.1586694876668
 30
0.0
 11
665.3763081261204
 21
477.6586694876669
 31
0.0
  0
LINE
  5
A244
330
46
100
AcDbEntity
  8
D-STR-STR2
  6
Continuous
100
AcDbLine
 10
678.8763081261204
 20
491.1586694876668
 30
0.0
 11
678.8763081261204
 21
477.6586694876669
 31
0.0
  0
LINE
  5
A246
330
46
100
AcDbEntity
  8
D-STR-STR2
  6
Continuous
100
AcDbLine
 10
665.3763081261204
 20
477.6586694876669
 30
0.0
 11
678.8763081261204
 21
477.6586694876669
 31
0.0
  0
LINE
  5
A247
330
46
100
AcDbEntity
  8
D-STR-STR2
  6
Continuous
100
AcDbLine
 10
665.3763081261204
 20
491.1586694876668
 30
0.0
 11
678.8763081261204
 21
491.1586694876668
 31
0.0
  0
LINE
  5
A248
330
46
100
AcDbEntity
  8
D-STR
  6
Continuous
100
AcDbLine
 10
697.1263081261204
 20
501.7553089988685
 30
0.0
 11
693.9263081261203
 21
501.7553089988685
 31
0.0
  0
LINE
  5
A249
330
46
100
AcDbEntity
  8
D-STR
  6
Continuous
100
AcDbLine
 10
693.9263081261203
 20
549.1836516109731
 30
0.0
 11
693.9263081261203
 21
501.7553089988685
 31
0.0
  0
LINE
  5
A24B
330
46
100
AcDbEntity
  8
D-STR-STR2
  6
Continuous
100
AcDbLine
 10
678.1263081261204
 20
540.4086694876668
 30
0.0
 11
678.1263081261204
 21
528.4086694876669
 31
0.0
  0
LINE
  5
A24C
330
46
100
AcDbEntity
  8
D-STR-STR2
  6
Continuous
100
AcDbLine
 10
666.1263081261203
 20
540.4086694876668
 30
0.0
 11
666.1263081261203
 21
528.4086694876669
 31
0.0
  0
LINE
  5
A24D
330
46
100
AcDbEntity
  8
D-STR-STR2
  6
Continuous
100
AcDbLine
 10
666.1263081261203
 20
528.4086694876669
 30
0.0
 11
678.1263081261204
 21
528.4086694876669
 31
0.0
  0
LINE
  5
A24E
330
46
100
AcDbEntity
  8
D-STR-STR2
  6
Continuous
100
AcDbLine
 10
666.1263081261203
 20
540.4086694876668
 30
0.0
 11
678.1263081261204
 21
540.4086694876668
 31
0.0
  0
LINE
  5
A250
330
46
100
AcDbEntity
  8
D-STR
  6
Continuous
100
AcDbLine
 10
697.1263081261204
 20
549.1836516109731
 30
0.0
 11
697.1263081261204
 21
501.7553089988685
 31
0.0
  0
LINE
  5
A252
330
46
100
AcDbEntity
  8
D-STR
  6
Continuous
100
AcDbLine
 10
715.6263081261204
 20
549.4086694876669
 30
0.0
 11
697.1263081261204
 21
549.4086694876669
 31
0.0
  0
DIMENSION
  5
A405
330
46
100
AcDbEntity
  8
D-STR-DIM
  6
Continuous
100
AcDbDimension
  2
*D2
 10
283.9975591116722
 20
826.9247034495448
 30
0.0
 11
281.7475591116722
 21
832.4247034495448
 31
0.0
 70
    32
 71
     5
 42
4.5
  3
2
100
AcDbAlignedDimension
 13
279.4975591116722
 23
791.1098508929856
 33
0.0
 14
283.9975591116722
 24
791.1098508929856
 34
0.0
100
AcDbRotatedDimension
1001
ACAD
1000
DSTYLE
1002
{
1070
   271
1070
     1
1002
}
  0
DIMENSION
  5
A414
330
46
100
AcDbEntity
  8
D-STR-DIM
  6
Continuous
100
AcDbDimension
  2
*D3
 10
479.4975591116722
 20
826.9247034495448
 30
0.0
 11
381.7475591116722
 21
832.4247034495448
 31
0.0
 70
    32
 71
     5
 42
195.5
  3
2
100
AcDbAlignedDimension
 13
283.9975591116722
 23
791.1098508929856
 33
0.0
 14
479.4975591116722
 24
778.1098508929856
 34
0.0
100
AcDbRotatedDimension
1001
ACAD
1000
DSTYLE
1002
{
1070
   271
1070
     1
1002
}
  0
DIMENSION
  5
A421
330
46
100
AcDbEntity
  8
D-STR-DIM
  6
Continuous
100
AcDbDimension
  2
*D4
 10
279.4975591116722
 20
851.1098508929856
 30
0.0
 11
379.4975591116722
 21
856.6098508929856
 31
0.0
 70
    32
 71
     5
 42
200.0
  3
2
100
AcDbAlignedDimension
 13
479.4975591116722
 23
778.1098508929856
 33
0.0
 14
279.4975591116722
 24
791.1098508929856
 34
0.0
100
AcDbRotatedDimension
  0
DIMENSION
  5
A42E
330
46
100
AcDbEntity
  8
D-STR-DIM
  6
Continuous
100
AcDbDimension
  2
*D5
 10
238.9975591116722
 20
792.1098508929857
 30
0.0
 11
233.4975591116721
 21
794.3598508929857
 31
0.0
 70
    32
 71
     5
 42
4.5
  3
2
100
AcDbAlignedDimension
 13
268.9975591116722
 23
796.6098508929856
 33
0.0
 14
268.9975591116722
 24
792.1098508929856
 34
0.0
 50
90.0
100
AcDbRotatedDimension
1001
ACAD
1000
DSTYLE
1002
{
1070
   271
1070
     1
1002
}
  0
DIMENSION
  5
A43D
330
46
100
AcDbEntity
  8
D-STR-DIM
  6
Continuous
100
AcDbDimension
  2
*D6
 10
279.4975591116722
 20
774.1098508929856
 30
0.0
 11
262.6852190297104
 21
774.1098508929856
 31
0.0
 70
   160
 71
     5
 42
5.5
  3
2
100
AcDbAlignedDimension
 13
273.9975591116722
 23
765.1098508929855
 33
0.0
 14
279.4975591116722
 24
765.1098508929855
 34
0.0
100
AcDbRotatedDimension
1001
ACAD
1000
DSTYLE
1002
{
1070
   271
1070
     1
1002
}
  0
DIMENSION
  5
A44C
330
46
100
AcDbEntity
  8
D-STR-DIM
  6
Continuous
100
AcDbDimension
  2
*D7
 10
283.9975591116722
 20
679.6098508929856
 30
0.0
 11
276.4975591116722
 21
685.1098508929855
 31
0.0
 70
    32
 71
     5
 42
15.0
  3
2
100
AcDbAlignedDimension
 13
268.9975591116722
 23
709.6098508929856
 33
0.0
 14
283.9975591116722
 24
715.1098508929855
 34
0.0
100
AcDbRotatedDimension
  0
DIMENSION
  5
A459
330
46
100
AcDbEntity
  8
D-STR-DIM
  6
Continuous
100
AcDbDimension
  2
*D8
 10
514.4975591116747
 20
728.1098508929854
 30
0.0
 11
508.9975591116746
 21
753.1098508929856
 31
0.0
 70
    32
 71
     5
 42
50.00000000000011
  3
2
100
AcDbAlignedDimension
 13
479.4975591116747
 23
778.1098508929856
 33
0.0
 14
479.4975591116722
 24
728.1098508929854
 34
0.0
 50
90.0
100
AcDbRotatedDimension
  0
DIMENSION
  5
A466
330
46
100
AcDbEntity
  8
D-STR-DIM
  6
Continuous
100
AcDbDimension
  2
*D9
 10
459.4975591116722
 20
802.1098508929854
 30
0.0
 11
469.4975591116734
 21
807.6098508929854
 31
0.0
 70
    32
 71
     5
 42
20.0000000000025
  3
2
100
AcDbAlignedDimension
 13
479.4975591116747
 23
778.1098508929856
 33
0.0
 14
459.4975591116722
 24
761.6098508929856
 34
0.0
100
AcDbRotatedDimension
  0
DIMENSION
  5
A473
330
46
100
AcDbEntity
  8
D-STR-DIM
  6
Continuous
100
AcDbDimension
  2
*D10
 10
373.9975591116722
 20
543.6086694876669
 30
0.0
 11
368.4975591116721
 21
522.6819892432678
 31
0.0
 70
    32
 71
     5
 42
41.85336048879849
  3
2
100
AcDbAlignedDimension
 13
283.9975591116722
 23
501.7553089988685
 33
0.0
 14
283.9975591116722
 24
543.6086694876669
 34
0.0
 50
90.0
100
AcDbRotatedDimension
1001
ACAD
1000
DSTYLE
1002
{
1070
   271
1070
     1
1002
}
  0
DIMENSION
  5
A480
330
46
100
AcDbEntity
  8
D-STR-DIM
  6
Continuous
100
AcDbDimension
  2
*D11
 10
373.9975591116722
 20
549.4086694876669
 30
0.0
 11
373.9975591116722
 21
560.6626587765212
 31
0.0
 70
   160
 71
     5
 42
5.799999999999954
  3
2
100
AcDbAlignedDimension
 13
283.9975591116722
 23
543.6086694876669
 33
0.0
 14
283.9975591116722
 24
549.4086694876669
 34
0.0
 50
90.0
100
AcDbRotatedDimension
1001
ACAD
1000
DSTYLE
1002
{
1070
   271
1070
     1
1002
}
  0
DIMENSION
  5
A48F
330
46
100
AcDbEntity
  8
D-STR-DIM
  6
Continuous
100
AcDbDimension
  2
*D12
 10
745.6263081261204
 20
534.4086694876668
 30
0.0
 11
740.1263081261203
 21
541.908669487667
 31
0.0
 70
    32
 71
     5
 42
15.0
  3
2
100
AcDbAlignedDimension
 13
715.6263081261204
 23
549.4086694876669
 33
0.0
 14
683.1263081261204
 24
534.4086694876668
 34
0.0
 50
90.0
100
AcDbRotatedDimension
  0
DIMENSION
  5
A49C
330
46
100
AcDbEntity
  8
D-STR-DIM
  6
Continuous
100
AcDbDimension
  2
*D13
 10
745.6263081261204
 20
484.4086694876668
 30
0.0
 11
740.1263081261203
 21
509.4086694876669
 31
0.0
 70
    32
 71
     5
 42
49.99999999999994
  3
2
100
AcDbAlignedDimension
 13
683.1263081261204
 23
534.4086694876668
 33
0.0
 14
683.8763081261204
 24
484.4086694876668
 34
0.0
 50
90.0
100
AcDbRotatedDimension
  0
DIMENSION
  5
A4A9
330
46
100
AcDbEntity
  8
D-STR-DIM
  6
Continuous
100
AcDbDimension
  2
*D14
 10
745.6263081261204
 20
469.4086694876668
 30
0.0
 11
740.1263081261203
 21
476.9086694876669
 31
0.0
 70
    32
 71
     5
 42
15.0
  3
2
100
AcDbAlignedDimension
 13
683.8763081261204
 23
484.4086694876668
 33
0.0
 14
715.6263081261204
 24
469.4086694876668
 34
0.0
 50
90.0
100
AcDbRotatedDimension
  0
DIMENSION
  5
A4B6
330
46
100
AcDbEntity
  8
D-STR-DIM
  6
Continuous
100
AcDbDimension
  2
*D15
 10
775.6263081261204
 20
469.4086694876668
 30
0.0
 11
770.1263081261203
 21
509.4086694876669
 31
0.0
 70
    32
 71
     5
 42
79.99999999999994
  3
2
100
AcDbAlignedDimension
 13
715.6263081261204
 23
549.4086694876669
 33
0.0
 14
715.6263081261204
 24
469.4086694876668
 34
0.0
 50
90.0
100
AcDbRotatedDimension
  0
DIMENSION
  5
A4C3
330
46
100
AcDbEntity
  8
D-STR-DIM
  6
Continuous
100
AcDbDimension
  2
*D16
 10
715.6263081261204
 20
439.4086694876668
 30
0.0
 11
672.1263081261204
 21
444.9086694876668
 31
0.0
 70
    32
 71
     5
 42
87.0
  3
2
100
AcDbAlignedDimension
 13
628.6263081261203
 23
469.4086694876668
 33
0.0
 14
715.6263081261204
 24
469.4086694876668
 34
0.0
100
AcDbRotatedDimension
  0
LEADER
  5
A506
330
46
100
AcDbEntity
  8
D-STR-HTXT
  6
Continuous
100
AcDbLeader
  3
2
 73
     0
 74
     0
 40
7.000000000000002
 41
37.8
 76
     3
 10
678.8763081261204
 20
477.6586694876669
 30
0.0
 10
712.3020626993161
 20
419.7635642855641
 30
0.0
 10
717.3020626993161
 20
419.7635642855641
 30
0.0
340
A507
1001
ACAD
1000
DSTYLE
1002
{
1070
    41
1040
3.0
1070
   341
1005
9550
1070
   147
1040
2.0
1070
    77
1070
     1
1002
}
  0
MTEXT
  5
A507
102
{ACAD_REACTORS
330
A506
102
}
330
46
100
AcDbEntity
  8
D-STR-HTXT
  6
Continuous
100
AcDbMText
 10
719.3020626993161
 20
421.7635642855641
 30
0.0
 40
7.0
 41
0.0
 71
     7
 72
     1
  1
13.5角穴
 73
     1
 44
1.0
1001
ACAD
1000
MTEXTBEGIN
1070
    73
1070
     1
1070
    44
1040
1.0
1070
    74
1070
     0
1000
MTEXTEND
  0
CIRCLE
  5
A508
330
46
100
AcDbEntity
  8
D-STR-HTXT
  6
Continuous
100
AcDbCircle
 10
617.1340055710998
 20
516.052507964587
 30
0.0
 40
9.0
  0
MTEXT
  5
A509
330
46
100
AcDbEntity
  8
D-STR-HTXT
  6
Continuous
100
AcDbMText
 10
617.1340055710998
 20
516.052507964587
 30
0.0
 40
10.5
 41
22.8991
 71
     5
 72
     5
  1
2
 73
     1
 44
1.0
1001
ACAD
1000
MTEXTBEGIN
1070
    73
1070
     1
1070
    44
1040
1.0
1070
    74
1070
     0
1000
MTEXTEND
  0
LEADER
  5
A59B
330
46
100
AcDbEntity
  8
D-STR-HTXT
  6
Continuous
100
AcDbLeader
  3
2
 73
     0
 74
     0
 40
7.0
 41
39.66666666666664
 76
     3
 10
1161.697216397692
 20
539.5475303112187
 30
0.0
 10
1191.546133824166
 20
490.3858022926892
 30
0.0
 10
1194.546133824166
 20
490.3858022926892
 30
0.0
340
A59C
1001
ACAD
1000
DSTYLE
1002
{
1070
    41
1040
5.0
1070
   341
1005
9550
1070
   147
1040
2.0
1070
    77
1070
     1
1002
}
  0
MTEXT
  5
A59C
102
{ACAD_REACTORS
330
A59B
102
}
330
46
100
AcDbEntity
  8
D-STR-HTXT
  6
Continuous
100
AcDbMText
 10
1196.546133824166
 20
492.3858022926892
 30
0.0
 40
7.0
 41
0.0
 71
     7
 72
     1
  1
\A1;保護カバー
 73
     1
 44
1.0
1001
ACAD
1000
MTEXTBEGIN
1070
    73
1070
     1
1070
    44
1040
1.0
1070
    74
1070
     0
1000
MTEXTEND
  0
LEADER
  5
A59D
330
46
100
AcDbEntity
  8
D-STR-HTXT
  6
Continuous
100
AcDbLeader
  3
2
 73
     0
 74
     0
 40
7.0
 41
39.66666666666664
 76
     3
 10
1166.441798990942
 20
725.7723970962985
 30
0.0
 10
1196.290716417417
 20
676.6106690777692
 30
0.0
 10
1199.290716417416
 20
676.6106690777692
 30
0.0
340
A59E
1001
ACAD
1000
DSTYLE
1002
{
1070
    41
1040
5.0
1070
   341
1005
9550
1070
   147
1040
2.0
1070
    77
1070
     1
1002
}
  0
MTEXT
  5
A59E
102
{ACAD_REACTORS
330
A59D
102
}
330
46
100
AcDbEntity
  8
D-STR-HTXT
  6
Continuous
100
AcDbMText
 10
1201.290716417416
 20
678.6106690777692
 30
0.0
 40
7.0
 41
0.0
 71
     7
 72
     1
  1
\A1;保護カバー
 73
     1
 44
1.0
1001
ACAD
1000
MTEXTBEGIN
1070
    73
1070
     1
1070
    44
1040
1.0
1070
    74
1070
     0
1000
MTEXTEND
  0
LEADER
  5
A59F
330
46
100
AcDbEntity
  8
D-STR-HTXT
  6
Continuous
100
AcDbLeader
  3
2
 73
     0
 74
     0
 40
7.0
 41
39.66666666666664
 76
     3
 10
461.3887688890263
 20
726.1098508929856
 30
0.0
 10
491.2376863155004
 20
676.9481228744561
 30
0.0
 10
494.2376863155004
 20
676.9481228744561
 30
0.0
340
A5A0
1001
ACAD
1000
DSTYLE
1002
{
1070
    41
1040
5.0
1070
   341
1005
9550
1070
   147
1040
2.0
1070
    77
1070
     1
1002
}
  0
MTEXT
  5
A5A0
102
{ACAD_REACTORS
330
A59F
102
}
330
46
100
AcDbEntity
  8
D-STR-HTXT
  6
Continuous
100
AcDbMText
 10
496.2376863155005
 20
678.9481228744562
 30
0.0
 40
7.0
 41
0.0
 71
     7
 72
     1
  1
\A1;保護カバー
 73
     1
 44
1.0
1001
ACAD
1000
MTEXTBEGIN
1070
    73
1070
     1
1070
    44
1040
1.0
1070
    74
1070
     0
1000
MTEXTEND
  0
LEADER
  5
A5A1
330
46
100
AcDbEntity
  8
D-STR-HTXT
  6
Continuous
100
AcDbLeader
  3
2
 73
     0
 74
     0
 40
7.0
 41
39.66666666666664
 76
     3
 10
462.9410668539562
 20
537.7856714403378
 30
0.0
 10
492.7899842804304
 20
488.6239434218084
 30
0.0
 10
495.7899842804303
 20
488.6239434218084
 30
0.0
340
A5A2
1001
ACAD
1000
DSTYLE
1002
{
1070
    41
1040
5.0
1070
   341
1005
9550
1070
   147
1040
2.0
1070
    77
1070
     1
1002
}
  0
MTEXT
  5
A5A2
102
{ACAD_REACTORS
330
A5A1
102
}
330
46
100
AcDbEntity
  8
D-STR-HTXT
  6
Continuous
100
AcDbMText
 10
497.7899842804304
 20
490.6239434218084
 30
0.0
 40
7.0
 41
0.0
 71
     7
 72
     1
  1
\A1;保護カバー
 73
     1
 44
1.0
1001
ACAD
1000
MTEXTBEGIN
1070
    73
1070
     1
1070
    44
1040
1.0
1070
    74
1070
     0
1000
MTEXTEND
  0
DIMENSION
  5
A611
330
46
100
AcDbEntity
  8
D-STR-DIM
  6
Continuous
100
AcDbDimension
  2
*D18
 10
1024.635462529071
 20
549.4086694876669
 30
0.0
 11
1024.635462529071
 21
560.6626587765212
 31
0.0
 70
   160
 71
     5
 42
5.799999999999954
  3
2
100
AcDbAlignedDimension
 13
934.6354625290715
 23
543.6086694876669
 33
0.0
 14
934.6354625290715
 24
549.4086694876669
 34
0.0
 50
90.0
100
AcDbRotatedDimension
1001
ACAD
1000
DSTYLE
1002
{
1070
   271
1070
     1
1002
}
  0
DIMENSION
  5
A612
330
46
100
AcDbEntity
  8
D-STR-DIM
  6
Continuous
100
AcDbDimension
  2
*D17
 10
1024.635462529071
 20
543.6086694876669
 30
0.0
 11
1019.135462529071
 21
518.608669487667
 31
0.0
 70
    32
 71
     5
 42
50.0
  3
2
100
AcDbAlignedDimension
 13
934.6354625290715
 23
493.6086694876669
 33
0.0
 14
934.6354625290715
 24
543.6086694876669
 34
0.0
 50
90.0
100
AcDbRotatedDimension
1001
ACAD
1000
DSTYLE
1002
{
1070
   271
1070
     1
1002
}
  0
CIRCLE
  5
A64E
330
46
100
AcDbEntity
  8
D-STR-HTXT
  6
Continuous
100
AcDbCircle
 10
907.8650860953725
 20
502.3936173617187
 30
0.0
 40
9.0
  0
MTEXT
  5
A64F
330
46
100
AcDbEntity
  8
D-STR-HTXT
  6
Continuous
100
AcDbMText
 10
907.8650860953725
 20
502.3936173617187
 30
0.0
 40
10.5
 41
22.8991
 71
     5
 72
     5
  1
2
 73
     1
 44
1.0
1001
ACAD
1000
MTEXTBEGIN
1070
    73
1070
     1
1070
    44
1040
1.0
1070
    74
1070
     0
1000
MTEXTEND
  0
INSERT
  5
A650
330
46
100
AcDbEntity
  8
D-STR-HTXT
  6
Continuous
100
AcDbBlockReference
  2
_Open
 10
918.5522823709689
 20
540.6578369073592
 30
0.0
 41
-5.999999999999235
 42
6.0
 43
6.0
 50
142.7335980990317
1001
ACAD
1000
DSTYLE
1002
{
1070
    41
1040
6.0
1070
   341
1005
9550
1070
   147
1040
5.0
1070
    77
1070
     0
1002
}
  0
LINE
  5
A651
330
46
100
AcDbEntity
  8
D-STR-HTXT
  6
Continuous
100
AcDbLine
 10
913.7773102062469
 20
544.2909679022656
 30
0.0
 11
907.0194914671265
 21
549.4327865081088
 31
0.0
1001
ACAD
1000
DSTYLE
1002
{
1070
    41
1040
6.0
1070
   341
1005
9550
1070
   147
1040
5.0
1070
    77
1070
     0
1002
}
  0
MTEXT
  5
A652
330
46
100
AcDbEntity
  8
D-STR-HTXT
  6
Continuous
100
AcDbMText
 10
897.9092237722902
 20
555.2581662396598
 30
0.0
 40
10.5
 41
22.8991
 71
     5
 72
     5
  1
3
 73
     1
 44
1.0
1001
ACAD
1000
MTEXTBEGIN
1070
    73
1070
     1
1070
    44
1040
1.0
1070
    74
1070
     0
1000
MTEXTEND
  0
CIRCLE
  5
A653
330
46
100
AcDbEntity
  8
D-STR-HTXT
  6
Continuous
100
AcDbCircle
 10
897.9092237722902
 20
555.2581662396598
 30
0.0
 40
9.0
  0
MTEXT
  5
A654
330
46
100
AcDbEntity
  8
D-STR-HTXT
  6
Continuous
100
AcDbMText
 10
1066.778954164181
 20
562.8058362058282
 30
0.0
 40
10.5
 41
22.8991
 71
     5
 72
     5
  1
1
 73
     1
 44
1.0
1001
ACAD
1000
MTEXTBEGIN
1070
    73
1070
     1
1070
    44
1040
1.0
1070
    74
1070
     0
1000
MTEXTEND
  0
CIRCLE
  5
A655
330
46
100
AcDbEntity
  8
D-STR-HTXT
  6
Continuous
100
AcDbCircle
 10
1066.778954164181
 20
562.8058362058282
 30
0.0
 40
9.0
  0
DIMENSION
  5
A656
330
46
100
AcDbEntity
  8
D-STR-DIM
  6
Continuous
100
AcDbDimension
  2
*D19
 10
1180.135462529068
 20
826.9247034495448
 30
0.0
 11
1057.38546252907
 21
832.4247034495448
 31
0.0
 70
    32
 71
     5
 42
245.4999999999973
  3
2
100
AcDbAlignedDimension
 13
934.6354625290715
 23
791.1098508929856
 33
0.0
 14
1180.135462529068
 24
778.1098508929856
 34
0.0
100
AcDbRotatedDimension
1001
ACAD
1000
DSTYLE
1002
{
1070
   271
1070
     1
1002
}
  0
DIMENSION
  5
A657
330
46
100
AcDbEntity
  8
D-STR-DIM
  6
Continuous
100
AcDbDimension
  2
*D22
 10
1160.135462529068
 20
802.1098508929854
 30
0.0
 11
1170.13546252907
 21
807.6098508929854
 31
0.0
 70
    32
 71
     5
 42
20.00000000000273
  3
2
100
AcDbAlignedDimension
 13
1180.135462529071
 23
778.1098508929856
 33
0.0
 14
1160.135462529068
 24
761.6098508929856
 34
0.0
100
AcDbRotatedDimension
  0
DIMENSION
  5
A658
330
46
100
AcDbEntity
  8
D-STR-DIM
  6
Continuous
100
AcDbDimension
  2
*D20
 10
930.1354625290715
 20
851.1098508929856
 30
0.0
 11
1055.13546252907
 21
856.6098508929856
 31
0.0
 70
    32
 71
     5
 42
249.9999999999973
  3
2
100
AcDbAlignedDimension
 13
1180.135462529068
 23
778.1098508929856
 33
0.0
 14
930.1354625290715
 24
791.1098508929856
 34
0.0
100
AcDbRotatedDimension
  0
DIMENSION
  5
A659
330
46
100
AcDbEntity
  8
D-STR-DIM
  6
Continuous
100
AcDbDimension
  2
*D21
 10
1215.135462529071
 20
728.1098508929854
 30
0.0
 11
1209.635462529071
 21
753.1098508929857
 31
0.0
 70
    32
 71
     5
 42
50.00000000000011
  3
2
100
AcDbAlignedDimension
 13
1180.135462529071
 23
778.1098508929856
 33
0.0
 14
1180.135462529068
 24
728.1098508929854
 34
0.0
 50
90.0
100
AcDbRotatedDimension
  0
DIMENSION
  5
A6C9
330
46
100
AcDbEntity
  8
D-STR-DIM
  6
Continuous
100
AcDbDimension
  2
*D23
 10
934.6354625290715
 20
826.9247034495448
 30
0.0
 11
932.3854625290714
 21
832.4247034495448
 31
0.0
 70
    32
 71
     5
 42
4.5
  3
2
100
AcDbAlignedDimension
 13
930.1354625290715
 23
791.1098508929856
 33
0.0
 14
934.6354625290715
 24
791.1098508929856
 34
0.0
100
AcDbRotatedDimension
1001
ACAD
1000
DSTYLE
1002
{
1070
   271
1070
     1
1002
}
  0
DIMENSION
  5
A6E3
330
46
100
AcDbEntity
  8
D-STR-DIM
  6
Continuous
100
AcDbDimension
  2
*D24
 10
889.6354625290713
 20
792.1098508929856
 30
0.0
 11
884.1354625290712
 21
794.3598508929858
 31
0.0
 70
    32
 71
     5
 42
4.5
  3
2
100
AcDbAlignedDimension
 13
919.6354625290714
 23
796.6098508929856
 33
0.0
 14
919.6354625290714
 24
792.1098508929856
 34
0.0
 50
90.0
100
AcDbRotatedDimension
1001
ACAD
1000
DSTYLE
1002
{
1070
   271
1070
     1
1002
}
  0
DIMENSION
  5
A6E4
330
46
100
AcDbEntity
  8
D-STR-DIM
  6
Continuous
100
AcDbDimension
  2
*D25
 10
930.1354625290715
 20
774.1098508929856
 30
0.0
 11
913.3231224471096
 21
774.1098508929856
 31
0.0
 70
   160
 71
     5
 42
5.5
  3
2
100
AcDbAlignedDimension
 13
924.6354625290715
 23
765.1098508929855
 33
0.0
 14
930.1354625290715
 24
765.1098508929855
 34
0.0
100
AcDbRotatedDimension
1001
ACAD
1000
DSTYLE
1002
{
1070
   271
1070
     1
1002
}
  0
DIMENSION
  5
A71B
330
46
100
AcDbEntity
  8
D-STR-DIM
  6
Continuous
100
AcDbDimension
  2
*D26
 10
934.6354625290715
 20
679.6098508929856
 30
0.0
 11
927.1354625290713
 21
685.1098508929855
 31
0.0
 70
    32
 71
     5
 42
15.0
  3
2
100
AcDbAlignedDimension
 13
919.6354625290714
 23
709.6098508929856
 33
0.0
 14
934.6354625290715
 24
715.1098508929855
 34
0.0
100
AcDbRotatedDimension
  0
MTEXT
  5
A731
330
46
100
AcDbEntity
  8
D-STR-HTXT
  6
Continuous
100
AcDbMText
 10
1057.54009567949
 20
792.4477649742925
 30
0.0
 40
10.5
 41
22.8991
 71
     5
 72
     5
  1
1
 73
     1
 44
1.0
1001
ACAD
1000
MTEXTBEGIN
1070
    73
1070
     1
1070
    44
1040
1.0
1070
    74
1070
     0
1000
MTEXTEND
  0
CIRCLE
  5
A732
330
46
100
AcDbEntity
  8
D-STR-HTXT
  6
Continuous
100
AcDbCircle
 10
1057.54009567949
 20
792.4477649742925
 30
0.0
 40
9.0
  0
LINE
  5
A733
330
46
100
AcDbEntity
  8
D-STR-HTXT
  6
Continuous
100
AcDbLine
 10
921.4096296401049
 20
800.6882865443861
 30
0.0
 11
884.7592333790808
 21
834.6545879565901
 31
0.0
1001
ACAD
1000
DSTYLE
1002
{
1070
    41
1040
6.0
1070
   341
1005
9550
1070
   147
1040
5.0
1070
    77
1070
     0
1002
}
  0
INSERT
  5
A734
330
46
100
AcDbEntity
  8
D-STR-HTXT
  6
Continuous
100
AcDbBlockReference
  2
_Open
 10
925.8103526076871
 20
796.6098508929856
 30
0.0
 41
-5.99999999999942
 42
6.0
 43
6.0
 50
137.1767275510342
1001
ACAD
1000
DSTYLE
1002
{
1070
    41
1040
6.0
1070
   341
1005
9550
1070
   147
1040
5.0
1070
    77
1070
     0
1002
}
  0
CIRCLE
  5
A735
330
46
100
AcDbEntity
  8
D-STR-HTXT
  6
Continuous
100
AcDbCircle
 10
876.2843093279329
 20
839.1245816919083
 30
0.0
 40
9.0
  0
MTEXT
  5
A736
330
46
100
AcDbEntity
  8
D-STR-HTXT
  6
Continuous
100
AcDbMText
 10
876.2843093279329
 20
839.1245816919083
 30
0.0
 40
10.5
 41
22.89912
 71
     5
 72
     5
  1
2
 73
     1
 44
1.0
1001
ACAD
1000
MTEXTBEGIN
1070
    73
1070
     1
1070
    44
1040
1.0
1070
    74
1070
     0
1000
MTEXTEND
  0
LINE
  5
A737
330
46
100
AcDbEntity
  8
D-STR-HTXT
  6
Continuous
100
AcDbLine
 10
913.7427333700426
 20
744.7171518561451
 30
0.0
 11
888.7358915072733
 21
730.2794449750843
 31
0.0
1001
ACAD
1000
DSTYLE
1002
{
1070
    41
1040
6.0
1070
   341
1005
9550
1070
   147
1040
5.0
1070
    77
1070
     0
1002
}
  0
INSERT
  5
A738
330
46
100
AcDbEntity
  8
D-STR-HTXT
  6
Continuous
100
AcDbBlockReference
  2
_Open
 10
918.9388857927543
 20
747.7171518561394
 30
0.0
 41
-5.999999999999178
 42
6.0
 43
6.0
 50
210.0000000000103
1001
ACAD
1000
DSTYLE
1002
{
1070
    41
1040
6.0
1070
   341
1005
9550
1070
   147
1040
5.0
1070
    77
1070
     0
1002
}
  0
CIRCLE
  5
A739
330
46
100
AcDbEntity
  8
D-STR-HTXT
  6
Continuous
100
AcDbCircle
 10
876.2843093279329
 20
725.6057075699602
 30
0.0
 40
9.0
  0
MTEXT
  5
A73A
330
46
100
AcDbEntity
  8
D-STR-HTXT
  6
Continuous
100
AcDbMText
 10
876.2843093279329
 20
725.6057075699602
 30
0.0
 40
10.5
 41
22.8991
 71
     5
 72
     5
  1
3
 73
     1
 44
1.0
1001
ACAD
1000
MTEXTBEGIN
1070
    73
1070
     1
1070
    44
1040
1.0
1070
    74
1070
     0
1000
MTEXTEND
  0
LINE
  5
A73B
330
46
100
AcDbEntity
  8
D-STR
  6
Continuous
100
AcDbLine
 10
1415.322657457303
 20
549.4086694876669
 30
0.0
 11
1396.822657457303
 21
549.4086694876669
 31
0.0
  0
LINE
  5
A73C
330
46
100
AcDbEntity
  8
D-STR
  6
Continuous
100
AcDbLine
 10
1415.322657457303
 20
469.4086694876668
 30
0.0
 11
1328.322657457303
 21
469.4086694876668
 31
0.0
  0
LINE
  5
A73D
330
46
100
AcDbEntity
  8
D-STR-HTXT
  6
Continuous
100
AcDbLine
 10
1399.68303294899
 20
556.9295845959896
 30
0.0
 11
1412.64433708196
 21
567.7306713734428
 31
0.0
1001
ACAD
1000
DSTYLE
1002
{
1070
    41
1040
6.0
1070
   341
1005
9550
1070
   147
1040
5.0
1070
    77
1070
     0
1002
}
  0
DIMENSION
  5
A73E
330
46
100
AcDbEntity
  8
D-STR-DIM
  6
Continuous
100
AcDbDimension
  2
*D27
 10
1445.322657457303
 20
534.4086694876668
 30
0.0
 11
1439.822657457303
 21
541.908669487667
 31
0.0
 70
    32
 71
     5
 42
15.0
  3
2
100
AcDbAlignedDimension
 13
1415.322657457303
 23
549.4086694876669
 33
0.0
 14
1382.822657457303
 24
534.4086694876668
 34
0.0
 50
90.0
100
AcDbRotatedDimension
  0
DIMENSION
  5
A73F
330
46
100
AcDbEntity
  8
D-STR-DIM
  6
Continuous
100
AcDbDimension
  2
*D28
 10
1445.322657457303
 20
484.4086694876668
 30
0.0
 11
1439.822657457303
 21
509.4086694876671
 31
0.0
 70
    32
 71
     5
 42
50.00000000000006
  3
2
100
AcDbAlignedDimension
 13
1382.822657457303
 23
534.4086694876668
 33
0.0
 14
1383.572657457303
 24
484.4086694876668
 34
0.0
 50
90.0
100
AcDbRotatedDimension
  0
DIMENSION
  5
A740
330
46
100
AcDbEntity
  8
D-STR-DIM
  6
Continuous
100
AcDbDimension
  2
*D31
 10
1415.322657457303
 20
439.4086694876668
 30
0.0
 11
1371.822657457303
 21
444.9086694876668
 31
0.0
 70
    32
 71
     5
 42
87.0
  3
2
100
AcDbAlignedDimension
 13
1328.322657457303
 23
469.4086694876668
 33
0.0
 14
1415.322657457303
 24
469.4086694876668
 34
0.0
100
AcDbRotatedDimension
  0
DIMENSION
  5
A741
330
46
100
AcDbEntity
  8
D-STR-DIM
  6
Continuous
100
AcDbDimension
  2
*D29
 10
1445.322657457303
 20
469.4086694876668
 30
0.0
 11
1439.822657457303
 21
476.9086694876671
 31
0.0
 70
    32
 71
     5
 42
14.99999999999994
  3
2
100
AcDbAlignedDimension
 13
1383.572657457303
 23
484.4086694876668
 33
0.0
 14
1415.322657457303
 24
469.4086694876668
 34
0.0
 50
90.0
100
AcDbRotatedDimension
  0
LEADER
  5
A742
330
46
100
AcDbEntity
  8
D-STR-HTXT
  6
Continuous
100
AcDbLeader
  3
2
 73
     0
 74
     0
 40
7.000000000000002
 41
37.8
 76
     3
 10
1378.572657457303
 20
477.6586694876669
 30
0.0
 10
1411.998412030499
 20
419.7635642855641
 30
0.0
 10
1416.998412030499
 20
419.7635642855641
 30
0.0
340
A769
1001
ACAD
1000
DSTYLE
1002
{
1070
    41
1040
3.0
1070
   341
1005
9550
1070
   147
1040
2.0
1070
    77
1070
     1
1002
}
  0
LINE
  5
A743
330
46
100
AcDbEntity
  8
D-STR
  6
DASHED
100
AcDbLine
 10
1412.122657457303
 20
549.4086694876669
 30
0.0
 11
1412.122657457303
 21
469.4086694876668
 31
0.0
  0
LINE
  5
A744
330
46
100
AcDbEntity
  8
D-STR
  6
Continuous
100
AcDbLine
 10
1328.322657457303
 20
549.4086694876669
 30
0.0
 11
1328.322657457303
 21
469.4086694876668
 31
0.0
  0
LINE
  5
A745
330
46
100
AcDbEntity
  8
D-STR
  6
DASHED
100
AcDbLine
 10
1331.522657457303
 20
549.4086694876669
 30
0.0
 11
1331.522657457303
 21
469.4086694876668
 31
0.0
  0
LINE
  5
A746
330
46
100
AcDbEntity
  8
D-STR-STR2
  6
Continuous
100
AcDbLine
 10
1378.572657457303
 20
491.1586694876668
 30
0.0
 11
1378.572657457303
 21
477.6586694876669
 31
0.0
  0
LINE
  5
A747
330
46
100
AcDbEntity
  8
D-STR-STR2
  6
Continuous
100
AcDbLine
 10
1365.072657457303
 20
491.1586694876668
 30
0.0
 11
1365.072657457303
 21
477.6586694876669
 31
0.0
  0
LINE
  5
A748
330
46
100
AcDbEntity
  8
D-BMK
  6
CENTER
100
AcDbLine
 10
1371.822657457303
 20
586.5976540594174
 30
0.0
 11
1371.822657457303
 21
459.4086694876668
 31
0.0
  0
LINE
  5
A749
330
46
100
AcDbEntity
  8
D-STR-STR2
  6
Continuous
100
AcDbLine
 10
1365.072657457303
 20
477.6586694876669
 30
0.0
 11
1378.572657457303
 21
477.6586694876669
 31
0.0
  0
ARC
  5
A74A
330
46
100
AcDbEntity
  8
D-STR
  6
Continuous
100
AcDbCircle
 10
1351.022657457303
 20
549.1836516109731
 30
0.0
 40
0.9999999999999998
100
AcDbArc
 50
90.0
 51
180.0
  0
ARC
  5
A74B
330
46
100
AcDbEntity
  8
D-STR
  6
Continuous
100
AcDbCircle
 10
1351.022657457303
 20
549.1836516109731
 30
0.0
 40
4.2
100
AcDbArc
 50
90.0
 51
180.0
  0
LINE
  5
A74C
330
46
100
AcDbEntity
  8
D-STR
  6
Continuous
100
AcDbLine
 10
1393.622657457303
 20
540.4086694876668
 30
0.0
 11
1350.022657457303
 21
540.4086694876668
 31
0.0
  0
LINE
  5
A74D
330
46
100
AcDbEntity
  8
D-STR
  6
DASHED
100
AcDbLine
 10
1393.622657457303
 20
543.6086694876669
 30
0.0
 11
1350.022657457303
 21
543.6086694876669
 31
0.0
  0
LINE
  5
A74E
330
46
100
AcDbEntity
  8
D-STR-HTXT
  6
Continuous
100
AcDbLine
 10
1364.632793523719
 20
541.5201145249279
 30
0.0
 11
1322.851489586123
 21
563.5502566011068
 31
0.0
1001
ACAD
1000
DSTYLE
1002
{
1070
    41
1040
6.0
1070
   341
1005
9550
1070
   147
1040
5.0
1070
    77
1070
     0
1002
}
  0
MTEXT
  5
A74F
330
46
100
AcDbEntity
  8
D-STR-HTXT
  6
Continuous
100
AcDbMText
 10
1316.830354902282
 20
516.052507964587
 30
0.0
 40
10.5
 41
22.8991
 71
     5
 72
     5
  1
2
 73
     1
 44
1.0
1001
ACAD
1000
MTEXTBEGIN
1070
    73
1070
     1
1070
    44
1040
1.0
1070
    74
1070
     0
1000
MTEXTEND
  0
CIRCLE
  5
A750
330
46
100
AcDbEntity
  8
D-STR-HTXT
  6
Continuous
100
AcDbCircle
 10
1316.830354902282
 20
516.052507964587
 30
0.0
 40
9.0
  0
LINE
  5
A751
330
46
100
AcDbEntity
  8
D-STR
  6
Continuous
100
AcDbLine
 10
1350.022657457303
 20
501.7553089988685
 30
0.0
 11
1346.822657457303
 21
501.7553089988685
 31
0.0
  0
LINE
  5
A752
330
46
100
AcDbEntity
  8
D-STR
  6
Continuous
100
AcDbLine
 10
1346.822657457303
 20
549.1836516109731
 30
0.0
 11
1346.822657457303
 21
501.7553089988685
 31
0.0
  0
LINE
  5
A753
330
46
100
AcDbEntity
  8
D-STR
  6
Continuous
100
AcDbLine
 10
1350.022657457303
 20
549.1836516109731
 30
0.0
 11
1350.022657457303
 21
501.7553089988685
 31
0.0
  0
LINE
  5
A754
330
46
100
AcDbEntity
  8
D-STR
  6
Continuous
100
AcDbLine
 10
1346.828689532393
 20
549.4086694876669
 30
0.0
 11
1328.322657457303
 21
549.4086694876669
 31
0.0
  0
CIRCLE
  5
A755
330
46
100
AcDbEntity
  8
D-STR-HTXT
  6
Continuous
100
AcDbCircle
 10
1313.71939525235
 20
569.1376320040895
 30
0.0
 40
9.0
  0
MTEXT
  5
A756
330
46
100
AcDbEntity
  8
D-STR-HTXT
  6
Continuous
100
AcDbMText
 10
1313.71939525235
 20
569.1376320040895
 30
0.0
 40
10.5
 41
22.8991
 71
     5
 72
     5
  1
3
 73
     1
 44
1.0
1001
ACAD
1000
MTEXTBEGIN
1070
    73
1070
     1
1070
    44
1040
1.0
1070
    74
1070
     0
1000
MTEXTEND
  0
ARC
  5
A757
330
46
100
AcDbEntity
  8
D-STR
  6
Continuous
100
AcDbCircle
 10
1392.622657457303
 20
549.1836516109731
 30
0.0
 40
0.9999999999999998
100
AcDbArc
 50
0.0
 51
90.0
  0
ARC
  5
A758
330
46
100
AcDbEntity
  8
D-STR
  6
Continuous
100
AcDbCircle
 10
1392.622657457303
 20
549.1836516109731
 30
0.0
 40
4.2
100
AcDbArc
 50
0.0
 51
90.0
  0
LINE
  5
A759
330
46
100
AcDbEntity
  8
D-BMK
  6
CENTER
100
AcDbLine
 10
1360.822657457303
 20
534.4086694876668
 30
0.0
 11
1382.822657457303
 21
534.4086694876668
 31
0.0
  0
LINE
  5
A75A
330
46
100
AcDbEntity
  8
D-BMK
  6
CENTER
100
AcDbLine
 10
1360.072657457303
 20
484.4086694876668
 30
0.0
 11
1383.572657457303
 21
484.4086694876668
 31
0.0
  0
LINE
  5
A75B
330
46
100
AcDbEntity
  8
D-STR-STR2
  6
Continuous
100
AcDbLine
 10
1365.822657457303
 20
540.4086694876668
 30
0.0
 11
1377.822657457303
 21
540.4086694876668
 31
0.0
  0
LINE
  5
A75C
330
46
100
AcDbEntity
  8
D-STR-STR2
  6
Continuous
100
AcDbLine
 10
1365.822657457303
 20
528.4086694876669
 30
0.0
 11
1377.822657457303
 21
528.4086694876669
 31
0.0
  0
LINE
  5
A75D
330
46
100
AcDbEntity
  8
D-STR-STR2
  6
Continuous
100
AcDbLine
 10
1365.822657457303
 20
540.4086694876668
 30
0.0
 11
1365.822657457303
 21
528.4086694876669
 31
0.0
  0
LINE
  5
A75E
330
46
100
AcDbEntity
  8
D-STR-STR2
  6
Continuous
100
AcDbLine
 10
1377.822657457303
 20
540.4086694876668
 30
0.0
 11
1377.822657457303
 21
528.4086694876669
 31
0.0
  0
LINE
  5
A75F
330
46
100
AcDbEntity
  8
D-STR-STR2
  6
Continuous
100
AcDbLine
 10
1365.072657457303
 20
491.1586694876668
 30
0.0
 11
1378.572657457303
 21
491.1586694876668
 31
0.0
  0
INSERT
  5
A760
330
46
100
AcDbEntity
  8
D-STR-HTXT
  6
Continuous
100
AcDbBlockReference
  2
_Open
 10
1369.940208126629
 20
538.7216595524762
 30
0.0
 41
-5.999999999999332
 42
6.0
 43
6.0
 50
152.1985412200751
1001
ACAD
1000
DSTYLE
1002
{
1070
    41
1040
6.0
1070
   341
1005
9550
1070
   147
1040
5.0
1070
    77
1070
     0
1002
}
  0
LINE
  5
A761
330
46
100
AcDbEntity
  8
D-STR
  6
Continuous
100
AcDbLine
 10
1396.822657457303
 20
549.1836516109731
 30
0.0
 11
1396.822657457303
 21
501.7553089988685
 31
0.0
  0
LINE
  5
A762
330
46
100
AcDbEntity
  8
D-STR
  6
Continuous
100
AcDbLine
 10
1393.622657457303
 20
549.1836516109731
 30
0.0
 11
1393.622657457303
 21
501.7553089988685
 31
0.0
  0
LINE
  5
A763
330
46
100
AcDbEntity
  8
D-STR
  6
Continuous
100
AcDbLine
 10
1396.822657457303
 20
501.7553089988685
 30
0.0
 11
1393.622657457303
 21
501.7553089988685
 31
0.0
  0
LINE
  5
A764
330
46
100
AcDbEntity
  8
D-STR
  6
Continuous
100
AcDbLine
 10
1392.622657457303
 20
550.1836516109731
 30
0.0
 11
1351.022657457303
 21
550.1836516109731
 31
0.0
  0
LINE
  5
A765
330
46
100
AcDbEntity
  8
D-STR
  6
Continuous
100
AcDbLine
 10
1392.622657457303
 20
553.3836516109731
 30
0.0
 11
1351.022657457303
 21
553.3836516109731
 31
0.0
  0
INSERT
  5
A766
330
46
100
AcDbEntity
  8
D-STR-HTXT
  6
Continuous
100
AcDbBlockReference
  2
_Open
 10
1395.073705271407
 20
553.0884781980025
 30
0.0
 41
-5.999999999999388
 42
6.0
 43
6.0
 50
39.80557109227014
1001
ACAD
1000
DSTYLE
1002
{
1070
    41
1040
6.0
1070
   341
1005
9550
1070
   147
1040
5.0
1070
    77
1070
     0
1002
}
  0
LINE
  5
A767
330
46
100
AcDbEntity
  8
D-STR
  6
Continuous
100
AcDbLine
 10
1415.322657457303
 20
549.4086694876669
 30
0.0
 11
1415.322657457303
 21
469.4086694876668
 31
0.0
  0
DIMENSION
  5
A768
330
46
100
AcDbEntity
  8
D-STR-DIM
  6
Continuous
100
AcDbDimension
  2
*D30
 10
1475.322657457303
 20
469.4086694876668
 30
0.0
 11
1469.822657457303
 21
509.4086694876671
 31
0.0
 70
    32
 71
     5
 42
80.0
  3
2
100
AcDbAlignedDimension
 13
1415.322657457303
 23
549.4086694876669
 33
0.0
 14
1415.322657457303
 24
469.4086694876668
 34
0.0
 50
90.0
100
AcDbRotatedDimension
  0
MTEXT
  5
A769
102
{ACAD_REACTORS
330
A742
102
}
330
46
100
AcDbEntity
  8
D-STR-HTXT
  6
Continuous
100
AcDbMText
 10
1418.998412030499
 20
421.7635642855641
 30
0.0
 40
7.0
 41
0.0
 71
     7
 72
     1
  1
13.5角穴
 73
     1
 44
1.0
1001
ACAD
1000
MTEXTBEGIN
1070
    73
1070
     1
1070
    44
1040
1.0
1070
    74
1070
     0
1000
MTEXTEND
  0
MTEXT
  5
A76A
330
46
100
AcDbEntity
  8
D-STR-HTXT
  6
Continuous
100
AcDbMText
 10
1422.014229616915
 20
573.1625863505119
 30
0.0
 40
10.5
 41
22.8991
 71
     5
 72
     5
  1
1
 73
     1
 44
1.0
1001
ACAD
1000
MTEXTBEGIN
1070
    73
1070
     1
1070
    44
1040
1.0
1070
    74
1070
     0
1000
MTEXTEND
  0
CIRCLE
  5
A76B
330
46
100
AcDbEntity
  8
D-STR-HTXT
  6
Continuous
100
AcDbCircle
 10
1422.014229616915
 20
573.1625863505119
 30
0.0
 40
9.0
  0
TEXT
  5
AB74
330
46
100
AcDbEntity
  8
D-MTR-MTXT
  6
Continuous
100
AcDbText
 10
357.1010490904951
 20
199.3905157605764
 30
0.0
 40
10.5
  1
SWCH
100
AcDbText
  0
TEXT
  5
AB75
330
46
100
AcDbEntity
  8
D-MTR
  6
Continuous
100
AcDbText
 10
244.4383968649386
 20
273.2516910758773
 30
0.0
 40
15.0
  1
通信用受金物（L=200）
100
AcDbText
  0
TEXT
  5
AB76
330
46
100
AcDbEntity
  8
D-MTR-MTXT
  6
Continuous
100
AcDbText
 10
357.1010490904951
 20
172.1121369628363
 30
0.0
 40
10.5
  1
SWCH
100
AcDbText
  0
TEXT
  5
AB77
330
46
100
AcDbEntity
  8
D-MTR-MTXT
  6
Continuous
100
AcDbText
 10
357.1010490904932
 20
135.2770005696157
 30
0.0
 40
10.5
  1
SWCH
100
AcDbText
  0
LWPOLYLINE
  5
AB78
330
46
100
AcDbEntity
  8
D-MTR-FRAM
  6
Continuous
100
AcDbPolyline
 90
        4
 70
     1
 43
0.0
 10
234.3974567080622
 20
123.4996809873992
 10
664.8991033820666
 20
123.4996809873992
 10
664.8991033820684
 20
293.7267113693206
 10
234.397456708064
 20
293.7267113693206
  0
LINE
  5
AB79
330
46
100
AcDbEntity
  8
D-MTR-FRAM
  6
Continuous
100
AcDbLine
 10
664.8991033820666
 20
214.8915749761
 30
0.0
 11
234.397456708064
 21
214.8915749761
 31
0.0
  0
LINE
  5
AB7A
330
46
100
AcDbEntity
  8
D-MTR-FRAM
  6
Continuous
100
AcDbLine
 10
234.397456708064
 20
196.6131961783599
 30
0.0
 11
664.8991033820666
 21
196.6131961783599
 31
0.0
  0
LINE
  5
AB7B
330
46
100
AcDbEntity
  8
D-MTR-FRAM
  6
Continuous
100
AcDbLine
 10
234.3974567080622
 20
160.0564385828798
 30
0.0
 11
664.8991033820648
 21
160.0564385828798
 31
0.0
  0
LINE
  5
AB7C
330
46
100
AcDbEntity
  8
D-MTR-FRAM
  6
Continuous
100
AcDbLine
 10
234.397456708064
 20
233.1699537738405
 30
0.0
 11
664.8991033820666
 21
233.1699537738405
 31
0.0
  0
LINE
  5
AB7D
330
46
100
AcDbEntity
  8
D-MTR-FRAM
  6
Continuous
100
AcDbLine
 10
234.397456708064
 20
269.7267113693206
 30
0.0
 11
664.8991033820666
 21
269.7267113693206
 31
0.0
  0
LINE
  5
AB7E
330
46
100
AcDbEntity
  8
D-MTR-FRAM
  6
Continuous
100
AcDbLine
 10
664.8991033820666
 20
251.4483325715806
 30
0.0
 11
234.397456708064
 21
251.4483325715806
 31
0.0
  0
TEXT
  5
AB7F
330
46
100
AcDbEntity
  8
D-MTR-TXT
  6
Continuous
100
AcDbText
 10
367.6078127470491
 20
254.2256521537952
 30
0.0
 40
10.5
  1
材　質
100
AcDbText
  0
TEXT
  5
AB80
330
46
100
AcDbEntity
  8
D-MTR-MTXT
  6
Continuous
100
AcDbText
 10
275.0441690218204
 20
217.668894558316
 30
0.0
 40
10.5
  1
取付ﾌﾟﾚｰﾄ
100
AcDbText
  0
TEXT
  5
AB81
330
46
100
AcDbEntity
  8
D-MTR-MTXT
  6
Continuous
100
AcDbText
 10
243.3839902678847
 20
135.2459130841808
 30
0.0
 40
10.5
  1
5
 11
243.3839902678847
 21
145.7459130841808
 31
0.0
100
AcDbText
 73
     3
  0
LINE
  5
AB82
330
46
100
AcDbEntity
  8
D-MTR-FRAM
  6
Continuous
100
AcDbLine
 10
262.1760579564079
 20
269.5912905164824
 30
0.0
 11
262.1760579564061
 21
123.4996809873992
 31
0.0
  0
TEXT
  5
AB83
330
46
100
AcDbEntity
  8
D-MTR-MTXT
  6
Continuous
100
AcDbText
 10
243.3929114234747
 20
172.0810494774014
 30
0.0
 40
10.5
  1
4
 11
243.3929114234747
 21
182.5810494774014
 31
0.0
100
AcDbText
 73
     3
  0
TEXT
  5
AB84
330
46
100
AcDbEntity
  8
D-MTR-MTXT
  6
Continuous
100
AcDbText
 10
243.3929114234747
 20
199.3594282751392
 30
0.0
 40
10.5
  1
3
 11
243.3929114234747
 21
209.8594282751392
 31
0.0
100
AcDbText
 73
     3
  0
TEXT
  5
AB85
330
46
100
AcDbEntity
  8
D-MTR-TXT
  6
Continuous
100
AcDbText
 10
238.0278161420074
 20
252.8658478263411
 30
0.0
 40
10.5
  1
符号
 11
238.0278161420074
 21
263.3658478263411
 31
0.0
100
AcDbText
 73
     3
  0
TEXT
  5
AB86
330
46
100
AcDbEntity
  8
D-MTR-MTXT
  6
Continuous
100
AcDbText
 10
243.3929114234747
 20
217.6378070728798
 30
0.0
 40
10.5
  1
2
 11
243.3929114234747
 21
228.1378070728798
 31
0.0
100
AcDbText
 73
     3
  0
TEXT
  5
AB87
330
46
100
AcDbEntity
  8
D-MTR-MTXT
  6
Continuous
100
AcDbText
 10
244.6730794342916
 20
235.9161858706198
 30
0.0
 40
10.5
  1
1
 11
244.6730794342916
 21
246.4161858706198
 31
0.0
100
AcDbText
 73
     3
  0
TEXT
  5
AB88
330
46
100
AcDbEntity
  8
D-MTR-MTXT
  6
Continuous
100
AcDbText
 10
277.3371186795548
 20
135.2770005696162
 30
0.0
 40
10.5
  1
固定用ﾅｯﾄ
100
AcDbText
  0
LINE
  5
AB89
330
46
100
AcDbEntity
  8
D-MTR-FRAM
  6
Continuous
100
AcDbLine
 10
346.3042944609956
 20
269.5912905164824
 30
0.0
 11
346.3042944609938
 21
123.4996809873992
 31
0.0
  0
TEXT
  5
AB8A
330
46
100
AcDbEntity
  8
D-MTR-MTXT
  6
Continuous
100
AcDbText
 10
277.0721436008616
 20
199.3905157605764
 30
0.0
 40
10.5
  1
支持ピン
100
AcDbText
  0
TEXT
  5
AB8B
330
46
100
AcDbEntity
  8
D-MTR-MTXT
  6
Continuous
100
AcDbText
 10
277.0721436008616
 20
172.1121369628363
 30
0.0
 40
10.5
  1
固定用ﾎﾞﾙﾄ
100
AcDbText
  0
TEXT
  5
AB8C
330
46
100
AcDbEntity
  8
D-MTR-MTXT
  6
Continuous
100
AcDbText
 10
282.8084375668282
 20
235.9472733560556
 30
0.0
 40
10.5
  1
本　体
100
AcDbText
  0
TEXT
  5
AB8D
330
46
100
AcDbEntity
  8
D-MTR-TXT
  6
Continuous
100
AcDbText
 10
284.6107297097619
 20
254.2256521537952
 30
0.0
 40
10.5
  1
品　名
100
AcDbText
  0
TEXT
  5
AB8E
330
46
100
AcDbEntity
  8
D-MTR-MTXT
  6
Continuous
100
AcDbText
 10
357.1010490904951
 20
217.6688945583156
 30
0.0
 40
10.5
  1
SPHC
100
AcDbText
  0
TEXT
  5
AB8F
330
46
100
AcDbEntity
  8
D-MTR-MTXT
  6
Continuous
100
AcDbText
 10
357.1010490904951
 20
235.9472733560556
 30
0.0
 40
10.5
  1
SPHC
100
AcDbText
  0
TEXT
  5
AB90
330
46
100
AcDbEntity
  8
D-MTR-TXT
  6
Continuous
100
AcDbText
 10
639.1521862652934
 20
252.8658478263411
 30
0.0
 40
10.5
  1
数量
 11
639.1521862652934
 21
263.3658478263411
 31
0.0
100
AcDbText
 73
     3
  0
TEXT
  5
AB91
330
46
100
AcDbEntity
  8
D-MTR-MTXT
  6
Continuous
100
AcDbText
 10
433.9340836132755
 20
236.0149837824729
 30
0.0
 40
10.5
  1
溶融亜鉛めっきHDZ45
100
AcDbText
  0
TEXT
  5
AB92
330
46
100
AcDbEntity
  8
D-MTR-TXT
  6
Continuous
100
AcDbText
 10
506.5435325286053
 20
254.2256521537952
 30
0.0
 40
10.5
  1
規　格
100
AcDbText
  0
TEXT
  5
AB93
330
46
100
AcDbEntity
  8
D-MTR-MTXT
  6
Continuous
100
AcDbText
 10
433.9340836132751
 20
126.3447109960321
 30
0.0
 40
10.5
  1
溶融亜鉛めっきHDZ35
100
AcDbText
  0
TEXT
  5
AB94
330
46
100
AcDbEntity
  8
D-MTR-MTXT
  6
Continuous
100
AcDbText
 10
433.9340836132755
 20
199.4582261869928
 30
0.0
 40
10.5
  1
溶融亜鉛めっきHDZ45
100
AcDbText
  0
TEXT
  5
AB95
330
46
100
AcDbEntity
  8
D-MTR-MTXT
  6
Continuous
100
AcDbText
 10
433.9340836132751
 20
162.9014685915127
 30
0.0
 40
10.5
  1
溶融亜鉛めっきHDZ35
100
AcDbText
  0
TEXT
  5
AB96
330
46
100
AcDbEntity
  8
D-MTR-MTXT
  6
Continuous
100
AcDbText
 10
433.9340836132755
 20
181.1121369628345
 30
0.0
 40
10.5
  1
角根丸頭ﾎﾞﾙﾄ（M12×30:A形1種)
100
AcDbText
  0
TEXT
  5
AB97
330
46
100
AcDbEntity
  8
D-MTR-MTXT
  6
Continuous
100
AcDbText
 10
433.9340836132755
 20
217.6688945583147
 30
0.0
 40
10.5
  1
溶融亜鉛めっきHDZ45
100
AcDbText
  0
LINE
  5
AB98
330
46
100
AcDbEntity
  8
D-MTR-FRAM
  6
Continuous
100
AcDbLine
 10
424.6482800450653
 20
269.7267113693206
 30
0.0
 11
424.6482800450634
 21
123.4996809873992
 31
0.0
  0
TEXT
  5
AB99
330
46
100
AcDbEntity
  8
D-MTR-MTXT
  6
Continuous
100
AcDbText
 10
446.3793081238232
 20
144.5553793673562
 30
0.0
 40
10.5
  1
M12用
100
AcDbText
  0
LINE
  5
AB9A
330
46
100
AcDbEntity
  8
D-MTR-FRAM
  6
Continuous
100
AcDbLine
 10
636.3552627807798
 20
269.5912905164824
 30
0.0
 11
636.355262780778
 21
123.4996809873992
 31
0.0
  0
TEXT
  5
AB9B
330
46
100
AcDbEntity
  8
D-MTR-MTXT
  6
Continuous
100
AcDbText
 10
650.0569327406164
 20
135.2459130841794
 30
0.0
 40
10.5
  1
1
 11
650.0569327406164
 21
145.7459130841794
 31
0.0
100
AcDbText
 73
     3
  0
TEXT
  5
AB9C
330
46
100
AcDbEntity
  8
D-MTR-MTXT
  6
Continuous
100
AcDbText
 10
650.0569327406183
 20
199.3594282751401
 30
0.0
 40
10.5
  1
1
 11
650.0569327406183
 21
209.8594282751402
 31
0.0
100
AcDbText
 73
     3
  0
TEXT
  5
AB9D
330
46
100
AcDbEntity
  8
D-MTR-MTXT
  6
Continuous
100
AcDbText
 10
650.0569327406183
 20
172.0810494773996
 30
0.0
 40
10.5
  1
1
 11
650.0569327406183
 21
182.5810494773996
 31
0.0
100
AcDbText
 73
     3
  0
TEXT
  5
AB9E
330
46
100
AcDbEntity
  8
D-MTR-MTXT
  6
Continuous
100
AcDbText
 10
650.0569327406201
 20
235.9161858706203
 30
0.0
 40
10.5
  1
1
 11
650.0569327406201
 21
246.4161858706203
 31
0.0
100
AcDbText
 73
     3
  0
TEXT
  5
AB9F
330
46
100
AcDbEntity
  8
D-MTR-MTXT
  6
Continuous
100
AcDbText
 10
650.0569327406201
 20
217.6378070728802
 30
0.0
 40
10.5
  1
1
 11
650.0569327406201
 21
228.1378070728802
 31
0.0
100
AcDbText
 73
     3
  0
ENDSEC
  0
SECTION
  2
OBJECTS
  0
DICTIONARY
  5
2810
330
0
100
AcDbDictionary
281
     1
  3
ACAD_COLOR
350
ABB8
  3
ACAD_GROUP
350
2811
  3
ACAD_LAYOUT
350
281C
  3
ACAD_MATERIAL
350
ABB7
  3
ACAD_MLINESTYLE
350
2812
  3
ACAD_PLOTSETTINGS
350
281D
  3
ACAD_PLOTSTYLENAME
350
2819
  3
ACAD_TABLESTYLE
350
ABB9
  3
AcadDim
350
A59A
  3
ACDBHEADERROUNDTRIPXREC
350
ABC3
  3
AcDbVariableDictionary
350
2854
  0
DICTIONARY
  5
2849
330
46
100
AcDbDictionary
280
     1
281
     1
  3
ACAD_LAYOUTSELFREF
360
284A
  0
DICTIONARY
  5
284B
330
47
100
AcDbDictionary
280
     1
281
     1
  3
ACAD_LAYOUTSELFREF
360
284C
  0
DICTIONARY
  5
ABB8
102
{ACAD_REACTORS
330
2810
102
}
330
2810
100
AcDbDictionary
281
     1
  0
DICTIONARY
  5
2811
102
{ACAD_REACTORS
330
2810
102
}
330
2810
100
AcDbDictionary
281
     1
  0
DICTIONARY
  5
281C
102
{ACAD_REACTORS
330
2810
102
}
330
2810
100
AcDbDictionary
281
     1
  3
Model
350
281E
  3
ﾚｲｱｳﾄ1
350
281F
  0
DICTIONARY
  5
ABB7
102
{ACAD_REACTORS
330
2810
102
}
330
2810
100
AcDbDictionary
281
     1
  0
DICTIONARY
  5
2812
102
{ACAD_REACTORS
330
2810
102
}
330
2810
100
AcDbDictionary
281
     1
  3
Standard
350
2F28
  0
DICTIONARY
  5
281D
102
{ACAD_REACTORS
330
2810
102
}
330
2810
100
AcDbDictionary
281
     1
  0
ACDBDICTIONARYWDFLT
  5
2819
102
{ACAD_REACTORS
330
2810
102
}
330
2810
100
AcDbDictionary
281
     1
  3
Normal
350
281A
100
AcDbDictionaryWithDefault
340
281A
  0
DICTIONARY
  5
ABB9
102
{ACAD_REACTORS
330
2810
102
}
330
2810
100
AcDbDictionary
281
     1
  3
Standard
350
ABBA
  0
XRECORD
  5
A59A
102
{ACAD_REACTORS
330
2810
102
}
330
2810
100
AcDbXrecord
280
     1
 90
   990106
  3

 60
     0
 61
     0
 62
     1
 63
     3
 64
     1
 65
     0
 66
     0
 67
     3
 68
     1
 69
     0
 70
     0
 71
     0
 72
     0
 40
0.0
170
     2
340
A59C
  0
DICTIONARY
  5
ABC3
102
{ACAD_REACTORS
330
2810
102
}
330
2810
100
AcDbDictionary
281
     1
  0
DICTIONARY
  5
2854
102
{ACAD_REACTORS
330
2810
102
}
330
2810
100
AcDbDictionary
281
     1
  3
CTABLESTYLE
350
ABC0
  3
DIMASSOC
350
2855
  3
PROJECTNAME
350
ABC1
  0
XRECORD
  5
284A
102
{ACAD_REACTORS
330
2849
102
}
330
2849
100
AcDbXrecord
280
     1
340
46
  0
XRECORD
  5
284C
102
{ACAD_REACTORS
330
284B
102
}
330
284B
100
AcDbXrecord
280
     1
340
47
  0
LAYOUT
  5
281E
102
{ACAD_XDICTIONARY
360
ABC4
102
}
102
{ACAD_REACTORS
330
281C
102
}
330
281C
100
AcDbPlotSettings
  1

  2
RICOH IPSiO NX730N RPCS★
  4
A3
  6

 40
5.873749732971191
 41
5.873747825622558
 42
5.873748779296875
 43
5.873748779296875
 44
296.9259948730469
 45
419.9466552734374
 46
-5.91
 47
-6.15
 48
0.0
 49
0.0
140
1681.999993260642
141
1187.999995240002
142
1.0
143
4.0
 70
 11948
 72
     1
 73
     1
 74
     4
  7
canon国土交通省.ctb
 75
     0
147
0.25
148
0.0
149
0.0
100
AcDbLayout
  1
Model
 70
     1
 71
     0
 10
0.0
 20
0.0
 11
12.0
 21
9.0
 12
0.0
 22
0.0
 32
0.0
 14
0.0
 24
0.0
 34
0.0
 15
0.0
 25
0.0
 35
0.0
146
0.0
 13
0.0
 23
0.0
 33
0.0
 16
1.0
 26
0.0
 36
0.0
 17
0.0
 27
1.0
 37
0.0
 76
     0
330
46
  0
LAYOUT
  5
281F
102
{ACAD_XDICTIONARY
360
ABC6
102
}
102
{ACAD_REACTORS
330
281C
102
}
330
281C
100
AcDbPlotSettings
  1

  2
C:\Program Files\ACAD LT 2000\plotters\レーザー ３３１０.pc3
  4

  6

 40
0.0
 41
0.0
 42
0.0
 43
0.0
 44
0.0
 45
0.0
 46
0.0
 47
0.0
 48
0.0
 49
0.0
140
0.0
141
0.0
142
1.0
143
1.0
 70
   688
 72
     0
 73
     0
 74
     5
  7
canon国土交通省.ctb
 75
    16
147
1.0
148
0.0
149
0.0
100
AcDbLayout
  1
ﾚｲｱｳﾄ1
 70
     1
 71
     1
 10
0.0
 20
0.0
 11
12.0
 21
9.0
 12
0.0
 22
0.0
 32
0.0
 14
1.000000000000000E+20
 24
1.000000000000000E+20
 34
1.000000000000000E+20
 15
-1.000000000000000E+20
 25
-1.000000000000000E+20
 35
-1.000000000000000E+20
146
0.0
 13
0.0
 23
0.0
 33
0.0
 16
1.0
 26
0.0
 36
0.0
 17
0.0
 27
1.0
 37
0.0
 76
     0
330
47
  0
MLINESTYLE
  5
2F28
102
{ACAD_REACTORS
330
2812
102
}
330
2812
100
AcDbMlineStyle
  2
STANDARD
 70
     0
  3

 62
   256
 51
90.0
 52
90.0
 71
     2
 49
0.5
 62
   256
  6
BYLAYER
 49
-0.5
 62
   256
  6
BYLAYER
  0
ACDBPLACEHOLDER
  5
281A
102
{ACAD_REACTORS
330
2819
102
}
330
2819
  0
TABLESTYLE
  5
ABBA
102
{ACAD_REACTORS
330
ABB9
102
}
330
ABB9
100
AcDbTableStyle
  3
Standard
 70
     0
 71
     0
 40
0.06
 41
0.06
280
     0
281
     0
  7
STANDARD
140
0.18
170
     2
 62
     0
 63
     7
283
     0
274
    -2
284
     1
 64
     0
275
    -2
285
     1
 65
     0
276
    -2
286
     1
 66
     0
277
    -2
287
     1
 67
     0
278
    -2
288
     1
 68
     0
279
    -2
289
     1
 69
     0
  7
STANDARD
140
0.25
170
     5
 62
     0
 63
     7
283
     0
274
    -2
284
     1
 64
     0
275
    -2
285
     1
 65
     0
276
    -2
286
     1
 66
     0
277
    -2
287
     1
 67
     0
278
    -2
288
     1
 68
     0
279
    -2
289
     1
 69
     0
  7
STANDARD
140
0.18
170
     5
 62
     0
 63
     7
283
     0
274
    -2
284
     1
 64
     0
275
    -2
285
     1
 65
     0
276
    -2
286
     1
 66
     0
277
    -2
287
     1
 67
     0
278
    -2
288
     1
 68
     0
279
    -2
289
     1
 69
     0
  0
DICTIONARYVAR
  5
ABC0
102
{ACAD_REACTORS
330
2854
102
}
330
2854
100
DictionaryVariables
280
     0
  1
STANDARD
  0
DICTIONARYVAR
  5
2855
102
{ACAD_REACTORS
330
2854
102
}
330
2854
100
DictionaryVariables
280
     0
  1
1
  0
DICTIONARYVAR
  5
ABC1
102
{ACAD_REACTORS
330
2854
102
}
330
2854
100
DictionaryVariables
280
     0
  1

  0
DICTIONARY
  5
ABC4
330
281E
100
AcDbDictionary
280
     1
281
     1
  3
ACAD_XREC_ROUNDTRIP
360
ABC5
  0
DICTIONARY
  5
ABC6
330
281F
100
AcDbDictionary
280
     1
281
     1
  3
ACAD_XREC_ROUNDTRIP
360
ABC7
  0
XRECORD
  5
ABC5
102
{ACAD_REACTORS
330
ABC4
102
}
330
ABC4
100
AcDbXrecord
280
     1
102
SHADEPLOT
 70
     2
102
SHADEPLOTRESLEVEL
 70
     2
102
SHADEPLOTCUSTOMDPI
 70
   300
  0
XRECORD
  5
ABC7
102
{ACAD_REACTORS
330
ABC6
102
}
330
ABC6
100
AcDbXrecord
280
     1
102
SHADEPLOT
 70
     0
102
SHADEPLOTRESLEVEL
 70
     2
102
SHADEPLOTCUSTOMDPI
 70
   300
  0
ENDSEC
  0
EOF
