  0
SECTION
  2
HEADER
  9
$ACADVER
  1
AC1015
  9
$ACADMAINTVER
 70
    20
  9
$DWGCODEPAGE
  3
ANSI_932
  9
$INSBASE
 10
0.0
 20
0.0
 30
0.0
  9
$EXTMIN
 10
0.0
 20
0.0
 30
0.0
  9
$EXTMAX
 10
16819.99991487857
 20
11879.99993987879
 30
0.0
  9
$LIMMIN
 10
0.0
 20
0.0
  9
$LIMMAX
 10
420.0
 20
297.0
  9
$ORTHOMODE
 70
     0
  9
$REGENMODE
 70
     1
  9
$FILLMODE
 70
     1
  9
$QTEXTMODE
 70
     0
  9
$MIRRTEXT
 70
     0
  9
$LTSCALE
 40
20.0
  9
$ATTMODE
 70
     1
  9
$TEXTSIZE
 40
2.5
  9
$TRACEWID
 40
1.0
  9
$TEXTSTYLE
  7
STANDARD
  9
$CLAYER
  8
0
  9
$CELTYPE
  6
BYLAYER
  9
$CECOLOR
 62
   256
  9
$CELTSCALE
 40
1.0
  9
$DISPSILH
 70
     0
  9
$DIMSCALE
 40
1.0
  9
$DIMASZ
 40
20.0
  9
$DIMEXO
 40
20.0
  9
$DIMDLI
 40
0.0
  9
$DIMRND
 40
0.0
  9
$DIMDLE
 40
0.0
  9
$DIMEXE
 40
20.0
  9
$DIMTP
 40
0.0
  9
$DIMTM
 40
0.0
  9
$DIMTXT
 40
70.0
  9
$DIMCEN
 40
20.0
  9
$DIMTSZ
 40
0.0
  9
$DIMTOL
 70
     0
  9
$DIMLIM
 70
     0
  9
$DIMTIH
 70
     0
  9
$DIMTOH
 70
     0
  9
$DIMSE1
 70
     0
  9
$DIMSE2
 70
     0
  9
$DIMTAD
 70
     1
  9
$DIMZIN
 70
     8
  9
$DIMBLK
  1
OPEN
  9
$DIMASO
 70
     1
  9
$DIMSHO
 70
     1
  9
$DIMPOST
  1

  9
$DIMAPOST
  1

  9
$DIMALT
 70
     0
  9
$DIMALTD
 70
     3
  9
$DIMALTF
 40
0.03937007874016
  9
$DIMLFAC
 40
1.0
  9
$DIMTOFL
 70
     1
  9
$DIMTVP
 40
0.0
  9
$DIMTIX
 70
     1
  9
$DIMSOXD
 70
     0
  9
$DIMSAH
 70
     0
  9
$DIMBLK1
  1

  9
$DIMBLK2
  1

  9
$DIMSTYLE
  2
20
  9
$DIMCLRD
 70
   256
  9
$DIMCLRE
 70
   256
  9
$DIMCLRT
 70
   256
  9
$DIMTFAC
 40
1.0
  9
$DIMGAP
 40
20.0
  9
$DIMJUST
 70
     0
  9
$DIMSD1
 70
     0
  9
$DIMSD2
 70
     0
  9
$DIMTOLJ
 70
     1
  9
$DIMTZIN
 70
     8
  9
$DIMALTZ
 70
     0
  9
$DIMALTTZ
 70
     0
  9
$DIMUPT
 70
     0
  9
$DIMDEC
 70
     0
  9
$DIMTDEC
 70
     0
  9
$DIMALTU
 70
     2
  9
$DIMALTTD
 70
     3
  9
$DIMTXSTY
  7
STANDARD
  9
$DIMAUNIT
 70
     1
  9
$DIMADEC
 70
     4
  9
$DIMALTRND
 40
0.0
  9
$DIMAZIN
 70
     0
  9
$DIMDSEP
 70
    46
  9
$DIMATFIT
 70
     3
  9
$DIMFRAC
 70
     0
  9
$DIMLDRBLK
  1
OPEN
  9
$DIMLUNIT
 70
     2
  9
$DIMLWD
 70
    -2
  9
$DIMLWE
 70
    -2
  9
$DIMTMOVE
 70
     1
  9
$LUNITS
 70
     2
  9
$LUPREC
 70
     4
  9
$SKETCHINC
 40
1.0
  9
$FILLETRAD
 40
10.0
  9
$AUNITS
 70
     0
  9
$AUPREC
 70
     0
  9
$MENU
  1
.
  9
$ELEVATION
 40
0.0
  9
$PELEVATION
 40
0.0
  9
$THICKNESS
 40
0.0
  9
$LIMCHECK
 70
     0
  9
$CHAMFERA
 40
150.0
  9
$CHAMFERB
 40
150.0
  9
$CHAMFERC
 40
20.0
  9
$CHAMFERD
 40
0.0
  9
$SKPOLY
 70
     0
  9
$TDCREATE
 40
2452404.412662234
  9
$TDUCREATE
 40
2452404.037662234
  9
$TDUPDATE
 40
2454744.614112951
  9
$TDUUPDATE
 40
2454744.239112951
  9
$TDINDWG
 40
1.7603192361
  9
$TDUSRTIMER
 40
1.7603185417
  9
$USRTIMER
 70
     1
  9
$ANGBASE
 50
0.0
  9
$ANGDIR
 70
     0
  9
$PDMODE
 70
     0
  9
$PDSIZE
 40
0.0
  9
$PLINEWID
 40
0.0
  9
$SPLFRAME
 70
     0
  9
$SPLINETYPE
 70
     6
  9
$SPLINESEGS
 70
     8
  9
$HANDSEED
  5
2B37B
  9
$SURFTAB1
 70
     6
  9
$SURFTAB2
 70
     6
  9
$SURFTYPE
 70
     6
  9
$SURFU
 70
     6
  9
$SURFV
 70
     6
  9
$UCSBASE
  2

  9
$UCSNAME
  2

  9
$UCSORG
 10
0.0
 20
0.0
 30
0.0
  9
$UCSXDIR
 10
1.0
 20
0.0
 30
0.0
  9
$UCSYDIR
 10
0.0
 20
1.0
 30
0.0
  9
$UCSORTHOREF
  2

  9
$UCSORTHOVIEW
 70
     0
  9
$UCSORGTOP
 10
0.0
 20
0.0
 30
0.0
  9
$UCSORGBOTTOM
 10
0.0
 20
0.0
 30
0.0
  9
$UCSORGLEFT
 10
0.0
 20
0.0
 30
0.0
  9
$UCSORGRIGHT
 10
0.0
 20
0.0
 30
0.0
  9
$UCSORGFRONT
 10
0.0
 20
0.0
 30
0.0
  9
$UCSORGBACK
 10
0.0
 20
0.0
 30
0.0
  9
$PUCSBASE
  2

  9
$PUCSNAME
  2

  9
$PUCSORG
 10
0.0
 20
0.0
 30
0.0
  9
$PUCSXDIR
 10
1.0
 20
0.0
 30
0.0
  9
$PUCSYDIR
 10
0.0
 20
1.0
 30
0.0
  9
$PUCSORTHOREF
  2

  9
$PUCSORTHOVIEW
 70
     0
  9
$PUCSORGTOP
 10
0.0
 20
0.0
 30
0.0
  9
$PUCSORGBOTTOM
 10
0.0
 20
0.0
 30
0.0
  9
$PUCSORGLEFT
 10
0.0
 20
0.0
 30
0.0
  9
$PUCSORGRIGHT
 10
0.0
 20
0.0
 30
0.0
  9
$PUCSORGFRONT
 10
0.0
 20
0.0
 30
0.0
  9
$PUCSORGBACK
 10
0.0
 20
0.0
 30
0.0
  9
$USERI1
 70
     0
  9
$USERI2
 70
     0
  9
$USERI3
 70
     0
  9
$USERI4
 70
     0
  9
$USERI5
 70
     0
  9
$USERR1
 40
0.0
  9
$USERR2
 40
0.0
  9
$USERR3
 40
0.0
  9
$USERR4
 40
0.0
  9
$USERR5
 40
0.0
  9
$WORLDVIEW
 70
     1
  9
$SHADEDGE
 70
     3
  9
$SHADEDIF
 70
    70
  9
$TILEMODE
 70
     1
  9
$MAXACTVP
 70
    48
  9
$PINSBASE
 10
0.0
 20
0.0
 30
0.0
  9
$PLIMCHECK
 70
     0
  9
$PEXTMIN
 10
-7.18438714725903
 20
-19.73882792270024
 30
-0.0015258207003583
  9
$PEXTMAX
 10
833.8481947040165
 20
574.2966304217307
 30
0.0000000349246037
  9
$PLIMMIN
 10
-7.184387147259029
 20
-19.73882792270024
  9
$PLIMMAX
 10
-7.184387147259029
 20
-19.73882792270024
  9
$UNITMODE
 70
     0
  9
$VISRETAIN
 70
     1
  9
$PLINEGEN
 70
     0
  9
$PSLTSCALE
 70
     1
  9
$TREEDEPTH
 70
  3020
  9
$CMLSTYLE
  2
STANDARD
  9
$CMLJUST
 70
     0
  9
$CMLSCALE
 40
20.0
  9
$PROXYGRAPHICS
 70
     1
  9
$MEASUREMENT
 70
     0
  9
$CELWEIGHT
370
    -1
  9
$ENDCAPS
280
     0
  9
$JOINSTYLE
280
     0
  9
$LWDISPLAY
290
     0
  9
$INSUNITS
 70
     0
  9
$HYPERLINKBASE
  1

  9
$STYLESHEET
  1
canon国土交通省.ctb
  9
$XEDIT
290
     1
  9
$CEPSNTYPE
380
     0
  9
$PSTYLEMODE
290
     1
  9
$FINGERPRINTGUID
  2
{2179596F-6415-11D6-8A52-000255ECC0C6}
  9
$VERSIONGUID
  2
{F6F25F9A-8F25-11D6-9BFF-000629A6C5B5}
  9
$EXTNAMES
290
     1
  9
$PSVPSCALE
 40
0.0
  9
$OLESTARTUP
290
     0
  0
ENDSEC
  0
SECTION
  2
CLASSES
  0
CLASS
  1
ACDBDICTIONARYWDFLT
  2
AcDbDictionaryWithDefault
  3
ObjectDBX Classes
 90
        0
280
     0
281
     0
  0
CLASS
  1
ACDBPLACEHOLDER
  2
AcDbPlaceHolder
  3
ObjectDBX Classes
 90
        0
280
     0
281
     0
  0
CLASS
  1
LAYOUT
  2
AcDbLayout
  3
ObjectDBX Classes
 90
        0
280
     0
281
     0
  0
CLASS
  1
DICTIONARYVAR
  2
AcDbDictionaryVar
  3
ObjectDBX Classes
 90
        0
280
     0
281
     0
  0
CLASS
  1
PLOTSETTINGS
  2
AcDbPlotSettings
  3
ObjectDBX Classes
 90
    32768
280
     0
281
     0
  0
CLASS
  1
TABLESTYLE
  2
AcDbTableStyle
  3
ObjectDBX Classes
 90
     2047
280
     0
281
     0
  0
ENDSEC
  0
SECTION
  2
TABLES
  0
TABLE
  2
VPORT
  5
8
330
0
100
AcDbSymbolTable
 70
     2
  0
VPORT
  5
2B373
330
8
100
AcDbSymbolTableRecord
100
AcDbViewportTableRecord
  2
*Active
 70
     0
 10
0.0
 20
0.0
 11
1.0
 21
1.0
 12
8410.000221799984
 22
6008.881934523712
 13
0.0
 23
0.0
 14
10.0
 24
10.0
 15
10.0
 25
10.0
 16
0.0
 26
0.0
 36
1.0
 17
0.0
 27
0.0
 37
0.0
 40
12138.62519696892
 41
1.786538461538461
 42
50.0
 43
0.0
 44
0.0
 50
0.0
 51
0.0
 71
     0
 72
   100
 73
     1
 74
     3
 75
     0
 76
     0
 77
     0
 78
     0
281
     0
 65
     1
110
0.0
120
0.0
130
0.0
111
1.0
121
0.0
131
0.0
112
0.0
122
1.0
132
0.0
 79
     0
146
0.0
  0
ENDTAB
  0
TABLE
  2
LTYPE
  5
5
330
0
100
AcDbSymbolTable
 70
     4
  0
LTYPE
  5
14
330
5
100
AcDbSymbolTableRecord
100
AcDbLinetypeTableRecord
  2
BYBLOCK
 70
     0
  3

 72
    65
 73
     0
 40
0.0
  0
LTYPE
  5
15
330
5
100
AcDbSymbolTableRecord
100
AcDbLinetypeTableRecord
  2
BYLAYER
 70
     0
  3

 72
    65
 73
     0
 40
0.0
  0
LTYPE
  5
16
330
5
100
AcDbSymbolTableRecord
100
AcDbLinetypeTableRecord
  2
CONTINUOUS
 70
     0
  3
Solid line
 72
    65
 73
     0
 40
0.0
  0
LTYPE
  5
86
330
5
100
AcDbSymbolTableRecord
100
AcDbLinetypeTableRecord
  2
CENTER
 70
     0
  3
____ _ ____ _ ____ _ ____ _ ____ _ ____ _ ____
 72
    65
 73
     4
 40
17.5
 49
13.0
 74
     0
 49
-1.5
 74
     0
 49
1.5
 74
     0
 49
-1.5
 74
     0
  0
LTYPE
  5
1CC8E
330
5
100
AcDbSymbolTableRecord
100
AcDbLinetypeTableRecord
  2
CENTER2
 70
     0
  3
----------  --  ----------  --  
 72
    65
 73
     4
 40
20.0
 49
12.5
 74
     0
 49
-2.5
 74
     0
 49
2.5
 74
     0
 49
-2.5
 74
     0
  0
LTYPE
  5
2684A
330
5
100
AcDbSymbolTableRecord
100
AcDbLinetypeTableRecord
  2
DASHED1
 70
     0
  3
--  --  --  --  --  --  --  --  
 72
    65
 73
     2
 40
2.5
 49
1.25
 74
     0
 49
-1.25
 74
     0
  0
ENDTAB
  0
TABLE
  2
LAYER
  5
2
330
0
100
AcDbSymbolTable
 70
    16
  0
LAYER
  5
10
330
2
100
AcDbSymbolTableRecord
100
AcDbLayerTableRecord
  2
0
 70
     0
 62
     7
  6
CONTINUOUS
370
    13
390
7E81
  0
LAYER
  5
AC
330
2
100
AcDbSymbolTableRecord
100
AcDbLayerTableRecord
  2
D-STR-DIM
 70
     0
 62
     7
  6
CONTINUOUS
370
    18
390
7E81
  0
LAYER
  5
D6
330
2
100
AcDbSymbolTableRecord
100
AcDbLayerTableRecord
  2
D-TTL-TXT
 70
     0
 62
     7
  6
CONTINUOUS
370
    13
390
7E81
  0
LAYER
  5
3CD
330
2
100
AcDbSymbolTableRecord
100
AcDbLayerTableRecord
  2
DEFPOINTS
 70
     0
 62
     7
  6
CONTINUOUS
290
     0
370
    13
390
7E81
  0
LAYER
  5
3CE
330
2
100
AcDbSymbolTableRecord
100
AcDbLayerTableRecord
  2
D-TTL-LINE
 70
     0
 62
     7
  6
CONTINUOUS
370
    13
390
7E81
  0
LAYER
  5
1408F
330
2
100
AcDbSymbolTableRecord
100
AcDbLayerTableRecord
  2
D-STR
 70
     0
 62
     1
  6
CONTINUOUS
370
    13
390
7E81
  0
LAYER
  5
1620E
330
2
100
AcDbSymbolTableRecord
100
AcDbLayerTableRecord
  2
D-TTL
 70
     0
 62
     2
  6
CONTINUOUS
370
    13
390
7E81
  0
LAYER
  5
1620F
330
2
100
AcDbSymbolTableRecord
100
AcDbLayerTableRecord
  2
D-TTL-FRAM
 70
     0
 62
     2
  6
CONTINUOUS
290
     0
370
    13
390
7E81
  0
LAYER
  5
16212
330
2
100
AcDbSymbolTableRecord
100
AcDbLayerTableRecord
  2
D-BMK
 70
     0
 62
     2
  6
CENTER
370
    13
390
7E81
  0
LAYER
  5
16213
330
2
100
AcDbSymbolTableRecord
100
AcDbLayerTableRecord
  2
D-STR-HTXT
 70
     0
 62
     7
  6
CONTINUOUS
370
    13
390
7E81
  0
LAYER
  5
16216
330
2
100
AcDbSymbolTableRecord
100
AcDbLayerTableRecord
  2
D-MTR-FRAM
 70
     0
 62
     7
  6
CONTINUOUS
370
    13
390
7E81
  0
LAYER
  5
16217
330
2
100
AcDbSymbolTableRecord
100
AcDbLayerTableRecord
  2
D-MTR
 70
     0
 62
     6
  6
CONTINUOUS
370
    13
390
7E81
  0
LAYER
  5
16218
330
2
100
AcDbSymbolTableRecord
100
AcDbLayerTableRecord
  2
D-MTR-TXT
 70
     0
 62
     7
  6
CONTINUOUS
370
    13
390
7E81
  0
LAYER
  5
16219
330
2
100
AcDbSymbolTableRecord
100
AcDbLayerTableRecord
  2
D-MTR-MTXT
 70
     0
 62
     7
  6
CONTINUOUS
370
    13
390
7E81
  0
LAYER
  5
1621C
330
2
100
AcDbSymbolTableRecord
100
AcDbLayerTableRecord
  2
D-STR-STR2
 70
     0
 62
     1
  6
CONTINUOUS
370
    18
390
7E81
  0
LAYER
  5
27151
330
2
100
AcDbSymbolTableRecord
100
AcDbLayerTableRecord
  2
D-DCR-HCH
 70
     0
 62
     5
  6
CONTINUOUS
370
    13
390
7E81
  0
ENDTAB
  0
TABLE
  2
STYLE
  5
3
330
0
100
AcDbSymbolTable
 70
     2
  0
STYLE
  5
11
330
3
100
AcDbSymbolTableRecord
100
AcDbTextStyleTableRecord
  2
STANDARD
 70
     0
 40
0.0
 41
1.0
 50
0.0
 71
     0
 42
2.5
  3
simplex.shx
  4
bigfont.shx
  0
STYLE
  5
1F432
330
3
100
AcDbSymbolTableRecord
100
AcDbTextStyleTableRecord
  2
明朝
 70
     0
 40
0.0
 41
1.0
 50
0.0
 71
     0
 42
10.0
  3
MS PMincho.ttf
  4

1001
ACAD
1000
MS PMincho
1071
    32786
  0
ENDTAB
  0
TABLE
  2
VIEW
  5
6
330
0
100
AcDbSymbolTable
 70
     0
  0
ENDTAB
  0
TABLE
  2
UCS
  5
7
330
0
100
AcDbSymbolTable
 70
     0
  0
ENDTAB
  0
TABLE
  2
APPID
  5
9
330
0
100
AcDbSymbolTable
 70
     2
  0
APPID
  5
12
330
9
100
AcDbSymbolTableRecord
100
AcDbRegAppTableRecord
  2
ACAD
 70
     0
  0
APPID
  5
7C1E
330
9
100
AcDbSymbolTableRecord
100
AcDbRegAppTableRecord
  2
CONTENTBLOCKICON
 70
     0
  0
ENDTAB
  0
TABLE
  2
DIMSTYLE
  5
A
330
0
100
AcDbSymbolTable
 70
     2
100
AcDbDimStyleTable
 71
     1
340
1CA9B
  0
DIMSTYLE
105
1CA9B
102
{ACAD_REACTORS
330
2A5E8
330
2A5E9
330
2A5EA
330
2A661
330
2A662
330
2A663
330
2A6DA
330
2A6DB
330
2A6DC
330
2B1E1
330
2B1E0
330
2B1DF
330
2B24E
330
2B24D
330
2B24B
330
2B28D
330
2B28C
330
2B28A
102
}
330
A
100
AcDbSymbolTableRecord
100
AcDbDimStyleTableRecord
  2
20
 70
     0
 41
20.0
 42
20.0
 43
0.0
 44
20.0
 73
     0
 74
     0
 77
     1
 78
     8
140
70.0
141
20.0
143
0.03937007874016
147
20.0
171
     3
172
     1
174
     1
176
   256
177
   256
178
   256
179
     4
271
     0
272
     0
274
     3
275
     1
279
     1
284
     8
340
11
341
31
342
31
  0
DIMSTYLE
105
1CC90
330
A
100
AcDbSymbolTableRecord
100
AcDbDimStyleTableRecord
  2
Standard
 70
     0
340
11
  0
ENDTAB
  0
TABLE
  2
BLOCK_RECORD
  5
1
330
0
100
AcDbSymbolTable
 70
    20
  0
BLOCK_RECORD
  5
1F
102
{ACAD_XDICTIONARY
360
7BCB
102
}
330
1
100
AcDbSymbolTableRecord
100
AcDbBlockTableRecord
  2
*MODEL_SPACE
340
7E82
  0
BLOCK_RECORD
  5
1B
102
{ACAD_XDICTIONARY
360
7BCD
102
}
330
1
100
AcDbSymbolTableRecord
100
AcDbBlockTableRecord
  2
*PAPER_SPACE
340
7E83
  0
BLOCK_RECORD
  5
31
330
1
100
AcDbSymbolTableRecord
100
AcDbBlockTableRecord
  2
_OPEN
340
0
310
2800000020000000200000000100080000000000000400000000000000000000000000000000000000000000000080000080000000808000800000008000800080800000C0C0C000C0DCC000F0CAA6000020400000206000002080000020A0000020C0000020E00000400000004020000040400000406000004080000040A0
310
000040C0000040E00000600000006020000060400000606000006080000060A0000060C0000060E00000800000008020000080400000806000008080000080A0000080C0000080E00000A0000000A0200000A0400000A0600000A0800000A0A00000A0C00000A0E00000C0000000C0200000C0400000C0600000C0800000C0
310
A00000C0C00000C0E00000E0000000E0200000E0400000E0600000E0800000E0A00000E0C00000E0E00040000000400020004000400040006000400080004000A0004000C0004000E00040200000402020004020400040206000402080004020A0004020C0004020E000404000004040200040404000404060004040800040
310
40A0004040C0004040E00040600000406020004060400040606000406080004060A0004060C0004060E00040800000408020004080400040806000408080004080A0004080C0004080E00040A0000040A0200040A0400040A0600040A0800040A0A00040A0C00040A0E00040C0000040C0200040C0400040C0600040C08000
310
40C0A00040C0C00040C0E00040E0000040E0200040E0400040E0600040E0800040E0A00040E0C00040E0E00080000000800020008000400080006000800080008000A0008000C0008000E00080200000802020008020400080206000802080008020A0008020C0008020E00080400000804020008040400080406000804080
310
008040A0008040C0008040E00080600000806020008060400080606000806080008060A0008060C0008060E00080800000808020008080400080806000808080008080A0008080C0008080E00080A0000080A0200080A0400080A0600080A0800080A0A00080A0C00080A0E00080C0000080C0200080C0400080C0600080C0
310
800080C0A00080C0C00080C0E00080E0000080E0200080E0400080E0600080E0800080E0A00080E0C00080E0E000C0000000C0002000C0004000C0006000C0008000C000A000C000C000C000E000C0200000C0202000C0204000C0206000C0208000C020A000C020C000C020E000C0400000C0402000C0404000C0406000C0
310
408000C040A000C040C000C040E000C0600000C0602000C0604000C0606000C0608000C060A000C060C000C060E000C0800000C0802000C0804000C0806000C0808000C080A000C080C000C080E000C0A00000C0A02000C0A04000C0A06000C0A08000C0A0A000C0A0C000C0A0E000C0C00000C0C02000C0C04000C0C06000
310
C0C08000C0C0A000F0FBFF00A4A0A000808080000000FF0000FF000000FFFF00FF000000FF00FF00FFFF0000FFFFFF0000000000000000000000000000000000000000000000000000000000000000000000000000000000000000000000000000000000000000000000000000000000000000000000000000000000000000
310
00000000000000000000000000000000000000000000000000000000000000000000000000000000000000000000000000000000000000000000000000000000000000000000000000000000000000000000000000000000000000000000000000000000000000000000000000000000000000000000000000000000000000
310
00000000000000000000000000000000000000000000000000000000000000000000000000000000000000000000000000000000000000000000000000000000000000000000000000000000000000000000000000000000000000000000000000000000000000000000000000000000000000000000000000000000000000
310
0000000000000000000000000000000000000000FFFFFF0000000000000000000000000000000000000000000000000000000000000000FFFFFFFFFFFF0000000000000000000000000000000000000000000000000000000000000000FFFFFFFFFFFF00000000000000000000000000000000000000000000000000000000
310
00000000FFFFFFFFFFFF0000000000000000000000000000000000000000000000000000000000000000FFFFFFFFFFFF0000000000FFFFFFFFFFFFFFFFFFFFFFFFFFFFFFFFFFFFFFFFFFFFFFFFFFFFFFFFFFFF000000000000000000000000000000000000000000FFFFFFFFFFFFFF00000000000000000000000000000000
310
00FFFFFFFFFFFFFFFF0000000000000000000000000000000000FFFFFFFFFFFFFF000000000000000000000000000000000000000000FFFFFFFF000000000000000000000000000000000000000000000000000000000000000000000000000000000000000000000000000000000000000000000000000000000000000000
310
00000000000000000000000000000000000000000000000000000000000000000000000000000000000000000000000000000000000000000000000000000000000000000000000000000000000000000000000000000000000000000000000000000000000000000000000000000000000000000000000000000000000000
310
00000000000000000000000000000000000000000000000000000000000000000000000000000000000000000000000000000000000000000000000000000000000000000000000000000000000000000000000000000000000000000000000000000000000000000000000000000000000000000000000000000000000000
310
0000000000000000000000000000000000000000000000000000000000000000000000000000000000000000000000000000000000000000
102
{BLKREFS
331
2B30B
331
2B30C
331
2B32A
331
2B32B
331
2B349
331
2B34A
102
}
  0
BLOCK_RECORD
  5
2A5B4
330
1
100
AcDbSymbolTableRecord
100
AcDbBlockTableRecord
  2
_Origin
340
0
102
{BLKREFS
331
2B224
331
2B225
331
2B23B
331
2B23C
331
2B242
331
2B243
331
2B273
331
2B274
331
2B27B
331
2B27C
331
2B283
331
2B284
331
2B2B2
331
2B2B3
331
2B2BA
331
2B2BB
331
2B2C2
331
2B2C3
331
2B315
331
2B316
331
2B31F
331
2B320
331
2B334
331
2B335
331
2B33E
331
2B33F
331
2B353
331
2B354
331
2B35D
331
2B35E
102
}
  0
BLOCK_RECORD
  5
2A5EB
330
1
100
AcDbSymbolTableRecord
100
AcDbBlockTableRecord
  2
*D2
340
0
  0
BLOCK_RECORD
  5
2A5F8
330
1
100
AcDbSymbolTableRecord
100
AcDbBlockTableRecord
  2
*D3
340
0
  0
BLOCK_RECORD
  5
2A605
330
1
100
AcDbSymbolTableRecord
100
AcDbBlockTableRecord
  2
*D4
340
0
  0
BLOCK_RECORD
  5
2A664
330
1
100
AcDbSymbolTableRecord
100
AcDbBlockTableRecord
  2
*D5
340
0
  0
BLOCK_RECORD
  5
2A671
330
1
100
AcDbSymbolTableRecord
100
AcDbBlockTableRecord
  2
*D6
340
0
  0
BLOCK_RECORD
  5
2A67E
330
1
100
AcDbSymbolTableRecord
100
AcDbBlockTableRecord
  2
*D7
340
0
  0
BLOCK_RECORD
  5
2A6DD
330
1
100
AcDbSymbolTableRecord
100
AcDbBlockTableRecord
  2
*D8
340
0
  0
BLOCK_RECORD
  5
2A6EA
330
1
100
AcDbSymbolTableRecord
100
AcDbBlockTableRecord
  2
*D9
340
0
  0
BLOCK_RECORD
  5
2A6F7
330
1
100
AcDbSymbolTableRecord
100
AcDbBlockTableRecord
  2
*D10
340
0
  0
BLOCK_RECORD
  5
2B1EB
330
1
100
AcDbSymbolTableRecord
100
AcDbBlockTableRecord
  2
*D11
340
0
  0
BLOCK_RECORD
  5
2B1F6
330
1
100
AcDbSymbolTableRecord
100
AcDbBlockTableRecord
  2
*D12
340
0
  0
BLOCK_RECORD
  5
2B201
330
1
100
AcDbSymbolTableRecord
100
AcDbBlockTableRecord
  2
*D13
340
0
  0
BLOCK_RECORD
  5
2B252
330
1
100
AcDbSymbolTableRecord
100
AcDbBlockTableRecord
  2
*D14
340
0
  0
BLOCK_RECORD
  5
2B25C
330
1
100
AcDbSymbolTableRecord
100
AcDbBlockTableRecord
  2
*D15
340
0
  0
BLOCK_RECORD
  5
2B267
330
1
100
AcDbSymbolTableRecord
100
AcDbBlockTableRecord
  2
*D16
340
0
  0
BLOCK_RECORD
  5
2B291
330
1
100
AcDbSymbolTableRecord
100
AcDbBlockTableRecord
  2
*D17
340
0
  0
BLOCK_RECORD
  5
2B29B
330
1
100
AcDbSymbolTableRecord
100
AcDbBlockTableRecord
  2
*D18
340
0
  0
BLOCK_RECORD
  5
2B2A6
330
1
100
AcDbSymbolTableRecord
100
AcDbBlockTableRecord
  2
*D19
340
0
  0
ENDTAB
  0
ENDSEC
  0
SECTION
  2
BLOCKS
  0
BLOCK
  5
20
330
1F
100
AcDbEntity
  8
0
100
AcDbBlockBegin
  2
*MODEL_SPACE
 70
     0
 10
0.0
 20
0.0
 30
0.0
  3
*MODEL_SPACE
  1

  0
ENDBLK
  5
21
330
1F
100
AcDbEntity
  8
0
100
AcDbBlockEnd
  0
BLOCK
  5
1C
330
1B
100
AcDbEntity
 67
     1
  8
0
100
AcDbBlockBegin
  2
*PAPER_SPACE
 70
     0
 10
0.0
 20
0.0
 30
0.0
  3
*PAPER_SPACE
  1

  0
ENDBLK
  5
1D
330
1B
100
AcDbEntity
 67
     1
  8
0
100
AcDbBlockEnd
  0
BLOCK
  5
35
330
31
100
AcDbEntity
  8
0
100
AcDbBlockBegin
  2
_OPEN
 70
     0
 10
0.0
 20
0.0
 30
0.0
  3
_OPEN
  1

  0
LINE
  5
32
330
31
100
AcDbEntity
  8
0
  6
ByBlock
 62
     0
100
AcDbLine
 10
-1.0
 20
0.1666666666666666
 30
0.0
 11
0.0
 21
0.0
 31
0.0
  0
LINE
  5
33
330
31
100
AcDbEntity
  8
0
  6
ByBlock
 62
     0
100
AcDbLine
 10
-1.0
 20
-0.1666666666666666
 30
0.0
 11
0.0
 21
0.0
 31
0.0
  0
LINE
  5
34
330
31
100
AcDbEntity
  8
0
  6
ByBlock
 62
     0
100
AcDbLine
 10
0.0
 20
0.0
 30
0.0
 11
-1.0
 21
0.0
 31
0.0
  0
ENDBLK
  5
36
330
31
100
AcDbEntity
  8
0
100
AcDbBlockEnd
  0
BLOCK
  5
2A5B7
330
2A5B4
100
AcDbEntity
  8
0
100
AcDbBlockBegin
  2
_Origin
 70
     0
 10
0.0
 20
0.0
 30
0.0
  3
_Origin
  1

  0
CIRCLE
  5
2A5B5
330
2A5B4
100
AcDbEntity
  8
0
  6
ByBlock
 62
     0
370
    -2
100
AcDbCircle
 10
0.0
 20
0.0
 30
0.0
 40
0.5
  0
LINE
  5
2A5B6
330
2A5B4
100
AcDbEntity
  8
0
  6
ByBlock
 62
     0
370
    -2
100
AcDbLine
 10
0.0
 20
0.0
 30
0.0
 11
-1.0
 21
0.0
 31
0.0
  0
ENDBLK
  5
2A5B8
330
2A5B4
100
AcDbEntity
  8
0
100
AcDbBlockEnd
  0
BLOCK
  5
2A5F6
330
2A5EB
100
AcDbEntity
  8
0
100
AcDbBlockBegin
  2
*D2
 70
     1
 10
0.0
 20
0.0
 30
0.0
  3
*D2
  1

  0
LINE
  5
2B358
330
2A5EB
100
AcDbEntity
  8
D-STR-DIM
370
    -2
100
AcDbLine
 10
4808.710426635535
 20
8283.344341673766
 30
0.0
 11
4808.710426635535
 21
8683.345139797271
 31
0.0
  0
LINE
  5
2B359
330
2A5EB
100
AcDbEntity
  8
D-STR-DIM
370
    -2
100
AcDbLine
 10
4747.710026870111
 20
8663.345139797272
 30
0.0
 11
4736.710026870111
 21
8663.345139797272
 31
0.0
  0
LINE
  5
2B35A
330
2A5EB
100
AcDbEntity
  8
D-STR-DIM
370
    -2
100
AcDbLine
 10
4819.710426635534
 20
8663.345139797272
 30
0.0
 11
4830.710426635534
 21
8663.345139797272
 31
0.0
  0
MTEXT
  5
2B35B
330
2A5EB
100
AcDbEntity
  8
D-STR-DIM
100
AcDbMText
 10
4783.710226752822
 20
8612.55426711993
 30
0.0
 40
70.0
 41
0.0
 71
     5
 72
     1
  1
\A1;50
 73
     1
 44
1.0
1001
ACAD
1000
MTEXTBEGIN
1070
    73
1070
     1
1070
    44
1040
1.0
1070
    74
1070
     0
1000
MTEXTEND
  0
LINE
  5
2B35C
330
2A5EB
100
AcDbEntity
  8
D-STR-DIM
370
    -2
100
AcDbLine
 10
4758.710026870111
 20
8663.345139797272
 30
0.0
 11
4808.710426635535
 21
8663.345139797272
 31
0.0
  0
INSERT
  5
2B35D
330
2A5EB
100
AcDbEntity
  8
D-STR-DIM
370
    -2
100
AcDbBlockReference
  2
_Origin
 10
4758.710026870111
 20
8663.345139797272
 30
0.0
 41
11.0
 42
11.0
 43
11.0
  0
INSERT
  5
2B35E
330
2A5EB
100
AcDbEntity
  8
D-STR-DIM
370
    -2
100
AcDbBlockReference
  2
_Origin
 10
4808.710426635535
 20
8663.345139797272
 30
0.0
 41
11.0
 42
11.0
 43
11.0
 50
180.0
  0
POINT
  5
2B35F
330
2A5EB
100
AcDbEntity
  8
DEFPOINTS
 62
     0
100
AcDbPoint
 10
4758.710026870111
 20
8263.344341673764
 30
0.0
  0
POINT
  5
2B360
330
2A5EB
100
AcDbEntity
  8
DEFPOINTS
 62
     0
100
AcDbPoint
 10
4808.710426635535
 20
8263.344341673764
 30
0.0
  0
POINT
  5
2B361
330
2A5EB
100
AcDbEntity
  8
DEFPOINTS
 62
     0
100
AcDbPoint
 10
4808.710426635535
 20
8663.345139797272
 30
0.0
  0
ENDBLK
  5
2A5F7
330
2A5EB
100
AcDbEntity
  8
0
100
AcDbBlockEnd
  0
BLOCK
  5
2A603
330
2A5F8
100
AcDbEntity
  8
0
100
AcDbBlockBegin
  2
*D3
 70
     1
 10
0.0
 20
0.0
 30
0.0
  3
*D3
  1

  0
LINE
  5
2B34E
330
2A5F8
100
AcDbEntity
  8
D-STR-DIM
370
    -2
100
AcDbLine
 10
4858.710426400976
 20
8283.344341673766
 30
0.0
 11
4858.710426400976
 21
8683.345139797271
 31
0.0
  0
LINE
  5
2B34F
330
2A5F8
100
AcDbEntity
  8
D-STR-DIM
370
    -2
100
AcDbLine
 10
4797.710426635535
 20
8663.345139797272
 30
0.0
 11
4786.710426635535
 21
8663.345139797272
 31
0.0
  0
LINE
  5
2B350
330
2A5F8
100
AcDbEntity
  8
D-STR-DIM
370
    -2
100
AcDbLine
 10
4869.710426400976
 20
8663.345139797272
 30
0.0
 11
4880.710426400976
 21
8663.345139797272
 31
0.0
  0
MTEXT
  5
2B351
330
2A5F8
100
AcDbEntity
  8
D-STR-DIM
100
AcDbMText
 10
4898.710426400976
 20
8718.345139797271
 30
0.0
 40
70.0
 41
0.0
 71
     5
 72
     1
  1
\A1;50
 73
     1
 44
1.0
1001
ACAD
1000
MTEXTBEGIN
1070
    73
1070
     1
1070
    44
1040
1.0
1070
    74
1070
     0
1000
MTEXTEND
  0
LINE
  5
2B352
330
2A5F8
100
AcDbEntity
  8
D-STR-DIM
370
    -2
100
AcDbLine
 10
4808.710426635535
 20
8663.345139797272
 30
0.0
 11
4858.710426400976
 21
8663.345139797272
 31
0.0
  0
INSERT
  5
2B353
330
2A5F8
100
AcDbEntity
  8
D-STR-DIM
370
    -2
100
AcDbBlockReference
  2
_Origin
 10
4808.710426635535
 20
8663.345139797272
 30
0.0
 41
11.0
 42
11.0
 43
11.0
  0
INSERT
  5
2B354
330
2A5F8
100
AcDbEntity
  8
D-STR-DIM
370
    -2
100
AcDbBlockReference
  2
_Origin
 10
4858.710426400976
 20
8663.345139797272
 30
0.0
 41
11.0
 42
11.0
 43
11.0
 50
180.0
  0
POINT
  5
2B355
330
2A5F8
100
AcDbEntity
  8
DEFPOINTS
 62
     0
100
AcDbPoint
 10
4808.710426635535
 20
8263.344341673764
 30
0.0
  0
POINT
  5
2B356
330
2A5F8
100
AcDbEntity
  8
DEFPOINTS
 62
     0
100
AcDbPoint
 10
4858.710426400976
 20
8263.344341673764
 30
0.0
  0
POINT
  5
2B357
330
2A5F8
100
AcDbEntity
  8
DEFPOINTS
 62
     0
100
AcDbPoint
 10
4858.710426400976
 20
8663.345139797272
 30
0.0
  0
ENDBLK
  5
2A604
330
2A5F8
100
AcDbEntity
  8
0
100
AcDbBlockEnd
  0
BLOCK
  5
2A611
330
2A605
100
AcDbEntity
  8
0
100
AcDbBlockBegin
  2
*D4
 70
     1
 10
0.0
 20
0.0
 30
0.0
  3
*D4
  1

  0
LINE
  5
2B343
330
2A605
100
AcDbEntity
  8
D-STR-DIM
370
    -2
100
AcDbLine
 10
4758.710026870111
 20
8283.344341673766
 30
0.0
 11
4758.710026870111
 21
8683.345139797271
 31
0.0
  0
LINE
  5
2B344
330
2A605
100
AcDbEntity
  8
D-STR-DIM
370
    -2
100
AcDbLine
 10
4708.710427104655
 20
8283.344341673766
 30
0.0
 11
4708.710427104655
 21
8683.345139797271
 31
0.0
  0
LINE
  5
2B345
330
2A605
100
AcDbEntity
  8
D-STR-DIM
370
    -2
100
AcDbLine
 10
4778.71002687011
 20
8663.345139797272
 30
0.0
 11
4798.71002687011
 21
8663.345139797272
 31
0.0
  0
LINE
  5
2B346
330
2A605
100
AcDbEntity
  8
D-STR-DIM
370
    -2
100
AcDbLine
 10
4688.710427104655
 20
8663.345139797272
 30
0.0
 11
4668.710427104655
 21
8663.345139797272
 31
0.0
  0
MTEXT
  5
2B347
330
2A605
100
AcDbEntity
  8
D-STR-DIM
100
AcDbMText
 10
4668.710427104655
 20
8718.345139797271
 30
0.0
 40
70.0
 41
0.0
 71
     5
 72
     1
  1
\A1;50
 73
     1
 44
1.0
1001
ACAD
1000
MTEXTBEGIN
1070
    73
1070
     1
1070
    44
1040
1.0
1070
    74
1070
     0
1000
MTEXTEND
  0
LINE
  5
2B348
330
2A605
100
AcDbEntity
  8
D-STR-DIM
370
    -2
100
AcDbLine
 10
4758.710026870111
 20
8663.345139797272
 30
0.0
 11
4708.710427104655
 21
8663.345139797272
 31
0.0
  0
INSERT
  5
2B349
330
2A605
100
AcDbEntity
  8
D-STR-DIM
370
    -2
100
AcDbBlockReference
  2
_OPEN
 10
4758.710026870111
 20
8663.345139797272
 30
0.0
 41
20.0
 42
20.0
 43
20.0
 50
180.0
  0
INSERT
  5
2B34A
330
2A605
100
AcDbEntity
  8
D-STR-DIM
370
    -2
100
AcDbBlockReference
  2
_OPEN
 10
4708.710427104655
 20
8663.345139797272
 30
0.0
 41
20.0
 42
20.0
 43
20.0
  0
POINT
  5
2B34B
330
2A605
100
AcDbEntity
  8
DEFPOINTS
 62
     0
100
AcDbPoint
 10
4758.710026870111
 20
8263.344341673764
 30
0.0
  0
POINT
  5
2B34C
330
2A605
100
AcDbEntity
  8
DEFPOINTS
 62
     0
100
AcDbPoint
 10
4708.710427104655
 20
8263.344341673764
 30
0.0
  0
POINT
  5
2B34D
330
2A605
100
AcDbEntity
  8
DEFPOINTS
 62
     0
100
AcDbPoint
 10
4708.710427104655
 20
8663.345139797272
 30
0.0
  0
ENDBLK
  5
2A612
330
2A605
100
AcDbEntity
  8
0
100
AcDbBlockEnd
  0
BLOCK
  5
2A66F
330
2A664
100
AcDbEntity
  8
0
100
AcDbBlockBegin
  2
*D5
 70
     1
 10
0.0
 20
0.0
 30
0.0
  3
*D5
  1

  0
LINE
  5
2B31A
330
2A664
100
AcDbEntity
  8
D-STR-DIM
370
    -2
100
AcDbLine
 10
9951.574636912068
 20
8283.344341673766
 30
0.0
 11
9951.574636912068
 21
8683.345139797271
 31
0.0
  0
LINE
  5
2B31B
330
2A664
100
AcDbEntity
  8
D-STR-DIM
370
    -2
100
AcDbLine
 10
9890.574237146644
 20
8663.345139797272
 30
0.0
 11
9879.574237146645
 21
8663.345139797272
 31
0.0
  0
LINE
  5
2B31C
330
2A664
100
AcDbEntity
  8
D-STR-DIM
370
    -2
100
AcDbLine
 10
9962.574636912068
 20
8663.345139797272
 30
0.0
 11
9973.574636912069
 21
8663.345139797272
 31
0.0
  0
MTEXT
  5
2B31D
330
2A664
100
AcDbEntity
  8
D-STR-DIM
100
AcDbMText
 10
9926.574437029357
 20
8612.55426711993
 30
0.0
 40
70.0
 41
0.0
 71
     5
 72
     1
  1
\A1;50
 73
     1
 44
1.0
1001
ACAD
1000
MTEXTBEGIN
1070
    73
1070
     1
1070
    44
1040
1.0
1070
    74
1070
     0
1000
MTEXTEND
  0
LINE
  5
2B31E
330
2A664
100
AcDbEntity
  8
D-STR-DIM
370
    -2
100
AcDbLine
 10
9901.574237146645
 20
8663.345139797272
 30
0.0
 11
9951.574636912068
 21
8663.345139797272
 31
0.0
  0
INSERT
  5
2B31F
330
2A664
100
AcDbEntity
  8
D-STR-DIM
370
    -2
100
AcDbBlockReference
  2
_Origin
 10
9901.574237146645
 20
8663.345139797272
 30
0.0
 41
11.0
 42
11.0
 43
11.0
  0
INSERT
  5
2B320
330
2A664
100
AcDbEntity
  8
D-STR-DIM
370
    -2
100
AcDbBlockReference
  2
_Origin
 10
9951.574636912068
 20
8663.345139797272
 30
0.0
 41
11.0
 42
11.0
 43
11.0
 50
180.0
  0
POINT
  5
2B321
330
2A664
100
AcDbEntity
  8
DEFPOINTS
 62
     0
100
AcDbPoint
 10
9901.574237146645
 20
8263.344341673764
 30
0.0
  0
POINT
  5
2B322
330
2A664
100
AcDbEntity
  8
DEFPOINTS
 62
     0
100
AcDbPoint
 10
9951.574636912068
 20
8263.344341673764
 30
0.0
  0
POINT
  5
2B323
330
2A664
100
AcDbEntity
  8
DEFPOINTS
 62
     0
100
AcDbPoint
 10
9951.574636912068
 20
8663.345139797272
 30
0.0
  0
ENDBLK
  5
2A670
330
2A664
100
AcDbEntity
  8
0
100
AcDbBlockEnd
  0
BLOCK
  5
2A67C
330
2A671
100
AcDbEntity
  8
0
100
AcDbBlockBegin
  2
*D6
 70
     1
 10
0.0
 20
0.0
 30
0.0
  3
*D6
  1

  0
LINE
  5
2B310
330
2A671
100
AcDbEntity
  8
D-STR-DIM
370
    -2
100
AcDbLine
 10
10001.57463667751
 20
8283.344341673766
 30
0.0
 11
10001.57463667751
 21
8683.345139797271
 31
0.0
  0
LINE
  5
2B311
330
2A671
100
AcDbEntity
  8
D-STR-DIM
370
    -2
100
AcDbLine
 10
9940.574636912067
 20
8663.345139797272
 30
0.0
 11
9929.574636912068
 21
8663.345139797272
 31
0.0
  0
LINE
  5
2B312
330
2A671
100
AcDbEntity
  8
D-STR-DIM
370
    -2
100
AcDbLine
 10
10012.57463667751
 20
8663.345139797272
 30
0.0
 11
10023.57463667751
 21
8663.345139797272
 31
0.0
  0
MTEXT
  5
2B313
330
2A671
100
AcDbEntity
  8
D-STR-DIM
100
AcDbMText
 10
10041.57463667751
 20
8718.345139797271
 30
0.0
 40
70.0
 41
0.0
 71
     5
 72
     1
  1
\A1;50
 73
     1
 44
1.0
1001
ACAD
1000
MTEXTBEGIN
1070
    73
1070
     1
1070
    44
1040
1.0
1070
    74
1070
     0
1000
MTEXTEND
  0
LINE
  5
2B314
330
2A671
100
AcDbEntity
  8
D-STR-DIM
370
    -2
100
AcDbLine
 10
9951.574636912068
 20
8663.345139797272
 30
0.0
 11
10001.57463667751
 21
8663.345139797272
 31
0.0
  0
INSERT
  5
2B315
330
2A671
100
AcDbEntity
  8
D-STR-DIM
370
    -2
100
AcDbBlockReference
  2
_Origin
 10
9951.574636912068
 20
8663.345139797272
 30
0.0
 41
11.0
 42
11.0
 43
11.0
  0
INSERT
  5
2B316
330
2A671
100
AcDbEntity
  8
D-STR-DIM
370
    -2
100
AcDbBlockReference
  2
_Origin
 10
10001.57463667751
 20
8663.345139797272
 30
0.0
 41
11.0
 42
11.0
 43
11.0
 50
180.0
  0
POINT
  5
2B317
330
2A671
100
AcDbEntity
  8
DEFPOINTS
 62
     0
100
AcDbPoint
 10
9951.574636912068
 20
8263.344341673764
 30
0.0
  0
POINT
  5
2B318
330
2A671
100
AcDbEntity
  8
DEFPOINTS
 62
     0
100
AcDbPoint
 10
10001.57463667751
 20
8263.344341673764
 30
0.0
  0
POINT
  5
2B319
330
2A671
100
AcDbEntity
  8
DEFPOINTS
 62
     0
100
AcDbPoint
 10
10001.57463667751
 20
8663.345139797272
 30
0.0
  0
ENDBLK
  5
2A67D
330
2A671
100
AcDbEntity
  8
0
100
AcDbBlockEnd
  0
BLOCK
  5
2A68A
330
2A67E
100
AcDbEntity
  8
0
100
AcDbBlockBegin
  2
*D7
 70
     1
 10
0.0
 20
0.0
 30
0.0
  3
*D7
  1

  0
LINE
  5
2B305
330
2A67E
100
AcDbEntity
  8
D-STR-DIM
370
    -2
100
AcDbLine
 10
9901.574237146645
 20
8283.344341673766
 30
0.0
 11
9901.574237146645
 21
8683.345139797271
 31
0.0
  0
LINE
  5
2B306
330
2A67E
100
AcDbEntity
  8
D-STR-DIM
370
    -2
100
AcDbLine
 10
9851.57463738119
 20
8283.344341673766
 30
0.0
 11
9851.57463738119
 21
8683.345139797271
 31
0.0
  0
LINE
  5
2B307
330
2A67E
100
AcDbEntity
  8
D-STR-DIM
370
    -2
100
AcDbLine
 10
9921.574237146645
 20
8663.345139797272
 30
0.0
 11
9941.574237146644
 21
8663.345139797272
 31
0.0
  0
LINE
  5
2B308
330
2A67E
100
AcDbEntity
  8
D-STR-DIM
370
    -2
100
AcDbLine
 10
9831.574637381189
 20
8663.345139797272
 30
0.0
 11
9811.574637381189
 21
8663.345139797272
 31
0.0
  0
MTEXT
  5
2B309
330
2A67E
100
AcDbEntity
  8
D-STR-DIM
100
AcDbMText
 10
9811.574637381189
 20
8718.345139797271
 30
0.0
 40
70.0
 41
0.0
 71
     5
 72
     1
  1
\A1;50
 73
     1
 44
1.0
1001
ACAD
1000
MTEXTBEGIN
1070
    73
1070
     1
1070
    44
1040
1.0
1070
    74
1070
     0
1000
MTEXTEND
  0
LINE
  5
2B30A
330
2A67E
100
AcDbEntity
  8
D-STR-DIM
370
    -2
100
AcDbLine
 10
9901.574237146645
 20
8663.345139797272
 30
0.0
 11
9851.57463738119
 21
8663.345139797272
 31
0.0
  0
INSERT
  5
2B30B
330
2A67E
100
AcDbEntity
  8
D-STR-DIM
370
    -2
100
AcDbBlockReference
  2
_OPEN
 10
9901.574237146645
 20
8663.345139797272
 30
0.0
 41
20.0
 42
20.0
 43
20.0
 50
180.0
  0
INSERT
  5
2B30C
330
2A67E
100
AcDbEntity
  8
D-STR-DIM
370
    -2
100
AcDbBlockReference
  2
_OPEN
 10
9851.57463738119
 20
8663.345139797272
 30
0.0
 41
20.0
 42
20.0
 43
20.0
  0
POINT
  5
2B30D
330
2A67E
100
AcDbEntity
  8
DEFPOINTS
 62
     0
100
AcDbPoint
 10
9901.574237146645
 20
8263.344341673764
 30
0.0
  0
POINT
  5
2B30E
330
2A67E
100
AcDbEntity
  8
DEFPOINTS
 62
     0
100
AcDbPoint
 10
9851.57463738119
 20
8263.344341673764
 30
0.0
  0
POINT
  5
2B30F
330
2A67E
100
AcDbEntity
  8
DEFPOINTS
 62
     0
100
AcDbPoint
 10
9851.57463738119
 20
8663.345139797272
 30
0.0
  0
ENDBLK
  5
2A68B
330
2A67E
100
AcDbEntity
  8
0
100
AcDbBlockEnd
  0
BLOCK
  5
2A6E8
330
2A6DD
100
AcDbEntity
  8
0
100
AcDbBlockBegin
  2
*D8
 70
     1
 10
0.0
 20
0.0
 30
0.0
  3
*D8
  1

  0
LINE
  5
2B339
330
2A6DD
100
AcDbEntity
  8
D-STR-DIM
370
    -2
100
AcDbLine
 10
15137.29497425458
 20
8283.344341673766
 30
0.0
 11
15137.29497425458
 21
8683.345139797271
 31
0.0
  0
LINE
  5
2B33A
330
2A6DD
100
AcDbEntity
  8
D-STR-DIM
370
    -2
100
AcDbLine
 10
15076.29457448916
 20
8663.345139797272
 30
0.0
 11
15065.29457448916
 21
8663.345139797272
 31
0.0
  0
LINE
  5
2B33B
330
2A6DD
100
AcDbEntity
  8
D-STR-DIM
370
    -2
100
AcDbLine
 10
15148.29497425458
 20
8663.345139797272
 30
0.0
 11
15159.29497425458
 21
8663.345139797272
 31
0.0
  0
MTEXT
  5
2B33C
330
2A6DD
100
AcDbEntity
  8
D-STR-DIM
100
AcDbMText
 10
15112.29477437187
 20
8612.55426711993
 30
0.0
 40
70.0
 41
0.0
 71
     5
 72
     1
  1
\A1;50
 73
     1
 44
1.0
1001
ACAD
1000
MTEXTBEGIN
1070
    73
1070
     1
1070
    44
1040
1.0
1070
    74
1070
     0
1000
MTEXTEND
  0
LINE
  5
2B33D
330
2A6DD
100
AcDbEntity
  8
D-STR-DIM
370
    -2
100
AcDbLine
 10
15087.29457448916
 20
8663.345139797272
 30
0.0
 11
15137.29497425458
 21
8663.345139797272
 31
0.0
  0
INSERT
  5
2B33E
330
2A6DD
100
AcDbEntity
  8
D-STR-DIM
370
    -2
100
AcDbBlockReference
  2
_Origin
 10
15087.29457448916
 20
8663.345139797272
 30
0.0
 41
11.0
 42
11.0
 43
11.0
  0
INSERT
  5
2B33F
330
2A6DD
100
AcDbEntity
  8
D-STR-DIM
370
    -2
100
AcDbBlockReference
  2
_Origin
 10
15137.29497425458
 20
8663.345139797272
 30
0.0
 41
11.0
 42
11.0
 43
11.0
 50
180.0
  0
POINT
  5
2B340
330
2A6DD
100
AcDbEntity
  8
DEFPOINTS
 62
     0
100
AcDbPoint
 10
15087.29457448916
 20
8263.344341673764
 30
0.0
  0
POINT
  5
2B341
330
2A6DD
100
AcDbEntity
  8
DEFPOINTS
 62
     0
100
AcDbPoint
 10
15137.29497425458
 20
8263.344341673764
 30
0.0
  0
POINT
  5
2B342
330
2A6DD
100
AcDbEntity
  8
DEFPOINTS
 62
     0
100
AcDbPoint
 10
15137.29497425458
 20
8663.345139797272
 30
0.0
  0
ENDBLK
  5
2A6E9
330
2A6DD
100
AcDbEntity
  8
0
100
AcDbBlockEnd
  0
BLOCK
  5
2A6F5
330
2A6EA
100
AcDbEntity
  8
0
100
AcDbBlockBegin
  2
*D9
 70
     1
 10
0.0
 20
0.0
 30
0.0
  3
*D9
  1

  0
LINE
  5
2B32F
330
2A6EA
100
AcDbEntity
  8
D-STR-DIM
370
    -2
100
AcDbLine
 10
15187.29497402003
 20
8283.344341673766
 30
0.0
 11
15187.29497402003
 21
8683.345139797271
 31
0.0
  0
LINE
  5
2B330
330
2A6EA
100
AcDbEntity
  8
D-STR-DIM
370
    -2
100
AcDbLine
 10
15126.29497425458
 20
8663.345139797272
 30
0.0
 11
15115.29497425458
 21
8663.345139797272
 31
0.0
  0
LINE
  5
2B331
330
2A6EA
100
AcDbEntity
  8
D-STR-DIM
370
    -2
100
AcDbLine
 10
15198.29497402002
 20
8663.345139797272
 30
0.0
 11
15209.29497402003
 21
8663.345139797272
 31
0.0
  0
MTEXT
  5
2B332
330
2A6EA
100
AcDbEntity
  8
D-STR-DIM
100
AcDbMText
 10
15227.29497402003
 20
8718.345139797271
 30
0.0
 40
70.0
 41
0.0
 71
     5
 72
     1
  1
\A1;50
 73
     1
 44
1.0
1001
ACAD
1000
MTEXTBEGIN
1070
    73
1070
     1
1070
    44
1040
1.0
1070
    74
1070
     0
1000
MTEXTEND
  0
LINE
  5
2B333
330
2A6EA
100
AcDbEntity
  8
D-STR-DIM
370
    -2
100
AcDbLine
 10
15137.29497425458
 20
8663.345139797272
 30
0.0
 11
15187.29497402003
 21
8663.345139797272
 31
0.0
  0
INSERT
  5
2B334
330
2A6EA
100
AcDbEntity
  8
D-STR-DIM
370
    -2
100
AcDbBlockReference
  2
_Origin
 10
15137.29497425458
 20
8663.345139797272
 30
0.0
 41
11.0
 42
11.0
 43
11.0
  0
INSERT
  5
2B335
330
2A6EA
100
AcDbEntity
  8
D-STR-DIM
370
    -2
100
AcDbBlockReference
  2
_Origin
 10
15187.29497402003
 20
8663.345139797272
 30
0.0
 41
11.0
 42
11.0
 43
11.0
 50
180.0
  0
POINT
  5
2B336
330
2A6EA
100
AcDbEntity
  8
DEFPOINTS
 62
     0
100
AcDbPoint
 10
15137.29497425458
 20
8263.344341673764
 30
0.0
  0
POINT
  5
2B337
330
2A6EA
100
AcDbEntity
  8
DEFPOINTS
 62
     0
100
AcDbPoint
 10
15187.29497402003
 20
8263.344341673764
 30
0.0
  0
POINT
  5
2B338
330
2A6EA
100
AcDbEntity
  8
DEFPOINTS
 62
     0
100
AcDbPoint
 10
15187.29497402003
 20
8663.345139797272
 30
0.0
  0
ENDBLK
  5
2A6F6
330
2A6EA
100
AcDbEntity
  8
0
100
AcDbBlockEnd
  0
BLOCK
  5
2A703
330
2A6F7
100
AcDbEntity
  8
0
100
AcDbBlockBegin
  2
*D10
 70
     1
 10
0.0
 20
0.0
 30
0.0
  3
*D10
  1

  0
LINE
  5
2B324
330
2A6F7
100
AcDbEntity
  8
D-STR-DIM
370
    -2
100
AcDbLine
 10
15087.29457448916
 20
8283.344341673766
 30
0.0
 11
15087.29457448916
 21
8683.345139797271
 31
0.0
  0
LINE
  5
2B325
330
2A6F7
100
AcDbEntity
  8
D-STR-DIM
370
    -2
100
AcDbLine
 10
15037.2949747237
 20
8283.344341673766
 30
0.0
 11
15037.2949747237
 21
8683.345139797271
 31
0.0
  0
LINE
  5
2B326
330
2A6F7
100
AcDbEntity
  8
D-STR-DIM
370
    -2
100
AcDbLine
 10
15107.29457448916
 20
8663.345139797272
 30
0.0
 11
15127.29457448916
 21
8663.345139797272
 31
0.0
  0
LINE
  5
2B327
330
2A6F7
100
AcDbEntity
  8
D-STR-DIM
370
    -2
100
AcDbLine
 10
15017.2949747237
 20
8663.345139797272
 30
0.0
 11
14997.2949747237
 21
8663.345139797272
 31
0.0
  0
MTEXT
  5
2B328
330
2A6F7
100
AcDbEntity
  8
D-STR-DIM
100
AcDbMText
 10
14997.2949747237
 20
8718.345139797271
 30
0.0
 40
70.0
 41
0.0
 71
     5
 72
     1
  1
\A1;50
 73
     1
 44
1.0
1001
ACAD
1000
MTEXTBEGIN
1070
    73
1070
     1
1070
    44
1040
1.0
1070
    74
1070
     0
1000
MTEXTEND
  0
LINE
  5
2B329
330
2A6F7
100
AcDbEntity
  8
D-STR-DIM
370
    -2
100
AcDbLine
 10
15087.29457448916
 20
8663.345139797272
 30
0.0
 11
15037.2949747237
 21
8663.345139797272
 31
0.0
  0
INSERT
  5
2B32A
330
2A6F7
100
AcDbEntity
  8
D-STR-DIM
370
    -2
100
AcDbBlockReference
  2
_OPEN
 10
15087.29457448916
 20
8663.345139797272
 30
0.0
 41
20.0
 42
20.0
 43
20.0
 50
180.0
  0
INSERT
  5
2B32B
330
2A6F7
100
AcDbEntity
  8
D-STR-DIM
370
    -2
100
AcDbBlockReference
  2
_OPEN
 10
15037.2949747237
 20
8663.345139797272
 30
0.0
 41
20.0
 42
20.0
 43
20.0
  0
POINT
  5
2B32C
330
2A6F7
100
AcDbEntity
  8
DEFPOINTS
 62
     0
100
AcDbPoint
 10
15087.29457448916
 20
8263.344341673764
 30
0.0
  0
POINT
  5
2B32D
330
2A6F7
100
AcDbEntity
  8
DEFPOINTS
 62
     0
100
AcDbPoint
 10
15037.2949747237
 20
8263.344341673764
 30
0.0
  0
POINT
  5
2B32E
330
2A6F7
100
AcDbEntity
  8
DEFPOINTS
 62
     0
100
AcDbPoint
 10
15037.2949747237
 20
8663.345139797272
 30
0.0
  0
ENDBLK
  5
2A704
330
2A6F7
100
AcDbEntity
  8
0
100
AcDbBlockEnd
  0
BLOCK
  5
2B1F4
330
2B1EB
100
AcDbEntity
  8
0
100
AcDbBlockBegin
  2
*D11
 70
     1
 10
0.0
 20
0.0
 30
0.0
  3
*D11
  1

  0
LINE
  5
2B222
330
2B1EB
100
AcDbEntity
  8
D-STR-DIM
370
    -2
100
AcDbLine
 10
13267.29358855551
 20
8283.344341673766
 30
0.0
 11
13267.29358855551
 21
8456.440784109892
 31
0.0
  0
LINE
  5
2B223
330
2B1EB
100
AcDbEntity
  8
D-STR-DIM
370
    -2
100
AcDbLine
 10
13277.29358855551
 20
8436.440784109892
 30
0.0
 11
13777.29358104956
 21
8436.440784109892
 31
0.0
  0
INSERT
  5
2B224
330
2B1EB
100
AcDbEntity
  8
D-STR-DIM
370
    -2
100
AcDbBlockReference
  2
_Origin
 10
13267.29358855551
 20
8436.440784109892
 30
0.0
 41
10.0
 42
10.0
 43
10.0
 50
180.0
  0
INSERT
  5
2B225
330
2B1EB
100
AcDbEntity
  8
D-STR-DIM
370
    -2
100
AcDbBlockReference
  2
_Origin
 10
13787.29358104956
 20
8436.440784109892
 30
0.0
 41
10.0
 42
10.0
 43
10.0
  0
MTEXT
  5
2B226
330
2B1EB
100
AcDbEntity
  8
D-STR-DIM
100
AcDbMText
 10
13527.29358480254
 20
8491.440784109894
 30
0.0
 40
70.0
 41
0.0
 71
     5
 72
     1
  1
\A1;520
 73
     1
 44
1.0
1001
ACAD
1000
MTEXTBEGIN
1070
    73
1070
     1
1070
    44
1040
1.0
1070
    74
1070
     0
1000
MTEXTEND
  0
POINT
  5
2B227
330
2B1EB
100
AcDbEntity
  8
DEFPOINTS
 62
     0
100
AcDbPoint
 10
13267.29358855551
 20
8263.344341673764
 30
0.0
  0
POINT
  5
2B228
330
2B1EB
100
AcDbEntity
  8
DEFPOINTS
 62
     0
100
AcDbPoint
 10
13787.29358104956
 20
8263.344341673764
 30
0.0
  0
POINT
  5
2B229
330
2B1EB
100
AcDbEntity
  8
DEFPOINTS
 62
     0
100
AcDbPoint
 10
13787.29358104956
 20
8436.440784109892
 30
0.0
  0
ENDBLK
  5
2B1F5
330
2B1EB
100
AcDbEntity
  8
0
100
AcDbBlockEnd
  0
BLOCK
  5
2B1FF
330
2B1F6
100
AcDbEntity
  8
0
100
AcDbBlockBegin
  2
*D12
 70
     1
 10
0.0
 20
0.0
 30
0.0
  3
*D12
  1

  0
LINE
  5
2B239
330
2B1F6
100
AcDbEntity
  8
D-STR-DIM
370
    -2
100
AcDbLine
 10
12667.29358855551
 20
8283.344341673766
 30
0.0
 11
12667.29358855551
 21
8456.440784109892
 31
0.0
  0
LINE
  5
2B23A
330
2B1F6
100
AcDbEntity
  8
D-STR-DIM
370
    -2
100
AcDbLine
 10
12677.29358855551
 20
8436.440784109892
 30
0.0
 11
13257.29358855551
 21
8436.440784109892
 31
0.0
  0
INSERT
  5
2B23B
330
2B1F6
100
AcDbEntity
  8
D-STR-DIM
370
    -2
100
AcDbBlockReference
  2
_Origin
 10
12667.29358855551
 20
8436.440784109892
 30
0.0
 41
10.0
 42
10.0
 43
10.0
 50
180.0
  0
INSERT
  5
2B23C
330
2B1F6
100
AcDbEntity
  8
D-STR-DIM
370
    -2
100
AcDbBlockReference
  2
_Origin
 10
13267.29358855551
 20
8436.440784109892
 30
0.0
 41
10.0
 42
10.0
 43
10.0
  0
MTEXT
  5
2B23D
330
2B1F6
100
AcDbEntity
  8
D-STR-DIM
100
AcDbMText
 10
12967.29358855551
 20
8491.440784109894
 30
0.0
 40
70.0
 41
0.0
 71
     5
 72
     1
  1
\A1;600
 73
     1
 44
1.0
1001
ACAD
1000
MTEXTBEGIN
1070
    73
1070
     1
1070
    44
1040
1.0
1070
    74
1070
     0
1000
MTEXTEND
  0
POINT
  5
2B23E
330
2B1F6
100
AcDbEntity
  8
DEFPOINTS
 62
     0
100
AcDbPoint
 10
12667.29358855551
 20
8263.344341673764
 30
0.0
  0
POINT
  5
2B23F
330
2B1F6
100
AcDbEntity
  8
DEFPOINTS
 62
     0
100
AcDbPoint
 10
13267.29358855551
 20
8263.344341673764
 30
0.0
  0
POINT
  5
2B240
330
2B1F6
100
AcDbEntity
  8
DEFPOINTS
 62
     0
100
AcDbPoint
 10
13267.29358855551
 20
8436.440784109892
 30
0.0
  0
ENDBLK
  5
2B200
330
2B1F6
100
AcDbEntity
  8
0
100
AcDbBlockEnd
  0
BLOCK
  5
2B209
330
2B201
100
AcDbEntity
  8
0
100
AcDbBlockBegin
  2
*D13
 70
     1
 10
0.0
 20
0.0
 30
0.0
  3
*D13
  1

  0
LINE
  5
2B241
330
2B201
100
AcDbEntity
  8
D-STR-DIM
370
    -2
100
AcDbLine
 10
12157.29358934912
 20
8436.440784109892
 30
0.0
 11
12657.29358855551
 21
8436.440784109892
 31
0.0
  0
INSERT
  5
2B242
330
2B201
100
AcDbEntity
  8
D-STR-DIM
370
    -2
100
AcDbBlockReference
  2
_Origin
 10
12147.29358934912
 20
8436.440784109892
 30
0.0
 41
10.0
 42
10.0
 43
10.0
 50
180.0
  0
INSERT
  5
2B243
330
2B201
100
AcDbEntity
  8
D-STR-DIM
370
    -2
100
AcDbBlockReference
  2
_Origin
 10
12667.29358855551
 20
8436.440784109892
 30
0.0
 41
10.0
 42
10.0
 43
10.0
  0
MTEXT
  5
2B244
330
2B201
100
AcDbEntity
  8
D-STR-DIM
100
AcDbMText
 10
12407.29358895232
 20
8491.440784109894
 30
0.0
 40
70.0
 41
0.0
 71
     5
 72
     1
  1
\A1;520
 73
     1
 44
1.0
1001
ACAD
1000
MTEXTBEGIN
1070
    73
1070
     1
1070
    44
1040
1.0
1070
    74
1070
     0
1000
MTEXTEND
  0
POINT
  5
2B245
330
2B201
100
AcDbEntity
  8
DEFPOINTS
 62
     0
100
AcDbPoint
 10
12147.29358934912
 20
8263.344341673764
 30
0.0
  0
POINT
  5
2B246
330
2B201
100
AcDbEntity
  8
DEFPOINTS
 62
     0
100
AcDbPoint
 10
12667.29358855551
 20
8263.344341673764
 30
0.0
  0
POINT
  5
2B247
330
2B201
100
AcDbEntity
  8
DEFPOINTS
 62
     0
100
AcDbPoint
 10
12667.29358855551
 20
8436.440784109892
 30
0.0
  0
ENDBLK
  5
2B20A
330
2B201
100
AcDbEntity
  8
0
100
AcDbBlockEnd
  0
BLOCK
  5
2B25A
330
2B252
100
AcDbEntity
  8
0
100
AcDbBlockBegin
  2
*D14
 70
     1
 10
0.0
 20
0.0
 30
0.0
  3
*D14
  1

  0
LINE
  5
2B272
330
2B252
100
AcDbEntity
  8
D-STR-DIM
370
    -2
100
AcDbLine
 10
6971.573452006669
 20
8436.440784109892
 30
0.0
 11
7471.573451213062
 21
8436.440784109892
 31
0.0
  0
INSERT
  5
2B273
330
2B252
100
AcDbEntity
  8
D-STR-DIM
370
    -2
100
AcDbBlockReference
  2
_Origin
 10
6961.573452006669
 20
8436.440784109892
 30
0.0
 41
10.0
 42
10.0
 43
10.0
 50
180.0
  0
INSERT
  5
2B274
330
2B252
100
AcDbEntity
  8
D-STR-DIM
370
    -2
100
AcDbBlockReference
  2
_Origin
 10
7481.573451213062
 20
8436.440784109892
 30
0.0
 41
10.0
 42
10.0
 43
10.0
  0
MTEXT
  5
2B275
330
2B252
100
AcDbEntity
  8
D-STR-DIM
100
AcDbMText
 10
7221.573451609867
 20
8491.440784109894
 30
0.0
 40
70.0
 41
0.0
 71
     5
 72
     1
  1
\A1;520
 73
     1
 44
1.0
1001
ACAD
1000
MTEXTBEGIN
1070
    73
1070
     1
1070
    44
1040
1.0
1070
    74
1070
     0
1000
MTEXTEND
  0
POINT
  5
2B276
330
2B252
100
AcDbEntity
  8
DEFPOINTS
 62
     0
100
AcDbPoint
 10
6961.573452006669
 20
8263.344341673764
 30
0.0
  0
POINT
  5
2B277
330
2B252
100
AcDbEntity
  8
DEFPOINTS
 62
     0
100
AcDbPoint
 10
7481.573451213062
 20
8263.344341673764
 30
0.0
  0
POINT
  5
2B278
330
2B252
100
AcDbEntity
  8
DEFPOINTS
 62
     0
100
AcDbPoint
 10
7481.573451213062
 20
8436.440784109892
 30
0.0
  0
ENDBLK
  5
2B25B
330
2B252
100
AcDbEntity
  8
0
100
AcDbBlockEnd
  0
BLOCK
  5
2B265
330
2B25C
100
AcDbEntity
  8
0
100
AcDbBlockBegin
  2
*D15
 70
     1
 10
0.0
 20
0.0
 30
0.0
  3
*D15
  1

  0
LINE
  5
2B279
330
2B25C
100
AcDbEntity
  8
D-STR-DIM
370
    -2
100
AcDbLine
 10
7481.573451213062
 20
8283.344341673766
 30
0.0
 11
7481.573451213062
 21
8456.440784109892
 31
0.0
  0
LINE
  5
2B27A
330
2B25C
100
AcDbEntity
  8
D-STR-DIM
370
    -2
100
AcDbLine
 10
7491.573451213063
 20
8436.440784109892
 30
0.0
 11
8071.573451213062
 21
8436.440784109892
 31
0.0
  0
INSERT
  5
2B27B
330
2B25C
100
AcDbEntity
  8
D-STR-DIM
370
    -2
100
AcDbBlockReference
  2
_Origin
 10
7481.573451213062
 20
8436.440784109892
 30
0.0
 41
10.0
 42
10.0
 43
10.0
 50
180.0
  0
INSERT
  5
2B27C
330
2B25C
100
AcDbEntity
  8
D-STR-DIM
370
    -2
100
AcDbBlockReference
  2
_Origin
 10
8081.573451213062
 20
8436.440784109892
 30
0.0
 41
10.0
 42
10.0
 43
10.0
  0
MTEXT
  5
2B27D
330
2B25C
100
AcDbEntity
  8
D-STR-DIM
100
AcDbMText
 10
7781.573451213062
 20
8491.440784109894
 30
0.0
 40
70.0
 41
0.0
 71
     5
 72
     1
  1
\A1;600
 73
     1
 44
1.0
1001
ACAD
1000
MTEXTBEGIN
1070
    73
1070
     1
1070
    44
1040
1.0
1070
    74
1070
     0
1000
MTEXTEND
  0
POINT
  5
2B27E
330
2B25C
100
AcDbEntity
  8
DEFPOINTS
 62
     0
100
AcDbPoint
 10
7481.573451213062
 20
8263.344341673764
 30
0.0
  0
POINT
  5
2B27F
330
2B25C
100
AcDbEntity
  8
DEFPOINTS
 62
     0
100
AcDbPoint
 10
8081.573451213062
 20
8263.344341673764
 30
0.0
  0
POINT
  5
2B280
330
2B25C
100
AcDbEntity
  8
DEFPOINTS
 62
     0
100
AcDbPoint
 10
8081.573451213062
 20
8436.440784109892
 30
0.0
  0
ENDBLK
  5
2B266
330
2B25C
100
AcDbEntity
  8
0
100
AcDbBlockEnd
  0
BLOCK
  5
2B270
330
2B267
100
AcDbEntity
  8
0
100
AcDbBlockBegin
  2
*D16
 70
     1
 10
0.0
 20
0.0
 30
0.0
  3
*D16
  1

  0
LINE
  5
2B281
330
2B267
100
AcDbEntity
  8
D-STR-DIM
370
    -2
100
AcDbLine
 10
8081.573451213062
 20
8283.344341673766
 30
0.0
 11
8081.573451213062
 21
8456.440784109892
 31
0.0
  0
LINE
  5
2B282
330
2B267
100
AcDbEntity
  8
D-STR-DIM
370
    -2
100
AcDbLine
 10
8091.573451213063
 20
8436.440784109892
 30
0.0
 11
8591.573443707108
 21
8436.440784109892
 31
0.0
  0
INSERT
  5
2B283
330
2B267
100
AcDbEntity
  8
D-STR-DIM
370
    -2
100
AcDbBlockReference
  2
_Origin
 10
8081.573451213062
 20
8436.440784109892
 30
0.0
 41
10.0
 42
10.0
 43
10.0
 50
180.0
  0
INSERT
  5
2B284
330
2B267
100
AcDbEntity
  8
D-STR-DIM
370
    -2
100
AcDbBlockReference
  2
_Origin
 10
8601.573443707108
 20
8436.440784109892
 30
0.0
 41
10.0
 42
10.0
 43
10.0
  0
MTEXT
  5
2B285
330
2B267
100
AcDbEntity
  8
D-STR-DIM
100
AcDbMText
 10
8341.573447460085
 20
8491.440784109894
 30
0.0
 40
70.0
 41
0.0
 71
     5
 72
     1
  1
\A1;520
 73
     1
 44
1.0
1001
ACAD
1000
MTEXTBEGIN
1070
    73
1070
     1
1070
    44
1040
1.0
1070
    74
1070
     0
1000
MTEXTEND
  0
POINT
  5
2B286
330
2B267
100
AcDbEntity
  8
DEFPOINTS
 62
     0
100
AcDbPoint
 10
8081.573451213062
 20
8263.344341673764
 30
0.0
  0
POINT
  5
2B287
330
2B267
100
AcDbEntity
  8
DEFPOINTS
 62
     0
100
AcDbPoint
 10
8601.573443707108
 20
8263.344341673764
 30
0.0
  0
POINT
  5
2B288
330
2B267
100
AcDbEntity
  8
DEFPOINTS
 62
     0
100
AcDbPoint
 10
8601.573443707108
 20
8436.440784109892
 30
0.0
  0
ENDBLK
  5
2B271
330
2B267
100
AcDbEntity
  8
0
100
AcDbBlockEnd
  0
BLOCK
  5
2B299
330
2B291
100
AcDbEntity
  8
0
100
AcDbBlockBegin
  2
*D17
 70
     1
 10
0.0
 20
0.0
 30
0.0
  3
*D17
  1

  0
LINE
  5
2B2B1
330
2B291
100
AcDbEntity
  8
D-STR-DIM
370
    -2
100
AcDbLine
 10
1828.709241730063
 20
8436.440784109892
 30
0.0
 11
2328.709240936456
 21
8436.440784109892
 31
0.0
  0
INSERT
  5
2B2B2
330
2B291
100
AcDbEntity
  8
D-STR-DIM
370
    -2
100
AcDbBlockReference
  2
_Origin
 10
1818.709241730063
 20
8436.440784109892
 30
0.0
 41
10.0
 42
10.0
 43
10.0
 50
180.0
  0
INSERT
  5
2B2B3
330
2B291
100
AcDbEntity
  8
D-STR-DIM
370
    -2
100
AcDbBlockReference
  2
_Origin
 10
2338.709240936456
 20
8436.440784109892
 30
0.0
 41
10.0
 42
10.0
 43
10.0
  0
MTEXT
  5
2B2B4
330
2B291
100
AcDbEntity
  8
D-STR-DIM
100
AcDbMText
 10
2078.709241333259
 20
8491.440784109894
 30
0.0
 40
70.0
 41
0.0
 71
     5
 72
     1
  1
\A1;520
 73
     1
 44
1.0
1001
ACAD
1000
MTEXTBEGIN
1070
    73
1070
     1
1070
    44
1040
1.0
1070
    74
1070
     0
1000
MTEXTEND
  0
POINT
  5
2B2B5
330
2B291
100
AcDbEntity
  8
DEFPOINTS
 62
     0
100
AcDbPoint
 10
1818.709241730063
 20
8263.344341673764
 30
0.0
  0
POINT
  5
2B2B6
330
2B291
100
AcDbEntity
  8
DEFPOINTS
 62
     0
100
AcDbPoint
 10
2338.709240936456
 20
8263.344341673764
 30
0.0
  0
POINT
  5
2B2B7
330
2B291
100
AcDbEntity
  8
DEFPOINTS
 62
     0
100
AcDbPoint
 10
2338.709240936456
 20
8436.440784109892
 30
0.0
  0
ENDBLK
  5
2B29A
330
2B291
100
AcDbEntity
  8
0
100
AcDbBlockEnd
  0
BLOCK
  5
2B2A4
330
2B29B
100
AcDbEntity
  8
0
100
AcDbBlockBegin
  2
*D18
 70
     1
 10
0.0
 20
0.0
 30
0.0
  3
*D18
  1

  0
LINE
  5
2B2B8
330
2B29B
100
AcDbEntity
  8
D-STR-DIM
370
    -2
100
AcDbLine
 10
2338.709240936456
 20
8283.344341673766
 30
0.0
 11
2338.709240936456
 21
8456.440784109892
 31
0.0
  0
LINE
  5
2B2B9
330
2B29B
100
AcDbEntity
  8
D-STR-DIM
370
    -2
100
AcDbLine
 10
2348.709240936456
 20
8436.440784109892
 30
0.0
 11
2928.709240936456
 21
8436.440784109892
 31
0.0
  0
INSERT
  5
2B2BA
330
2B29B
100
AcDbEntity
  8
D-STR-DIM
370
    -2
100
AcDbBlockReference
  2
_Origin
 10
2338.709240936456
 20
8436.440784109892
 30
0.0
 41
10.0
 42
10.0
 43
10.0
 50
180.0
  0
INSERT
  5
2B2BB
330
2B29B
100
AcDbEntity
  8
D-STR-DIM
370
    -2
100
AcDbBlockReference
  2
_Origin
 10
2938.709240936456
 20
8436.440784109892
 30
0.0
 41
10.0
 42
10.0
 43
10.0
  0
MTEXT
  5
2B2BC
330
2B29B
100
AcDbEntity
  8
D-STR-DIM
100
AcDbMText
 10
2638.709240936456
 20
8491.440784109894
 30
0.0
 40
70.0
 41
0.0
 71
     5
 72
     1
  1
\A1;600
 73
     1
 44
1.0
1001
ACAD
1000
MTEXTBEGIN
1070
    73
1070
     1
1070
    44
1040
1.0
1070
    74
1070
     0
1000
MTEXTEND
  0
POINT
  5
2B2BD
330
2B29B
100
AcDbEntity
  8
DEFPOINTS
 62
     0
100
AcDbPoint
 10
2338.709240936456
 20
8263.344341673764
 30
0.0
  0
POINT
  5
2B2BE
330
2B29B
100
AcDbEntity
  8
DEFPOINTS
 62
     0
100
AcDbPoint
 10
2938.709240936456
 20
8263.344341673764
 30
0.0
  0
POINT
  5
2B2BF
330
2B29B
100
AcDbEntity
  8
DEFPOINTS
 62
     0
100
AcDbPoint
 10
2938.709240936456
 20
8436.440784109892
 30
0.0
  0
ENDBLK
  5
2B2A5
330
2B29B
100
AcDbEntity
  8
0
100
AcDbBlockEnd
  0
BLOCK
  5
2B2AF
330
2B2A6
100
AcDbEntity
  8
0
100
AcDbBlockBegin
  2
*D19
 70
     1
 10
0.0
 20
0.0
 30
0.0
  3
*D19
  1

  0
LINE
  5
2B2C0
330
2B2A6
100
AcDbEntity
  8
D-STR-DIM
370
    -2
100
AcDbLine
 10
2938.709240936456
 20
8283.344341673766
 30
0.0
 11
2938.709240936456
 21
8456.440784109892
 31
0.0
  0
LINE
  5
2B2C1
330
2B2A6
100
AcDbEntity
  8
D-STR-DIM
370
    -2
100
AcDbLine
 10
2948.709240936456
 20
8436.440784109892
 30
0.0
 11
3448.709233430502
 21
8436.440784109892
 31
0.0
  0
INSERT
  5
2B2C2
330
2B2A6
100
AcDbEntity
  8
D-STR-DIM
370
    -2
100
AcDbBlockReference
  2
_Origin
 10
2938.709240936456
 20
8436.440784109892
 30
0.0
 41
10.0
 42
10.0
 43
10.0
 50
180.0
  0
INSERT
  5
2B2C3
330
2B2A6
100
AcDbEntity
  8
D-STR-DIM
370
    -2
100
AcDbBlockReference
  2
_Origin
 10
3458.709233430502
 20
8436.440784109892
 30
0.0
 41
10.0
 42
10.0
 43
10.0
  0
MTEXT
  5
2B2C4
330
2B2A6
100
AcDbEntity
  8
D-STR-DIM
100
AcDbMText
 10
3198.709237183479
 20
8491.440784109894
 30
0.0
 40
70.0
 41
0.0
 71
     5
 72
     1
  1
\A1;520
 73
     1
 44
1.0
1001
ACAD
1000
MTEXTBEGIN
1070
    73
1070
     1
1070
    44
1040
1.0
1070
    74
1070
     0
1000
MTEXTEND
  0
POINT
  5
2B2C5
330
2B2A6
100
AcDbEntity
  8
DEFPOINTS
 62
     0
100
AcDbPoint
 10
2938.709240936456
 20
8263.344341673764
 30
0.0
  0
POINT
  5
2B2C6
330
2B2A6
100
AcDbEntity
  8
DEFPOINTS
 62
     0
100
AcDbPoint
 10
3458.709233430502
 20
8263.344341673764
 30
0.0
  0
POINT
  5
2B2C7
330
2B2A6
100
AcDbEntity
  8
DEFPOINTS
 62
     0
100
AcDbPoint
 10
3458.709233430502
 20
8436.440784109892
 30
0.0
  0
ENDBLK
  5
2B2B0
330
2B2A6
100
AcDbEntity
  8
0
100
AcDbBlockEnd
  0
ENDSEC
  0
SECTION
  2
ENTITIES
  0
MTEXT
  5
74C
330
1F
100
AcDbEntity
  8
D-TTL-LINE
 62
     2
100
AcDbMText
 10
21100.96900863203
 20
11716.83874632694
 30
0.0
 40
140.0
 41
0.0
 71
     4
 72
     5
  1
 
 73
     1
 44
1.0
1001
ACAD
1000
MTEXTBEGIN
1070
    73
1070
     1
1070
    44
1040
1.0
1070
    74
1070
     0
1000
MTEXTEND
  0
MTEXT
  5
140A2
330
1F
100
AcDbEntity
  8
D-STR
 62
     2
100
AcDbMText
 10
133389.7438006938
 20
208126.6376526392
 30
0.0
 40
140.0
 41
0.0
 71
     4
 72
     1
  1
 
 73
     1
 44
1.0
1001
ACAD
1000
MTEXTBEGIN
1070
    73
1070
     1
1070
    44
1040
1.0
1070
    74
1070
     0
1000
MTEXTEND
  0
MTEXT
  5
170AD
330
1F
100
AcDbEntity
  8
D-STR
 62
     2
100
AcDbMText
 10
221722.4650715356
 20
207229.3774545898
 30
0.0
 40
140.0
 41
0.0
 71
     4
 72
     1
  1
 
 73
     1
 44
1.0
1001
ACAD
1000
MTEXTBEGIN
1070
    73
1070
     1
1070
    44
1040
1.0
1070
    74
1070
     0
1000
MTEXTEND
  0
TEXT
  5
28F18
330
1F
100
AcDbEntity
  8
D-TTL-TXT
100
AcDbText
 10
4636.341609791394
 20
11035.69015683264
 30
0.0
 40
200.0
  1
Ｃ．Ｃ．ＢＯＸ　（Ｂ-1,200×Ｈ-1,900）　継壁詳細図　
100
AcDbText
  0
TEXT
  5
28F1A
330
1F
100
AcDbEntity
  8
D-TTL-TXT
100
AcDbText
 10
12632.91847003553
 20
11027.68935763272
 30
0.0
 40
99.99999000000102
  1
S = 1/20
100
AcDbText
  0
LINE
  5
28F1B
330
1F
100
AcDbEntity
  8
D-MTR-FRAM
  6
Continuous
100
AcDbLine
 10
11581.44415463725
 20
2901.8112112925
 30
0.0
 11
11581.44415463725
 21
2255.146755750166
 31
0.0
  0
LINE
  5
28F1C
330
1F
100
AcDbEntity
  8
D-MTR-FRAM
  6
Continuous
100
AcDbLine
 10
10975.44415764617
 20
2901.8112112925
 30
0.0
 11
10975.44415764617
 21
2255.146755750166
 31
0.0
  0
LINE
  5
28F1D
330
1F
100
AcDbEntity
  8
D-MTR-FRAM
  6
Continuous
100
AcDbLine
 10
8873.444787437192
 20
2901.8112112925
 30
0.0
 11
8873.444787437192
 21
2255.146755750166
 31
0.0
  0
LINE
  5
28F1E
330
1F
100
AcDbEntity
  8
D-MTR-FRAM
  6
Continuous
100
AcDbLine
 10
8873.444787437192
 20
2513.813233967101
 30
0.0
 11
11581.44415463725
 21
2513.813233967101
 31
0.0
  0
TEXT
  5
28F1F
330
1F
100
AcDbEntity
  8
D-MTR-MTXT
100
AcDbText
 10
8953.440787099047
 20
2531.013513683051
 30
0.0
 40
70.0
  1
支持受金物用インサート　Ｍ16（セラミック）
100
AcDbText
  0
LINE
  5
28F20
330
1F
100
AcDbEntity
  8
D-MTR-FRAM
  6
Continuous
100
AcDbLine
 10
8873.444787437192
 20
2255.146755750166
 30
0.0
 11
11581.44415463725
 21
2255.146755750166
 31
0.0
  0
LINE
  5
28F21
330
1F
100
AcDbEntity
  8
D-MTR-FRAM
  6
Continuous
100
AcDbLine
 10
8873.444787437192
 20
2384.479994858633
 30
0.0
 11
11581.44415463725
 21
2384.479994858633
 31
0.0
  0
TEXT
  5
28F24
330
1F
100
AcDbEntity
  8
D-MTR-MTXT
100
AcDbText
 10
10989.14037270055
 20
2531.013513683051
 30
0.0
 40
70.0
  1
　　 4　本
100
AcDbText
  0
TEXT
  5
28F29
330
1F
100
AcDbEntity
  8
D-MTR
100
AcDbText
 10
9640.511327599259
 20
2956.67266040694
 30
0.0
 40
140.0
  1
　材　料　表　
100
AcDbText
  0
TEXT
  5
28F2B
330
1F
100
AcDbEntity
  8
D-MTR-MTXT
100
AcDbText
 10
8953.440787099047
 20
2660.345572791515
 30
0.0
 40
70.0
  1
吊り用インサート　Ｍ20（Ｙ－Ｄ32×150）
100
AcDbText
  0
LINE
  5
28F2E
330
1F
100
AcDbEntity
  8
D-MTR-FRAM
  6
Continuous
100
AcDbLine
 10
8873.444787437192
 20
2643.145573075567
 30
0.0
 11
11581.44415463725
 21
2643.145573075567
 31
0.0
  0
LINE
  5
28F2F
330
1F
100
AcDbEntity
  8
D-MTR-FRAM
  6
Continuous
100
AcDbLine
 10
8873.444787437192
 20
2901.8112112925
 30
0.0
 11
11581.44415463725
 21
2901.8112112925
 31
0.0
  0
LINE
  5
28F30
330
1F
100
AcDbEntity
  8
D-MTR-FRAM
  6
Continuous
100
AcDbLine
 10
8873.444787437192
 20
2772.478392184033
 30
0.0
 11
11581.44415463725
 21
2772.478392184033
 31
0.0
  0
TEXT
  5
28F34
330
1F
100
AcDbEntity
  8
D-MTR-TXT
100
AcDbText
 10
9773.790246796428
 20
2789.678391899987
 30
0.0
 40
70.0
  1
種　　類
100
AcDbText
  0
TEXT
  5
28F35
330
1F
100
AcDbEntity
  8
D-MTR-TXT
100
AcDbText
 10
11132.50570680807
 20
2789.678391899987
 30
0.0
 40
70.0
  1
個　　数
100
AcDbText
  0
TEXT
  5
28F37
330
1F
100
AcDbEntity
  8
D-MTR-MTXT
100
AcDbText
 10
10947.44435731713
 20
2660.345572791515
 30
0.0
 40
70.0
  1
　　　2　本
100
AcDbText
  0
TEXT
  5
29612
330
1F
100
AcDbEntity
  8
D-TTL-TXT
100
AcDbText
 10
1202.323829615045
 20
9906.66489091442
 30
0.0
 40
140.0
  1
タイプ1（横断位置上部）ＫＢ-Ｈ-1
100
AcDbText
  0
TEXT
  5
29694
330
1F
100
AcDbEntity
  8
D-TTL-TXT
100
AcDbText
 10
1712.381673807496
 20
9729.435292365971
 30
0.0
 40
100.0
  1
（ＫＢ－Ｈ－2は左右逆になります）
100
AcDbText
  0
LINE
  5
297FB
330
1F
100
AcDbEntity
  8
D-TTL-FRAM
 48
20.0
100
AcDbLine
 10
16419.9999178163
 20
1599.999987328709
 30
0.0
 11
14419.99992582976
 21
1599.999987328709
 31
0.0
  0
LINE
  5
297FE
330
1F
100
AcDbEntity
  8
D-TTL-FRAM
 48
20.0
100
AcDbLine
 10
14419.99992582976
 20
1599.999987328709
 30
0.0
 11
14419.99992582976
 21
399.9999921367883
 31
0.0
  0
LINE
  5
298CF
330
1F
100
AcDbEntity
  8
D-TTL-TXT
  6
Continuous
100
AcDbLine
 10
15679.99992078112
 20
11319.99994414685
 30
0.0
 11
16419.99991781617
 21
11319.99994414685
 31
0.0
  0
LINE
  5
298D0
330
1F
100
AcDbEntity
  8
D-TTL-TXT
  6
Continuous
100
AcDbLine
 10
15679.99992078112
 20
11479.99994350576
 30
0.0
 11
16419.99991781617
 21
11479.99994350576
 31
0.0
  0
TEXT
  5
298D1
330
1F
100
AcDbEntity
  8
D-TTL-TXT
  6
Continuous
100
AcDbText
 10
16012.30031183077
 20
11361.78185972319
 30
0.0
 40
69.9999997195286
  1
A4A18
 72
     4
 11
16168.96697786972
 21
11396.78185958296
 31
0.0
100
AcDbText
  0
TEXT
  5
298D8
330
1F
100
AcDbEntity
  8
D-TTL-TXT
  6
Continuous
100
AcDbText
 10
15731.42848057527
 20
11359.99994398655
 30
0.0
 40
69.9999997195286
  1
図番
100
AcDbText
  0
LINE
  5
298D9
330
1F
100
AcDbEntity
  8
D-TTL-TXT
  6
Continuous
100
AcDbLine
 10
15679.99992078112
 20
11479.99994350576
 30
0.0
 11
15679.99992078112
 21
11319.99994414685
 31
0.0
  0
LINE
  5
298DA
330
1F
100
AcDbEntity
  8
D-TTL-TXT
  6
Continuous
100
AcDbLine
 10
15919.99991981953
 20
11479.99994350576
 30
0.0
 11
15919.99991981953
 21
11319.99994414685
 31
0.0
  0
LINE
  5
298DB
330
1F
100
AcDbEntity
  8
D-TTL-TXT
  6
Continuous
100
AcDbLine
 10
16419.99991781617
 20
11479.99994350576
 30
0.0
 11
16419.99991781617
 21
11319.99994414685
 31
0.0
  0
LWPOLYLINE
  5
29EDC
330
1F
100
AcDbEntity
  8
D-TTL
 48
20.0
100
AcDbPolyline
 90
        4
 70
     1
 43
0.0
 10
799.9999959510751
 20
399.999997975717
 10
16419.99991690286
 20
399.999997975717
 10
16419.99991690286
 20
11479.99994190307
 10
799.9999959510751
 20
11479.99994190307
  0
LWPOLYLINE
  5
29EDD
330
1F
100
AcDbEntity
  8
D-TTL
 48
20.0
100
AcDbPolyline
 90
        4
 70
     1
 43
0.0
 10
0.0
 20
0.0
 10
16819.99991487857
 20
0.0
 10
16819.99991487857
 20
11879.99993987879
 10
0.0
 20
11879.99993987879
  0
TEXT
  5
29EDE
330
1F
100
AcDbEntity
  8
D-STR-DIM
100
AcDbText
 10
8384.756464804356
 20
8979.344338050298
 30
0.0
 40
70.0
  1
168.5
100
AcDbText
  0
LINE
  5
29EE1
330
1F
100
AcDbEntity
  8
D-STR-DIM
  6
Continuous
100
AcDbLine
 10
8601.573443707108
 20
4963.3439583741
 30
0.0
 11
7781.573507856839
 21
4963.3439583741
 31
0.0
  0
LINE
  5
29EE2
330
1F
100
AcDbEntity
  8
D-STR-DIM
  6
Continuous
100
AcDbLine
 10
8601.573443707108
 20
8963.343538131274
 30
0.0
 11
8517.323484133461
 21
8963.343538131274
 31
0.0
  0
LINE
  5
29EE3
330
1F
100
AcDbEntity
  8
D-STR-DIM
  6
Continuous
100
AcDbLine
 10
8601.573443707108
 20
5563.343755337676
 30
0.0
 11
8341.573485022832
 21
5563.343755337676
 31
0.0
  0
LINE
  5
29EE4
330
1F
100
AcDbEntity
  8
D-STR-DIM
  6
Continuous
100
AcDbLine
 10
8601.573443707108
 20
5263.344356855886
 30
0.0
 11
8441.573444516825
 21
5263.344356855886
 31
0.0
  0
LINE
  5
29EE5
330
1F
100
AcDbEntity
  8
D-STR-DIM
  6
Continuous
100
AcDbLine
 10
8601.573443707108
 20
9263.343936613058
 30
0.0
 11
8461.573444415611
 21
9263.343936613058
 31
0.0
  0
LINE
  5
29EE6
330
1F
100
AcDbEntity
  8
D-STR-DIM
  6
Continuous
100
AcDbLine
 10
8601.573443707108
 20
8663.344139649483
 30
0.0
 11
8224.073505617473
 21
8663.344139649483
 31
0.0
  0
LINE
  5
29EE7
330
1F
100
AcDbEntity
  8
D-STR-HTXT
  6
Continuous
100
AcDbLine
 10
7781.573507856839
 20
7347.344546309368
 30
0.0
 11
8632.193353107002
 21
8361.073287798868
 31
0.0
  0
LINE
  5
29EE8
330
1F
100
AcDbEntity
  8
D-STR
  6
Continuous
100
AcDbLine
 10
6961.573552006631
 20
8263.344341673764
 30
0.0
 11
8601.573443707108
 21
8263.344341673764
 31
0.0
  0
LINE
  5
29EE9
330
1F
100
AcDbEntity
  8
D-STR
  6
Continuous
100
AcDbLine
 10
6961.573552006631
 20
5963.343553313394
 30
0.0
 11
8601.573443707108
 21
5963.343553313394
 31
0.0
  0
TEXT
  5
29F21
330
1F
100
AcDbEntity
  8
D-STR-DIM
100
AcDbText
 10
3231.849434578624
 20
9279.343736532089
 30
0.0
 40
70.0
  1
280
100
AcDbText
  0
TEXT
  5
29F22
330
1F
100
AcDbEntity
  8
D-STR-DIM
100
AcDbText
 10
3201.84923473038
 20
5279.343956774916
 30
0.0
 40
70.0
  1
320
100
AcDbText
  0
TEXT
  5
29F23
330
1F
100
AcDbEntity
  8
D-STR-DIM
100
AcDbText
 10
3241.892434527807
 20
8979.344338050298
 30
0.0
 40
70.0
  1
168.5
100
AcDbText
  0
CIRCLE
  5
29F25
330
1F
100
AcDbEntity
  8
D-STR-STR2
  6
Continuous
100
AcDbCircle
 10
3290.209634283234
 20
7763.343944204118
 30
0.0
 40
34.99999782287525
  0
CIRCLE
  5
29F26
330
1F
100
AcDbEntity
  8
D-STR-STR2
  6
Continuous
100
AcDbCircle
 10
3290.209634283234
 20
7763.343944204118
 30
0.0
 40
14.9999979240894
  0
LINE
  5
29F27
330
1F
100
AcDbEntity
  8
D-STR-DIM
  6
Continuous
100
AcDbLine
 10
3178.709434847493
 20
9263.343936613058
 30
0.0
 11
3318.709434138997
 21
9263.343936613058
 31
0.0
  0
LINE
  5
29F28
330
1F
100
AcDbEntity
  8
D-STR-DIM
  6
Continuous
100
AcDbLine
 10
3458.709233430502
 20
8663.344139649483
 30
0.0
 11
3081.209435340912
 21
8663.344139649483
 31
0.0
  0
LINE
  5
29F29
330
1F
100
AcDbEntity
  8
D-STR-DIM
  6
Continuous
100
AcDbLine
 10
3138.70923504993
 20
5263.344356855886
 30
0.0
 11
3298.709434240209
 21
5263.344356855886
 31
0.0
  0
LINE
  5
29F2A
330
1F
100
AcDbEntity
  8
D-STR-DIM
  6
Continuous
100
AcDbLine
 10
3458.709233430502
 20
5563.343755337676
 30
0.0
 11
3198.709434746281
 21
5563.343755337676
 31
0.0
  0
LINE
  5
29F2B
330
1F
100
AcDbEntity
  8
D-STR-DIM
  6
Continuous
100
AcDbLine
 10
3290.209634283234
 20
8963.343538131274
 30
0.0
 11
2638.709837580336
 21
8963.343538131274
 31
0.0
  0
LINE
  5
29F2C
330
1F
100
AcDbEntity
  8
D-STR-DIM
  6
Continuous
100
AcDbLine
 10
3458.709233430502
 20
4963.3439583741
 30
0.0
 11
2638.709237580282
 21
4963.3439583741
 31
0.0
  0
LINE
  5
29F2D
330
1F
100
AcDbEntity
  8
D-BMK
  6
CENTER2
100
AcDbLine
 10
3225.20963461218
 20
7763.343944204118
 30
0.0
 11
3355.209633954288
 21
7763.343944204118
 31
0.0
  0
LINE
  5
29F2E
330
1F
100
AcDbEntity
  8
D-STR
  6
Continuous
100
AcDbLine
 10
1818.709441730058
 20
8263.344341673764
 30
0.0
 11
3458.709233430502
 21
8263.344341673764
 31
0.0
  0
LINE
  5
29F2F
330
1F
100
AcDbEntity
  8
D-STR
  6
Continuous
100
AcDbLine
 10
1818.709441730058
 20
5963.343553313394
 30
0.0
 11
3458.709233430502
 21
5963.343553313394
 31
0.0
  0
TEXT
  5
29F30
330
1F
100
AcDbEntity
  8
D-STR-HTXT
100
AcDbText
 10
834.9129913461874
 20
8583.343940054339
 30
0.0
 40
70.0
  1
　　（セラミック）
100
AcDbText
  0
LINE
  5
29F31
330
1F
100
AcDbEntity
  8
D-STR-DIM
  6
Continuous
100
AcDbLine
 10
1818.709441730058
 20
8283.344341673766
 30
0.0
 11
1818.709441730058
 21
9293.343736461238
 31
0.0
  0
LINE
  5
29F32
330
1F
100
AcDbEntity
  8
D-STR-DIM
  6
Continuous
100
AcDbLine
 10
2573.709237909228
 20
8283.344341673766
 30
0.0
 11
2573.709237909228
 21
8421.662187176815
 31
0.0
  0
LINE
  5
29F33
330
1F
100
AcDbEntity
  8
D-STR-DIM
  6
Continuous
100
AcDbLine
 10
2703.709437251331
 20
8283.344341673766
 30
0.0
 11
2703.709437251331
 21
8421.662187176815
 31
0.0
  0
LINE
  5
29F34
330
1F
100
AcDbEntity
  8
D-STR-HTXT
  6
Continuous
100
AcDbLine
 10
1618.709642742193
 20
8663.343139649489
 30
0.0
 11
2565.844237949085
 21
7919.520743413754
 31
0.0
  0
LINE
  5
29F35
330
1F
100
AcDbEntity
  8
D-STR-DIM
  6
Continuous
100
AcDbLine
 10
2298.709239300922
 20
8633.343539801307
 30
0.0
 11
2298.709239300922
 21
8542.281077240387
 31
0.0
  0
LINE
  5
29F36
330
1F
100
AcDbEntity
  8
D-STR-DIM
  6
Continuous
100
AcDbLine
 10
1987.210440877356
 20
8633.343539801307
 30
0.0
 11
1987.210440877356
 21
8542.281077240387
 31
0.0
  0
LINE
  5
29F37
330
1F
100
AcDbEntity
  8
D-STR-DIM
  6
Continuous
100
AcDbLine
 10
2098.709240313063
 20
8633.343539801307
 30
0.0
 11
2098.709240313063
 21
8542.281077240387
 31
0.0
  0
LINE
  5
29F38
330
1F
100
AcDbEntity
  8
D-STR-DIM
  6
Continuous
100
AcDbLine
 10
2498.709238288782
 20
8633.343539801307
 30
0.0
 11
2498.709238288782
 21
8542.281077240387
 31
0.0
  0
LINE
  5
29F39
330
1F
100
AcDbEntity
  8
D-STR-DIM
  6
Continuous
100
AcDbLine
 10
2778.709436871777
 20
8633.343539801307
 30
0.0
 11
2778.709436871777
 21
8542.281077240387
 31
0.0
  0
LINE
  5
29F3A
330
1F
100
AcDbEntity
  8
D-STR-DIM
  6
Continuous
100
AcDbLine
 10
3178.709434847493
 20
8633.343539801307
 30
0.0
 11
3178.709434847493
 21
8542.281077240387
 31
0.0
  0
TEXT
  5
29F3B
330
1F
100
AcDbEntity
  8
D-STR-DIM
100
AcDbText
 10
1202.709444847467
 20
5886.733353701096
 30
0.0
 40
70.0
  1
148.5
 50
90.0
100
AcDbText
  0
LINE
  5
29F3C
330
1F
100
AcDbEntity
  8
D-STR-DIM
  6
Continuous
100
AcDbLine
 10
2338.70943909849
 20
5943.343553313394
 30
0.0
 11
2338.70943909849
 21
5533.344155489496
 31
0.0
  0
LINE
  5
29F3D
330
1F
100
AcDbEntity
  8
D-STR-DIM
  6
Continuous
100
AcDbLine
 10
2938.70923606207
 20
5943.343553313394
 30
0.0
 11
2938.70923606207
 21
5533.344155489496
 31
0.0
  0
LINE
  5
29F3E
330
1F
100
AcDbEntity
  8
D-STR-DIM
  6
Continuous
100
AcDbLine
 10
1818.709441730058
 20
5943.343553313394
 30
0.0
 11
1818.709441730058
 21
4933.34435852592
 31
0.0
  0
LINE
  5
29F3F
330
1F
100
AcDbEntity
  8
D-STR-HTXT
  6
Continuous
100
AcDbLine
 10
2311.159439237937
 20
6090.256952671124
 30
0.0
 11
1618.709642742193
 21
5563.344755337673
 31
0.0
  0
LINE
  5
29F40
330
1F
100
AcDbEntity
  8
D-STR-DIM
  6
Continuous
100
AcDbLine
 10
2138.70944011063
 20
5933.343953465213
 30
0.0
 11
2138.70944011063
 21
5697.621754658136
 31
0.0
  0
LINE
  5
29F41
330
1F
100
AcDbEntity
  8
D-STR-DIM
  6
Continuous
100
AcDbLine
 10
3138.70923504993
 20
5933.343953465213
 30
0.0
 11
3138.70923504993
 21
5697.621754658136
 31
0.0
  0
TEXT
  5
29F42
330
1F
100
AcDbEntity
  8
D-STR-DIM
100
AcDbText
 10
1901.849241309301
 20
5279.343956774916
 30
0.0
 40
70.0
  1
320
100
AcDbText
  0
LINE
  5
29F43
330
1F
100
AcDbEntity
  8
D-STR-DIM
  6
Continuous
100
AcDbLine
 10
1818.709441730058
 20
5263.344356855886
 30
0.0
 11
1978.70924092035
 21
5263.344356855886
 31
0.0
  0
LINE
  5
29F44
330
1F
100
AcDbEntity
  8
D-STR-DIM
  6
Continuous
100
AcDbLine
 10
1818.709441730058
 20
5563.343755337676
 30
0.0
 11
2078.709240414279
 21
5563.343755337676
 31
0.0
  0
LINE
  5
29F45
330
1F
100
AcDbEntity
  8
D-STR-DIM
  6
Continuous
100
AcDbLine
 10
1818.709441730058
 20
4963.3439583741
 30
0.0
 11
2638.709237580282
 21
4963.3439583741
 31
0.0
  0
TEXT
  5
29F46
330
1F
100
AcDbEntity
  8
D-STR-HTXT
100
AcDbText
 10
1128.556828662069
 20
5579.344355256701
 30
0.0
 40
70.0
  1
　継壁固定部
100
AcDbText
  0
LINE
  5
29F47
330
1F
100
AcDbEntity
  8
D-STR-HTXT
  6
Continuous
100
AcDbLine
 10
1190.3114098113
 20
5563.343755337676
 30
0.0
 11
1618.709642742193
 21
5563.343755337676
 31
0.0
  0
CIRCLE
  5
29F48
330
1F
100
AcDbEntity
  8
D-STR-DIM
  6
Continuous
100
AcDbCircle
 10
1818.709441730058
 20
4963.3439583741
 30
0.0
 40
5.999997969635766
  0
CIRCLE
  5
29F49
330
1F
100
AcDbEntity
  8
D-STR-DIM
  6
Continuous
100
AcDbCircle
 10
1818.709441730058
 20
5263.344356855886
 30
0.0
 40
5.999997969635766
  0
CIRCLE
  5
29F4A
330
1F
100
AcDbEntity
  8
D-STR-DIM
  6
Continuous
100
AcDbCircle
 10
1818.709441730058
 20
5563.343755337676
 30
0.0
 40
5.999997969635766
  0
TEXT
  5
29F4B
330
1F
100
AcDbEntity
  8
D-STR-DIM
100
AcDbText
 10
2551.849238019841
 20
5579.344355256701
 30
0.0
 40
70.0
  1
600
100
AcDbText
  0
TEXT
  5
29F4C
330
1F
100
AcDbEntity
  8
D-STR-DIM
100
AcDbText
 10
2519.849238181811
 20
5279.343956774916
 30
0.0
 40
70.0
  1
1000
100
AcDbText
  0
TEXT
  5
29F4D
330
1F
100
AcDbEntity
  8
D-STR-DIM
100
AcDbText
 10
2519.849238181811
 20
4979.34355829313
 30
0.0
 40
70.0
  1
1640
100
AcDbText
  0
LINE
  5
29F4E
330
1F
100
AcDbEntity
  8
D-STR-DIM
  6
Continuous
100
AcDbLine
 10
2338.70943909849
 20
5563.343755337676
 30
0.0
 11
2638.709237580282
 21
5563.343755337676
 31
0.0
  0
LINE
  5
29F4F
330
1F
100
AcDbEntity
  8
D-STR-DIM
  6
Continuous
100
AcDbLine
 10
2138.70944011063
 20
5263.344356855886
 30
0.0
 11
2638.709237580282
 21
5263.344356855886
 31
0.0
  0
LINE
  5
29F50
330
1F
100
AcDbEntity
  8
D-STR-DIM
  6
Continuous
100
AcDbLine
 10
2338.70943909849
 20
5563.343755337676
 30
0.0
 11
2078.709240414279
 21
5563.343755337676
 31
0.0
  0
LINE
  5
29F51
330
1F
100
AcDbEntity
  8
D-STR-DIM
  6
Continuous
100
AcDbLine
 10
2138.70944011063
 20
5543.343755337676
 30
0.0
 11
2138.70944011063
 21
5233.343757007709
 31
0.0
  0
LINE
  5
29F52
330
1F
100
AcDbEntity
  8
D-STR-DIM
  6
Continuous
100
AcDbLine
 10
2138.70944011063
 20
5263.344356855886
 30
0.0
 11
1978.70924092035
 21
5263.344356855886
 31
0.0
  0
CIRCLE
  5
29F53
330
1F
100
AcDbEntity
  8
D-STR-DIM
  6
Continuous
100
AcDbCircle
 10
2138.70944011063
 20
5263.344356855886
 30
0.0
 40
5.999997969635766
  0
TEXT
  5
29F54
330
1F
100
AcDbEntity
  8
D-STR-DIM
100
AcDbText
 10
2001.849040803234
 20
5579.344355256701
 30
0.0
 40
70.0
  1
520
100
AcDbText
  0
CIRCLE
  5
29F55
330
1F
100
AcDbEntity
  8
D-STR-DIM
  6
Continuous
100
AcDbCircle
 10
2338.70943909849
 20
5563.343755337676
 30
0.0
 40
5.999997969635766
  0
LINE
  5
29F56
330
1F
100
AcDbEntity
  8
D-STR-DIM
  6
Continuous
100
AcDbLine
 10
2938.70923606207
 20
5563.343755337676
 30
0.0
 11
3198.709434746281
 21
5563.343755337676
 31
0.0
  0
LINE
  5
29F57
330
1F
100
AcDbEntity
  8
D-STR-DIM
  6
Continuous
100
AcDbLine
 10
3138.70923504993
 20
5263.344356855886
 30
0.0
 11
2638.709237580282
 21
5263.344356855886
 31
0.0
  0
LINE
  5
29F58
330
1F
100
AcDbEntity
  8
D-STR-DIM
  6
Continuous
100
AcDbLine
 10
2938.70923606207
 20
5563.343755337676
 30
0.0
 11
2638.709237580282
 21
5563.343755337676
 31
0.0
  0
CIRCLE
  5
29F59
330
1F
100
AcDbEntity
  8
D-STR-DIM
  6
Continuous
100
AcDbCircle
 10
2938.70923606207
 20
5563.343755337676
 30
0.0
 40
5.999997969635766
  0
LINE
  5
29F5A
330
1F
100
AcDbEntity
  8
D-STR-DIM
  6
Continuous
100
AcDbLine
 10
3138.70923504993
 20
5543.343755337676
 30
0.0
 11
3138.70923504993
 21
5233.343757007709
 31
0.0
  0
CIRCLE
  5
29F5B
330
1F
100
AcDbEntity
  8
D-STR-DIM
  6
Continuous
100
AcDbCircle
 10
3138.70923504993
 20
5263.344356855886
 30
0.0
 40
5.999997969635766
  0
TEXT
  5
29F5C
330
1F
100
AcDbEntity
  8
D-STR-DIM
100
AcDbText
 10
3101.849235236452
 20
5579.344355256701
 30
0.0
 40
70.0
  1
520
100
AcDbText
  0
CIRCLE
  5
29F5D
330
1F
100
AcDbEntity
  8
D-STR-STR2
  6
Continuous
100
AcDbCircle
 10
1987.210440877356
 20
7763.343944204118
 30
0.0
 40
34.99999782287525
  0
LINE
  5
29F5E
330
1F
100
AcDbEntity
  8
D-BMK
  6
CENTER2
100
AcDbLine
 10
1922.210441206302
 20
7763.343944204118
 30
0.0
 11
2052.210640548401
 21
7763.343944204118
 31
0.0
  0
LINE
  5
29F5F
330
1F
100
AcDbEntity
  8
D-STR-DIM
  6
Continuous
100
AcDbLine
 10
1518.70904324828
 20
7413.343945975366
 30
0.0
 11
1518.70904324828
 21
6688.344349644378
 31
0.0
  0
LINE
  5
29F60
330
1F
100
AcDbEntity
  8
D-STR-DIM
  6
Continuous
100
AcDbLine
 10
1218.709244766487
 20
7763.343944204118
 30
0.0
 11
1218.709244766487
 21
6937.593748383
 31
0.0
  0
LINE
  5
29F61
330
1F
100
AcDbEntity
  8
D-STR
  6
Continuous
100
AcDbLine
 10
1818.709441730058
 20
5963.343553313394
 30
0.0
 11
1818.709441730058
 21
8263.344341673764
 31
0.0
  0
LINE
  5
29F62
330
1F
100
AcDbEntity
  8
D-STR-DIM
  6
Continuous
100
AcDbLine
 10
1498.70904324828
 20
6111.843552561879
 30
0.0
 11
1188.709644918297
 21
6111.843552561879
 31
0.0
  0
LINE
  5
29F63
330
1F
100
AcDbEntity
  8
D-STR-DIM
  6
Continuous
100
AcDbLine
 10
1798.709441730058
 20
5963.343553313394
 30
0.0
 11
1188.709644918297
 21
5963.343553313394
 31
0.0
  0
LINE
  5
29F64
330
1F
100
AcDbEntity
  8
D-STR-DIM
  6
Continuous
100
AcDbLine
 10
1218.709244766487
 20
6111.843552561879
 30
0.0
 11
1218.709244766487
 21
6937.593748383
 31
0.0
  0
CIRCLE
  5
29F65
330
1F
100
AcDbEntity
  8
D-STR-DIM
  6
Continuous
100
AcDbCircle
 10
1218.709244766487
 20
6111.843552561879
 30
0.0
 40
5.999997969635766
  0
CIRCLE
  5
29F66
330
1F
100
AcDbEntity
  8
D-STR-DIM
  6
Continuous
100
AcDbCircle
 10
1218.709244766487
 20
5963.343553313394
 30
0.0
 40
5.999997969635766
  0
LINE
  5
29F67
330
1F
100
AcDbEntity
  8
D-STR-DIM
  6
Continuous
100
AcDbLine
 10
1218.709244766487
 20
5963.343553313394
 30
0.0
 11
1218.709244766487
 21
6037.593552937636
 31
0.0
  0
LINE
  5
29F68
330
1F
100
AcDbEntity
  8
D-STR-DIM
  6
Continuous
100
AcDbLine
 10
1218.709244766487
 20
6111.843552561879
 30
0.0
 11
1218.709244766487
 21
6037.593552937636
 31
0.0
  0
TEXT
  5
29F69
330
1F
100
AcDbEntity
  8
D-STR-DIM
100
AcDbText
 10
1202.709444847467
 20
6754.734149308401
 30
0.0
 40
70.0
  1
1651.5
 50
90.0
100
AcDbText
  0
TEXT
  5
29F6A
330
1F
100
AcDbEntity
  8
D-STR-DIM
100
AcDbText
 10
1502.709443329255
 20
6569.484350245893
 30
0.0
 40
70.0
  1
1450
 50
90.0
100
AcDbText
  0
LINE
  5
29F6B
330
1F
100
AcDbEntity
  8
D-STR-DIM
  6
Continuous
100
AcDbLine
 10
1518.70904324828
 20
5963.343553313394
 30
0.0
 11
1518.70904324828
 21
6688.344349644378
 31
0.0
  0
LINE
  5
29F6C
330
1F
100
AcDbEntity
  8
D-STR-DIM
  6
Continuous
100
AcDbLine
 10
1548.709243096455
 20
6111.843552561879
 30
0.0
 11
1788.709441881878
 21
6111.843552561879
 31
0.0
  0
CIRCLE
  5
29F6D
330
1F
100
AcDbEntity
  8
D-STR-DIM
  6
Continuous
100
AcDbCircle
 10
1518.70904324828
 20
5963.343553313394
 30
0.0
 40
5.999997969635766
  0
LINE
  5
29F6E
330
1F
100
AcDbEntity
  8
D-STR-DIM
  6
Continuous
100
AcDbLine
 10
1421.706243739208
 20
7763.343944204118
 30
0.0
 11
1188.709644918297
 21
7763.343944204118
 31
0.0
  0
LINE
  5
29F6F
330
1F
100
AcDbEntity
  8
D-STR-DIM
  6
Continuous
100
AcDbLine
 10
1798.709441730058
 20
8263.344341673764
 30
0.0
 11
1188.709644918297
 21
8263.344341673764
 31
0.0
  0
TEXT
  5
29F70
330
1F
100
AcDbEntity
  8
D-STR-DIM
100
AcDbText
 10
1202.709444847467
 20
7926.484143378516
 30
0.0
 40
70.0
  1
500
 50
90.0
100
AcDbText
  0
LINE
  5
29F71
330
1F
100
AcDbEntity
  8
D-STR-DIM
  6
Continuous
100
AcDbLine
 10
1218.709244766487
 20
7763.343944204118
 30
0.0
 11
1218.709244766487
 21
8013.343742938943
 31
0.0
  0
CIRCLE
  5
29F72
330
1F
100
AcDbEntity
  8
D-STR-DIM
  6
Continuous
100
AcDbCircle
 10
1218.709244766487
 20
7763.343944204118
 30
0.0
 40
5.999997969635766
  0
CIRCLE
  5
29F73
330
1F
100
AcDbEntity
  8
D-STR-DIM
  6
Continuous
100
AcDbCircle
 10
1218.709244766487
 20
8263.344341673764
 30
0.0
 40
5.999997969635766
  0
LINE
  5
29F74
330
1F
100
AcDbEntity
  8
D-STR-DIM
  6
Continuous
100
AcDbLine
 10
1218.709244766487
 20
8263.344341673764
 30
0.0
 11
1218.709244766487
 21
8013.343742938943
 31
0.0
  0
LINE
  5
29F75
330
1F
100
AcDbEntity
  8
D-STR-DIM
  6
Continuous
100
AcDbLine
 10
1518.70904324828
 20
7913.344143445012
 30
0.0
 11
1518.70904324828
 21
8088.34374255939
 31
0.0
  0
LINE
  5
29F76
330
1F
100
AcDbEntity
  8
D-STR-DIM
  6
Continuous
100
AcDbLine
 10
1798.709441730058
 20
7413.343945975366
 30
0.0
 11
1488.70944340009
 21
7413.343945975366
 31
0.0
  0
LINE
  5
29F77
330
1F
100
AcDbEntity
  8
D-STR-DIM
  6
Continuous
100
AcDbLine
 10
1798.709441730058
 20
7913.344143445012
 30
0.0
 11
1488.70944340009
 21
7913.344143445012
 31
0.0
  0
LINE
  5
29F78
330
1F
100
AcDbEntity
  8
D-STR-DIM
  6
Continuous
100
AcDbLine
 10
1548.709243096455
 20
7763.343944204118
 30
0.0
 11
1788.709441881878
 21
7763.343944204118
 31
0.0
  0
TEXT
  5
29F79
330
1F
100
AcDbEntity
  8
D-STR-DIM
100
AcDbText
 10
1502.709443329255
 20
7576.483945149764
 30
0.0
 40
70.0
  1
500
 50
90.0
100
AcDbText
  0
LINE
  5
29F7A
330
1F
100
AcDbEntity
  8
D-STR-DIM
  6
Continuous
100
AcDbLine
 10
1518.70904324828
 20
7413.343945975366
 30
0.0
 11
1518.70904324828
 21
7663.343544710191
 31
0.0
  0
CIRCLE
  5
29F7B
330
1F
100
AcDbEntity
  8
D-STR-DIM
  6
Continuous
100
AcDbCircle
 10
1518.70904324828
 20
7413.343945975366
 30
0.0
 40
5.999997969635766
  0
CIRCLE
  5
29F7C
330
1F
100
AcDbEntity
  8
D-STR-DIM
  6
Continuous
100
AcDbCircle
 10
1518.70904324828
 20
7913.344143445012
 30
0.0
 40
5.999997969635766
  0
LINE
  5
29F7D
330
1F
100
AcDbEntity
  8
D-STR-DIM
  6
Continuous
100
AcDbLine
 10
1518.70904324828
 20
7913.344143445012
 30
0.0
 11
1518.70904324828
 21
7663.343544710191
 31
0.0
  0
TEXT
  5
29F7E
330
1F
100
AcDbEntity
  8
D-STR-DIM
100
AcDbText
 10
1502.709443329255
 20
8001.484142998963
 30
0.0
 40
70.0
  1
350
 50
90.0
100
AcDbText
  0
CIRCLE
  5
29F7F
330
1F
100
AcDbEntity
  8
D-STR-DIM
  6
Continuous
100
AcDbCircle
 10
1518.70904324828
 20
8263.344341673764
 30
0.0
 40
5.999997969635766
  0
LINE
  5
29F80
330
1F
100
AcDbEntity
  8
D-STR-DIM
  6
Continuous
100
AcDbLine
 10
1518.70904324828
 20
8263.344341673764
 30
0.0
 11
1518.70904324828
 21
8088.34374255939
 31
0.0
  0
LINE
  5
29F81
330
1F
100
AcDbEntity
  8
D-STR-STR2
  6
Continuous
100
AcDbLine
 10
3138.70923504993
 20
6613.344150023933
 30
0.0
 11
3138.70923504993
 21
7313.34334648144
 31
0.0
  0
LINE
  5
29F82
330
1F
100
AcDbEntity
  8
D-STR-STR2
  6
Continuous
100
AcDbLine
 10
2138.70944011063
 20
6613.344150023933
 30
0.0
 11
2138.70944011063
 21
7313.34334648144
 31
0.0
  0
LINE
  5
29F83
330
1F
100
AcDbEntity
  8
D-STR
  6
DASHED1
100
AcDbLine
 10
3238.709034543863
 20
6263.343951795179
 30
0.0
 11
3238.709034543863
 21
7963.343943191977
 31
0.0
  0
LINE
  5
29F84
330
1F
100
AcDbEntity
  8
D-STR
  6
DASHED1
100
AcDbLine
 10
2038.709440616702
 20
6263.343951795179
 30
0.0
 11
2038.709440616702
 21
7963.343943191977
 31
0.0
  0
TEXT
  5
29F85
330
1F
100
AcDbEntity
  8
D-STR-HTXT
100
AcDbText
 10
2421.603620140763
 20
6931.343948414628
 30
0.0
 40
50.0
  1
1,000×800
100
AcDbText
  0
LINE
  5
29F86
330
1F
100
AcDbEntity
  8
D-STR-STR2
  6
Continuous
100
AcDbLine
 10
2188.709239857599
 20
6563.344350276967
 30
0.0
 11
3088.709435302957
 21
6563.344350276967
 31
0.0
  0
LINE
  5
29F87
330
1F
100
AcDbEntity
  8
D-STR
  6
DASHED1
100
AcDbLine
 10
2138.70944011063
 20
6163.343552301252
 30
0.0
 11
3138.70923504993
 21
6163.343552301252
 31
0.0
  0
LINE
  5
29F88
330
1F
100
AcDbEntity
  8
D-STR-STR2
  6
Continuous
100
AcDbLine
 10
2138.70944011063
 20
6613.344150023933
 30
0.0
 11
2188.710639857629
 21
6563.343350276972
 31
0.0
  0
LINE
  5
29F89
330
1F
100
AcDbEntity
  8
D-STR-HTXT
  6
Continuous
100
AcDbLine
 10
2275.323639419305
 20
6071.136752767886
 30
0.0
 11
2311.159439237937
 21
6090.255952671126
 31
0.0
  0
LINE
  5
29F8A
330
1F
100
AcDbEntity
  8
D-BMK
  6
CENTER2
100
AcDbLine
 10
2273.709439427435
 20
6111.843552561879
 30
0.0
 11
2403.709438769543
 21
6111.843552561879
 31
0.0
  0
LINE
  5
29F8B
330
1F
100
AcDbEntity
  8
D-STR
  6
DASHED1
100
AcDbLine
 10
2138.711440110641
 20
6163.342552301259
 30
0.0
 11
2038.711440616713
 21
6263.342951795184
 31
0.0
  0
CIRCLE
  5
29F8C
330
1F
100
AcDbEntity
  8
D-STR-STR2
  6
Continuous
100
AcDbCircle
 10
2338.70943909849
 20
6111.843552561879
 30
0.0
 40
34.99999782287525
  0
CIRCLE
  5
29F8D
330
1F
100
AcDbEntity
  8
D-STR-STR2
  6
Continuous
100
AcDbCircle
 10
2338.70943909849
 20
6111.843552561879
 30
0.0
 40
14.9999979240894
  0
LINE
  5
29F8E
330
1F
100
AcDbEntity
  8
D-BMK
  6
CENTER2
100
AcDbLine
 10
2338.70943909849
 20
6176.844152232932
 30
0.0
 11
2338.70943909849
 21
6046.843952890824
 31
0.0
  0
LINE
  5
29F8F
330
1F
100
AcDbEntity
  8
D-STR-STR2
  6
Continuous
100
AcDbLine
 10
3088.710435303001
 20
6563.343350276972
 30
0.0
 11
3138.71063504996
 21
6613.343150023938
 31
0.0
  0
CIRCLE
  5
29F90
330
1F
100
AcDbEntity
  8
D-STR-STR2
  6
Continuous
100
AcDbCircle
 10
2938.70923606207
 20
6111.843552561879
 30
0.0
 40
34.99999782287525
  0
CIRCLE
  5
29F91
330
1F
100
AcDbEntity
  8
D-STR-STR2
  6
Continuous
100
AcDbCircle
 10
2938.70923606207
 20
6111.843552561879
 30
0.0
 40
14.9999979240894
  0
LINE
  5
29F92
330
1F
100
AcDbEntity
  8
D-BMK
  6
CENTER2
100
AcDbLine
 10
2873.709236391016
 20
6111.843552561879
 30
0.0
 11
3003.709235733124
 21
6111.843552561879
 31
0.0
  0
LINE
  5
29F93
330
1F
100
AcDbEntity
  8
D-BMK
  6
CENTER2
100
AcDbLine
 10
2938.70923606207
 20
6176.844152232932
 30
0.0
 11
2938.70923606207
 21
6046.843952890824
 31
0.0
  0
LINE
  5
29F94
330
1F
100
AcDbEntity
  8
D-STR
  6
DASHED1
100
AcDbLine
 10
3238.710634543888
 20
6263.343951795179
 30
0.0
 11
3138.71063504996
 21
6163.343552301252
 31
0.0
  0
LINE
  5
29F95
330
1F
100
AcDbEntity
  8
D-BMK
  6
CENTER2
100
AcDbLine
 10
2518.709238187567
 20
7913.344143445012
 30
0.0
 11
2628.708237630919
 21
7913.344143445012
 31
0.0
  0
LINE
  5
29F96
330
1F
100
AcDbEntity
  8
D-STR
  6
Continuous
100
AcDbLine
 10
2676.209437390498
 20
7386.341746112016
 30
0.0
 11
2601.209237770058
 21
7386.341746112016
 31
0.0
  0
LINE
  5
29F97
330
1F
100
AcDbEntity
  8
D-BMK
  6
CENTER2
100
AcDbLine
 10
2518.709238187567
 20
7413.343945975366
 30
0.0
 11
2628.708237630919
 21
7413.343945975366
 31
0.0
  0
LINE
  5
29F98
330
1F
100
AcDbEntity
  8
D-STR
  6
Continuous
100
AcDbLine
 10
2676.209437390498
 20
7947.343343272951
 30
0.0
 11
2601.209237770058
 21
7947.343343272951
 31
0.0
  0
LINE
  5
29F99
330
1F
100
AcDbEntity
  8
D-STR-STR2
  6
Continuous
100
AcDbLine
 10
2188.709239857599
 20
7363.344146228403
 30
0.0
 11
3088.709435302957
 21
7363.344146228403
 31
0.0
  0
LINE
  5
29F9A
330
1F
100
AcDbEntity
  8
D-STR
  6
DASHED1
100
AcDbLine
 10
2138.70944011063
 20
8063.343342685909
 30
0.0
 11
3138.70923504993
 21
8063.343342685909
 31
0.0
  0
LINE
  5
29F9B
330
1F
100
AcDbEntity
  8
D-STR-HTXT
  6
Continuous
100
AcDbLine
 10
2538.742038086232
 20
7949.773143260657
 30
0.0
 11
2565.844237949085
 21
7919.51974341376
 31
0.0
  0
LINE
  5
29F9C
330
1F
100
AcDbEntity
  8
D-STR
  6
Continuous
100
AcDbLine
 10
2541.209438073697
 20
7938.343543318499
 30
0.0
 11
2541.209438073697
 21
7888.342943571536
 31
0.0
  0
LINE
  5
29F9D
330
1F
100
AcDbEntity
  8
D-STR
  6
Continuous
100
AcDbLine
 10
2601.209237770058
 20
7947.343343272951
 30
0.0
 11
2601.209237770058
 21
7386.341746112016
 31
0.0
  0
LINE
  5
29F9E
330
1F
100
AcDbEntity
  8
D-BMK
  6
CENTER2
100
AcDbLine
 10
2573.709237909228
 20
7968.344143166674
 30
0.0
 11
2573.709237909228
 21
7858.343143723357
 31
0.0
  0
LINE
  5
29F9F
330
1F
100
AcDbEntity
  8
D-STR-STR2
  6
Continuous
100
AcDbLine
 10
2498.709238288782
 20
7653.343944760796
 30
0.0
 11
2498.709238288782
 21
8053.343942736512
 31
0.0
  0
LINE
  5
29FA0
330
1F
100
AcDbEntity
  8
D-STR-STR2
  6
Continuous
100
AcDbLine
 10
2098.709240313063
 20
7653.343944760796
 30
0.0
 11
2098.709240313063
 21
8053.343942736512
 31
0.0
  0
TEXT
  5
29FA1
330
1F
100
AcDbEntity
  8
D-STR-HTXT
100
AcDbText
 10
2073.849240438903
 20
7428.343745899457
 30
0.0
 40
50.0
  1
Ｔ－Ｋタイプ
100
AcDbText
  0
TEXT
  5
29FA2
330
1F
100
AcDbEntity
  8
D-STR-HTXT
100
AcDbText
 10
2041.849240600801
 20
7524.34374541363
 30
0.0
 40
50.0
  1
　支持受金物
100
AcDbText
  0
TEXT
  5
29FA3
330
1F
100
AcDbEntity
  8
D-STR-HTXT
100
AcDbText
 10
2124.698902377048
 20
7793.343744052298
 30
0.0
 40
50.0
  1
400×400
100
AcDbText
  0
TEXT
  5
29FA4
330
1F
100
AcDbEntity
  8
D-STR-HTXT
100
AcDbText
 10
2125.540934324639
 20
7865.344143687927
 30
0.0
 40
50.0
  1
ノックアウト
100
AcDbText
  0
LINE
  5
29FA5
330
1F
100
AcDbEntity
  8
D-STR-HTXT
  6
Continuous
100
AcDbLine
 10
2064.709240485187
 20
7508.3441454946
 30
0.0
 11
2601.209237770058
 21
7508.3441454946
 31
0.0
  0
LINE
  5
29FA6
330
1F
100
AcDbEntity
  8
D-STR-STR2
  6
Continuous
100
AcDbLine
 10
2098.709240313063
 20
7653.343944760796
 30
0.0
 11
2498.709238288782
 21
7653.343944760796
 31
0.0
  0
LINE
  5
29FA7
330
1F
100
AcDbEntity
  8
D-STR-STR2
  6
Continuous
100
AcDbLine
 10
2188.710639857629
 20
7363.344146228403
 30
0.0
 11
2138.710440110674
 21
7313.34334648144
 31
0.0
  0
CIRCLE
  5
29FA8
330
1F
100
AcDbEntity
  8
D-STR-STR2
  6
Continuous
100
AcDbCircle
 10
1987.210440877356
 20
7763.343944204118
 30
0.0
 40
14.9999979240894
  0
LINE
  5
29FA9
330
1F
100
AcDbEntity
  8
D-BMK
  6
CENTER2
100
AcDbLine
 10
1987.210440877356
 20
7828.343543875175
 30
0.0
 11
1987.210440877356
 21
7698.343544533067
 31
0.0
  0
CIRCLE
  5
29FAA
330
1F
100
AcDbEntity
  8
D-STR-STR2
  6
Continuous
100
AcDbCircle
 10
2573.709237909228
 20
7413.343945975366
 30
0.0
 40
9.999997949392936
  0
LINE
  5
29FAB
330
1F
100
AcDbEntity
  8
D-STR-HTXT
  6
Continuous
100
AcDbLine
 10
2561.209037972494
 20
7515.396545458907
 30
0.0
 11
2601.209237770058
 21
7508.3441454946
 31
0.0
  0
LINE
  5
29FAC
330
1F
100
AcDbEntity
  8
D-STR
  6
Continuous
100
AcDbLine
 10
2541.209438073697
 20
7438.342345848858
 30
0.0
 11
2541.209438073697
 21
7388.342546101892
 31
0.0
  0
LINE
  5
29FAD
330
1F
100
AcDbEntity
  8
D-STR
  6
Continuous
100
AcDbLine
 10
2601.209237770058
 20
7438.342345848858
 30
0.0
 11
2541.209438073697
 21
7438.342345848858
 31
0.0
  0
LINE
  5
29FAE
330
1F
100
AcDbEntity
  8
D-STR
  6
Continuous
100
AcDbLine
 10
2601.209237770058
 20
7388.342546101892
 30
0.0
 11
2541.209438073697
 21
7388.342546101892
 31
0.0
  0
LINE
  5
29FAF
330
1F
100
AcDbEntity
  8
D-BMK
  6
CENTER2
100
AcDbLine
 10
2573.709237909228
 20
7468.343945697026
 30
0.0
 11
2573.709237909228
 21
7358.34294625371
 31
0.0
  0
CIRCLE
  5
29FB0
330
1F
100
AcDbEntity
  8
D-STR-STR2
  6
Continuous
100
AcDbCircle
 10
2573.709237909228
 20
7913.344143445012
 30
0.0
 40
9.999997949392936
  0
LINE
  5
29FB1
330
1F
100
AcDbEntity
  8
D-STR
  6
Continuous
100
AcDbLine
 10
2541.209438073697
 20
7888.342943571536
 30
0.0
 11
2601.209237770058
 21
7888.342943571536
 31
0.0
  0
LINE
  5
29FB2
330
1F
100
AcDbEntity
  8
D-STR-STR2
  6
Continuous
100
AcDbLine
 10
2098.709240313063
 20
8053.343942736512
 30
0.0
 11
2498.709238288782
 21
8053.343942736512
 31
0.0
  0
LINE
  5
29FB3
330
1F
100
AcDbEntity
  8
D-STR
  6
DASHED1
100
AcDbLine
 10
2038.711440616713
 20
7963.343943191977
 30
0.0
 11
2138.711440110641
 21
8063.343342685909
 31
0.0
  0
LINE
  5
29FB4
330
1F
100
AcDbEntity
  8
D-STR
  6
Continuous
100
AcDbLine
 10
2541.209438073697
 20
7938.343543318499
 30
0.0
 11
2601.209237770058
 21
7938.343543318499
 31
0.0
  0
LINE
  5
29FB5
330
1F
100
AcDbEntity
  8
D-STR
  6
Continuous
100
AcDbLine
 10
2676.209437390498
 20
7947.343343272951
 30
0.0
 11
2676.209437390498
 21
7386.341746112016
 31
0.0
  0
LINE
  5
29FB6
330
1F
100
AcDbEntity
  8
D-STR
  6
Continuous
100
AcDbLine
 10
2736.209237086863
 20
7938.343543318499
 30
0.0
 11
2736.209237086863
 21
7888.342943571536
 31
0.0
  0
LINE
  5
29FB7
330
1F
100
AcDbEntity
  8
D-BMK
  6
CENTER2
100
AcDbLine
 10
2703.709437251331
 20
7968.344143166674
 30
0.0
 11
2703.709437251331
 21
7858.343143723357
 31
0.0
  0
LINE
  5
29FB8
330
1F
100
AcDbEntity
  8
D-STR-STR2
  6
Continuous
100
AcDbLine
 10
3178.709434847493
 20
7653.343944760796
 30
0.0
 11
3178.709434847493
 21
8053.343942736512
 31
0.0
  0
LINE
  5
29FB9
330
1F
100
AcDbEntity
  8
D-STR-STR2
  6
Continuous
100
AcDbLine
 10
2778.709436871777
 20
7653.343944760796
 30
0.0
 11
2778.709436871777
 21
8053.343942736512
 31
0.0
  0
TEXT
  5
29FBA
330
1F
100
AcDbEntity
  8
D-STR-HTXT
100
AcDbText
 10
2804.698498935777
 20
7793.343744052298
 30
0.0
 40
50.0
  1
400×400
100
AcDbText
  0
TEXT
  5
29FBB
330
1F
100
AcDbEntity
  8
D-STR-HTXT
100
AcDbText
 10
2805.540730883364
 20
7865.344143687927
 30
0.0
 40
50.0
  1
ノックアウト
100
AcDbText
  0
LINE
  5
29FBC
330
1F
100
AcDbEntity
  8
D-STR-STR2
  6
Continuous
100
AcDbLine
 10
2778.709436871777
 20
7653.343944760796
 30
0.0
 11
3178.709434847493
 21
7653.343944760796
 31
0.0
  0
CIRCLE
  5
29FBD
330
1F
100
AcDbEntity
  8
D-STR-STR2
  6
Continuous
100
AcDbCircle
 10
2703.709437251331
 20
7413.343945975366
 30
0.0
 40
9.999997949392936
  0
LINE
  5
29FBE
330
1F
100
AcDbEntity
  8
D-STR
  6
Continuous
100
AcDbLine
 10
2736.209237086863
 20
7438.342345848858
 30
0.0
 11
2736.209237086863
 21
7388.342546101892
 31
0.0
  0
LINE
  5
29FBF
330
1F
100
AcDbEntity
  8
D-STR
  6
Continuous
100
AcDbLine
 10
2736.209237086863
 20
7388.342546101892
 30
0.0
 11
2676.209437390498
 21
7388.342546101892
 31
0.0
  0
LINE
  5
29FC0
330
1F
100
AcDbEntity
  8
D-STR
  6
Continuous
100
AcDbLine
 10
2736.209237086863
 20
7438.342345848858
 30
0.0
 11
2676.209437390498
 21
7438.342345848858
 31
0.0
  0
LINE
  5
29FC1
330
1F
100
AcDbEntity
  8
D-BMK
  6
CENTER2
100
AcDbLine
 10
2648.70943752967
 20
7413.343945975366
 30
0.0
 11
2758.707836973041
 21
7413.343945975366
 31
0.0
  0
LINE
  5
29FC2
330
1F
100
AcDbEntity
  8
D-BMK
  6
CENTER2
100
AcDbLine
 10
2703.709437251331
 20
7468.343945697026
 30
0.0
 11
2703.709437251331
 21
7358.34294625371
 31
0.0
  0
CIRCLE
  5
29FC3
330
1F
100
AcDbEntity
  8
D-STR-STR2
  6
Continuous
100
AcDbCircle
 10
2703.709437251331
 20
7913.344143445012
 30
0.0
 40
9.999997949392936
  0
LINE
  5
29FC4
330
1F
100
AcDbEntity
  8
D-STR
  6
Continuous
100
AcDbLine
 10
2736.209237086863
 20
7888.342943571536
 30
0.0
 11
2676.209437390498
 21
7888.342943571536
 31
0.0
  0
LINE
  5
29FC5
330
1F
100
AcDbEntity
  8
D-BMK
  6
CENTER2
100
AcDbLine
 10
2648.70943752967
 20
7913.344143445012
 30
0.0
 11
2758.707836973041
 21
7913.344143445012
 31
0.0
  0
LINE
  5
29FC6
330
1F
100
AcDbEntity
  8
D-STR-STR2
  6
Continuous
100
AcDbLine
 10
3138.71063504996
 20
7313.34334648144
 30
0.0
 11
3088.710435303001
 21
7363.344146228403
 31
0.0
  0
LINE
  5
29FC7
330
1F
100
AcDbEntity
  8
D-STR-STR2
  6
Continuous
100
AcDbLine
 10
2778.709436871777
 20
8053.343942736512
 30
0.0
 11
3178.709434847493
 21
8053.343942736512
 31
0.0
  0
LINE
  5
29FC8
330
1F
100
AcDbEntity
  8
D-STR
  6
Continuous
100
AcDbLine
 10
2736.209237086863
 20
7938.343543318499
 30
0.0
 11
2676.209437390498
 21
7938.343543318499
 31
0.0
  0
LINE
  5
29FC9
330
1F
100
AcDbEntity
  8
D-STR
  6
DASHED1
100
AcDbLine
 10
3138.711635049928
 20
8063.343342685909
 30
0.0
 11
3238.710634543888
 21
7963.342943191982
 31
0.0
  0
TEXT
  5
29FCA
330
1F
100
AcDbEntity
  8
D-STR-DIM
100
AcDbText
 10
1871.849441461188
 20
9279.343736532089
 30
0.0
 40
70.0
  1
280
100
AcDbText
  0
TEXT
  5
29FCB
330
1F
100
AcDbEntity
  8
D-STR-DIM
100
AcDbText
 10
1764.653442003637
 20
8979.344338050298
 30
0.0
 40
70.0
  1
168.5
100
AcDbText
  0
LINE
  5
29FCC
330
1F
100
AcDbEntity
  8
D-STR-DIM
  6
Continuous
100
AcDbLine
 10
2098.709240313063
 20
9263.343936613058
 30
0.0
 11
1958.709241021563
 21
9263.343936613058
 31
0.0
  0
LINE
  5
29FCD
330
1F
100
AcDbEntity
  8
D-STR-DIM
  6
Continuous
100
AcDbLine
 10
1818.709441730058
 20
8663.344139649483
 30
0.0
 11
2196.209039819652
 21
8663.344139649483
 31
0.0
  0
LINE
  5
29FCE
330
1F
100
AcDbEntity
  8
D-STR-DIM
  6
Continuous
100
AcDbLine
 10
1987.210440877356
 20
8963.343538131274
 30
0.0
 11
1902.959441303719
 21
8963.343538131274
 31
0.0
  0
TEXT
  5
29FD1
330
1F
100
AcDbEntity
  8
D-STR-HTXT
100
AcDbText
 10
834.9129913461874
 20
8679.343939568513
 30
0.0
 40
70.0
  1
　インサート　Ｍ16
100
AcDbText
  0
LINE
  5
29FD2
330
1F
100
AcDbEntity
  8
D-STR-HTXT
  6
Continuous
100
AcDbLine
 10
1618.709642742193
 20
8663.344139649483
 30
0.0
 11
919.4428094295727
 21
8663.344139649483
 31
0.0
  0
CIRCLE
  5
29FD7
330
1F
100
AcDbEntity
  8
D-STR-DIM
  6
Continuous
100
AcDbCircle
 10
1818.709441730058
 20
8663.344139649483
 30
0.0
 40
5.999997969635766
  0
CIRCLE
  5
29FD8
330
1F
100
AcDbEntity
  8
D-STR-DIM
  6
Continuous
100
AcDbCircle
 10
1818.709441730058
 20
9263.343936613058
 30
0.0
 40
5.999997969635766
  0
CIRCLE
  5
29FD9
330
1F
100
AcDbEntity
  8
D-STR-DIM
  6
Continuous
100
AcDbCircle
 10
1818.709441730058
 20
8963.343538131274
 30
0.0
 40
5.999997969635766
  0
LINE
  5
29FDA
330
1F
100
AcDbEntity
  8
D-STR-DIM
  6
Continuous
100
AcDbLine
 10
1818.709441730058
 20
9263.343936613058
 30
0.0
 11
1958.709241021563
 21
9263.343936613058
 31
0.0
  0
LINE
  5
29FDB
330
1F
100
AcDbEntity
  8
D-STR-DIM
  6
Continuous
100
AcDbLine
 10
1818.709441730058
 20
8963.343538131274
 30
0.0
 11
1902.959441303719
 21
8963.343538131274
 31
0.0
  0
TEXT
  5
29FDC
330
1F
100
AcDbEntity
  8
D-STR-DIM
100
AcDbText
 10
2551.849238019841
 20
9279.343736532089
 30
0.0
 40
70.0
  1
280
100
AcDbText
  0
TEXT
  5
29FDD
330
1F
100
AcDbEntity
  8
D-STR-DIM
100
AcDbText
 10
2551.849238019841
 20
8679.343939568513
 30
0.0
 40
70.0
  1
130
100
AcDbText
  0
TEXT
  5
29FDE
330
1F
100
AcDbEntity
  8
D-STR-DIM
100
AcDbText
 10
2519.849238181811
 20
8979.344338050298
 30
0.0
 40
70.0
  1
1303
100
AcDbText
  0
LINE
  5
29FE0
330
1F
100
AcDbEntity
  8
D-STR-DIM
  6
Continuous
100
AcDbLine
 10
2498.709238288782
 20
9263.343936613058
 30
0.0
 11
2638.709237580282
 21
9263.343936613058
 31
0.0
  0
LINE
  5
29FE1
330
1F
100
AcDbEntity
  8
D-STR-DIM
  6
Continuous
100
AcDbLine
 10
2573.709237909228
 20
8663.344139649483
 30
0.0
 11
2638.709237580282
 21
8663.344139649483
 31
0.0
  0
LINE
  5
29FE2
330
1F
100
AcDbEntity
  8
D-STR-DIM
  6
Continuous
100
AcDbLine
 10
1987.210440877356
 20
8963.343538131274
 30
0.0
 11
2638.709837580336
 21
8963.343538131274
 31
0.0
  0
TEXT
  5
29FE3
330
1F
100
AcDbEntity
  8
D-STR-DIM
100
AcDbText
 10
2211.849039740486
 20
9279.343736532089
 30
0.0
 40
70.0
  1
400
100
AcDbText
  0
LINE
  5
29FE4
330
1F
100
AcDbEntity
  8
D-STR-DIM
  6
Continuous
100
AcDbLine
 10
2098.709240313063
 20
9263.343936613058
 30
0.0
 11
2298.709239300922
 21
9263.343936613058
 31
0.0
  0
LINE
  5
29FE5
330
1F
100
AcDbEntity
  8
D-STR-DIM
  6
Continuous
100
AcDbLine
 10
2573.709237909228
 20
8663.344139649483
 30
0.0
 11
2196.209039819652
 21
8663.344139649483
 31
0.0
  0
LINE
  5
29FE6
330
1F
100
AcDbEntity
  8
D-STR-DIM
  6
Continuous
100
AcDbLine
 10
1987.210440877356
 20
8691.045739155045
 30
0.0
 11
1987.210440877356
 21
8993.344337979449
 31
0.0
  0
TEXT
  5
29FE7
330
1F
100
AcDbEntity
  8
D-STR-DIM
100
AcDbText
 10
2109.34944025927
 20
8679.343939568513
 30
0.0
 40
70.0
  1
755
100
AcDbText
  0
LINE
  5
29FE8
330
1F
100
AcDbEntity
  8
D-STR-DIM
  6
Continuous
100
AcDbLine
 10
2098.709240313063
 20
8933.343938283092
 30
0.0
 11
2098.709240313063
 21
8791.045339003224
 31
0.0
  0
CIRCLE
  5
29FE9
330
1F
100
AcDbEntity
  8
D-STR-DIM
  6
Continuous
100
AcDbCircle
 10
2098.709240313063
 20
9263.343936613058
 30
0.0
 40
5.999997969635766
  0
CIRCLE
  5
29FEA
330
1F
100
AcDbEntity
  8
D-STR-DIM
  6
Continuous
100
AcDbCircle
 10
1987.210440877356
 20
8963.343538131274
 30
0.0
 40
5.999997969635766
  0
LINE
  5
29FEB
330
1F
100
AcDbEntity
  8
D-STR-DIM
  6
Continuous
100
AcDbLine
 10
2098.709240313063
 20
8985.211537666355
 30
0.0
 11
2098.709240313063
 21
9293.343736461238
 31
0.0
  0
CIRCLE
  5
29FEC
330
1F
100
AcDbEntity
  8
D-STR-DIM
  6
Continuous
100
AcDbCircle
 10
2573.709237909228
 20
8663.344139649483
 30
0.0
 40
5.999997969635766
  0
LINE
  5
29FED
330
1F
100
AcDbEntity
  8
D-STR-DIM
  6
Continuous
100
AcDbLine
 10
2498.709238288782
 20
8933.343938283092
 30
0.0
 11
2498.709238288782
 21
8701.045339003224
 31
0.0
  0
LINE
  5
29FEE
330
1F
100
AcDbEntity
  8
D-STR-DIM
  6
Continuous
100
AcDbLine
 10
2498.709238288782
 20
9263.343936613058
 30
0.0
 11
2298.709239300922
 21
9263.343936613058
 31
0.0
  0
CIRCLE
  5
29FEF
330
1F
100
AcDbEntity
  8
D-STR-DIM
  6
Continuous
100
AcDbCircle
 10
2498.709238288782
 20
9263.343936613058
 30
0.0
 40
5.999997969635766
  0
LINE
  5
29FF0
330
1F
100
AcDbEntity
  8
D-STR-DIM
  6
Continuous
100
AcDbLine
 10
2498.709238288782
 20
9055.211537666355
 30
0.0
 11
2498.709238288782
 21
9293.343736461238
 31
0.0
  0
TEXT
  5
29FF1
330
1F
100
AcDbEntity
  8
D-STR-DIM
100
AcDbText
 10
2891.8492362992
 20
9279.343736532089
 30
0.0
 40
70.0
  1
400
100
AcDbText
  0
LINE
  5
29FF2
330
1F
100
AcDbEntity
  8
D-STR-DIM
  6
Continuous
100
AcDbLine
 10
2778.709436871777
 20
9263.343936613058
 30
0.0
 11
2978.709435859637
 21
9263.343936613058
 31
0.0
  0
LINE
  5
29FF3
330
1F
100
AcDbEntity
  8
D-STR-DIM
  6
Continuous
100
AcDbLine
 10
2703.709437251331
 20
8663.344139649483
 30
0.0
 11
3081.209435340912
 21
8663.344139649483
 31
0.0
  0
CIRCLE
  5
29FF4
330
1F
100
AcDbEntity
  8
D-STR-DIM
  6
Continuous
100
AcDbCircle
 10
2703.709437251331
 20
8663.344139649483
 30
0.0
 40
5.999997969635766
  0
LINE
  5
29FF5
330
1F
100
AcDbEntity
  8
D-STR-DIM
  6
Continuous
100
AcDbLine
 10
2703.709437251331
 20
8663.344139649483
 30
0.0
 11
2638.709237580282
 21
8663.344139649483
 31
0.0
  0
LINE
  5
29FF6
330
1F
100
AcDbEntity
  8
D-STR-DIM
  6
Continuous
100
AcDbLine
 10
2778.709436871777
 20
8933.343938283092
 30
0.0
 11
2778.709436871777
 21
8701.045339003224
 31
0.0
  0
CIRCLE
  5
29FF7
330
1F
100
AcDbEntity
  8
D-STR-DIM
  6
Continuous
100
AcDbCircle
 10
2778.709436871777
 20
9263.343936613058
 30
0.0
 40
5.999997969635766
  0
LINE
  5
29FF8
330
1F
100
AcDbEntity
  8
D-STR-DIM
  6
Continuous
100
AcDbLine
 10
2778.709436871777
 20
9263.343936613058
 30
0.0
 11
2638.709237580282
 21
9263.343936613058
 31
0.0
  0
LINE
  5
29FF9
330
1F
100
AcDbEntity
  8
D-STR-DIM
  6
Continuous
100
AcDbLine
 10
2778.709436871777
 20
9055.211537666355
 30
0.0
 11
2778.709436871777
 21
9293.343736461238
 31
0.0
  0
TEXT
  5
29FFA
330
1F
100
AcDbEntity
  8
D-STR-DIM
100
AcDbText
 10
2994.349435780543
 20
8679.343939568513
 30
0.0
 40
70.0
  1
755
100
AcDbText
  0
LINE
  5
29FFB
330
1F
100
AcDbEntity
  8
D-STR-DIM
  6
Continuous
100
AcDbLine
 10
3178.709434847493
 20
8933.343938283092
 30
0.0
 11
3178.709434847493
 21
8791.045339003224
 31
0.0
  0
LINE
  5
29FFC
330
1F
100
AcDbEntity
  8
D-STR-DIM
  6
Continuous
100
AcDbLine
 10
3178.709434847493
 20
9263.343936613058
 30
0.0
 11
2978.709435859637
 21
9263.343936613058
 31
0.0
  0
CIRCLE
  5
29FFD
330
1F
100
AcDbEntity
  8
D-STR-DIM
  6
Continuous
100
AcDbCircle
 10
3178.709434847493
 20
9263.343936613058
 30
0.0
 40
5.999997969635766
  0
LINE
  5
29FFE
330
1F
100
AcDbEntity
  8
D-STR-DIM
  6
Continuous
100
AcDbLine
 10
3178.709434847493
 20
8985.211537666355
 30
0.0
 11
3178.709434847493
 21
9293.343736461238
 31
0.0
  0
LINE
  5
2A000
330
1F
100
AcDbEntity
  8
D-STR-DIM
  6
Continuous
100
AcDbLine
 10
6961.573552006631
 20
8283.344341673766
 30
0.0
 11
6961.573552006631
 21
9293.343736461238
 31
0.0
  0
LINE
  5
2A001
330
1F
100
AcDbEntity
  8
D-STR-DIM
  6
Continuous
100
AcDbLine
 10
7716.573448185838
 20
8283.344341673766
 30
0.0
 11
7716.573448185839
 21
8421.662187176815
 31
0.0
  0
LINE
  5
2A002
330
1F
100
AcDbEntity
  8
D-STR-DIM
  6
Continuous
100
AcDbLine
 10
7846.573487527887
 20
8283.344341673766
 30
0.0
 11
7846.573487527888
 21
8421.662187176815
 31
0.0
  0
LINE
  5
2A003
330
1F
100
AcDbEntity
  8
D-STR-DIM
  6
Continuous
100
AcDbLine
 10
3458.709233430502
 20
8283.344341673766
 30
0.0
 11
3458.709233430502
 21
9293.343736461238
 31
0.0
  0
LINE
  5
2A006
330
1F
100
AcDbEntity
  8
D-STR-DIM
  6
Continuous
100
AcDbLine
 10
7130.074551153928
 20
8633.343539801307
 30
0.0
 11
7130.074551153929
 21
8542.281077240387
 31
0.0
  0
LINE
  5
2A007
330
1F
100
AcDbEntity
  8
D-STR-DIM
  6
Continuous
100
AcDbLine
 10
8321.573465124115
 20
8633.343539801307
 30
0.0
 11
8321.573465124115
 21
8542.281077240387
 31
0.0
  0
LINE
  5
2A008
330
1F
100
AcDbEntity
  8
D-STR-DIM
  6
Continuous
100
AcDbLine
 10
7441.573529577486
 20
8633.343539801307
 30
0.0
 11
7441.573529577486
 21
8542.281077240387
 31
0.0
  0
LINE
  5
2A009
330
1F
100
AcDbEntity
  8
D-STR-DIM
  6
Continuous
100
AcDbLine
 10
7641.573468565396
 20
8633.343539801307
 30
0.0
 11
7641.573468565394
 21
8542.281077240387
 31
0.0
  0
LINE
  5
2A00A
330
1F
100
AcDbEntity
  8
D-STR-DIM
  6
Continuous
100
AcDbLine
 10
7241.573470589679
 20
8633.343539801307
 30
0.0
 11
7241.573470589678
 21
8542.281077240387
 31
0.0
  0
LINE
  5
2A00B
330
1F
100
AcDbEntity
  8
D-STR-DIM
  6
Continuous
100
AcDbLine
 10
7921.573467148398
 20
8633.343539801307
 30
0.0
 11
7921.573467148398
 21
8542.281077240387
 31
0.0
  0
LINE
  5
2A00C
330
1F
100
AcDbEntity
  8
D-STR-DIM
  6
Continuous
100
AcDbLine
 10
8433.073664559783
 20
8633.343539801307
 30
0.0
 11
8433.073664559783
 21
8542.281077240387
 31
0.0
  0
LINE
  5
2A00D
330
1F
100
AcDbEntity
  8
D-STR-HTXT
  6
Continuous
100
AcDbLine
 10
6761.572453018769
 20
8663.344139649483
 30
0.0
 11
7710.797648215019
 21
7321.507746440123
 31
0.0
  0
LINE
  5
2A00E
330
1F
100
AcDbEntity
  8
D-STR-DIM
  6
Continuous
100
AcDbLine
 10
3290.209634283234
 20
8633.343539801307
 30
0.0
 11
3290.209634283234
 21
8542.281077240387
 31
0.0
  0
CIRCLE
  5
2A00F
330
1F
100
AcDbEntity
  8
D-STR-DIM
  6
Continuous
100
AcDbCircle
 10
5908.710421031806
 20
6163.343552301252
 30
0.0
 40
5.999997969635766
  0
CIRCLE
  5
2A010
330
1F
100
AcDbEntity
  8
D-STR-DIM
  6
Continuous
100
AcDbCircle
 10
5908.710421031806
 20
5963.343553313394
 30
0.0
 40
5.999997969635766
  0
CIRCLE
  5
2A011
330
1F
100
AcDbEntity
  8
D-STR-DIM
  6
Continuous
100
AcDbCircle
 10
5908.710421031806
 20
8063.343342685909
 30
0.0
 40
5.999997969635766
  0
CIRCLE
  5
2A012
330
1F
100
AcDbEntity
  8
D-STR-DIM
  6
Continuous
100
AcDbCircle
 10
5908.710421031806
 20
8263.344341673764
 30
0.0
 40
5.999997969635766
  0
LINE
  5
2A013
330
1F
100
AcDbEntity
  8
D-STR-DIM
  6
Continuous
100
AcDbLine
 10
5178.710224827344
 20
6163.343552301252
 30
0.0
 11
5938.710420879982
 21
6163.343552301252
 31
0.0
  0
LINE
  5
2A014
330
1F
100
AcDbEntity
  8
D-STR-DIM
  6
Continuous
100
AcDbLine
 10
5178.710224827344
 20
5963.343553313394
 30
0.0
 11
5938.710420879982
 21
5963.343553313394
 31
0.0
  0
LINE
  5
2A015
330
1F
100
AcDbEntity
  8
D-STR-DIM
  6
Continuous
100
AcDbLine
 10
5178.710224827344
 20
8063.343342685909
 30
0.0
 11
5938.710420879982
 21
8063.343342685909
 31
0.0
  0
LINE
  5
2A016
330
1F
100
AcDbEntity
  8
D-STR-DIM
  6
Continuous
100
AcDbLine
 10
5178.710224827344
 20
8263.344341673764
 30
0.0
 11
5938.710420879982
 21
8263.344341673764
 31
0.0
  0
LINE
  5
2A018
330
1F
100
AcDbEntity
  8
D-STR-DIM
  6
Continuous
100
AcDbLine
 10
4858.710626345542
 20
5943.343553313394
 30
0.0
 11
4858.710626345542
 21
5533.344155489496
 31
0.0
  0
LINE
  5
2A019
330
1F
100
AcDbEntity
  8
D-STR-DIM
  6
Continuous
100
AcDbLine
 10
4708.710427104655
 20
5943.343553313394
 30
0.0
 11
4708.710427104655
 21
5533.344155489496
 31
0.0
  0
LINE
  5
2A01A
330
1F
100
AcDbEntity
  8
D-STR-DIM
  6
Continuous
100
AcDbLine
 10
3458.709233430502
 20
5943.343553313394
 30
0.0
 11
3458.709233430502
 21
4933.34435852592
 31
0.0
  0
CIRCLE
  5
2A01B
330
1F
100
AcDbEntity
  8
D-STR-DIM
  6
Continuous
100
AcDbCircle
 10
3458.709233430502
 20
4963.3439583741
 30
0.0
 40
5.999997969635766
  0
LINE
  5
2A01C
330
1F
100
AcDbEntity
  8
D-STR-DIM
  6
Continuous
100
AcDbLine
 10
3458.709233430502
 20
5263.344356855886
 30
0.0
 11
3298.709434240209
 21
5263.344356855886
 31
0.0
  0
CIRCLE
  5
2A01D
330
1F
100
AcDbEntity
  8
D-STR-DIM
  6
Continuous
100
AcDbCircle
 10
3458.709233430502
 20
5263.344356855886
 30
0.0
 40
5.999997969635766
  0
CIRCLE
  5
2A01E
330
1F
100
AcDbEntity
  8
D-STR-DIM
  6
Continuous
100
AcDbCircle
 10
3458.709233430502
 20
5563.343755337676
 30
0.0
 40
5.999997969635766
  0
TEXT
  5
2A01F
330
1F
100
AcDbEntity
  8
D-STR-DIM
100
AcDbText
 10
4666.364158726705
 20
5579.344355256701
 30
0.0
 40
70.0
  1
150
100
AcDbText
  0
LINE
  5
2A020
330
1F
100
AcDbEntity
  8
D-STR-DIM
  6
Continuous
100
AcDbLine
 10
4708.710427104655
 20
5563.343755337676
 30
0.0
 11
4783.710626725093
 21
5563.343755337676
 31
0.0
  0
CIRCLE
  5
2A021
330
1F
100
AcDbEntity
  8
D-STR-DIM
  6
Continuous
100
AcDbCircle
 10
4708.710427104655
 20
5563.343755337676
 30
0.0
 40
5.999997969635766
  0
CIRCLE
  5
2A022
330
1F
100
AcDbEntity
  8
D-STR-DIM
  6
Continuous
100
AcDbCircle
 10
4858.710626345542
 20
5563.343755337676
 30
0.0
 40
5.999997969635766
  0
LINE
  5
2A023
330
1F
100
AcDbEntity
  8
D-STR-DIM
  6
Continuous
100
AcDbLine
 10
4858.710626345542
 20
5563.343755337676
 30
0.0
 11
4783.710626725093
 21
5563.343755337676
 31
0.0
  0
LINE
  5
2A024
330
1F
100
AcDbEntity
  8
D-STR-DIM
  6
Continuous
100
AcDbLine
 10
4688.710427104655
 20
7808.343543976389
 30
0.0
 11
4378.710428774687
 21
7808.343543976389
 31
0.0
  0
LINE
  5
2A025
330
1F
100
AcDbEntity
  8
D-STR-DIM
  6
Continuous
100
AcDbLine
 10
4688.710427104655
 20
7718.343544431853
 30
0.0
 11
4378.710428774687
 21
7718.343544431853
 31
0.0
  0
LINE
  5
2A026
330
1F
100
AcDbEntity
  8
D-STR-DIM
  6
Continuous
100
AcDbLine
 10
4738.710226851624
 20
7798.343944026993
 30
0.0
 11
4528.710628015574
 21
7798.343944026993
 31
0.0
  0
LINE
  5
2A027
330
1F
100
AcDbEntity
  8
D-STR-DIM
  6
Continuous
100
AcDbLine
 10
4738.710226851624
 20
7728.344144381243
 30
0.0
 11
4528.710628015574
 21
7728.344144381243
 31
0.0
  0
LINE
  5
2A028
330
1F
100
AcDbEntity
  8
D-STR-DIM
  6
Continuous
100
AcDbLine
 10
3488.709233278682
 20
5963.343553313394
 30
0.0
 11
4678.710427256475
 21
5963.343553313394
 31
0.0
  0
LINE
  5
2A029
330
1F
100
AcDbEntity
  8
D-STR-DIM
  6
Continuous
100
AcDbLine
 10
3488.709233278682
 20
8263.344341673764
 30
0.0
 11
4678.710427256475
 21
8263.344341673764
 31
0.0
  0
LINE
  5
2A02A
330
1F
100
AcDbEntity
  8
D-STR-DIM
  6
Continuous
100
AcDbLine
 10
3858.709031406226
 20
7363.344146228403
 30
0.0
 11
3858.709031406226
 21
6963.344348252684
 31
0.0
  0
LINE
  5
2A02B
330
1F
100
AcDbEntity
  8
D-STR-DIM
  6
Continuous
100
AcDbLine
 10
4158.709429888
 20
8263.344341673764
 30
0.0
 11
4158.709429888
 21
7113.343547493581
 31
0.0
  0
LINE
  5
2A02C
330
1F
100
AcDbEntity
  8
D-STR
  6
Continuous
100
AcDbLine
 10
3458.709233430502
 20
5963.343553313394
 30
0.0
 11
3458.709233430502
 21
8263.344341673764
 31
0.0
  0
LINE
  5
2A02D
330
1F
100
AcDbEntity
  8
D-STR-DIM
  6
Continuous
100
AcDbLine
 10
3858.709031406226
 20
6563.344350276967
 30
0.0
 11
3858.709031406226
 21
6963.344348252684
 31
0.0
  0
LINE
  5
2A02E
330
1F
100
AcDbEntity
  8
D-STR-DIM
  6
Continuous
100
AcDbLine
 10
3478.709233430502
 20
6563.344350276967
 30
0.0
 11
3888.709231254398
 21
6563.344350276967
 31
0.0
  0
TEXT
  5
2A02F
330
1F
100
AcDbEntity
  8
D-STR-DIM
100
AcDbText
 10
3842.709431487197
 20
6176.484352234751
 30
0.0
 40
70.0
  1
600
 50
90.0
100
AcDbText
  0
LINE
  5
2A030
330
1F
100
AcDbEntity
  8
D-STR-DIM
  6
Continuous
100
AcDbLine
 10
3858.709031406226
 20
5963.343553313394
 30
0.0
 11
3858.709031406226
 21
6263.343951795179
 31
0.0
  0
CIRCLE
  5
2A031
330
1F
100
AcDbEntity
  8
D-STR-DIM
  6
Continuous
100
AcDbCircle
 10
3858.709031406226
 20
5963.343553313394
 30
0.0
 40
5.999997969635766
  0
CIRCLE
  5
2A032
330
1F
100
AcDbEntity
  8
D-STR-DIM
  6
Continuous
100
AcDbCircle
 10
3858.709031406226
 20
6563.344350276967
 30
0.0
 40
5.999997969635766
  0
LINE
  5
2A033
330
1F
100
AcDbEntity
  8
D-STR-DIM
  6
Continuous
100
AcDbLine
 10
3858.709031406226
 20
6563.344350276967
 30
0.0
 11
3858.709031406226
 21
6263.343951795179
 31
0.0
  0
TEXT
  5
2A034
330
1F
100
AcDbEntity
  8
D-STR-DIM
100
AcDbText
 10
3842.709431487197
 20
6876.48374869226
 30
0.0
 40
70.0
  1
800
 50
90.0
100
AcDbText
  0
LINE
  5
2A035
330
1F
100
AcDbEntity
  8
D-STR-DIM
  6
Continuous
100
AcDbLine
 10
4158.709429888
 20
5963.343553313394
 30
0.0
 11
4158.709429888
 21
7113.343547493581
 31
0.0
  0
CIRCLE
  5
2A036
330
1F
100
AcDbEntity
  8
D-STR-DIM
  6
Continuous
100
AcDbCircle
 10
4158.709429888
 20
5963.343553313394
 30
0.0
 40
5.999997969635766
  0
TEXT
  5
2A037
330
1F
100
AcDbEntity
  8
D-STR-DIM
100
AcDbText
 10
4142.709229968994
 20
6994.483548095097
 30
0.0
 40
70.0
  1
2300
 50
90.0
100
AcDbText
  0
LINE
  5
2A038
330
1F
100
AcDbEntity
  8
D-STR-DIM
  6
Continuous
100
AcDbLine
 10
3858.709031406226
 20
8053.343942736512
 30
0.0
 11
3858.709031406226
 21
7853.343943748654
 31
0.0
  0
LINE
  5
2A039
330
1F
100
AcDbEntity
  8
D-STR-DIM
  6
Continuous
100
AcDbLine
 10
3478.709233430502
 20
7363.344146228403
 30
0.0
 11
3888.709231254398
 21
7363.344146228403
 31
0.0
  0
LINE
  5
2A03A
330
1F
100
AcDbEntity
  8
D-STR-DIM
  6
Continuous
100
AcDbLine
 10
3478.709233430502
 20
7653.343944760796
 30
0.0
 11
3888.709231254398
 21
7653.343944760796
 31
0.0
  0
LINE
  5
2A03B
330
1F
100
AcDbEntity
  8
D-BMK
  6
CENTER2
100
AcDbLine
 10
3290.209634283234
 20
7828.343543875175
 30
0.0
 11
3290.209634283234
 21
7698.343544533067
 31
0.0
  0
LINE
  5
2A03C
330
1F
100
AcDbEntity
  8
D-STR-DIM
  6
Continuous
100
AcDbLine
 10
3858.709031406226
 20
7653.343944760796
 30
0.0
 11
3858.709031406226
 21
7508.3441454946
 31
0.0
  0
TEXT
  5
2A03D
330
1F
100
AcDbEntity
  8
D-STR-DIM
100
AcDbText
 10
3842.709431487197
 20
7421.483545934172
 30
0.0
 40
70.0
  1
290
 50
90.0
100
AcDbText
  0
CIRCLE
  5
2A03E
330
1F
100
AcDbEntity
  8
D-STR-DIM
  6
Continuous
100
AcDbCircle
 10
3858.709031406226
 20
7363.344146228403
 30
0.0
 40
5.999997969635766
  0
LINE
  5
2A03F
330
1F
100
AcDbEntity
  8
D-STR-DIM
  6
Continuous
100
AcDbLine
 10
3858.709031406226
 20
7363.344146228403
 30
0.0
 11
3858.709031406226
 21
7508.3441454946
 31
0.0
  0
TEXT
  5
2A040
330
1F
100
AcDbEntity
  8
D-STR-DIM
100
AcDbText
 10
3842.709431487197
 20
7766.484344188225
 30
0.0
 40
70.0
  1
400
 50
90.0
100
AcDbText
  0
CIRCLE
  5
2A041
330
1F
100
AcDbEntity
  8
D-STR-DIM
  6
Continuous
100
AcDbCircle
 10
3858.709031406226
 20
7653.343944760796
 30
0.0
 40
5.999997969635766
  0
LINE
  5
2A042
330
1F
100
AcDbEntity
  8
D-STR-DIM
  6
Continuous
100
AcDbLine
 10
3858.709031406226
 20
7653.343944760796
 30
0.0
 11
3858.709031406226
 21
7853.343943748654
 31
0.0
  0
LINE
  5
2A043
330
1F
100
AcDbEntity
  8
D-STR-DIM
  6
Continuous
100
AcDbLine
 10
3478.709233430502
 20
8053.343942736512
 30
0.0
 11
3888.709231254398
 21
8053.343942736512
 31
0.0
  0
TEXT
  5
2A044
330
1F
100
AcDbEntity
  8
D-STR-DIM
100
AcDbText
 10
3842.709431487197
 20
8071.483942644713
 30
0.0
 40
70.0
  1
210
 50
90.0
100
AcDbText
  0
CIRCLE
  5
2A045
330
1F
100
AcDbEntity
  8
D-STR-DIM
  6
Continuous
100
AcDbCircle
 10
3858.709031406226
 20
8053.343942736512
 30
0.0
 40
5.999997969635766
  0
CIRCLE
  5
2A046
330
1F
100
AcDbEntity
  8
D-STR-DIM
  6
Continuous
100
AcDbCircle
 10
3858.709031406226
 20
8263.344341673764
 30
0.0
 40
5.999997969635766
  0
LINE
  5
2A047
330
1F
100
AcDbEntity
  8
D-STR-DIM
  6
Continuous
100
AcDbLine
 10
3858.709031406226
 20
8053.343942736512
 30
0.0
 11
3858.709031406226
 21
8158.343542205143
 31
0.0
  0
LINE
  5
2A048
330
1F
100
AcDbEntity
  8
D-STR-DIM
  6
Continuous
100
AcDbLine
 10
3858.709031406226
 20
8263.344341673764
 30
0.0
 11
3858.709031406226
 21
8158.343542205143
 31
0.0
  0
TEXT
  5
2A049
330
1F
100
AcDbEntity
  8
D-STR-DIM
100
AcDbText
 10
4396.710228683558
 20
7674.575944653347
 30
0.0
 40
50.0
  1
φ90
 50
90.0
100
AcDbText
  0
CIRCLE
  5
2A04A
330
1F
100
AcDbEntity
  8
D-STR-DIM
  6
Continuous
100
AcDbCircle
 10
4408.710628622858
 20
7808.343543976389
 30
0.0
 40
5.999997969635766
  0
CIRCLE
  5
2A04B
330
1F
100
AcDbEntity
  8
D-STR-DIM
  6
Continuous
100
AcDbCircle
 10
4408.710628622858
 20
7718.343544431853
 30
0.0
 40
5.999997969635766
  0
LINE
  5
2A04C
330
1F
100
AcDbEntity
  8
D-STR-DIM
  6
Continuous
100
AcDbLine
 10
4408.710628622858
 20
7808.343543976389
 30
0.0
 11
4408.710628622858
 21
7763.343944204118
 31
0.0
  0
LINE
  5
2A04D
330
1F
100
AcDbEntity
  8
D-STR-DIM
  6
Continuous
100
AcDbLine
 10
4408.710628622858
 20
7718.343544431853
 30
0.0
 11
4408.710628622858
 21
7763.343944204118
 31
0.0
  0
TEXT
  5
2A04E
330
1F
100
AcDbEntity
  8
D-STR-DIM
100
AcDbText
 10
4546.710427924445
 20
7674.575944653347
 30
0.0
 40
50.0
  1
φ70
 50
90.0
100
AcDbText
  0
CIRCLE
  5
2A04F
330
1F
100
AcDbEntity
  8
D-STR-DIM
  6
Continuous
100
AcDbCircle
 10
4558.710227863769
 20
7798.343944026993
 30
0.0
 40
5.999997969635766
  0
CIRCLE
  5
2A050
330
1F
100
AcDbEntity
  8
D-STR-DIM
  6
Continuous
100
AcDbCircle
 10
4558.710227863769
 20
7728.344144381243
 30
0.0
 40
5.999997969635766
  0
LINE
  5
2A051
330
1F
100
AcDbEntity
  8
D-STR-DIM
  6
Continuous
100
AcDbLine
 10
4558.710227863769
 20
7798.343944026993
 30
0.0
 11
4558.710227863769
 21
7763.343944204118
 31
0.0
  0
LINE
  5
2A052
330
1F
100
AcDbEntity
  8
D-STR-DIM
  6
Continuous
100
AcDbLine
 10
4558.710227863769
 20
7728.344144381243
 30
0.0
 11
4558.710227863769
 21
7763.343944204118
 31
0.0
  0
CIRCLE
  5
2A053
330
1F
100
AcDbEntity
  8
D-STR-DIM
  6
Continuous
100
AcDbCircle
 10
4158.709429888
 20
8263.344341673764
 30
0.0
 40
5.999997969635766
  0
LINE
  5
2A054
330
1F
100
AcDbEntity
  8
D-STR-DIM
  6
Continuous
100
AcDbLine
 10
5658.710422296983
 20
7363.344146228403
 30
0.0
 11
5658.710422296983
 21
6963.344348252684
 31
0.0
  0
LINE
  5
2A055
330
1F
100
AcDbEntity
  8
D-DCR-HCH
  6
Continuous
100
AcDbLine
 10
4708.710427104655
 20
7185.107147130408
 30
0.0
 11
4858.710626345542
 21
7335.107346371301
 31
0.0
  0
LINE
  5
2A056
330
1F
100
AcDbEntity
  8
D-STR
  6
Continuous
100
AcDbLine
 10
4708.710427104655
 20
5963.343553313394
 30
0.0
 11
4708.710427104655
 21
8263.344341673764
 31
0.0
  0
LINE
  5
2A057
330
1F
100
AcDbEntity
  8
D-STR
  6
Continuous
100
AcDbLine
 10
4858.710626345542
 20
5963.343553313394
 30
0.0
 11
4858.710626345542
 21
8263.344341673764
 31
0.0
  0
LINE
  5
2A058
330
1F
100
AcDbEntity
  8
D-STR-DIM
  6
Continuous
100
AcDbLine
 10
4878.710626345543
 20
6563.344350276967
 30
0.0
 11
5688.710222145168
 21
6563.344350276967
 31
0.0
  0
LINE
  5
2A059
330
1F
100
AcDbEntity
  8
D-DCR-HCH
  6
Continuous
100
AcDbLine
 10
4715.565827069946
 20
6563.344350276967
 30
0.0
 11
4858.710626345542
 21
6706.488349552556
 31
0.0
  0
LINE
  5
2A05A
330
1F
100
AcDbEntity
  8
D-DCR-HCH
  6
Continuous
100
AcDbLine
 10
4805.368426615449
 20
6563.344350276967
 30
0.0
 11
4858.710626345542
 21
6616.686550007016
 31
0.0
  0
LINE
  5
2A05B
330
1F
100
AcDbEntity
  8
D-STR
  6
Continuous
100
AcDbLine
 10
4708.710427104655
 20
5963.343553313394
 30
0.0
 11
5158.710224827344
 21
5963.343553313394
 31
0.0
  0
LINE
  5
2A05C
330
1F
100
AcDbEntity
  8
D-DCR-HCH
  6
Continuous
100
AcDbLine
 10
4858.710626345542
 20
6009.302353080812
 30
0.0
 11
4947.645825895444
 21
6163.343552301252
 31
0.0
  0
LINE
  5
2A05D
330
1F
100
AcDbEntity
  8
D-DCR-HCH
  6
Continuous
100
AcDbLine
 10
4858.710626345542
 20
6049.302552878381
 30
0.0
 11
4924.552426012317
 21
6163.343552301252
 31
0.0
  0
LINE
  5
2A05E
330
1F
100
AcDbEntity
  8
D-STR
  6
Continuous
100
AcDbLine
 10
4858.710626345542
 20
6083.344152706107
 30
0.0
 11
4938.710625940686
 21
6083.344152706107
 31
0.0
  0
LINE
  5
2A05F
330
1F
100
AcDbEntity
  8
D-STR
  6
Continuous
100
AcDbLine
 10
4858.710626345542
 20
6163.343552301252
 30
0.0
 11
5158.710224827344
 21
6163.343552301252
 31
0.0
  0
LINE
  5
2A060
330
1F
100
AcDbEntity
  8
D-STR-STR2
  6
Continuous
100
AcDbLine
 10
4758.711626851582
 20
6146.843552384754
 30
0.0
 11
4708.710427104655
 21
6156.843952334146
 31
0.0
  0
LINE
  5
2A061
330
1F
100
AcDbEntity
  8
D-STR-STR2
  6
Continuous
100
AcDbLine
 10
4708.709427104611
 20
6066.84415278961
 30
0.0
 11
4758.709226851585
 21
6076.844552738998
 31
0.0
  0
LINE
  5
2A062
330
1F
100
AcDbEntity
  8
D-STR-STR2
  6
Continuous
100
AcDbLine
 10
4858.710626345542
 20
6126.84335248597
 30
0.0
 11
4758.710226851625
 21
6121.843152511274
 31
0.0
  0
LINE
  5
2A063
330
1F
100
AcDbEntity
  8
D-STR-STR2
  6
Continuous
100
AcDbLine
 10
4758.710226851625
 20
6101.843952612485
 30
0.0
 11
4858.710626345542
 21
6096.84375263779
 31
0.0
  0
LINE
  5
2A064
330
1F
100
AcDbEntity
  8
D-STR-STR2
  6
Continuous
100
AcDbLine
 10
4758.710226851625
 20
6076.843552739003
 30
0.0
 11
4758.710226851625
 21
6146.843552384754
 31
0.0
  0
LINE
  5
2A065
330
1F
100
AcDbEntity
  8
D-STR
  6
DASHED1
100
AcDbLine
 10
4708.710427104655
 20
6563.344350276967
 30
0.0
 11
4858.710626345542
 21
6563.344350276967
 31
0.0
  0
LINE
  5
2A066
330
1F
100
AcDbEntity
  8
D-DCR-HCH
  6
Continuous
100
AcDbLine
 10
4982.176025720706
 20
5963.343553313394
 30
0.0
 11
5097.646025136331
 21
6163.343552301252
 31
0.0
  0
LINE
  5
2A067
330
1F
100
AcDbEntity
  8
D-DCR-HCH
  6
Continuous
100
AcDbLine
 10
4959.081225837548
 20
5963.343553313394
 30
0.0
 11
5074.552625253204
 21
6163.343552301252
 31
0.0
  0
LINE
  5
2A068
330
1F
100
AcDbEntity
  8
D-STR
  6
Continuous
100
AcDbLine
 10
4938.710625940686
 20
6083.344152706107
 30
0.0
 11
4938.710625940686
 21
6163.343552301252
 31
0.0
  0
LINE
  5
2A069
330
1F
100
AcDbEntity
  8
D-DCR-HCH
  6
Continuous
100
AcDbLine
 10
5109.081425078436
 20
5963.343553313394
 30
0.0
 11
5158.710224827344
 21
6049.302552878381
 31
0.0
  0
LINE
  5
2A06A
330
1F
100
AcDbEntity
  8
D-DCR-HCH
  6
Continuous
100
AcDbLine
 10
5132.176024961598
 20
5963.343553313394
 30
0.0
 11
5158.710224827344
 21
6009.302353080812
 31
0.0
  0
LINE
  5
2A06B
330
1F
100
AcDbEntity
  8
D-DCR-HCH
  6
Continuous
100
AcDbLine
 10
4708.710427104655
 20
6825.896348948268
 30
0.0
 11
4858.710626345542
 21
6975.896548189161
 31
0.0
  0
LINE
  5
2A06C
330
1F
100
AcDbEntity
  8
D-DCR-HCH
  6
Continuous
100
AcDbLine
 10
4708.710427104655
 20
6736.093549402731
 30
0.0
 11
4858.710626345542
 21
6886.093748643626
 31
0.0
  0
LINE
  5
2A06D
330
1F
100
AcDbEntity
  8
D-DCR-HCH
  6
Continuous
100
AcDbLine
 10
4708.710427104655
 20
6646.290949857197
 30
0.0
 11
4858.710626345542
 21
6796.29114909809
 31
0.0
  0
LINE
  5
2A06E
330
1F
100
AcDbEntity
  8
D-DCR-HCH
  6
Continuous
100
AcDbLine
 10
4708.710427104655
 20
7095.304547584871
 30
0.0
 11
4858.710626345542
 21
7245.304746825765
 31
0.0
  0
LINE
  5
2A06F
330
1F
100
AcDbEntity
  8
D-DCR-HCH
  6
Continuous
100
AcDbLine
 10
4708.710427104655
 20
7005.501748039339
 30
0.0
 11
4858.710626345542
 21
7155.50194728023
 31
0.0
  0
LINE
  5
2A070
330
1F
100
AcDbEntity
  8
D-DCR-HCH
  6
Continuous
100
AcDbLine
 10
4708.710427104655
 20
6915.698948493801
 30
0.0
 11
4858.710626345542
 21
7065.699147734696
 31
0.0
  0
LINE
  5
2A071
330
1F
100
AcDbEntity
  8
D-STR-DIM
  6
Continuous
100
AcDbLine
 10
5658.710422296983
 20
6563.344350276967
 30
0.0
 11
5658.710422296983
 21
6963.344348252684
 31
0.0
  0
LINE
  5
2A072
330
1F
100
AcDbEntity
  8
D-STR-DIM
  6
Continuous
100
AcDbLine
 10
5658.710422296983
 20
6163.343552301252
 30
0.0
 11
5658.710422296983
 21
6363.343551289111
 31
0.0
  0
CIRCLE
  5
2A073
330
1F
100
AcDbEntity
  8
D-STR-DIM
  6
Continuous
100
AcDbCircle
 10
5658.710422296983
 20
6163.343552301252
 30
0.0
 40
5.999997969635766
  0
TEXT
  5
2A074
330
1F
100
AcDbEntity
  8
D-STR-DIM
100
AcDbText
 10
5892.710421112791
 20
5976.483553246895
 30
0.0
 40
70.0
  1
200
 50
90.0
100
AcDbText
  0
TEXT
  5
2A075
330
1F
100
AcDbEntity
  8
D-STR-DIM
100
AcDbText
 10
5642.710422377968
 20
6276.483951728682
 30
0.0
 40
70.0
  1
400
 50
90.0
100
AcDbText
  0
CIRCLE
  5
2A076
330
1F
100
AcDbEntity
  8
D-STR-DIM
  6
Continuous
100
AcDbCircle
 10
5658.710422296983
 20
6563.344350276967
 30
0.0
 40
5.999997969635766
  0
LINE
  5
2A077
330
1F
100
AcDbEntity
  8
D-STR-DIM
  6
Continuous
100
AcDbLine
 10
5658.710422296983
 20
6563.344350276967
 30
0.0
 11
5658.710422296983
 21
6363.343551289111
 31
0.0
  0
TEXT
  5
2A078
330
1F
100
AcDbEntity
  8
D-STR-DIM
100
AcDbText
 10
5642.710422377968
 20
6876.48374869226
 30
0.0
 40
70.0
  1
800
 50
90.0
100
AcDbText
  0
TEXT
  5
2A079
330
1F
100
AcDbEntity
  8
D-STR-DIM
100
AcDbText
 10
5892.710421112791
 20
6994.483548095097
 30
0.0
 40
70.0
  1
1900
 50
90.0
100
AcDbText
  0
LINE
  5
2A07A
330
1F
100
AcDbEntity
  8
D-STR-DIM
  6
Continuous
100
AcDbLine
 10
4878.710626345543
 20
7363.344146228403
 30
0.0
 11
5688.710222145168
 21
7363.344146228403
 31
0.0
  0
LINE
  5
2A07B
330
1F
100
AcDbEntity
  8
D-STR-DIM
  6
Continuous
100
AcDbLine
 10
5158.710224827344
 20
7463.343545722333
 30
0.0
 11
5438.710423410339
 21
7463.343545722333
 31
0.0
  0
LINE
  5
2A07C
330
1F
100
AcDbEntity
  8
D-STR-DIM
  6
Continuous
100
AcDbLine
 10
5158.710224827344
 20
7913.344143445012
 30
0.0
 11
5438.710423410339
 21
7913.344143445012
 31
0.0
  0
LINE
  5
2A07D
330
1F
100
AcDbEntity
  8
D-STR
  6
Continuous
100
AcDbLine
 10
5133.209824956371
 20
7943.34394329319
 30
0.0
 11
5133.209824956371
 21
7923.343743394406
 31
0.0
  0
LINE
  5
2A07E
330
1F
100
AcDbEntity
  8
D-STR
  6
Continuous
100
AcDbLine
 10
5127.210224986739
 20
7943.34394329319
 30
0.0
 11
5127.210224986739
 21
7923.343743394406
 31
0.0
  0
LINE
  5
2A07F
330
1F
100
AcDbEntity
  8
D-STR
  6
Continuous
100
AcDbLine
 10
4883.211026221514
 20
7942.342943298257
 30
0.0
 11
4883.211026221514
 21
7381.343546137312
 31
0.0
  0
LINE
  5
2A080
330
1F
100
AcDbEntity
  8
D-STR
  6
Continuous
100
AcDbLine
 10
4758.710226851625
 20
7653.343944760796
 30
0.0
 11
4758.710226851625
 21
8053.343942736512
 31
0.0
  0
LINE
  5
2A081
330
1F
100
AcDbEntity
  8
D-STR
  6
Continuous
100
AcDbLine
 10
4808.710426598583
 20
7653.343944760796
 30
0.0
 11
4808.710426598583
 21
8053.343942736512
 31
0.0
  0
LINE
  5
2A082
330
1F
100
AcDbEntity
  8
D-STR-DIM
  6
Continuous
100
AcDbLine
 10
4878.710626345543
 20
7748.34414428003
 30
0.0
 11
4988.710625687651
 21
7748.34414428003
 31
0.0
  0
LINE
  5
2A083
330
1F
100
AcDbEntity
  8
D-STR-DIM
  6
Continuous
100
AcDbLine
 10
4878.710626345543
 20
7778.343944128207
 30
0.0
 11
4988.710625687651
 21
7778.343944128207
 31
0.0
  0
LINE
  5
2A084
330
1F
100
AcDbEntity
  8
D-STR
  6
Continuous
100
AcDbLine
 10
4899.210826140534
 20
7663.343544710191
 30
0.0
 11
5117.209025037311
 21
7663.343544710191
 31
0.0
  0
LINE
  5
2A085
330
1F
100
AcDbEntity
  8
D-STR
  6
Continuous
100
AcDbLine
 10
4889.212226191172
 20
7613.34274496323
 30
0.0
 11
5104.083825103739
 21
7632.141944868094
 31
0.0
  0
LINE
  5
2A086
330
1F
100
AcDbEntity
  8
D-STR
  6
Continuous
100
AcDbLine
 10
4899.210826140534
 20
7657.344344740554
 30
0.0
 11
5117.209025037311
 21
7657.344344740554
 31
0.0
  0
LINE
  5
2A087
330
1F
100
AcDbEntity
  8
D-STR
  6
Continuous
100
AcDbLine
 10
4899.210826140534
 20
7457.34454575269
 30
0.0
 11
5117.209025037311
 21
7457.34454575269
 31
0.0
  0
LINE
  5
2A088
330
1F
100
AcDbEntity
  8
D-STR
  6
Continuous
100
AcDbLine
 10
4889.212226191172
 20
7413.342945975371
 30
0.0
 11
5104.082625103773
 21
7432.141945880236
 31
0.0
  0
LINE
  5
2A089
330
1F
100
AcDbEntity
  8
D-STR
  6
Continuous
100
AcDbLine
 10
4899.210826140534
 20
7463.343545722333
 30
0.0
 11
5117.209025037311
 21
7463.343545722333
 31
0.0
  0
LINE
  5
2A08A
330
1F
100
AcDbEntity
  8
D-STR
  6
Continuous
100
AcDbLine
 10
4899.210826140534
 20
7907.344143475377
 30
0.0
 11
5117.209025037311
 21
7907.344143475377
 31
0.0
  0
LINE
  5
2A08B
330
1F
100
AcDbEntity
  8
D-STR
  6
Continuous
100
AcDbLine
 10
4889.212226191172
 20
7863.34354369805
 30
0.0
 11
5104.082625103773
 21
7882.142543602913
 31
0.0
  0
LINE
  5
2A08C
330
1F
100
AcDbEntity
  8
D-STR
  6
Continuous
100
AcDbLine
 10
4899.210826140534
 20
7913.344143445012
 30
0.0
 11
5117.209025037311
 21
7913.344143445012
 31
0.0
  0
LINE
  5
2A08D
330
1F
100
AcDbEntity
  8
D-DCR-HCH
  6
Continuous
100
AcDbLine
 10
4708.710427104655
 20
7274.90994667594
 30
0.0
 11
4797.144626657089
 21
7363.344146228403
 31
0.0
  0
LINE
  5
2A08E
330
1F
100
AcDbEntity
  8
D-STR
  6
DASHED1
100
AcDbLine
 10
4708.710427104655
 20
7363.344146228403
 30
0.0
 11
4858.710626345542
 21
7363.344146228403
 31
0.0
  0
ARC
  5
2A08F
330
1F
100
AcDbEntity
  8
D-STR
  6
Continuous
100
AcDbCircle
 10
4899.210826140534
 20
7447.343945803303
 30
0.0
 40
15.99999991902868
100
AcDbArc
 50
90.0
 51
190.287329999988
  0
ARC
  5
2A090
330
1F
100
AcDbEntity
  8
D-STR
  6
Continuous
100
AcDbCircle
 10
4899.210826140534
 20
7447.343945803303
 30
0.0
 40
9.999997949392936
100
AcDbArc
 50
90.0
 51
180.0
  0
LINE
  5
2A091
330
1F
100
AcDbEntity
  8
D-STR-STR2
  6
Continuous
100
AcDbLine
 10
4778.710226750408
 20
7423.343545924762
 30
0.0
 11
4858.710626345542
 21
7423.343545924762
 31
0.0
  0
LINE
  5
2A092
330
1F
100
AcDbEntity
  8
D-STR-STR2
  6
Continuous
100
AcDbLine
 10
4778.710226750408
 20
7403.344346025972
 30
0.0
 11
4778.710226750408
 21
7423.343545924762
 31
0.0
  0
LINE
  5
2A093
330
1F
100
AcDbEntity
  8
D-STR-STR2
  6
Continuous
100
AcDbLine
 10
4858.710626345542
 20
7403.344346025972
 30
0.0
 11
4778.710226750408
 21
7403.344346025972
 31
0.0
  0
LINE
  5
2A094
330
1F
100
AcDbEntity
  8
D-STR
  6
Continuous
100
AcDbLine
 10
4858.710626345542
 20
7381.343546137312
 30
0.0
 11
4883.211026221514
 21
7381.343546137312
 31
0.0
  0
LINE
  5
2A095
330
1F
100
AcDbEntity
  8
D-STR
  6
Continuous
100
AcDbLine
 10
4883.211026221514
 20
7447.343945803303
 30
0.0
 11
4883.211026221514
 21
7403.344346025972
 31
0.0
  0
LINE
  5
2A096
330
1F
100
AcDbEntity
  8
D-STR
  6
Continuous
100
AcDbLine
 10
4883.211026221514
 20
7403.344346025972
 30
0.0
 11
4889.20982619117
 21
7403.344346025972
 31
0.0
  0
LINE
  5
2A097
330
1F
100
AcDbEntity
  8
D-STR
  6
Continuous
100
AcDbLine
 10
4889.210826191142
 20
7447.342945803308
 30
0.0
 11
4899.210826140534
 21
7457.342545752702
 31
0.0
  0
LINE
  5
2A098
330
1F
100
AcDbEntity
  8
D-STR
  6
Continuous
100
AcDbLine
 10
4889.20982619117
 20
7447.343945803303
 30
0.0
 11
4889.20982619117
 21
7403.344346025972
 31
0.0
  0
LINE
  5
2A099
330
1F
100
AcDbEntity
  8
D-STR-STR2
  6
Continuous
100
AcDbLine
 10
4758.711626851582
 20
7798.343944026993
 30
0.0
 11
4708.711427104623
 21
7808.343543976389
 31
0.0
  0
LINE
  5
2A09A
330
1F
100
AcDbEntity
  8
D-STR-STR2
  6
Continuous
100
AcDbLine
 10
4708.710427104655
 20
7718.343544431853
 30
0.0
 11
4758.710226851625
 21
7728.344144381243
 31
0.0
  0
LINE
  5
2A09B
330
1F
100
AcDbEntity
  8
D-STR
  6
Continuous
100
AcDbLine
 10
4708.710427104655
 20
7643.345544811396
 30
0.0
 11
4758.710226851625
 21
7653.344944760793
 31
0.0
  0
ARC
  5
2A09C
330
1F
100
AcDbEntity
  8
D-STR
  6
Continuous
100
AcDbCircle
 10
4899.210826140534
 20
7647.343944791161
 30
0.0
 40
9.999997949392936
100
AcDbArc
 50
90.0
 51
180.0
  0
ARC
  5
2A09D
330
1F
100
AcDbEntity
  8
D-STR
  6
Continuous
100
AcDbCircle
 10
4899.210826140534
 20
7647.343944791161
 30
0.0
 40
15.99999991902868
100
AcDbArc
 50
90.0
 51
190.287329999988
  0
ARC
  5
2A09E
330
1F
100
AcDbEntity
  8
D-STR
  6
Continuous
100
AcDbCircle
 10
4899.210826140534
 20
7897.344543525981
 30
0.0
 40
15.99999991902868
100
AcDbArc
 50
90.0
 51
190.287329999988
  0
ARC
  5
2A09F
330
1F
100
AcDbEntity
  8
D-STR
  6
Continuous
100
AcDbCircle
 10
4899.210826140534
 20
7897.344543525981
 30
0.0
 40
9.999997949392936
100
AcDbArc
 50
90.0
 51
180.0
  0
LINE
  5
2A0A0
330
1F
100
AcDbEntity
  8
D-STR-STR2
  6
Continuous
100
AcDbLine
 10
4858.710626345542
 20
7903.343743495621
 30
0.0
 11
4778.710226750408
 21
7903.343743495621
 31
0.0
  0
LINE
  5
2A0A1
330
1F
100
AcDbEntity
  8
D-STR-STR2
  6
Continuous
100
AcDbLine
 10
4778.710226750408
 20
7903.343743495621
 30
0.0
 11
4778.710226750408
 21
7923.343743394406
 31
0.0
  0
LINE
  5
2A0A2
330
1F
100
AcDbEntity
  8
D-STR-STR2
  6
Continuous
100
AcDbLine
 10
4778.710226750408
 20
7923.343743394406
 30
0.0
 11
4858.710626345542
 21
7923.343743394406
 31
0.0
  0
LINE
  5
2A0A3
330
1F
100
AcDbEntity
  8
D-STR
  6
Continuous
100
AcDbLine
 10
4889.20982619117
 20
7647.343944791161
 30
0.0
 11
4889.20982619117
 21
7603.343345013836
 31
0.0
  0
LINE
  5
2A0A4
330
1F
100
AcDbEntity
  8
D-STR
  6
Continuous
100
AcDbLine
 10
4889.20982619117
 20
7647.341944791172
 30
0.0
 11
4899.209826140562
 21
7657.341544740565
 31
0.0
  0
LINE
  5
2A0A5
330
1F
100
AcDbEntity
  8
D-STR
  6
Continuous
100
AcDbLine
 10
4883.211026221514
 20
7603.343345013836
 30
0.0
 11
4889.20982619117
 21
7603.343345013836
 31
0.0
  0
LINE
  5
2A0A6
330
1F
100
AcDbEntity
  8
D-STR
  6
Continuous
100
AcDbLine
 10
4883.211026221514
 20
7647.343944791161
 30
0.0
 11
4883.211026221514
 21
7603.343345013836
 31
0.0
  0
LINE
  5
2A0A7
330
1F
100
AcDbEntity
  8
D-STR
  6
Continuous
100
AcDbLine
 10
4883.211026221514
 20
7897.344543525981
 30
0.0
 11
4883.211026221514
 21
7853.343943748654
 31
0.0
  0
LINE
  5
2A0A8
330
1F
100
AcDbEntity
  8
D-STR
  6
Continuous
100
AcDbLine
 10
4883.211026221514
 20
7853.343943748654
 30
0.0
 11
4889.20982619117
 21
7853.343943748654
 31
0.0
  0
LINE
  5
2A0A9
330
1F
100
AcDbEntity
  8
D-STR
  6
Continuous
100
AcDbLine
 10
4889.20982619117
 20
7897.342543525991
 30
0.0
 11
4899.209826140562
 21
7907.343143475383
 31
0.0
  0
LINE
  5
2A0AA
330
1F
100
AcDbEntity
  8
D-STR
  6
Continuous
100
AcDbLine
 10
4889.20982619117
 20
7897.344543525981
 30
0.0
 11
4889.20982619117
 21
7853.343943748654
 31
0.0
  0
LINE
  5
2A0AB
330
1F
100
AcDbEntity
  8
D-STR-STR2
  6
Continuous
100
AcDbLine
 10
4758.710226851625
 20
7728.344144381243
 30
0.0
 11
4758.710226851625
 21
7798.343944026993
 31
0.0
  0
LINE
  5
2A0AC
330
1F
100
AcDbEntity
  8
D-STR
  6
Continuous
100
AcDbLine
 10
4858.710626345542
 20
7643.343544811407
 30
0.0
 11
4808.710426598583
 21
7653.343944760796
 31
0.0
  0
LINE
  5
2A0AD
330
1F
100
AcDbEntity
  8
D-STR-STR2
  6
Continuous
100
AcDbLine
 10
4758.710226851625
 20
7753.343544254729
 30
0.0
 11
4858.709226345513
 21
7748.34414428003
 31
0.0
  0
LINE
  5
2A0AE
330
1F
100
AcDbEntity
  8
D-STR-STR2
  6
Continuous
100
AcDbLine
 10
4858.709226345513
 20
7778.343944128207
 30
0.0
 11
4758.709226851585
 21
7773.343544153513
 31
0.0
  0
ARC
  5
2A0AF
330
1F
100
AcDbEntity
  8
D-STR
  6
Continuous
100
AcDbCircle
 10
5117.209025037311
 20
7473.344145671724
 30
0.0
 40
15.99999991902868
100
AcDbArc
 50
270.0
 51
0.0
  0
ARC
  5
2A0B0
330
1F
100
AcDbEntity
  8
D-STR
  6
Continuous
100
AcDbCircle
 10
5117.209025037311
 20
7473.344145671724
 30
0.0
 40
9.999997949392936
100
AcDbArc
 50
270.0
 51
0.0
  0
ARC
  5
2A0B1
330
1F
100
AcDbEntity
  8
D-STR
  6
Continuous
100
AcDbCircle
 10
5103.209825108195
 20
7442.10394582982
 30
0.0
 40
9.999997949392936
100
AcDbArc
 50
275.0000000000777
 51
0.0
  0
LINE
  5
2A0B2
330
1F
100
AcDbEntity
  8
D-STR
  6
Continuous
100
AcDbLine
 10
5133.209824956371
 20
7493.344345570509
 30
0.0
 11
5133.209824956371
 21
7473.344145671724
 31
0.0
  0
LINE
  5
2A0B3
330
1F
100
AcDbEntity
  8
D-STR
  6
Continuous
100
AcDbLine
 10
5113.210025057583
 20
7457.34454575269
 30
0.0
 11
5113.210025057583
 21
7442.10394582982
 31
0.0
  0
LINE
  5
2A0B4
330
1F
100
AcDbEntity
  8
D-STR
  6
Continuous
100
AcDbLine
 10
5127.210224986739
 20
7493.344345570509
 30
0.0
 11
5127.210224986739
 21
7473.344145671724
 31
0.0
  0
LINE
  5
2A0B5
330
1F
100
AcDbEntity
  8
D-STR
  6
Continuous
100
AcDbLine
 10
5127.210224986739
 20
7493.344345570509
 30
0.0
 11
5133.209824956371
 21
7493.344345570509
 31
0.0
  0
TEXT
  5
2A0B6
330
1F
100
AcDbEntity
  8
D-STR-DIM
100
AcDbText
 10
5030.950425473839
 20
7698.198744533799
 30
0.0
 40
50.0
  1
φ30
 50
90.0
100
AcDbText
  0
CIRCLE
  5
2A0B7
330
1F
100
AcDbEntity
  8
D-STR-DIM
  6
Continuous
100
AcDbCircle
 10
4958.71062583947
 20
7748.34414428003
 30
0.0
 40
5.999997969635766
  0
CIRCLE
  5
2A0B8
330
1F
100
AcDbEntity
  8
D-STR-DIM
  6
Continuous
100
AcDbCircle
 10
4958.71062583947
 20
7778.343944128207
 30
0.0
 40
5.999997969635766
  0
LINE
  5
2A0B9
330
1F
100
AcDbEntity
  8
D-STR-DIM
  6
Continuous
100
AcDbLine
 10
4958.71062583947
 20
7748.34414428003
 30
0.0
 11
4958.71062583947
 21
7763.343944204118
 31
0.0
  0
LINE
  5
2A0BA
330
1F
100
AcDbEntity
  8
D-STR-DIM
  6
Continuous
100
AcDbLine
 10
4958.71062583947
 20
7778.343944128207
 30
0.0
 11
4958.71062583947
 21
7763.343944204118
 31
0.0
  0
ARC
  5
2A0BB
330
1F
100
AcDbEntity
  8
D-STR
  6
Continuous
100
AcDbCircle
 10
5103.209825108195
 20
7642.103744817681
 30
0.0
 40
9.999997949392936
100
AcDbArc
 50
275.0000000000777
 51
0.0
  0
ARC
  5
2A0BC
330
1F
100
AcDbEntity
  8
D-STR
  6
Continuous
100
AcDbCircle
 10
5117.209025037311
 20
7673.344144659584
 30
0.0
 40
9.999997949392936
100
AcDbArc
 50
270.0
 51
0.0
  0
ARC
  5
2A0BD
330
1F
100
AcDbEntity
  8
D-STR
  6
Continuous
100
AcDbCircle
 10
5117.209025037311
 20
7673.344144659584
 30
0.0
 40
15.99999991902868
100
AcDbArc
 50
270.0
 51
0.0
  0
ARC
  5
2A0BE
330
1F
100
AcDbEntity
  8
D-STR
  6
Continuous
100
AcDbCircle
 10
5117.209025037311
 20
7923.343743394406
 30
0.0
 40
15.99999991902868
100
AcDbArc
 50
270.0
 51
0.0
  0
ARC
  5
2A0BF
330
1F
100
AcDbEntity
  8
D-STR
  6
Continuous
100
AcDbCircle
 10
5117.209025037311
 20
7923.343743394406
 30
0.0
 40
9.999997949392936
100
AcDbArc
 50
270.0
 51
0.0
  0
ARC
  5
2A0C0
330
1F
100
AcDbEntity
  8
D-STR
  6
Continuous
100
AcDbCircle
 10
5103.209825108195
 20
7892.104543552498
 30
0.0
 40
9.999997949392936
100
AcDbArc
 50
275.0000000000777
 51
0.0
  0
LINE
  5
2A0C1
330
1F
100
AcDbEntity
  8
D-STR
  6
Continuous
100
AcDbLine
 10
5127.210224986739
 20
7693.343144558373
 30
0.0
 11
5133.209824956371
 21
7693.343144558373
 31
0.0
  0
LINE
  5
2A0C2
330
1F
100
AcDbEntity
  8
D-STR
  6
Continuous
100
AcDbLine
 10
5127.210224986739
 20
7693.343144558373
 30
0.0
 11
5127.210224986739
 21
7673.344144659584
 31
0.0
  0
LINE
  5
2A0C3
330
1F
100
AcDbEntity
  8
D-STR
  6
Continuous
100
AcDbLine
 10
5113.210025057583
 20
7657.344344740554
 30
0.0
 11
5113.210025057583
 21
7642.103744817681
 31
0.0
  0
LINE
  5
2A0C4
330
1F
100
AcDbEntity
  8
D-STR
  6
Continuous
100
AcDbLine
 10
5133.209824956371
 20
7693.343144558373
 30
0.0
 11
5133.209824956371
 21
7673.344144659584
 31
0.0
  0
LINE
  5
2A0C5
330
1F
100
AcDbEntity
  8
D-STR
  6
Continuous
100
AcDbLine
 10
5113.210025057583
 20
7907.344143475377
 30
0.0
 11
5113.210025057583
 21
7892.104543552498
 31
0.0
  0
LINE
  5
2A0C6
330
1F
100
AcDbEntity
  8
D-STR
  6
Continuous
100
AcDbLine
 10
4708.710427104655
 20
8263.344341673764
 30
0.0
 11
5158.710224827344
 21
8263.344341673764
 31
0.0
  0
LINE
  5
2A0C7
330
1F
100
AcDbEntity
  8
D-STR
  6
Continuous
100
AcDbLine
 10
4858.710626345542
 20
8063.343342685909
 30
0.0
 11
5158.710224827344
 21
8063.343342685909
 31
0.0
  0
LINE
  5
2A0C8
330
1F
100
AcDbEntity
  8
D-DCR-HCH
  6
Continuous
100
AcDbLine
 10
4858.710626345542
 20
8109.302142453328
 30
0.0
 11
4947.645825895444
 21
8263.344341673764
 31
0.0
  0
LINE
  5
2A0C9
330
1F
100
AcDbEntity
  8
D-DCR-HCH
  6
Continuous
100
AcDbLine
 10
4858.710626345542
 20
8149.302342250898
 30
0.0
 11
4924.552426012317
 21
8263.344341673764
 31
0.0
  0
LINE
  5
2A0CA
330
1F
100
AcDbEntity
  8
D-STR
  6
Continuous
100
AcDbLine
 10
4708.711427104623
 20
8063.343342685909
 30
0.0
 11
4758.711626851582
 21
8053.342942736518
 31
0.0
  0
LINE
  5
2A0CB
330
1F
100
AcDbEntity
  8
D-STR
  6
Continuous
100
AcDbLine
 10
4858.710626345542
 20
7942.342943298257
 30
0.0
 11
4883.211026221514
 21
7942.342943298257
 31
0.0
  0
LINE
  5
2A0CC
330
1F
100
AcDbEntity
  8
D-STR
  6
Continuous
100
AcDbLine
 10
4858.710626345542
 20
8063.344342685905
 30
0.0
 11
4808.711426598551
 21
8053.34494273651
 31
0.0
  0
LINE
  5
2A0CD
330
1F
100
AcDbEntity
  8
D-DCR-HCH
  6
Continuous
100
AcDbLine
 10
4982.176025720706
 20
8063.343342685909
 30
0.0
 11
5097.646025136331
 21
8263.344341673764
 31
0.0
  0
LINE
  5
2A0CE
330
1F
100
AcDbEntity
  8
D-DCR-HCH
  6
Continuous
100
AcDbLine
 10
4959.081225837548
 20
8063.343342685909
 30
0.0
 11
5074.551425253241
 21
8263.344341673764
 31
0.0
  0
LINE
  5
2A0CF
330
1F
100
AcDbEntity
  8
D-STR
  6
Continuous
100
AcDbLine
 10
5127.210224986739
 20
7943.34394329319
 30
0.0
 11
5133.209824956371
 21
7943.34394329319
 31
0.0
  0
LINE
  5
2A0D0
330
1F
100
AcDbEntity
  8
D-DCR-HCH
  6
Continuous
100
AcDbLine
 10
5132.176024961598
 20
8063.343342685909
 30
0.0
 11
5158.710224827344
 21
8109.303142453322
 31
0.0
  0
LINE
  5
2A0D1
330
1F
100
AcDbEntity
  8
D-DCR-HCH
  6
Continuous
100
AcDbLine
 10
5109.081425078436
 20
8063.343342685909
 30
0.0
 11
5158.710224827344
 21
8149.302342250898
 31
0.0
  0
TEXT
  5
2A0D2
330
1F
100
AcDbEntity
  8
D-STR-DIM
100
AcDbText
 10
5396.710423622844
 20
7923.199143395139
 30
0.0
 40
50.0
  1
150
 50
90.0
100
AcDbText
  0
LINE
  5
2A0D3
330
1F
100
AcDbEntity
  8
D-STR-DIM
  6
Continuous
100
AcDbLine
 10
5658.710422296983
 20
8063.343342685909
 30
0.0
 11
5658.710422296983
 21
7713.344344457152
 31
0.0
  0
LINE
  5
2A0D4
330
1F
100
AcDbEntity
  8
D-STR-DIM
  6
Continuous
100
AcDbLine
 10
5408.710423562159
 20
7913.344143445012
 30
0.0
 11
5408.710423562159
 21
7988.344343065458
 31
0.0
  0
TEXT
  5
2A0D5
330
1F
100
AcDbEntity
  8
D-STR-DIM
100
AcDbText
 10
5396.710423622844
 20
7496.332448360895
 30
0.0
 40
50.0
  1
（５０ピッチ）
 50
90.0
100
AcDbText
  0
LINE
  5
2A0D6
330
1F
100
AcDbEntity
  8
D-STR-DIM
  6
Continuous
100
AcDbLine
 10
5408.710423562159
 20
7463.343545722333
 30
0.0
 11
5408.710423562159
 21
7688.343944583671
 31
0.0
  0
CIRCLE
  5
2A0D7
330
1F
100
AcDbEntity
  8
D-STR-DIM
  6
Continuous
100
AcDbCircle
 10
5408.710423562159
 20
7363.344146228403
 30
0.0
 40
5.999997969635766
  0
CIRCLE
  5
2A0D8
330
1F
100
AcDbEntity
  8
D-STR-DIM
  6
Continuous
100
AcDbCircle
 10
5408.710423562159
 20
7463.343545722333
 30
0.0
 40
5.999997969635766
  0
TEXT
  5
2A0D9
330
1F
100
AcDbEntity
  8
D-STR-DIM
100
AcDbText
 10
5396.710423622844
 20
7331.353746390296
 30
0.0
 40
50.0
  1
100
 50
90.0
100
AcDbText
  0
LINE
  5
2A0DA
330
1F
100
AcDbEntity
  8
D-STR-DIM
  6
Continuous
100
AcDbLine
 10
5408.710423562159
 20
7363.344146228403
 30
0.0
 11
5408.710423562159
 21
7413.343945975366
 31
0.0
  0
LINE
  5
2A0DB
330
1F
100
AcDbEntity
  8
D-STR-DIM
  6
Continuous
100
AcDbLine
 10
5408.710423562159
 20
7463.343545722333
 30
0.0
 11
5408.710423562159
 21
7413.343945975366
 31
0.0
  0
CIRCLE
  5
2A0DC
330
1F
100
AcDbEntity
  8
D-STR-DIM
  6
Continuous
100
AcDbCircle
 10
5408.710423562159
 20
7913.344143445012
 30
0.0
 40
5.999997969635766
  0
TEXT
  5
2A0DD
330
1F
100
AcDbEntity
  8
D-STR-DIM
100
AcDbText
 10
5324.710423987243
 20
7496.332448360895
 30
0.0
 40
50.0
  1
　　４５０
 50
90.0
100
AcDbText
  0
LINE
  5
2A0DE
330
1F
100
AcDbEntity
  8
D-STR-DIM
  6
Continuous
100
AcDbLine
 10
5408.710423562159
 20
7913.344143445012
 30
0.0
 11
5408.710423562159
 21
7688.343944583671
 31
0.0
  0
LINE
  5
2A0DF
330
1F
100
AcDbEntity
  8
D-STR-DIM
  6
Continuous
100
AcDbLine
 10
5658.710422296983
 20
7363.344146228403
 30
0.0
 11
5658.710422296983
 21
7713.344344457152
 31
0.0
  0
CIRCLE
  5
2A0E0
330
1F
100
AcDbEntity
  8
D-STR-DIM
  6
Continuous
100
AcDbCircle
 10
5658.710422296983
 20
7363.344146228403
 30
0.0
 40
5.999997969635766
  0
TEXT
  5
2A0E1
330
1F
100
AcDbEntity
  8
D-STR-DIM
100
AcDbText
 10
5642.710422377968
 20
7626.48374489673
 30
0.0
 40
70.0
  1
700
 50
90.0
100
AcDbText
  0
CIRCLE
  5
2A0E2
330
1F
100
AcDbEntity
  8
D-STR-DIM
  6
Continuous
100
AcDbCircle
 10
5408.710423562159
 20
8063.343342685909
 30
0.0
 40
5.999997969635766
  0
LINE
  5
2A0E3
330
1F
100
AcDbEntity
  8
D-STR-DIM
  6
Continuous
100
AcDbLine
 10
5408.710423562159
 20
8063.343342685909
 30
0.0
 11
5408.710423562159
 21
7988.344343065458
 31
0.0
  0
CIRCLE
  5
2A0E4
330
1F
100
AcDbEntity
  8
D-STR-DIM
  6
Continuous
100
AcDbCircle
 10
5658.710422296983
 20
8063.343342685909
 30
0.0
 40
5.999997969635766
  0
TEXT
  5
2A0E5
330
1F
100
AcDbEntity
  8
D-STR-DIM
100
AcDbText
 10
5892.710421112791
 20
8076.484342619407
 30
0.0
 40
70.0
  1
200
 50
90.0
100
AcDbText
  0
TEXT
  5
2A0E6
330
1F
100
AcDbEntity
  8
D-STR-DIM
100
AcDbText
 10
6345.573655124004
 20
5886.733353701096
 30
0.0
 40
70.0
  1
148.5
 50
90.0
100
AcDbText
  0
LINE
  5
2A0E7
330
1F
100
AcDbEntity
  8
D-STR-DIM
  6
Continuous
100
AcDbLine
 10
6961.573552006631
 20
5943.343553313394
 30
0.0
 11
6961.573552006631
 21
4933.34435852592
 31
0.0
  0
LINE
  5
2A0E8
330
1F
100
AcDbEntity
  8
D-STR-DIM
  6
Continuous
100
AcDbLine
 10
8081.573466338683
 20
5943.343553313394
 30
0.0
 11
8081.573466338683
 21
5533.344155489496
 31
0.0
  0
LINE
  5
2A0E9
330
1F
100
AcDbEntity
  8
D-STR-DIM
  6
Continuous
100
AcDbLine
 10
7481.573469375108
 20
5943.343553313394
 30
0.0
 11
7481.573469375108
 21
5533.344155489496
 31
0.0
  0
LINE
  5
2A0EA
330
1F
100
AcDbEntity
  8
D-STR-DIM
  6
Continuous
100
AcDbLine
 10
8281.573465326543
 20
5933.343953465213
 30
0.0
 11
8281.573465326543
 21
5697.621754658136
 31
0.0
  0
LINE
  5
2A0EB
330
1F
100
AcDbEntity
  8
D-STR-DIM
  6
Continuous
100
AcDbLine
 10
7281.573530387198
 20
5933.343953465213
 30
0.0
 11
7281.573530387198
 21
5697.621754658136
 31
0.0
  0
TEXT
  5
2A0ED
330
1F
100
AcDbEntity
  8
D-STR-DIM
100
AcDbText
 10
7144.713551079796
 20
5579.344355256701
 30
0.0
 40
70.0
  1
520
100
AcDbText
  0
LINE
  5
2A0F0
330
1F
100
AcDbEntity
  8
D-STR-DIM
  6
Continuous
100
AcDbLine
 10
6961.573552006631
 20
4963.3439583741
 30
0.0
 11
7781.573507856839
 21
4963.3439583741
 31
0.0
  0
LINE
  5
2A0F1
330
1F
100
AcDbEntity
  8
D-STR-DIM
  6
Continuous
100
AcDbLine
 10
6961.573552006631
 20
5563.343755337676
 30
0.0
 11
7221.573510690832
 21
5563.343755337676
 31
0.0
  0
LINE
  5
2A0F2
330
1F
100
AcDbEntity
  8
D-STR-DIM
  6
Continuous
100
AcDbLine
 10
7281.573530387198
 20
5263.344356855886
 30
0.0
 11
7121.573551196918
 21
5263.344356855886
 31
0.0
  0
CIRCLE
  5
2A0F6
330
1F
100
AcDbEntity
  8
D-STR-DIM
  6
Continuous
100
AcDbCircle
 10
6961.573552006631
 20
4963.3439583741
 30
0.0
 40
5.999997969635766
  0
TEXT
  5
2A0F7
330
1F
100
AcDbEntity
  8
D-STR-DIM
100
AcDbText
 10
7044.713451585908
 20
5279.343956774916
 30
0.0
 40
70.0
  1
320
100
AcDbText
  0
LINE
  5
2A0F8
330
1F
100
AcDbEntity
  8
D-STR-DIM
  6
Continuous
100
AcDbLine
 10
6961.573552006631
 20
5263.344356855886
 30
0.0
 11
7121.573551196918
 21
5263.344356855886
 31
0.0
  0
CIRCLE
  5
2A0F9
330
1F
100
AcDbEntity
  8
D-STR-DIM
  6
Continuous
100
AcDbCircle
 10
6961.573552006631
 20
5263.344356855886
 30
0.0
 40
5.999997969635766
  0
CIRCLE
  5
2A0FA
330
1F
100
AcDbEntity
  8
D-STR-DIM
  6
Continuous
100
AcDbCircle
 10
6961.573552006631
 20
5563.343755337676
 30
0.0
 40
5.999997969635766
  0
LINE
  5
2A0FB
330
1F
100
AcDbEntity
  8
D-STR-DIM
  6
Continuous
100
AcDbLine
 10
8281.573465326543
 20
5263.344356855886
 30
0.0
 11
7781.573507856839
 21
5263.344356855886
 31
0.0
  0
LINE
  5
2A0FC
330
1F
100
AcDbEntity
  8
D-STR-DIM
  6
Continuous
100
AcDbLine
 10
8081.573466338683
 20
5563.343755337676
 30
0.0
 11
7781.573507856839
 21
5563.343755337676
 31
0.0
  0
TEXT
  5
2A0FD
330
1F
100
AcDbEntity
  8
D-STR-DIM
100
AcDbText
 10
7662.713508458368
 20
4979.34355829313
 30
0.0
 40
70.0
  1
1640
100
AcDbText
  0
LINE
  5
2A0FE
330
1F
100
AcDbEntity
  8
D-STR-DIM
  6
Continuous
100
AcDbLine
 10
7281.573530387198
 20
5263.344356855886
 30
0.0
 11
7781.573507856839
 21
5263.344356855886
 31
0.0
  0
LINE
  5
2A0FF
330
1F
100
AcDbEntity
  8
D-STR-DIM
  6
Continuous
100
AcDbLine
 10
7481.573469375108
 20
5563.343755337676
 30
0.0
 11
7781.573507856839
 21
5563.343755337676
 31
0.0
  0
LINE
  5
2A100
330
1F
100
AcDbEntity
  8
D-STR-DIM
  6
Continuous
100
AcDbLine
 10
7281.573530387198
 20
5543.343755337676
 30
0.0
 11
7281.573530387198
 21
5233.343757007709
 31
0.0
  0
CIRCLE
  5
2A101
330
1F
100
AcDbEntity
  8
D-STR-DIM
  6
Continuous
100
AcDbCircle
 10
7281.573530387198
 20
5263.344356855886
 30
0.0
 40
5.999997969635766
  0
LINE
  5
2A102
330
1F
100
AcDbEntity
  8
D-STR-DIM
  6
Continuous
100
AcDbLine
 10
7481.573469375108
 20
5563.343755337676
 30
0.0
 11
7221.573510690832
 21
5563.343755337676
 31
0.0
  0
CIRCLE
  5
2A103
330
1F
100
AcDbEntity
  8
D-STR-DIM
  6
Continuous
100
AcDbCircle
 10
7481.573469375108
 20
5563.343755337676
 30
0.0
 40
5.999997969635766
  0
TEXT
  5
2A104
330
1F
100
AcDbEntity
  8
D-STR-DIM
100
AcDbText
 10
7662.713508458368
 20
5279.343956774916
 30
0.0
 40
70.0
  1
1000
100
AcDbText
  0
TEXT
  5
2A105
330
1F
100
AcDbEntity
  8
D-STR-DIM
100
AcDbText
 10
7694.713488296461
 20
5579.344355256701
 30
0.0
 40
70.0
  1
600
100
AcDbText
  0
LINE
  5
2A106
330
1F
100
AcDbEntity
  8
D-STR-DIM
  6
Continuous
100
AcDbLine
 10
8081.573466338683
 20
5563.343755337676
 30
0.0
 11
8341.573485022832
 21
5563.343755337676
 31
0.0
  0
CIRCLE
  5
2A107
330
1F
100
AcDbEntity
  8
D-STR-DIM
  6
Continuous
100
AcDbCircle
 10
8081.573466338683
 20
5563.343755337676
 30
0.0
 40
5.999997969635766
  0
LINE
  5
2A108
330
1F
100
AcDbEntity
  8
D-STR-DIM
  6
Continuous
100
AcDbLine
 10
8281.573465326543
 20
5543.343755337676
 30
0.0
 11
8281.573465326543
 21
5233.343757007709
 31
0.0
  0
TEXT
  5
2A109
330
1F
100
AcDbEntity
  8
D-STR-DIM
100
AcDbText
 10
8344.713465006993
 20
5279.343956774916
 30
0.0
 40
70.0
  1
320
100
AcDbText
  0
LINE
  5
2A10A
330
1F
100
AcDbEntity
  8
D-STR-DIM
  6
Continuous
100
AcDbLine
 10
8281.573465326543
 20
5263.344356855886
 30
0.0
 11
8441.573444516825
 21
5263.344356855886
 31
0.0
  0
CIRCLE
  5
2A10B
330
1F
100
AcDbEntity
  8
D-STR-DIM
  6
Continuous
100
AcDbCircle
 10
8281.573465326543
 20
5263.344356855886
 30
0.0
 40
5.999997969635766
  0
TEXT
  5
2A10C
330
1F
100
AcDbEntity
  8
D-STR-DIM
100
AcDbText
 10
8244.713485513072
 20
5579.344355256701
 30
0.0
 40
70.0
  1
520
100
AcDbText
  0
LINE
  5
2A10D
330
1F
100
AcDbEntity
  8
D-STR
  6
DASHED1
100
AcDbLine
 10
7281.575890387182
 20
6163.342552301259
 30
0.0
 11
7181.575930893268
 21
6263.342951795184
 31
0.0
  0
LINE
  5
2A10E
330
1F
100
AcDbEntity
  8
D-STR
  6
DASHED1
100
AcDbLine
 10
7181.575310893281
 20
7963.342943191982
 30
0.0
 11
7281.575890387182
 21
8063.343342685909
 31
0.0
  0
LINE
  5
2A10F
330
1F
100
AcDbEntity
  8
D-STR-DIM
  6
Continuous
100
AcDbLine
 10
6361.573655043089
 20
7763.343944204118
 30
0.0
 11
6361.573655043089
 21
6937.593748383
 31
0.0
  0
LINE
  5
2A110
330
1F
100
AcDbEntity
  8
D-STR-DIM
  6
Continuous
100
AcDbLine
 10
6661.573453524884
 20
7313.34334648144
 30
0.0
 11
6661.573453524884
 21
7063.343747746614
 31
0.0
  0
LINE
  5
2A111
330
1F
100
AcDbEntity
  8
D-STR-DIM
  6
Continuous
100
AcDbLine
 10
5908.710421031806
 20
8063.343342685909
 30
0.0
 11
5908.710421031806
 21
7113.343547493581
 31
0.0
  0
LINE
  5
2A112
330
1F
100
AcDbEntity
  8
D-STR
  6
Continuous
100
AcDbLine
 10
6961.573552006631
 20
5963.343553313394
 30
0.0
 11
6961.573552006631
 21
8263.344341673764
 31
0.0
  0
LINE
  5
2A113
330
1F
100
AcDbEntity
  8
D-STR
  6
DASHED1
100
AcDbLine
 10
7181.573450893316
 20
6263.343951795179
 30
0.0
 11
7181.573450893316
 21
7963.343943191977
 31
0.0
  0
LINE
  5
2A114
330
1F
100
AcDbEntity
  8
D-STR-DIM
  6
Continuous
100
AcDbLine
 10
6941.57355200663
 20
5963.343553313394
 30
0.0
 11
6331.573655194908
 21
5963.343553313394
 31
0.0
  0
LINE
  5
2A115
330
1F
100
AcDbEntity
  8
D-STR-DIM
  6
Continuous
100
AcDbLine
 10
6641.573453524884
 20
6111.843552561879
 30
0.0
 11
6331.573655194908
 21
6111.843552561879
 31
0.0
  0
LINE
  5
2A116
330
1F
100
AcDbEntity
  8
D-STR-DIM
  6
Continuous
100
AcDbLine
 10
6361.573655043089
 20
6111.843552561879
 30
0.0
 11
6361.573655043089
 21
6937.593748383
 31
0.0
  0
LINE
  5
2A117
330
1F
100
AcDbEntity
  8
D-STR-DIM
  6
Continuous
100
AcDbLine
 10
5908.710421031806
 20
6163.343552301252
 30
0.0
 11
5908.710421031806
 21
7113.343547493581
 31
0.0
  0
LINE
  5
2A118
330
1F
100
AcDbEntity
  8
D-STR-DIM
  6
Continuous
100
AcDbLine
 10
5908.710421031806
 20
6163.343552301252
 30
0.0
 11
5908.710421031806
 21
6063.344152807322
 31
0.0
  0
LINE
  5
2A119
330
1F
100
AcDbEntity
  8
D-STR-DIM
  6
Continuous
100
AcDbLine
 10
5908.710421031806
 20
5963.343553313394
 30
0.0
 11
5908.710421031806
 21
6063.344152807322
 31
0.0
  0
CIRCLE
  5
2A11A
330
1F
100
AcDbEntity
  8
D-STR-DIM
  6
Continuous
100
AcDbCircle
 10
6361.573655043089
 20
5963.343553313394
 30
0.0
 40
5.999997969635766
  0
CIRCLE
  5
2A11B
330
1F
100
AcDbEntity
  8
D-STR-DIM
  6
Continuous
100
AcDbCircle
 10
6361.573655043089
 20
6111.843552561879
 30
0.0
 40
5.999997969635766
  0
LINE
  5
2A11C
330
1F
100
AcDbEntity
  8
D-STR-DIM
  6
Continuous
100
AcDbLine
 10
6361.573655043089
 20
5963.343553313394
 30
0.0
 11
6361.573655043089
 21
6037.593552937636
 31
0.0
  0
LINE
  5
2A11D
330
1F
100
AcDbEntity
  8
D-STR-DIM
  6
Continuous
100
AcDbLine
 10
6361.573655043089
 20
6111.843552561879
 30
0.0
 11
6361.573655043089
 21
6037.593552937636
 31
0.0
  0
TEXT
  5
2A11E
330
1F
100
AcDbEntity
  8
D-STR-DIM
100
AcDbText
 10
6345.573655124004
 20
6754.734149308401
 30
0.0
 40
70.0
  1
1651.5
 50
90.0
100
AcDbText
  0
LINE
  5
2A11F
330
1F
100
AcDbEntity
  8
D-STR-DIM
  6
Continuous
100
AcDbLine
 10
6661.573453524884
 20
6813.344149011792
 30
0.0
 11
6661.573453524884
 21
6388.343951162592
 31
0.0
  0
LINE
  5
2A120
330
1F
100
AcDbEntity
  8
D-STR-DIM
  6
Continuous
100
AcDbLine
 10
6691.573653373056
 20
6111.843552561879
 30
0.0
 11
6931.573532158447
 21
6111.843552561879
 31
0.0
  0
LINE
  5
2A121
330
1F
100
AcDbEntity
  8
D-STR-DIM
  6
Continuous
100
AcDbLine
 10
6661.573453524884
 20
5963.343553313394
 30
0.0
 11
6661.573453524884
 21
6388.343951162592
 31
0.0
  0
CIRCLE
  5
2A122
330
1F
100
AcDbEntity
  8
D-STR-DIM
  6
Continuous
100
AcDbCircle
 10
6661.573453524884
 20
5963.343553313394
 30
0.0
 40
5.999997969635766
  0
TEXT
  5
2A123
330
1F
100
AcDbEntity
  8
D-STR-DIM
100
AcDbText
 10
6645.573653605788
 20
6301.484151602165
 30
0.0
 40
70.0
  1
850
 50
90.0
100
AcDbText
  0
LINE
  5
2A124
330
1F
100
AcDbEntity
  8
D-STR-DIM
  6
Continuous
100
AcDbLine
 10
6941.57355200663
 20
6813.344149011792
 30
0.0
 11
6631.5736536767
 21
6813.344149011792
 31
0.0
  0
LINE
  5
2A125
330
1F
100
AcDbEntity
  8
D-STR-DIM
  6
Continuous
100
AcDbLine
 10
6661.573453524884
 20
6813.344149011792
 30
0.0
 11
6661.573453524884
 21
7063.343747746614
 31
0.0
  0
CIRCLE
  5
2A126
330
1F
100
AcDbEntity
  8
D-STR-DIM
  6
Continuous
100
AcDbCircle
 10
6661.573453524884
 20
6813.344149011792
 30
0.0
 40
5.999997969635766
  0
TEXT
  5
2A127
330
1F
100
AcDbEntity
  8
D-STR-DIM
100
AcDbText
 10
6645.573653605788
 20
6976.484148186187
 30
0.0
 40
70.0
  1
500
 50
90.0
100
AcDbText
  0
LINE
  5
2A128
330
1F
100
AcDbEntity
  8
D-STR-DIM
  6
Continuous
100
AcDbLine
 10
6564.570454015745
 20
7763.343944204118
 30
0.0
 11
6331.573655194908
 21
7763.343944204118
 31
0.0
  0
LINE
  5
2A129
330
1F
100
AcDbEntity
  8
D-STR-DIM
  6
Continuous
100
AcDbLine
 10
6941.57355200663
 20
8263.344341673764
 30
0.0
 11
6331.573655194908
 21
8263.344341673764
 31
0.0
  0
TEXT
  5
2A12A
330
1F
100
AcDbEntity
  8
D-STR-DIM
100
AcDbText
 10
6345.573655124004
 20
7926.484143378516
 30
0.0
 40
70.0
  1
500
 50
90.0
100
AcDbText
  0
LINE
  5
2A12B
330
1F
100
AcDbEntity
  8
D-STR-DIM
  6
Continuous
100
AcDbLine
 10
6361.573655043089
 20
7763.343944204118
 30
0.0
 11
6361.573655043089
 21
8013.343742938943
 31
0.0
  0
CIRCLE
  5
2A12C
330
1F
100
AcDbEntity
  8
D-STR-DIM
  6
Continuous
100
AcDbCircle
 10
6361.573655043089
 20
7763.343944204118
 30
0.0
 40
5.999997969635766
  0
LINE
  5
2A12D
330
1F
100
AcDbEntity
  8
D-STR-DIM
  6
Continuous
100
AcDbLine
 10
5908.710421031806
 20
8263.344341673764
 30
0.0
 11
5908.710421031806
 21
8163.343942179833
 31
0.0
  0
LINE
  5
2A12E
330
1F
100
AcDbEntity
  8
D-STR-DIM
  6
Continuous
100
AcDbLine
 10
5908.710421031806
 20
8063.343342685909
 30
0.0
 11
5908.710421031806
 21
8163.343942179833
 31
0.0
  0
CIRCLE
  5
2A12F
330
1F
100
AcDbEntity
  8
D-STR-DIM
  6
Continuous
100
AcDbCircle
 10
6361.573655043089
 20
8263.344341673764
 30
0.0
 40
5.999997969635766
  0
LINE
  5
2A130
330
1F
100
AcDbEntity
  8
D-STR-DIM
  6
Continuous
100
AcDbLine
 10
6361.573655043089
 20
8263.344341673764
 30
0.0
 11
6361.573655043089
 21
8013.343742938943
 31
0.0
  0
LINE
  5
2A131
330
1F
100
AcDbEntity
  8
D-STR-DIM
  6
Continuous
100
AcDbLine
 10
6661.573453524884
 20
8263.344341673764
 30
0.0
 11
6661.573453524884
 21
7788.3443440776
 31
0.0
  0
LINE
  5
2A132
330
1F
100
AcDbEntity
  8
D-STR-DIM
  6
Continuous
100
AcDbLine
 10
6941.57355200663
 20
7313.34334648144
 30
0.0
 11
6631.5736536767
 21
7313.34334648144
 31
0.0
  0
LINE
  5
2A133
330
1F
100
AcDbEntity
  8
D-STR-DIM
  6
Continuous
100
AcDbLine
 10
6691.573653373056
 20
7763.343944204118
 30
0.0
 11
6931.573532158447
 21
7763.343944204118
 31
0.0
  0
LINE
  5
2A134
330
1F
100
AcDbEntity
  8
D-STR-DIM
  6
Continuous
100
AcDbLine
 10
6661.573453524884
 20
7313.34334648144
 30
0.0
 11
6661.573453524884
 21
7788.3443440776
 31
0.0
  0
CIRCLE
  5
2A135
330
1F
100
AcDbEntity
  8
D-STR-DIM
  6
Continuous
100
AcDbCircle
 10
6661.573453524884
 20
7313.34334648144
 30
0.0
 40
5.999997969635766
  0
TEXT
  5
2A136
330
1F
100
AcDbEntity
  8
D-STR-DIM
100
AcDbText
 10
6645.573653605788
 20
7701.483744517176
 30
0.0
 40
70.0
  1
950
 50
90.0
100
AcDbText
  0
CIRCLE
  5
2A137
330
1F
100
AcDbEntity
  8
D-STR-STR2
  6
Continuous
100
AcDbCircle
 10
7130.074551153928
 20
7763.343944204118
 30
0.0
 40
34.99999782287525
  0
CIRCLE
  5
2A138
330
1F
100
AcDbEntity
  8
D-STR-STR2
  6
Continuous
100
AcDbCircle
 10
7130.074551153928
 20
7763.343944204118
 30
0.0
 40
14.9999979240894
  0
LINE
  5
2A139
330
1F
100
AcDbEntity
  8
D-BMK
  6
CENTER2
100
AcDbLine
 10
7130.074551153928
 20
7828.343543875175
 30
0.0
 11
7130.074551153928
 21
7698.343544533067
 31
0.0
  0
LINE
  5
2A13A
330
1F
100
AcDbEntity
  8
D-BMK
  6
CENTER2
100
AcDbLine
 10
7065.074491482853
 20
7763.343944204118
 30
0.0
 11
7195.074470824959
 21
7763.343944204118
 31
0.0
  0
CIRCLE
  5
2A13B
330
1F
100
AcDbEntity
  8
D-STR-DIM
  6
Continuous
100
AcDbCircle
 10
6661.573453524884
 20
8263.344341673764
 30
0.0
 40
5.999997969635766
  0
LINE
  5
2A13C
330
1F
100
AcDbEntity
  8
D-STR
  6
DASHED1
100
AcDbLine
 10
8381.573464820474
 20
6263.343951795179
 30
0.0
 11
8381.573464820474
 21
7963.343943191977
 31
0.0
  0
LINE
  5
2A13D
330
1F
100
AcDbEntity
  8
D-STR-STR2
  6
Continuous
100
AcDbLine
 10
7241.573470589679
 20
6913.343548505723
 30
0.0
 11
7241.573470589679
 21
7313.34334648144
 31
0.0
  0
LINE
  5
2A13E
330
1F
100
AcDbEntity
  8
D-STR-STR2
  6
Continuous
100
AcDbLine
 10
7921.573467148398
 20
6913.343548505723
 30
0.0
 11
7921.573467148398
 21
7313.34334648144
 31
0.0
  0
LINE
  5
2A13F
330
1F
100
AcDbEntity
  8
D-STR-STR2
  6
Continuous
100
AcDbLine
 10
7641.573468565396
 20
6913.343548505723
 30
0.0
 11
7641.573468565396
 21
7313.34334648144
 31
0.0
  0
LINE
  5
2A140
330
1F
100
AcDbEntity
  8
D-STR-STR2
  6
Continuous
100
AcDbLine
 10
8321.573465124115
 20
6913.343548505723
 30
0.0
 11
8321.573465124115
 21
7313.34334648144
 31
0.0
  0
LINE
  5
2A141
330
1F
100
AcDbEntity
  8
D-STR
  6
Continuous
100
AcDbLine
 10
7744.073448046667
 20
7347.343546309374
 30
0.0
 11
7744.073448046667
 21
6786.34194914844
 31
0.0
  0
LINE
  5
2A142
330
1F
100
AcDbEntity
  8
D-STR
  6
Continuous
100
AcDbLine
 10
7819.073427667106
 20
7347.343546309374
 30
0.0
 11
7819.073427667106
 21
6786.34194914844
 31
0.0
  0
LINE
  5
2A144
330
1F
100
AcDbEntity
  8
D-STR
  6
DASHED1
100
AcDbLine
 10
7281.573530387198
 20
6163.343552301252
 30
0.0
 11
8281.573465326543
 21
6163.343552301252
 31
0.0
  0
LINE
  5
2A145
330
1F
100
AcDbEntity
  8
D-BMK
  6
CENTER2
100
AcDbLine
 10
7791.574047806266
 20
6813.344149011792
 30
0.0
 11
7901.572867249557
 21
6813.344149011792
 31
0.0
  0
LINE
  5
2A146
330
1F
100
AcDbEntity
  8
D-STR
  6
Continuous
100
AcDbLine
 10
7879.073447363473
 20
6838.342548885281
 30
0.0
 11
7819.073427667106
 21
6838.342548885281
 31
0.0
  0
LINE
  5
2A147
330
1F
100
AcDbEntity
  8
D-STR
  6
Continuous
100
AcDbLine
 10
7879.073447363473
 20
6788.34174913832
 30
0.0
 11
7819.073427667106
 21
6788.34174913832
 31
0.0
  0
LINE
  5
2A148
330
1F
100
AcDbEntity
  8
D-STR-STR2
  6
Continuous
100
AcDbLine
 10
7331.573530134163
 20
6713.343549517865
 30
0.0
 11
8231.573465579579
 21
6713.343549517865
 31
0.0
  0
LINE
  5
2A149
330
1F
100
AcDbEntity
  8
D-STR-STR2
  6
Continuous
100
AcDbLine
 10
7331.573530134163
 20
6263.343951795179
 30
0.0
 11
8231.573465579579
 21
6263.343951795179
 31
0.0
  0
LINE
  5
2A14A
330
1F
100
AcDbEntity
  8
D-STR-STR2
  6
Continuous
100
AcDbLine
 10
7281.573530387198
 20
6313.343751542145
 30
0.0
 11
7281.573530387198
 21
6663.342949770902
 31
0.0
  0
CIRCLE
  5
2A14B
330
1F
100
AcDbEntity
  8
D-STR-STR2
  6
Continuous
100
AcDbCircle
 10
7481.573469375108
 20
6111.843552561879
 30
0.0
 40
14.9999979240894
  0
CIRCLE
  5
2A14C
330
1F
100
AcDbEntity
  8
D-STR-STR2
  6
Continuous
100
AcDbCircle
 10
7481.573469375108
 20
6111.843552561879
 30
0.0
 40
34.99999782287525
  0
LINE
  5
2A14E
330
1F
100
AcDbEntity
  8
D-BMK
  6
CENTER2
100
AcDbLine
 10
7416.573549704008
 20
6111.843552561879
 30
0.0
 11
7546.57352904611
 21
6111.843552561879
 31
0.0
  0
LINE
  5
2A14F
330
1F
100
AcDbEntity
  8
D-BMK
  6
CENTER2
100
AcDbLine
 10
7481.573469375108
 20
6176.844152232932
 30
0.0
 11
7481.573469375108
 21
6046.843952890824
 31
0.0
  0
LINE
  5
2A150
330
1F
100
AcDbEntity
  8
D-STR-STR2
  6
Continuous
100
AcDbLine
 10
7281.574150387188
 20
6313.343751542145
 30
0.0
 11
7331.574630134165
 21
6263.342951795184
 31
0.0
  0
LINE
  5
2A153
330
1F
100
AcDbEntity
  8
D-STR-STR2
  6
Continuous
100
AcDbLine
 10
7241.573470589679
 20
6913.343548505723
 30
0.0
 11
7641.573468565396
 21
6913.343548505723
 31
0.0
  0
LINE
  5
2A154
330
1F
100
AcDbEntity
  8
D-STR-STR2
  6
Continuous
100
AcDbLine
 10
7331.574630134165
 20
6713.343549517865
 30
0.0
 11
7281.573530387198
 21
6663.341949770907
 31
0.0
  0
CIRCLE
  5
2A155
330
1F
100
AcDbEntity
  8
D-STR-STR2
  6
Continuous
100
AcDbCircle
 10
7716.573448185838
 20
6813.344149011792
 30
0.0
 40
9.999997949392936
  0
LINE
  5
2A156
330
1F
100
AcDbEntity
  8
D-BMK
  6
CENTER2
100
AcDbLine
 10
7661.574068464164
 20
6813.344149011792
 30
0.0
 11
7771.572827907435
 21
6813.344149011792
 31
0.0
  0
LINE
  5
2A157
330
1F
100
AcDbEntity
  8
D-STR
  6
Continuous
100
AcDbLine
 10
7744.073448046667
 20
6788.34174913832
 30
0.0
 11
7684.073548350273
 21
6788.34174913832
 31
0.0
  0
LINE
  5
2A158
330
1F
100
AcDbEntity
  8
D-STR
  6
Continuous
100
AcDbLine
 10
7744.073448046667
 20
6838.342548885281
 30
0.0
 11
7684.073548350273
 21
6838.342548885281
 31
0.0
  0
LINE
  5
2A159
330
1F
100
AcDbEntity
  8
D-STR
  6
Continuous
100
AcDbLine
 10
7684.073548350273
 20
6838.342548885281
 30
0.0
 11
7684.073548350273
 21
6788.34174913832
 31
0.0
  0
CIRCLE
  5
2A15A
330
1F
100
AcDbEntity
  8
D-STR-STR2
  6
Continuous
100
AcDbCircle
 10
7846.573487527887
 20
6813.344149011792
 30
0.0
 40
9.999997949392936
  0
LINE
  5
2A15B
330
1F
100
AcDbEntity
  8
D-BMK
  6
CENTER2
100
AcDbLine
 10
7716.573448185838
 20
6868.344148733452
 30
0.0
 11
7716.573448185838
 21
6758.343149290135
 31
0.0
  0
LINE
  5
2A15C
330
1F
100
AcDbEntity
  8
D-STR
  6
Continuous
100
AcDbLine
 10
7819.073427667106
 20
6786.34194914844
 30
0.0
 11
7744.073448046667
 21
6786.34194914844
 31
0.0
  0
LINE
  5
2A15D
330
1F
100
AcDbEntity
  8
D-BMK
  6
CENTER2
100
AcDbLine
 10
7846.573487527887
 20
6868.344148733452
 30
0.0
 11
7846.573487527887
 21
6758.343149290135
 31
0.0
  0
LINE
  5
2A15E
330
1F
100
AcDbEntity
  8
D-STR-STR2
  6
Continuous
100
AcDbLine
 10
8281.573465326543
 20
6313.343751542145
 30
0.0
 11
8281.573465326543
 21
6663.344949770894
 31
0.0
  0
LINE
  5
2A15F
330
1F
100
AcDbEntity
  8
D-BMK
  6
CENTER2
100
AcDbLine
 10
8016.573466667628
 20
6111.843552561879
 30
0.0
 11
8146.57344600973
 21
6111.843552561879
 31
0.0
  0
CIRCLE
  5
2A160
330
1F
100
AcDbEntity
  8
D-STR-STR2
  6
Continuous
100
AcDbCircle
 10
8081.573466338683
 20
6111.843552561879
 30
0.0
 40
14.9999979240894
  0
CIRCLE
  5
2A161
330
1F
100
AcDbEntity
  8
D-STR-STR2
  6
Continuous
100
AcDbCircle
 10
8081.573466338683
 20
6111.843552561879
 30
0.0
 40
34.99999782287525
  0
LINE
  5
2A162
330
1F
100
AcDbEntity
  8
D-BMK
  6
CENTER2
100
AcDbLine
 10
8081.573466338683
 20
6176.844152232932
 30
0.0
 11
8081.573466338683
 21
6046.843952890824
 31
0.0
  0
LINE
  5
2A163
330
1F
100
AcDbEntity
  8
D-STR
  6
DASHED1
100
AcDbLine
 10
8381.57524482041
 20
6263.343951795179
 30
0.0
 11
8281.575245326484
 21
6163.343552301252
 31
0.0
  0
LINE
  5
2A164
330
1F
100
AcDbEntity
  8
D-STR-STR2
  6
Continuous
100
AcDbLine
 10
8231.575265579522
 20
6263.342951795184
 30
0.0
 11
8281.575245326484
 21
6313.342751542151
 31
0.0
  0
LINE
  5
2A167
330
1F
100
AcDbEntity
  8
D-STR-STR2
  6
Continuous
100
AcDbLine
 10
7921.573467148398
 20
6913.343548505723
 30
0.0
 11
8321.573465124115
 21
6913.343548505723
 31
0.0
  0
LINE
  5
2A168
330
1F
100
AcDbEntity
  8
D-STR
  6
Continuous
100
AcDbLine
 10
7879.073447363473
 20
6838.342548885281
 30
0.0
 11
7879.073447363473
 21
6788.34174913832
 31
0.0
  0
LINE
  5
2A169
330
1F
100
AcDbEntity
  8
D-STR-STR2
  6
Continuous
100
AcDbLine
 10
8281.572905326504
 20
6663.344949770894
 30
0.0
 11
8231.575265579522
 21
6713.343549517865
 31
0.0
  0
LINE
  5
2A16B
330
1F
100
AcDbEntity
  8
D-STR
  6
DASHED1
100
AcDbLine
 10
7281.573530387198
 20
8063.343342685909
 30
0.0
 11
8281.573465326543
 21
8063.343342685909
 31
0.0
  0
LINE
  5
2A16C
330
1F
100
AcDbEntity
  8
D-BMK
  6
CENTER2
100
AcDbLine
 10
7791.574047806266
 20
7313.34334648144
 30
0.0
 11
7901.572867249557
 21
7313.34334648144
 31
0.0
  0
LINE
  5
2A16D
330
1F
100
AcDbEntity
  8
D-STR
  6
Continuous
100
AcDbLine
 10
7879.073447363473
 20
7288.34314660796
 30
0.0
 11
7819.073427667106
 21
7288.34314660796
 31
0.0
  0
LINE
  5
2A16E
330
1F
100
AcDbEntity
  8
D-STR
  6
Continuous
100
AcDbLine
 10
7879.073447363473
 20
7338.34374635492
 30
0.0
 11
7819.073427667106
 21
7338.34374635492
 31
0.0
  0
LINE
  5
2A16F
330
1F
100
AcDbEntity
  8
D-STR-STR2
  6
Continuous
100
AcDbLine
 10
7331.573530134163
 20
7513.344345469294
 30
0.0
 11
8231.573465579579
 21
7513.344345469294
 31
0.0
  0
LINE
  5
2A170
330
1F
100
AcDbEntity
  8
D-STR-STR2
  6
Continuous
100
AcDbLine
 10
7331.573530134163
 20
7963.343943191977
 30
0.0
 11
8231.573465579579
 21
7963.343943191977
 31
0.0
  0
LINE
  5
2A171
330
1F
100
AcDbEntity
  8
D-STR-STR2
  6
Continuous
100
AcDbLine
 10
7331.574150134151
 20
7963.343943191977
 30
0.0
 11
7281.572930387217
 21
7913.342343445022
 31
0.0
  0
LINE
  5
2A172
330
1F
100
AcDbEntity
  8
D-STR-STR2
  6
Continuous
100
AcDbLine
 10
7241.573470589679
 20
7313.34334648144
 30
0.0
 11
7641.573468565396
 21
7313.34334648144
 31
0.0
  0
LINE
  5
2A173
330
1F
100
AcDbEntity
  8
D-STR-STR2
  6
Continuous
100
AcDbLine
 10
7281.573530387198
 20
7563.344145216261
 30
0.0
 11
7281.573530387198
 21
7913.342343445022
 31
0.0
  0
LINE
  5
2A174
330
1F
100
AcDbEntity
  8
D-STR-STR2
  6
Continuous
100
AcDbLine
 10
7281.574650387208
 20
7563.344145216261
 30
0.0
 11
7331.575250134156
 21
7513.343345469299
 31
0.0
  0
CIRCLE
  5
2A175
330
1F
100
AcDbEntity
  8
D-STR-STR2
  6
Continuous
100
AcDbCircle
 10
7716.573448185838
 20
7313.34334648144
 30
0.0
 40
9.999997949392936
  0
LINE
  5
2A176
330
1F
100
AcDbEntity
  8
D-STR
  6
Continuous
100
AcDbLine
 10
7684.073548350273
 20
7288.34314660796
 30
0.0
 11
7744.073448046667
 21
7288.34314660796
 31
0.0
  0
LINE
  5
2A177
330
1F
100
AcDbEntity
  8
D-STR
  6
Continuous
100
AcDbLine
 10
7684.073548350273
 20
7338.34374635492
 30
0.0
 11
7744.073448046667
 21
7338.34374635492
 31
0.0
  0
LINE
  5
2A178
330
1F
100
AcDbEntity
  8
D-BMK
  6
CENTER2
100
AcDbLine
 10
7661.574068464164
 20
7313.34334648144
 30
0.0
 11
7771.572827907435
 21
7313.34334648144
 31
0.0
  0
LINE
  5
2A179
330
1F
100
AcDbEntity
  8
D-STR-HTXT
  6
Continuous
100
AcDbLine
 10
7693.455748302826
 20
7358.236946254248
 30
0.0
 11
7710.798268215007
 21
7321.507746440123
 31
0.0
  0
LINE
  5
2A17A
330
1F
100
AcDbEntity
  8
D-STR
  6
Continuous
100
AcDbLine
 10
7684.073548350273
 20
7338.34374635492
 30
0.0
 11
7684.073548350273
 21
7288.34314660796
 31
0.0
  0
CIRCLE
  5
2A17B
330
1F
100
AcDbEntity
  8
D-STR-STR2
  6
Continuous
100
AcDbCircle
 10
7846.573487527887
 20
7313.34334648144
 30
0.0
 40
9.999997949392936
  0
LINE
  5
2A17C
330
1F
100
AcDbEntity
  8
D-STR-HTXT
  6
Continuous
100
AcDbLine
 10
7801.881887754051
 20
7382.518746131363
 30
0.0
 11
7781.573507856839
 21
7347.343546309374
 31
0.0
  0
LINE
  5
2A17D
330
1F
100
AcDbEntity
  8
D-STR
  6
Continuous
100
AcDbLine
 10
7819.073427667106
 20
7347.343546309374
 30
0.0
 11
7744.073448046667
 21
7347.343546309374
 31
0.0
  0
LINE
  5
2A17E
330
1F
100
AcDbEntity
  8
D-BMK
  6
CENTER2
100
AcDbLine
 10
7846.573487527887
 20
7368.343346203102
 30
0.0
 11
7846.573487527887
 21
7258.343346759779
 31
0.0
  0
LINE
  5
2A17F
330
1F
100
AcDbEntity
  8
D-BMK
  6
CENTER2
100
AcDbLine
 10
7716.573448185838
 20
7368.343346203102
 30
0.0
 11
7716.573448185838
 21
7258.343346759779
 31
0.0
  0
LINE
  5
2A180
330
1F
100
AcDbEntity
  8
D-STR-STR2
  6
Continuous
100
AcDbLine
 10
8281.573465326543
 20
7913.344143445012
 30
0.0
 11
8231.574085579566
 21
7963.343943191977
 31
0.0
  0
LINE
  5
2A181
330
1F
100
AcDbEntity
  8
D-STR-STR2
  6
Continuous
100
AcDbLine
 10
7921.573467148398
 20
7313.34334648144
 30
0.0
 11
8321.573465124115
 21
7313.34334648144
 31
0.0
  0
LINE
  5
2A182
330
1F
100
AcDbEntity
  8
D-STR
  6
Continuous
100
AcDbLine
 10
7879.073447363473
 20
7338.34374635492
 30
0.0
 11
7879.073447363473
 21
7288.34314660796
 31
0.0
  0
LINE
  5
2A183
330
1F
100
AcDbEntity
  8
D-STR-STR2
  6
Continuous
100
AcDbLine
 10
8281.573465326543
 20
7563.344145216261
 30
0.0
 11
8281.573465326543
 21
7913.344143445012
 31
0.0
  0
LINE
  5
2A184
330
1F
100
AcDbEntity
  8
D-STR-STR2
  6
Continuous
100
AcDbLine
 10
8231.575885579514
 20
7513.343345469299
 30
0.0
 11
8281.575245326484
 21
7563.343145216265
 31
0.0
  0
LINE
  5
2A185
330
1F
100
AcDbEntity
  8
D-BMK
  6
CENTER2
100
AcDbLine
 10
8368.073664888729
 20
7763.343944204118
 30
0.0
 11
8498.073684230844
 21
7763.343944204118
 31
0.0
  0
CIRCLE
  5
2A186
330
1F
100
AcDbEntity
  8
D-STR-STR2
  6
Continuous
100
AcDbCircle
 10
8433.073664559783
 20
7763.343944204118
 30
0.0
 40
14.9999979240894
  0
CIRCLE
  5
2A187
330
1F
100
AcDbEntity
  8
D-STR-STR2
  6
Continuous
100
AcDbCircle
 10
8433.073664559783
 20
7763.343944204118
 30
0.0
 40
34.99999782287525
  0
LINE
  5
2A188
330
1F
100
AcDbEntity
  8
D-BMK
  6
CENTER2
100
AcDbLine
 10
8433.073664559783
 20
7828.343543875175
 30
0.0
 11
8433.073664559783
 21
7698.343544533067
 31
0.0
  0
LINE
  5
2A189
330
1F
100
AcDbEntity
  8
D-STR
  6
DASHED1
100
AcDbLine
 10
8281.575245326484
 20
8063.343342685909
 30
0.0
 11
8381.57524482041
 21
7963.342943191982
 31
0.0
  0
LINE
  5
2A18C
330
1F
100
AcDbEntity
  8
D-STR-DIM
  6
Continuous
100
AcDbLine
 10
3290.209634283234
 20
8691.045739155045
 30
0.0
 11
3290.209634283234
 21
8993.344337979449
 31
0.0
  0
CIRCLE
  5
2A18D
330
1F
100
AcDbEntity
  8
D-STR-DIM
  6
Continuous
100
AcDbCircle
 10
3458.709233430502
 20
8663.344139649483
 30
0.0
 40
5.999997969635766
  0
LINE
  5
2A18E
330
1F
100
AcDbEntity
  8
D-STR-DIM
  6
Continuous
100
AcDbLine
 10
3458.709233430502
 20
9263.343936613058
 30
0.0
 11
3318.709434138997
 21
9263.343936613058
 31
0.0
  0
LINE
  5
2A18F
330
1F
100
AcDbEntity
  8
D-STR-DIM
  6
Continuous
100
AcDbLine
 10
3458.709233430502
 20
8963.343538131274
 30
0.0
 11
3374.459233856909
 21
8963.343538131274
 31
0.0
  0
CIRCLE
  5
2A190
330
1F
100
AcDbEntity
  8
D-STR-DIM
  6
Continuous
100
AcDbCircle
 10
3290.209634283234
 20
8963.343538131274
 30
0.0
 40
5.999997969635766
  0
LINE
  5
2A191
330
1F
100
AcDbEntity
  8
D-STR-DIM
  6
Continuous
100
AcDbLine
 10
3290.209634283234
 20
8963.343538131274
 30
0.0
 11
3374.459233856909
 21
8963.343538131274
 31
0.0
  0
CIRCLE
  5
2A192
330
1F
100
AcDbEntity
  8
D-STR-DIM
  6
Continuous
100
AcDbCircle
 10
3458.709233430502
 20
9263.343936613058
 30
0.0
 40
5.999997969635766
  0
CIRCLE
  5
2A193
330
1F
100
AcDbEntity
  8
D-STR-DIM
  6
Continuous
100
AcDbCircle
 10
3458.709233430502
 20
8963.343538131274
 30
0.0
 40
5.999997969635766
  0
LINE
  5
2A19E
330
1F
100
AcDbEntity
  8
D-STR-DIM
  6
Continuous
100
AcDbLine
 10
7241.573470589679
 20
9263.343936613058
 30
0.0
 11
7101.573451298172
 21
9263.343936613058
 31
0.0
  0
LINE
  5
2A19F
330
1F
100
AcDbEntity
  8
D-STR-DIM
  6
Continuous
100
AcDbLine
 10
7130.074551153928
 20
8963.343538131274
 30
0.0
 11
7781.574127856828
 21
8963.343538131274
 31
0.0
  0
LINE
  5
2A1A0
330
1F
100
AcDbEntity
  8
D-STR-DIM
  6
Continuous
100
AcDbLine
 10
6961.573552006631
 20
8663.344139649483
 30
0.0
 11
7339.073550096215
 21
8663.344139649483
 31
0.0
  0
TEXT
  5
2A1A8
330
1F
100
AcDbEntity
  8
D-STR-DIM
100
AcDbText
 10
7014.713571737695
 20
9279.343736532089
 30
0.0
 40
70.0
  1
280
100
AcDbText
  0
LINE
  5
2A1AA
330
1F
100
AcDbEntity
  8
D-STR-DIM
  6
Continuous
100
AcDbLine
 10
7130.074551153928
 20
8684.045739155044
 30
0.0
 11
7130.074551153928
 21
8993.344337979449
 31
0.0
  0
CIRCLE
  5
2A1AB
330
1F
100
AcDbEntity
  8
D-STR-DIM
  6
Continuous
100
AcDbCircle
 10
6961.573552006631
 20
8663.344139649483
 30
0.0
 40
5.999997969635766
  0
TEXT
  5
2A1AC
330
1F
100
AcDbEntity
  8
D-STR-DIM
100
AcDbText
 10
6907.517652280169
 20
8979.344338050298
 30
0.0
 40
70.0
  1
168.5
100
AcDbText
  0
LINE
  5
2A1AD
330
1F
100
AcDbEntity
  8
D-STR-DIM
  6
Continuous
100
AcDbLine
 10
6961.573552006631
 20
9263.343936613058
 30
0.0
 11
7101.573451298172
 21
9263.343936613058
 31
0.0
  0
LINE
  5
2A1AE
330
1F
100
AcDbEntity
  8
D-STR-DIM
  6
Continuous
100
AcDbLine
 10
7130.074551153928
 20
8963.343538131274
 30
0.0
 11
7045.823931580279
 21
8963.343538131274
 31
0.0
  0
CIRCLE
  5
2A1AF
330
1F
100
AcDbEntity
  8
D-STR-DIM
  6
Continuous
100
AcDbCircle
 10
6961.573552006631
 20
9263.343936613058
 30
0.0
 40
5.999997969635766
  0
CIRCLE
  5
2A1B0
330
1F
100
AcDbEntity
  8
D-STR-DIM
  6
Continuous
100
AcDbCircle
 10
6961.573552006631
 20
8963.343538131274
 30
0.0
 40
5.999997969635766
  0
LINE
  5
2A1B1
330
1F
100
AcDbEntity
  8
D-STR-DIM
  6
Continuous
100
AcDbLine
 10
6961.573552006631
 20
8963.343538131274
 30
0.0
 11
7045.823931580279
 21
8963.343538131274
 31
0.0
  0
CIRCLE
  5
2A1B2
330
1F
100
AcDbEntity
  8
D-STR-DIM
  6
Continuous
100
AcDbCircle
 10
7130.074551153928
 20
8963.343538131274
 30
0.0
 40
5.999997969635766
  0
LINE
  5
2A1B3
330
1F
100
AcDbEntity
  8
D-STR-DIM
  6
Continuous
100
AcDbLine
 10
7921.573467148398
 20
9263.343936613058
 30
0.0
 11
7781.573507856839
 21
9263.343936613058
 31
0.0
  0
LINE
  5
2A1B4
330
1F
100
AcDbEntity
  8
D-STR-DIM
  6
Continuous
100
AcDbLine
 10
8433.073664559783
 20
8963.343538131274
 30
0.0
 11
7781.574127856828
 21
8963.343538131274
 31
0.0
  0
LINE
  5
2A1B5
330
1F
100
AcDbEntity
  8
D-STR-DIM
  6
Continuous
100
AcDbLine
 10
7846.573487527887
 20
8663.344139649483
 30
0.0
 11
8224.073505617473
 21
8663.344139649483
 31
0.0
  0
TEXT
  5
2A1B6
330
1F
100
AcDbEntity
  8
D-STR-DIM
100
AcDbText
 10
7694.713488296461
 20
9279.343736532089
 30
0.0
 40
70.0
  1
280
100
AcDbText
  0
TEXT
  5
2A1B7
330
1F
100
AcDbEntity
  8
D-STR-DIM
100
AcDbText
 10
7354.713530017041
 20
9279.343736532089
 30
0.0
 40
70.0
  1
400
100
AcDbText
  0
LINE
  5
2A1B8
330
1F
100
AcDbEntity
  8
D-STR-DIM
  6
Continuous
100
AcDbLine
 10
7641.573468565396
 20
9263.343936613058
 30
0.0
 11
7441.573529577486
 21
9263.343936613058
 31
0.0
  0
LINE
  5
2A1B9
330
1F
100
AcDbEntity
  8
D-STR-DIM
  6
Continuous
100
AcDbLine
 10
7716.573448185838
 20
8663.344139649483
 30
0.0
 11
7339.073550096215
 21
8663.344139649483
 31
0.0
  0
TEXT
  5
2A1BA
330
1F
100
AcDbEntity
  8
D-STR-DIM
100
AcDbText
 10
7252.213550535772
 20
8679.343939568513
 30
0.0
 40
70.0
  1
755
100
AcDbText
  0
LINE
  5
2A1BB
330
1F
100
AcDbEntity
  8
D-STR-DIM
  6
Continuous
100
AcDbLine
 10
7241.573470589679
 20
8933.343938283092
 30
0.0
 11
7241.573470589679
 21
8791.045339003224
 31
0.0
  0
LINE
  5
2A1BC
330
1F
100
AcDbEntity
  8
D-STR-DIM
  6
Continuous
100
AcDbLine
 10
7241.573470589679
 20
9263.343936613058
 30
0.0
 11
7441.573529577486
 21
9263.343936613058
 31
0.0
  0
CIRCLE
  5
2A1BD
330
1F
100
AcDbEntity
  8
D-STR-DIM
  6
Continuous
100
AcDbCircle
 10
7241.573470589679
 20
9263.343936613058
 30
0.0
 40
5.999997969635766
  0
LINE
  5
2A1BE
330
1F
100
AcDbEntity
  8
D-STR-DIM
  6
Continuous
100
AcDbLine
 10
7241.573470589679
 20
8985.211537666355
 30
0.0
 11
7241.573470589679
 21
9293.343736461238
 31
0.0
  0
TEXT
  5
2A1BF
330
1F
100
AcDbEntity
  8
D-STR-DIM
100
AcDbText
 10
7694.713488296461
 20
8679.343939568513
 30
0.0
 40
70.0
  1
130
100
AcDbText
  0
CIRCLE
  5
2A1C0
330
1F
100
AcDbEntity
  8
D-STR-DIM
  6
Continuous
100
AcDbCircle
 10
7716.573448185838
 20
8663.344139649483
 30
0.0
 40
5.999997969635766
  0
LINE
  5
2A1C1
330
1F
100
AcDbEntity
  8
D-STR-DIM
  6
Continuous
100
AcDbLine
 10
7641.573468565396
 20
8933.343938283092
 30
0.0
 11
7641.573468565396
 21
8694.045339003222
 31
0.0
  0
CIRCLE
  5
2A1C2
330
1F
100
AcDbEntity
  8
D-STR-DIM
  6
Continuous
100
AcDbCircle
 10
7846.573487527887
 20
8663.344139649483
 30
0.0
 40
5.999997969635766
  0
LINE
  5
2A1C3
330
1F
100
AcDbEntity
  8
D-STR-DIM
  6
Continuous
100
AcDbLine
 10
7716.573448185838
 20
8663.344139649483
 30
0.0
 11
7781.573507856839
 21
8663.344139649483
 31
0.0
  0
LINE
  5
2A1C4
330
1F
100
AcDbEntity
  8
D-STR-DIM
  6
Continuous
100
AcDbLine
 10
7846.573487527887
 20
8663.344139649483
 30
0.0
 11
7781.573507856839
 21
8663.344139649483
 31
0.0
  0
TEXT
  5
2A1C5
330
1F
100
AcDbEntity
  8
D-STR-DIM
100
AcDbText
 10
7662.713508458368
 20
8979.344338050298
 30
0.0
 40
70.0
  1
1303
100
AcDbText
  0
LINE
  5
2A1C6
330
1F
100
AcDbEntity
  8
D-STR-DIM
  6
Continuous
100
AcDbLine
 10
7641.573468565396
 20
9263.343936613058
 30
0.0
 11
7781.573507856839
 21
9263.343936613058
 31
0.0
  0
CIRCLE
  5
2A1C7
330
1F
100
AcDbEntity
  8
D-STR-DIM
  6
Continuous
100
AcDbCircle
 10
7641.573468565396
 20
9263.343936613058
 30
0.0
 40
5.999997969635766
  0
LINE
  5
2A1C8
330
1F
100
AcDbEntity
  8
D-STR-DIM
  6
Continuous
100
AcDbLine
 10
7641.573468565396
 20
9055.211537666355
 30
0.0
 11
7641.573468565396
 21
9293.343736461238
 31
0.0
  0
TEXT
  5
2A1C9
330
1F
100
AcDbEntity
  8
D-STR-DIM
100
AcDbText
 10
8374.713464855174
 20
9279.343736532089
 30
0.0
 40
70.0
  1
280
100
AcDbText
  0
TEXT
  5
2A1CA
330
1F
100
AcDbEntity
  8
D-STR-DIM
100
AcDbText
 10
8034.713446575805
 20
9279.343736532089
 30
0.0
 40
70.0
  1
400
100
AcDbText
  0
TEXT
  5
2A1CB
330
1F
100
AcDbEntity
  8
D-STR-DIM
100
AcDbText
 10
8137.213486057099
 20
8679.343939568513
 30
0.0
 40
70.0
  1
755
100
AcDbText
  0
LINE
  5
2A1CC
330
1F
100
AcDbEntity
  8
D-STR-DIM
  6
Continuous
100
AcDbLine
 10
8321.573465124115
 20
9263.343936613058
 30
0.0
 11
8121.573466136259
 21
9263.343936613058
 31
0.0
  0
LINE
  5
2A1CD
330
1F
100
AcDbEntity
  8
D-STR-DIM
  6
Continuous
100
AcDbLine
 10
7921.573467148398
 20
8933.343938283092
 30
0.0
 11
7921.573467148398
 21
8694.045339003222
 31
0.0
  0
LINE
  5
2A1CE
330
1F
100
AcDbEntity
  8
D-STR-DIM
  6
Continuous
100
AcDbLine
 10
7921.573467148398
 20
9263.343936613058
 30
0.0
 11
8121.573466136259
 21
9263.343936613058
 31
0.0
  0
CIRCLE
  5
2A1CF
330
1F
100
AcDbEntity
  8
D-STR-DIM
  6
Continuous
100
AcDbCircle
 10
7921.573467148398
 20
9263.343936613058
 30
0.0
 40
5.999997969635766
  0
LINE
  5
2A1D0
330
1F
100
AcDbEntity
  8
D-STR-DIM
  6
Continuous
100
AcDbLine
 10
7921.573467148398
 20
9055.211537666355
 30
0.0
 11
7921.573467148398
 21
9293.343736461238
 31
0.0
  0
LINE
  5
2A1D1
330
1F
100
AcDbEntity
  8
D-STR-DIM
  6
Continuous
100
AcDbLine
 10
8433.073664559783
 20
8684.045739155044
 30
0.0
 11
8433.073664559783
 21
8993.344337979449
 31
0.0
  0
LINE
  5
2A1D2
330
1F
100
AcDbEntity
  8
D-STR-DIM
  6
Continuous
100
AcDbLine
 10
8321.573465124115
 20
8933.343938283092
 30
0.0
 11
8321.573465124115
 21
8791.045339003224
 31
0.0
  0
LINE
  5
2A1D3
330
1F
100
AcDbEntity
  8
D-STR-DIM
  6
Continuous
100
AcDbLine
 10
8321.573465124115
 20
9263.343936613058
 30
0.0
 11
8461.573444415611
 21
9263.343936613058
 31
0.0
  0
CIRCLE
  5
2A1D4
330
1F
100
AcDbEntity
  8
D-STR-DIM
  6
Continuous
100
AcDbCircle
 10
8321.573465124115
 20
9263.343936613058
 30
0.0
 40
5.999997969635766
  0
LINE
  5
2A1D5
330
1F
100
AcDbEntity
  8
D-STR-DIM
  6
Continuous
100
AcDbLine
 10
8321.573465124115
 20
8985.211537666355
 30
0.0
 11
8321.573465124115
 21
9293.343736461238
 31
0.0
  0
CIRCLE
  5
2A1D6
330
1F
100
AcDbEntity
  8
D-STR-DIM
  6
Continuous
100
AcDbCircle
 10
8433.073664559783
 20
8963.343538131274
 30
0.0
 40
5.999997969635766
  0
LINE
  5
2A1D7
330
1F
100
AcDbEntity
  8
D-STR-DIM
  6
Continuous
100
AcDbLine
 10
8433.073664559783
 20
8963.343538131274
 30
0.0
 11
8517.323484133461
 21
8963.343538131274
 31
0.0
  0
TEXT
  5
2A1E1
330
1F
100
AcDbEntity
  8
D-MTR-MTXT
100
AcDbText
 10
8953.440773032349
 20
2272.346755410086
 30
0.0
 40
69.99999964575048
  1
プレ－ト　φ50×4.5
100
AcDbText
  0
TEXT
  5
2A1E2
330
1F
100
AcDbEntity
  8
D-MTR-MTXT
100
AcDbText
 10
8953.440773032349
 20
2401.678314331798
 30
0.0
 40
69.99999964575048
  1
ボルト　Ｍ16　Ｌ＝140
100
AcDbText
  0
TEXT
  5
2A1E4
330
1F
100
AcDbEntity
  8
D-MTR-MTXT
100
AcDbText
 10
10934.87048363779
 20
2272.346755410086
 30
0.0
 40
69.99999964575048
  1
　　　４　個
100
AcDbText
  0
TEXT
  5
2A1E5
330
1F
100
AcDbEntity
  8
D-MTR-MTXT
100
AcDbText
 10
10932.35568863387
 20
2401.678314331798
 30
0.0
 40
69.99999964575048
  1
　　　４　本
100
AcDbText
  0
TEXT
  5
2A1EA
330
1F
100
AcDbEntity
  8
D-STR-DIM
100
AcDbText
 10
13570.4765821468
 20
8979.344338050298
 30
0.0
 40
70.0
  1
168.5
100
AcDbText
  0
CIRCLE
  5
2A1EC
330
1F
100
AcDbEntity
  8
D-STR-DIM
  6
Continuous
100
AcDbCircle
 10
13787.29358104956
 20
9263.343936613058
 30
0.0
 40
5.999997969635766
  0
CIRCLE
  5
2A1ED
330
1F
100
AcDbEntity
  8
D-STR-DIM
  6
Continuous
100
AcDbCircle
 10
13787.29358104956
 20
5263.344356855886
 30
0.0
 40
5.999997969635766
  0
CIRCLE
  5
2A1EE
330
1F
100
AcDbEntity
  8
D-STR-DIM
  6
Continuous
100
AcDbCircle
 10
13787.29358104956
 20
8663.344139649483
 30
0.0
 40
5.999997969635766
  0
CIRCLE
  5
2A1EF
330
1F
100
AcDbEntity
  8
D-STR-DIM
  6
Continuous
100
AcDbCircle
 10
13787.29358104956
 20
5563.343755337676
 30
0.0
 40
5.999997969635766
  0
CIRCLE
  5
2A1F0
330
1F
100
AcDbEntity
  8
D-STR-DIM
  6
Continuous
100
AcDbCircle
 10
13787.29358104956
 20
8963.343538131274
 30
0.0
 40
5.999997969635766
  0
CIRCLE
  5
2A1F1
330
1F
100
AcDbEntity
  8
D-STR-DIM
  6
Continuous
100
AcDbCircle
 10
13787.29358104956
 20
4963.3439583741
 30
0.0
 40
5.999997969635766
  0
LINE
  5
2A1F2
330
1F
100
AcDbEntity
  8
D-STR-DIM
  6
Continuous
100
AcDbLine
 10
13807.29358104956
 20
7963.343943191977
 30
0.0
 11
14217.29357887346
 21
7963.343943191977
 31
0.0
  0
LINE
  5
2A1F3
330
1F
100
AcDbEntity
  8
D-STR-DIM
  6
Continuous
100
AcDbLine
 10
13807.29358104956
 20
7163.344147240543
 30
0.0
 11
14217.29357887346
 21
7163.344147240543
 31
0.0
  0
LINE
  5
2A1F4
330
1F
100
AcDbEntity
  8
D-STR-DIM
  6
Continuous
100
AcDbLine
 10
13807.29358104956
 20
7013.343947999648
 30
0.0
 11
14217.29357887346
 21
7013.343947999648
 31
0.0
  0
LINE
  5
2A1F5
330
1F
100
AcDbEntity
  8
D-STR-DIM
  6
Continuous
100
AcDbLine
 10
13807.29358104956
 20
6613.344150023933
 30
0.0
 11
14217.29357887346
 21
6613.344150023933
 31
0.0
  0
TEXT
  5
2A1F6
330
1F
100
AcDbEntity
  8
D-STR-HTXT
100
AcDbText
 10
8673.237816249304
 20
8293.306285482122
 30
0.0
 40
50.0
  1
Ｔ－Ｋタイプ
100
AcDbText
  0
LINE
  5
2A1F8
330
1F
100
AcDbEntity
  8
D-STR-DIM
  6
Continuous
100
AcDbLine
 10
12147.29358934912
 20
8283.344341673766
 30
0.0
 11
12147.29358934912
 21
9293.343736461238
 31
0.0
  0
LINE
  5
2A1F9
330
1F
100
AcDbEntity
  8
D-STR-DIM
  6
Continuous
100
AcDbLine
 10
13787.29358104956
 20
8283.344341673766
 30
0.0
 11
13787.29358104956
 21
9293.343736461238
 31
0.0
  0
LINE
  5
2A1FA
330
1F
100
AcDbEntity
  8
D-STR-DIM
  6
Continuous
100
AcDbLine
 10
8601.573443707108
 20
8283.344341673766
 30
0.0
 11
8601.573443707108
 21
9293.343736461238
 31
0.0
  0
LINE
  5
2A1FD
330
1F
100
AcDbEntity
  8
D-STR-DIM
  6
Continuous
100
AcDbLine
 10
13032.2933848704
 20
8283.344341673766
 30
0.0
 11
13032.2933848704
 21
8421.662187176815
 31
0.0
  0
LINE
  5
2A1FE
330
1F
100
AcDbEntity
  8
D-STR-DIM
  6
Continuous
100
AcDbLine
 10
12902.29378552828
 20
8283.344341673766
 30
0.0
 11
12902.29378552828
 21
8421.662187176815
 31
0.0
  0
LINE
  5
2A1FF
330
1F
100
AcDbEntity
  8
D-STR-DIM
  6
Continuous
100
AcDbLine
 10
12467.2935877297
 20
8633.343539801307
 30
0.0
 11
12467.2935877297
 21
8542.281077240387
 31
0.0
  0
LINE
  5
2A200
330
1F
100
AcDbEntity
  8
D-STR-DIM
  6
Continuous
100
AcDbLine
 10
13467.29358266899
 20
8633.343539801307
 30
0.0
 11
13467.29358266899
 21
8542.281077240387
 31
0.0
  0
LINE
  5
2A201
330
1F
100
AcDbEntity
  8
D-STR-HTXT
  6
Continuous
100
AcDbLine
 10
11947.29379036126
 20
8663.344139649483
 30
0.0
 11
12897.60718555201
 21
6872.177148714055
 31
0.0
  0
LINE
  5
2A202
330
1F
100
AcDbEntity
  8
D-STR-DIM
  6
Continuous
100
AcDbLine
 10
13618.79358190231
 20
8633.343539801307
 30
0.0
 11
13618.79358190231
 21
8542.281077240387
 31
0.0
  0
LINE
  5
2A203
330
1F
100
AcDbEntity
  8
D-STR-DIM
  6
Continuous
100
AcDbLine
 10
12315.79458849642
 20
8633.343539801307
 30
0.0
 11
12315.79458849642
 21
8542.281077240387
 31
0.0
  0
LINE
  5
2A205
330
1F
100
AcDbEntity
  8
D-STR-DIM
  6
Continuous
100
AcDbLine
 10
8601.573443707108
 20
5943.343553313394
 30
0.0
 11
8601.573443707108
 21
4933.34435852592
 31
0.0
  0
LINE
  5
2A206
330
1F
100
AcDbEntity
  8
D-STR-DIM
  6
Continuous
100
AcDbLine
 10
10001.57457662206
 20
5943.343553313394
 30
0.0
 11
10001.57457662206
 21
5533.344155489496
 31
0.0
  0
LINE
  5
2A207
330
1F
100
AcDbEntity
  8
D-STR-DIM
  6
Continuous
100
AcDbLine
 10
9851.57463738119
 20
5943.343553313394
 30
0.0
 11
9851.57463738119
 21
5533.344155489496
 31
0.0
  0
TEXT
  5
2A208
330
1F
100
AcDbEntity
  8
D-STR-DIM
100
AcDbText
 10
9804.548017619145
 20
5579.344355256701
 30
0.0
 40
70.0
  1
150
100
AcDbText
  0
CIRCLE
  5
2A209
330
1F
100
AcDbEntity
  8
D-STR-DIM
  6
Continuous
100
AcDbCircle
 10
9851.57463738119
 20
5563.343755337676
 30
0.0
 40
5.999997969635766
  0
CIRCLE
  5
2A20A
330
1F
100
AcDbEntity
  8
D-STR-DIM
  6
Continuous
100
AcDbCircle
 10
8601.573443707108
 20
4963.3439583741
 30
0.0
 40
5.999997969635766
  0
CIRCLE
  5
2A20B
330
1F
100
AcDbEntity
  8
D-STR-DIM
  6
Continuous
100
AcDbCircle
 10
8601.573443707108
 20
5263.344356855886
 30
0.0
 40
5.999997969635766
  0
CIRCLE
  5
2A20C
330
1F
100
AcDbEntity
  8
D-STR-DIM
  6
Continuous
100
AcDbCircle
 10
8601.573443707108
 20
5563.343755337676
 30
0.0
 40
5.999997969635766
  0
CIRCLE
  5
2A20F
330
1F
100
AcDbEntity
  8
D-STR-DIM
  6
Continuous
100
AcDbCircle
 10
10001.57457662206
 20
5563.343755337676
 30
0.0
 40
5.999997969635766
  0
LINE
  5
2A210
330
1F
100
AcDbEntity
  8
D-STR-DIM
  6
Continuous
100
AcDbLine
 10
10001.57457662206
 20
5563.343755337676
 30
0.0
 11
9926.574597001621
 21
5563.343755337676
 31
0.0
  0
LINE
  5
2A211
330
1F
100
AcDbEntity
  8
D-STR-DIM
  6
Continuous
100
AcDbLine
 10
9851.57463738119
 20
5563.343755337676
 30
0.0
 11
9926.574597001621
 21
5563.343755337676
 31
0.0
  0
LINE
  5
2A212
330
1F
100
AcDbEntity
  8
D-STR-DIM
  6
Continuous
100
AcDbLine
 10
9831.574637381189
 20
7808.343543976389
 30
0.0
 11
9521.574599051207
 21
7808.343543976389
 31
0.0
  0
LINE
  5
2A213
330
1F
100
AcDbEntity
  8
D-STR-DIM
  6
Continuous
100
AcDbLine
 10
9831.574637381189
 20
7718.343544431853
 30
0.0
 11
9521.574599051207
 21
7718.343544431853
 31
0.0
  0
LINE
  5
2A214
330
1F
100
AcDbEntity
  8
D-STR-DIM
  6
Continuous
100
AcDbLine
 10
9881.574617128151
 20
7798.343944026993
 30
0.0
 11
9671.574598292103
 21
7798.343944026993
 31
0.0
  0
LINE
  5
2A215
330
1F
100
AcDbEntity
  8
D-STR-DIM
  6
Continuous
100
AcDbLine
 10
9881.574617128151
 20
7728.344144381243
 30
0.0
 11
9671.574598292103
 21
7728.344144381243
 31
0.0
  0
LINE
  5
2A216
330
1F
100
AcDbEntity
  8
D-STR-DIM
  6
Continuous
100
AcDbLine
 10
9001.573431682825
 20
7313.34334648144
 30
0.0
 11
9001.573431682825
 21
7113.343547493581
 31
0.0
  0
LINE
  5
2A217
330
1F
100
AcDbEntity
  8
D-STR-DIM
  6
Continuous
100
AcDbLine
 10
9301.573420164608
 20
8263.344341673764
 30
0.0
 11
9301.573420164608
 21
7113.343547493581
 31
0.0
  0
LINE
  5
2A218
330
1F
100
AcDbEntity
  8
D-STR
  6
Continuous
100
AcDbLine
 10
8601.573443707108
 20
5963.343553313394
 30
0.0
 11
8601.573443707108
 21
8263.344341673764
 31
0.0
  0
LINE
  5
2A219
330
1F
100
AcDbEntity
  8
D-STR-DIM
  6
Continuous
100
AcDbLine
 10
8631.573463555294
 20
5963.343553313394
 30
0.0
 11
9821.574617533007
 21
5963.343553313394
 31
0.0
  0
LINE
  5
2A21A
330
1F
100
AcDbEntity
  8
D-STR-DIM
  6
Continuous
100
AcDbLine
 10
9001.573431682825
 20
6713.343549517865
 30
0.0
 11
9001.573431682825
 21
6488.344350656518
 31
0.0
  0
LINE
  5
2A21B
330
1F
100
AcDbEntity
  8
D-STR-DIM
  6
Continuous
100
AcDbLine
 10
8621.573443707108
 20
6263.343951795179
 30
0.0
 11
9031.573431531004
 21
6263.343951795179
 31
0.0
  0
LINE
  5
2A21C
330
1F
100
AcDbEntity
  8
D-STR-DIM
  6
Continuous
100
AcDbLine
 10
9001.573431682825
 20
6263.343951795179
 30
0.0
 11
9001.573431682825
 21
6113.343752554286
 31
0.0
  0
CIRCLE
  5
2A21D
330
1F
100
AcDbEntity
  8
D-STR-DIM
  6
Continuous
100
AcDbCircle
 10
9001.573431682825
 20
5963.343553313394
 30
0.0
 40
5.999997969635766
  0
LINE
  5
2A21E
330
1F
100
AcDbEntity
  8
D-STR-DIM
  6
Continuous
100
AcDbLine
 10
9001.573431682825
 20
5963.343553313394
 30
0.0
 11
9001.573431682825
 21
6113.343752554286
 31
0.0
  0
TEXT
  5
2A21F
330
1F
100
AcDbEntity
  8
D-STR-DIM
100
AcDbText
 10
9097.893421195353
 20
6026.484152993859
 30
0.0
 40
70.0
  1
300
 50
90.0
100
AcDbText
  0
TEXT
  5
2A220
330
1F
100
AcDbEntity
  8
D-STR-DIM
100
AcDbText
 10
8985.573437763786
 20
6401.483751096096
 30
0.0
 40
70.0
  1
450
 50
90.0
100
AcDbText
  0
CIRCLE
  5
2A221
330
1F
100
AcDbEntity
  8
D-STR-DIM
  6
Continuous
100
AcDbCircle
 10
9001.573431682825
 20
6263.343951795179
 30
0.0
 40
5.999997969635766
  0
LINE
  5
2A222
330
1F
100
AcDbEntity
  8
D-STR-DIM
  6
Continuous
100
AcDbLine
 10
9001.573431682825
 20
6263.343951795179
 30
0.0
 11
9001.573431682825
 21
6488.344350656518
 31
0.0
  0
LINE
  5
2A223
330
1F
100
AcDbEntity
  8
D-STR-DIM
  6
Continuous
100
AcDbLine
 10
8621.573443707108
 20
6913.343548505723
 30
0.0
 11
9031.573431531004
 21
6913.343548505723
 31
0.0
  0
LINE
  5
2A224
330
1F
100
AcDbEntity
  8
D-STR-DIM
  6
Continuous
100
AcDbLine
 10
8621.573443707108
 20
6713.343549517865
 30
0.0
 11
9031.573431531004
 21
6713.343549517865
 31
0.0
  0
CIRCLE
  5
2A225
330
1F
100
AcDbEntity
  8
D-STR-DIM
  6
Continuous
100
AcDbCircle
 10
9001.573431682825
 20
6913.343548505723
 30
0.0
 40
5.999997969635766
  0
LINE
  5
2A226
330
1F
100
AcDbEntity
  8
D-STR-DIM
  6
Continuous
100
AcDbLine
 10
9001.573431682825
 20
6913.343548505723
 30
0.0
 11
9001.573431682825
 21
6813.344149011792
 31
0.0
  0
CIRCLE
  5
2A227
330
1F
100
AcDbEntity
  8
D-STR-DIM
  6
Continuous
100
AcDbCircle
 10
9001.573431682825
 20
6713.343549517865
 30
0.0
 40
5.999997969635766
  0
LINE
  5
2A228
330
1F
100
AcDbEntity
  8
D-STR-DIM
  6
Continuous
100
AcDbLine
 10
9001.573431682825
 20
6713.343549517865
 30
0.0
 11
9001.573431682825
 21
6813.344149011792
 31
0.0
  0
TEXT
  5
2A229
330
1F
100
AcDbEntity
  8
D-STR-DIM
100
AcDbText
 10
9097.893421195353
 20
6726.483549451365
 30
0.0
 40
70.0
  1
200
 50
90.0
100
AcDbText
  0
TEXT
  5
2A22A
330
1F
100
AcDbEntity
  8
D-STR-DIM
100
AcDbText
 10
8985.573437763786
 20
7026.483947933151
 30
0.0
 40
70.0
  1
400
 50
90.0
100
AcDbText
  0
LINE
  5
2A22B
330
1F
100
AcDbEntity
  8
D-STR-DIM
  6
Continuous
100
AcDbLine
 10
9001.573431682825
 20
6913.343548505723
 30
0.0
 11
9001.573431682825
 21
7113.343547493581
 31
0.0
  0
LINE
  5
2A22C
330
1F
100
AcDbEntity
  8
D-STR-DIM
  6
Continuous
100
AcDbLine
 10
9301.573420164608
 20
5963.343553313394
 30
0.0
 11
9301.573420164608
 21
7113.343547493581
 31
0.0
  0
CIRCLE
  5
2A22D
330
1F
100
AcDbEntity
  8
D-STR-DIM
  6
Continuous
100
AcDbCircle
 10
9301.573420164608
 20
5963.343553313394
 30
0.0
 40
5.999997969635766
  0
TEXT
  5
2A22E
330
1F
100
AcDbEntity
  8
D-STR-DIM
100
AcDbText
 10
9285.573420245521
 20
6994.483548095097
 30
0.0
 40
70.0
  1
2300
 50
90.00001500002756
100
AcDbText
  0
LINE
  5
2A22F
330
1F
100
AcDbEntity
  8
D-STR-DIM
  6
Continuous
100
AcDbLine
 10
8631.573463555294
 20
8263.344341673764
 30
0.0
 11
9821.574617533007
 21
8263.344341673764
 31
0.0
  0
LINE
  5
2A230
330
1F
100
AcDbEntity
  8
D-STR-DIM
  6
Continuous
100
AcDbLine
 10
9001.573431682825
 20
7963.343943191977
 30
0.0
 11
9001.573431682825
 21
7738.343744330638
 31
0.0
  0
LINE
  5
2A231
330
1F
100
AcDbEntity
  8
D-STR-DIM
  6
Continuous
100
AcDbLine
 10
8621.573443707108
 20
7313.34334648144
 30
0.0
 11
9031.573431531004
 21
7313.34334648144
 31
0.0
  0
LINE
  5
2A232
330
1F
100
AcDbEntity
  8
D-STR-DIM
  6
Continuous
100
AcDbLine
 10
8621.573443707108
 20
7513.344345469294
 30
0.0
 11
9031.573431531004
 21
7513.344345469294
 31
0.0
  0
LINE
  5
2A233
330
1F
100
AcDbEntity
  8
D-STR-DIM
  6
Continuous
100
AcDbLine
 10
9001.573431682825
 20
7513.344345469294
 30
0.0
 11
9001.573431682825
 21
7738.343744330638
 31
0.0
  0
CIRCLE
  5
2A234
330
1F
100
AcDbEntity
  8
D-STR-DIM
  6
Continuous
100
AcDbCircle
 10
9001.573431682825
 20
7313.34334648144
 30
0.0
 40
5.999997969635766
  0
CIRCLE
  5
2A235
330
1F
100
AcDbEntity
  8
D-STR-DIM
  6
Continuous
100
AcDbCircle
 10
9001.573431682825
 20
7513.344345469294
 30
0.0
 40
5.999997969635766
  0
LINE
  5
2A236
330
1F
100
AcDbEntity
  8
D-STR-DIM
  6
Continuous
100
AcDbLine
 10
9001.573431682825
 20
7513.344345469294
 30
0.0
 11
9001.573431682825
 21
7413.343945975366
 31
0.0
  0
LINE
  5
2A237
330
1F
100
AcDbEntity
  8
D-STR-DIM
  6
Continuous
100
AcDbLine
 10
9001.573431682825
 20
7313.34334648144
 30
0.0
 11
9001.573431682825
 21
7413.343945975366
 31
0.0
  0
TEXT
  5
2A238
330
1F
100
AcDbEntity
  8
D-STR-DIM
100
AcDbText
 10
9097.893421195353
 20
7326.484346414936
 30
0.0
 40
70.0
  1
200
 50
90.0
100
AcDbText
  0
TEXT
  5
2A239
330
1F
100
AcDbEntity
  8
D-STR-DIM
100
AcDbText
 10
8985.573437763786
 20
7651.48394477021
 30
0.0
 40
70.0
  1
450
 50
90.0
100
AcDbText
  0
LINE
  5
2A23A
330
1F
100
AcDbEntity
  8
D-STR-DIM
  6
Continuous
100
AcDbLine
 10
8621.573443707108
 20
7963.343943191977
 30
0.0
 11
9031.573431531004
 21
7963.343943191977
 31
0.0
  0
CIRCLE
  5
2A23B
330
1F
100
AcDbEntity
  8
D-STR-DIM
  6
Continuous
100
AcDbCircle
 10
9001.573431682825
 20
7963.343943191977
 30
0.0
 40
5.999997969635766
  0
CIRCLE
  5
2A23C
330
1F
100
AcDbEntity
  8
D-STR-DIM
  6
Continuous
100
AcDbCircle
 10
9001.573431682825
 20
8263.344341673764
 30
0.0
 40
5.999997969635766
  0
LINE
  5
2A23D
330
1F
100
AcDbEntity
  8
D-STR-DIM
  6
Continuous
100
AcDbLine
 10
9001.573431682825
 20
8263.344341673764
 30
0.0
 11
9001.573431682825
 21
8113.34414243287
 31
0.0
  0
LINE
  5
2A23E
330
1F
100
AcDbEntity
  8
D-STR-DIM
  6
Continuous
100
AcDbLine
 10
9001.573431682825
 20
7963.343943191977
 30
0.0
 11
9001.573431682825
 21
8113.34414243287
 31
0.0
  0
TEXT
  5
2A23F
330
1F
100
AcDbEntity
  8
D-STR-DIM
100
AcDbText
 10
9097.893421195353
 20
8026.483542872446
 30
0.0
 40
70.0
  1
300
 50
90.0
100
AcDbText
  0
TEXT
  5
2A240
330
1F
100
AcDbEntity
  8
D-STR-DIM
100
AcDbText
 10
9539.574598960145
 20
7674.575944653347
 30
0.0
 40
50.0
  1
φ90
 50
90.0
100
AcDbText
  0
TEXT
  5
2A241
330
1F
100
AcDbEntity
  8
D-STR-DIM
100
AcDbText
 10
9689.574618201049
 20
7674.575944653347
 30
0.0
 40
50.0
  1
φ70
 50
90.0
100
AcDbText
  0
CIRCLE
  5
2A242
330
1F
100
AcDbEntity
  8
D-STR-DIM
  6
Continuous
100
AcDbCircle
 10
9551.574598899389
 20
7808.343543976389
 30
0.0
 40
5.999997969635766
  0
CIRCLE
  5
2A243
330
1F
100
AcDbEntity
  8
D-STR-DIM
  6
Continuous
100
AcDbCircle
 10
9551.574598899389
 20
7718.343544431853
 30
0.0
 40
5.999997969635766
  0
LINE
  5
2A244
330
1F
100
AcDbEntity
  8
D-STR-DIM
  6
Continuous
100
AcDbLine
 10
9551.574598899389
 20
7808.343543976389
 30
0.0
 11
9551.574598899389
 21
7763.343944204118
 31
0.0
  0
LINE
  5
2A245
330
1F
100
AcDbEntity
  8
D-STR-DIM
  6
Continuous
100
AcDbLine
 10
9551.574598899389
 20
7718.343544431853
 30
0.0
 11
9551.574598899389
 21
7763.343944204118
 31
0.0
  0
CIRCLE
  5
2A246
330
1F
100
AcDbEntity
  8
D-STR-DIM
  6
Continuous
100
AcDbCircle
 10
9701.574618140291
 20
7798.343944026993
 30
0.0
 40
5.999997969635766
  0
CIRCLE
  5
2A247
330
1F
100
AcDbEntity
  8
D-STR-DIM
  6
Continuous
100
AcDbCircle
 10
9701.574618140291
 20
7728.344144381243
 30
0.0
 40
5.999997969635766
  0
LINE
  5
2A248
330
1F
100
AcDbEntity
  8
D-STR-DIM
  6
Continuous
100
AcDbLine
 10
9701.574618140291
 20
7798.343944026993
 30
0.0
 11
9701.574618140291
 21
7763.343944204118
 31
0.0
  0
LINE
  5
2A249
330
1F
100
AcDbEntity
  8
D-STR-DIM
  6
Continuous
100
AcDbLine
 10
9701.574618140291
 20
7728.344144381243
 30
0.0
 11
9701.574618140291
 21
7763.343944204118
 31
0.0
  0
CIRCLE
  5
2A24A
330
1F
100
AcDbEntity
  8
D-STR-DIM
  6
Continuous
100
AcDbCircle
 10
9301.573420164608
 20
8263.344341673764
 30
0.0
 40
5.999997969635766
  0
LINE
  5
2A24B
330
1F
100
AcDbEntity
  8
D-STR-DIM
  6
Continuous
100
AcDbLine
 10
11051.57443130835
 20
8063.343342685909
 30
0.0
 11
11051.57443130835
 21
7113.343547493581
 31
0.0
  0
LINE
  5
2A24C
330
1F
100
AcDbEntity
  8
D-STR-DIM
  6
Continuous
100
AcDbLine
 10
10801.57457257349
 20
7513.344345469294
 30
0.0
 11
10801.57457257349
 21
7113.343547493581
 31
0.0
  0
LINE
  5
2A24D
330
1F
100
AcDbEntity
  8
D-STR-DIM
  6
Continuous
100
AcDbLine
 10
10551.57451383873
 20
7313.34334648144
 30
0.0
 11
10551.57451383873
 21
7088.344147620095
 31
0.0
  0
LINE
  5
2A24E
330
1F
100
AcDbEntity
  8
D-STR
  6
Continuous
100
AcDbLine
 10
9951.574596875108
 20
6913.343548505723
 30
0.0
 11
9951.574596875108
 21
7313.34334648144
 31
0.0
  0
LINE
  5
2A24F
330
1F
100
AcDbEntity
  8
D-STR
  6
Continuous
100
AcDbLine
 10
9901.574617128151
 20
6913.344548505718
 30
0.0
 11
9901.574617128151
 21
7313.34334648144
 31
0.0
  0
LINE
  5
2A250
330
1F
100
AcDbEntity
  8
D-STR
  6
Continuous
100
AcDbLine
 10
10001.57457662206
 20
5963.343553313394
 30
0.0
 11
10001.57457662206
 21
8263.344341673764
 31
0.0
  0
LINE
  5
2A251
330
1F
100
AcDbEntity
  8
D-STR
  6
Continuous
100
AcDbLine
 10
9851.57463738119
 20
5963.343553313394
 30
0.0
 11
9851.57463738119
 21
8263.344341673764
 31
0.0
  0
LINE
  5
2A252
330
1F
100
AcDbEntity
  8
D-STR
  6
Continuous
100
AcDbLine
 10
10026.0753964981
 20
7342.343146334683
 30
0.0
 11
10026.0753964981
 21
6781.342749173742
 31
0.0
  0
TEXT
  5
2A253
330
1F
100
AcDbEntity
  8
D-STR-DIM
100
AcDbText
 10
10539.57463389945
 20
6723.198549467991
 30
0.0
 40
50.0
  1
150
 50
90.0
100
AcDbText
  0
TEXT
  5
2A254
330
1F
100
AcDbEntity
  8
D-STR-DIM
100
AcDbText
 10
10539.57463389945
 20
6886.043885717885
 30
0.0
 40
50.0
  1
（５０ピッチ）
 50
90.00003000005511
100
AcDbText
  0
LINE
  5
2A255
330
1F
100
AcDbEntity
  8
D-STR-DIM
  6
Continuous
100
AcDbLine
 10
10021.57457662206
 20
6263.343951795179
 30
0.0
 11
10831.57457242167
 21
6263.343951795179
 31
0.0
  0
LINE
  5
2A256
330
1F
100
AcDbEntity
  8
D-STR-DIM
  6
Continuous
100
AcDbLine
 10
10321.57459510386
 20
6163.343552301252
 30
0.0
 11
11081.57443115652
 21
6163.343552301252
 31
0.0
  0
LINE
  5
2A257
330
1F
100
AcDbEntity
  8
D-STR-DIM
  6
Continuous
100
AcDbLine
 10
10321.57459510386
 20
5963.343553313394
 30
0.0
 11
11081.57443115652
 21
5963.343553313394
 31
0.0
  0
LINE
  5
2A258
330
1F
100
AcDbEntity
  8
D-STR-DIM
  6
Continuous
100
AcDbLine
 10
10021.57457662206
 20
6713.343549517865
 30
0.0
 11
10831.57457242167
 21
6713.343549517865
 31
0.0
  0
LINE
  5
2A259
330
1F
100
AcDbEntity
  8
D-STR-DIM
  6
Continuous
100
AcDbLine
 10
10301.57459510386
 20
6863.343748758755
 30
0.0
 11
10581.57453368684
 21
6863.343748758755
 31
0.0
  0
LINE
  5
2A25A
330
1F
100
AcDbEntity
  8
D-DCR-HCH
  6
Continuous
100
AcDbLine
 10
9851.57463738119
 20
6568.340750251682
 30
0.0
 11
9996.578016647349
 21
6713.343549517865
 31
0.0
  0
LINE
  5
2A25B
330
1F
100
AcDbEntity
  8
D-DCR-HCH
  6
Continuous
100
AcDbLine
 10
9851.57463738119
 20
6478.537950706147
 30
0.0
 11
10001.57457662206
 21
6628.538149947042
 31
0.0
  0
LINE
  5
2A25C
330
1F
100
AcDbEntity
  8
D-STR
  6
Continuous
100
AcDbLine
 10
10001.57457662206
 20
6163.343552301252
 30
0.0
 11
10301.57459510386
 21
6163.343552301252
 31
0.0
  0
LINE
  5
2A25D
330
1F
100
AcDbEntity
  8
D-DCR-HCH
  6
Continuous
100
AcDbLine
 10
10101.9461561141
 20
5963.343553313394
 30
0.0
 11
10217.4161355298
 21
6163.343552301252
 31
0.0
  0
LINE
  5
2A25E
330
1F
100
AcDbEntity
  8
D-DCR-HCH
  6
Continuous
100
AcDbLine
 10
10125.04019599723
 20
5963.344553313389
 30
0.0
 11
10240.51017541292
 21
6163.343552301252
 31
0.0
  0
LINE
  5
2A25F
330
1F
100
AcDbEntity
  8
D-STR
  6
Continuous
100
AcDbLine
 10
9851.57463738119
 20
5963.343553313394
 30
0.0
 11
10301.57459510386
 21
5963.343553313394
 31
0.0
  0
LINE
  5
2A260
330
1F
100
AcDbEntity
  8
D-STR
  6
Continuous
100
AcDbLine
 10
10001.57457662206
 20
6083.344152706107
 30
0.0
 11
10081.57457621721
 21
6083.344152706107
 31
0.0
  0
LINE
  5
2A261
330
1F
100
AcDbEntity
  8
D-DCR-HCH
  6
Continuous
100
AcDbLine
 10
10001.57457662206
 20
6049.302552878381
 30
0.0
 11
10067.41619628885
 21
6163.343552301252
 31
0.0
  0
LINE
  5
2A262
330
1F
100
AcDbEntity
  8
D-DCR-HCH
  6
Continuous
100
AcDbLine
 10
10001.57457662206
 20
6009.302353080812
 30
0.0
 11
10090.51023617197
 21
6163.343552301252
 31
0.0
  0
LINE
  5
2A263
330
1F
100
AcDbEntity
  8
D-STR-STR2
  6
Continuous
100
AcDbLine
 10
9851.57463738119
 20
6066.84415278961
 30
0.0
 11
9901.574617128151
 21
6076.843552739003
 31
0.0
  0
LINE
  5
2A264
330
1F
100
AcDbEntity
  8
D-STR-STR2
  6
Continuous
100
AcDbLine
 10
9901.575237128135
 20
6146.843552384754
 30
0.0
 11
9851.574017381201
 21
6156.843952334146
 31
0.0
  0
LINE
  5
2A265
330
1F
100
AcDbEntity
  8
D-STR-STR2
  6
Continuous
100
AcDbLine
 10
9901.574617128151
 20
6076.843552739003
 30
0.0
 11
9901.574617128151
 21
6146.843552384754
 31
0.0
  0
LINE
  5
2A266
330
1F
100
AcDbEntity
  8
D-STR-STR2
  6
Continuous
100
AcDbLine
 10
9901.57399712816
 20
6101.843952612485
 30
0.0
 11
10001.57457662206
 21
6096.84375263779
 31
0.0
  0
LINE
  5
2A267
330
1F
100
AcDbEntity
  8
D-STR-STR2
  6
Continuous
100
AcDbLine
 10
10001.57457662206
 20
6126.84335248597
 30
0.0
 11
9901.574617128151
 21
6121.843152511274
 31
0.0
  0
LINE
  5
2A268
330
1F
100
AcDbEntity
  8
D-STR
  6
Continuous
100
AcDbLine
 10
10081.57457621721
 20
6083.344152706107
 30
0.0
 11
10081.57457621721
 21
6163.343552301252
 31
0.0
  0
LINE
  5
2A269
330
1F
100
AcDbEntity
  8
D-DCR-HCH
  6
Continuous
100
AcDbLine
 10
9851.57463738119
 20
6388.735351160611
 30
0.0
 11
10001.57457662206
 21
6538.735550401503
 31
0.0
  0
LINE
  5
2A26A
330
1F
100
AcDbEntity
  8
D-DCR-HCH
  6
Continuous
100
AcDbLine
 10
9851.57463738119
 20
6298.932551615076
 30
0.0
 11
10001.57457662206
 21
6448.932750855971
 31
0.0
  0
LINE
  5
2A26B
330
1F
100
AcDbEntity
  8
D-DCR-HCH
  6
Continuous
100
AcDbLine
 10
9905.78881710681
 20
6263.343951795179
 30
0.0
 11
10001.57457662206
 21
6359.129951310436
 31
0.0
  0
LINE
  5
2A26C
330
1F
100
AcDbEntity
  8
D-DCR-HCH
  6
Continuous
100
AcDbLine
 10
9995.591176652375
 20
6263.343951795179
 30
0.0
 11
10001.57457662206
 21
6269.327351764901
 31
0.0
  0
LINE
  5
2A26D
330
1F
100
AcDbEntity
  8
D-STR
  6
DASHED1
100
AcDbLine
 10
9851.57463738119
 20
6263.343951795179
 30
0.0
 11
10001.57457662206
 21
6263.343951795179
 31
0.0
  0
LINE
  5
2A26E
330
1F
100
AcDbEntity
  8
D-DCR-HCH
  6
Continuous
100
AcDbLine
 10
10275.03965523816
 20
5963.344553313389
 30
0.0
 11
10301.57399510388
 21
6009.302353080812
 31
0.0
  0
LINE
  5
2A26F
330
1F
100
AcDbEntity
  8
D-DCR-HCH
  6
Continuous
100
AcDbLine
 10
10251.94559535502
 20
5963.344553313389
 30
0.0
 11
10301.57399510388
 21
6049.302552878381
 31
0.0
  0
LINE
  5
2A270
330
1F
100
AcDbEntity
  8
D-STR
  6
Continuous
100
AcDbLine
 10
10042.0749364171
 20
6863.343748758755
 30
0.0
 11
10260.07315531389
 21
6863.343748758755
 31
0.0
  0
LINE
  5
2A271
330
1F
100
AcDbEntity
  8
D-STR
  6
Continuous
100
AcDbLine
 10
10032.07625646772
 20
6813.343149011797
 30
0.0
 11
10246.9468153803
 21
6832.141148916663
 31
0.0
  0
LINE
  5
2A272
330
1F
100
AcDbEntity
  8
D-STR
  6
Continuous
100
AcDbLine
 10
10042.0749364171
 20
6857.343748789121
 30
0.0
 11
10260.07315531389
 21
6857.343748789121
 31
0.0
  0
LINE
  5
2A273
330
1F
100
AcDbEntity
  8
D-STR
  6
Continuous
100
AcDbLine
 10
10042.0749364171
 20
7057.343547776979
 30
0.0
 11
10260.07315531389
 21
7057.343547776979
 31
0.0
  0
LINE
  5
2A274
330
1F
100
AcDbEntity
  8
D-STR
  6
Continuous
100
AcDbLine
 10
10032.07675646774
 20
7013.342947999653
 30
0.0
 11
10246.94743538029
 21
7032.141147904522
 31
0.0
  0
LINE
  5
2A275
330
1F
100
AcDbEntity
  8
D-STR
  6
Continuous
100
AcDbLine
 10
10042.0749364171
 20
7063.343747746614
 30
0.0
 11
10260.07315531389
 21
7063.343747746614
 31
0.0
  0
LINE
  5
2A276
330
1F
100
AcDbEntity
  8
D-STR
  6
Continuous
100
AcDbLine
 10
10001.57457662206
 20
6903.344948556323
 30
0.0
 11
9951.574596875108
 21
6913.344548505718
 31
0.0
  0
LINE
  5
2A277
330
1F
100
AcDbEntity
  8
D-STR
  6
Continuous
100
AcDbLine
 10
9851.574017381201
 20
6903.344948556323
 30
0.0
 11
9901.574617128151
 21
6913.345548505713
 31
0.0
  0
LINE
  5
2A278
330
1F
100
AcDbEntity
  8
D-STR
  6
Continuous
100
AcDbLine
 10
10001.57457662206
 20
6781.342749173742
 30
0.0
 11
10026.0753964981
 21
6781.342749173742
 31
0.0
  0
LINE
  5
2A279
330
1F
100
AcDbEntity
  8
D-DCR-HCH
  6
Continuous
100
AcDbLine
 10
9851.57463738119
 20
6658.14254979722
 30
0.0
 11
9906.775557101822
 21
6713.343549517865
 31
0.0
  0
LINE
  5
2A27A
330
1F
100
AcDbEntity
  8
D-STR-STR2
  6
Continuous
100
AcDbLine
 10
9921.574577026921
 20
6823.343548961187
 30
0.0
 11
10001.57457662206
 21
6823.343548961187
 31
0.0
  0
LINE
  5
2A27B
330
1F
100
AcDbEntity
  8
D-STR
  6
DASHED1
100
AcDbLine
 10
9851.57463738119
 20
6713.343549517865
 30
0.0
 11
10001.57457662206
 21
6713.343549517865
 31
0.0
  0
LINE
  5
2A27C
330
1F
100
AcDbEntity
  8
D-STR-STR2
  6
Continuous
100
AcDbLine
 10
9921.574577026921
 20
6803.3435490624
 30
0.0
 11
9921.574577026921
 21
6823.343548961187
 31
0.0
  0
LINE
  5
2A27D
330
1F
100
AcDbEntity
  8
D-STR-STR2
  6
Continuous
100
AcDbLine
 10
10001.57457662206
 20
6803.3435490624
 30
0.0
 11
9921.574577026921
 21
6803.3435490624
 31
0.0
  0
ARC
  5
2A27E
330
1F
100
AcDbEntity
  8
D-STR
  6
Continuous
100
AcDbCircle
 10
10042.0749364171
 20
6847.344148839727
 30
0.0
 40
9.999997949392936
100
AcDbArc
 50
90.0
 51
180.0
  0
ARC
  5
2A27F
330
1F
100
AcDbEntity
  8
D-STR
  6
Continuous
100
AcDbCircle
 10
10042.0749364171
 20
6847.344148839727
 30
0.0
 40
15.99999991902868
100
AcDbArc
 50
90.0
 51
190.287329999988
  0
LINE
  5
2A280
330
1F
100
AcDbEntity
  8
D-STR
  6
Continuous
100
AcDbLine
 10
10032.07377646776
 20
6847.344148839727
 30
0.0
 11
10032.07377646776
 21
6803.3435490624
 31
0.0
  0
LINE
  5
2A281
330
1F
100
AcDbEntity
  8
D-STR
  6
Continuous
100
AcDbLine
 10
10032.07501646774
 20
6847.342148839736
 30
0.0
 11
10042.0749364171
 21
6857.342748789126
 31
0.0
  0
LINE
  5
2A282
330
1F
100
AcDbEntity
  8
D-STR
  6
Continuous
100
AcDbLine
 10
10026.0753964981
 20
6803.3435490624
 30
0.0
 11
10032.07377646776
 21
6803.3435490624
 31
0.0
  0
LINE
  5
2A283
330
1F
100
AcDbEntity
  8
D-STR
  6
Continuous
100
AcDbLine
 10
10026.0753964981
 20
6847.344148839727
 30
0.0
 11
10026.0753964981
 21
6803.3435490624
 31
0.0
  0
ARC
  5
2A284
330
1F
100
AcDbEntity
  8
D-STR
  6
Continuous
100
AcDbCircle
 10
10042.0749364171
 20
7047.343147827591
 30
0.0
 40
15.99999991902868
100
AcDbArc
 50
90.0
 51
190.287329999988
  0
ARC
  5
2A285
330
1F
100
AcDbEntity
  8
D-STR
  6
Continuous
100
AcDbCircle
 10
10042.0749364171
 20
7047.343147827591
 30
0.0
 40
9.999997949392936
100
AcDbArc
 50
90.0
 51
180.0
  0
LINE
  5
2A286
330
1F
100
AcDbEntity
  8
D-STR
  6
Continuous
100
AcDbLine
 10
10026.0753964981
 20
7047.343147827591
 30
0.0
 11
10026.0753964981
 21
7003.343548050259
 31
0.0
  0
LINE
  5
2A287
330
1F
100
AcDbEntity
  8
D-STR
  6
Continuous
100
AcDbLine
 10
10032.07501646774
 20
7047.341147827601
 30
0.0
 11
10042.0749364171
 21
7057.340747776996
 31
0.0
  0
LINE
  5
2A288
330
1F
100
AcDbEntity
  8
D-STR
  6
Continuous
100
AcDbLine
 10
10032.07377646776
 20
7047.343147827591
 30
0.0
 11
10032.07377646776
 21
7003.343548050259
 31
0.0
  0
ARC
  5
2A289
330
1F
100
AcDbEntity
  8
D-STR
  6
Continuous
100
AcDbCircle
 10
10246.07405538473
 20
6842.104148866245
 30
0.0
 40
9.999997949392936
100
AcDbArc
 50
275.0000000000777
 51
0.0
  0
ARC
  5
2A28A
330
1F
100
AcDbEntity
  8
D-STR
  6
Continuous
100
AcDbCircle
 10
10260.07315531389
 20
6873.344348708148
 30
0.0
 40
9.999997949392936
100
AcDbArc
 50
270.0
 51
0.0
  0
ARC
  5
2A28B
330
1F
100
AcDbEntity
  8
D-STR
  6
Continuous
100
AcDbCircle
 10
10260.07315531389
 20
6873.344348708148
 30
0.0
 40
15.99999991902868
100
AcDbArc
 50
270.0
 51
0.0
  0
LINE
  5
2A28C
330
1F
100
AcDbEntity
  8
D-STR
  6
Continuous
100
AcDbLine
 10
10270.07443526327
 20
6893.343548606937
 30
0.0
 11
10276.07393523294
 21
6893.343548606937
 31
0.0
  0
LINE
  5
2A28D
330
1F
100
AcDbEntity
  8
D-STR
  6
Continuous
100
AcDbLine
 10
10270.07443526327
 20
6893.343548606937
 30
0.0
 11
10270.07443526327
 21
6873.344348708148
 31
0.0
  0
LINE
  5
2A28E
330
1F
100
AcDbEntity
  8
D-STR
  6
Continuous
100
AcDbLine
 10
10256.0739753341
 20
6857.343748789121
 30
0.0
 11
10256.0739753341
 21
6842.104148866245
 31
0.0
  0
LINE
  5
2A28F
330
1F
100
AcDbEntity
  8
D-STR
  6
Continuous
100
AcDbLine
 10
10276.07393523294
 20
6893.343548606937
 30
0.0
 11
10276.07393523294
 21
6873.344348708148
 31
0.0
  0
ARC
  5
2A290
330
1F
100
AcDbEntity
  8
D-STR
  6
Continuous
100
AcDbCircle
 10
10260.07315531389
 20
7073.344347696006
 30
0.0
 40
15.99999991902868
100
AcDbArc
 50
270.0
 51
0.0
  0
ARC
  5
2A291
330
1F
100
AcDbEntity
  8
D-STR
  6
Continuous
100
AcDbCircle
 10
10260.07315531389
 20
7073.344347696006
 30
0.0
 40
9.999997949392936
100
AcDbArc
 50
270.0
 51
0.0
  0
ARC
  5
2A292
330
1F
100
AcDbEntity
  8
D-STR
  6
Continuous
100
AcDbCircle
 10
10246.07405538473
 20
7042.103947854103
 30
0.0
 40
9.999997949392936
100
AcDbArc
 50
275.0000000000777
 51
0.0
  0
LINE
  5
2A293
330
1F
100
AcDbEntity
  8
D-STR
  6
Continuous
100
AcDbLine
 10
10276.07393523294
 20
7093.343347594796
 30
0.0
 11
10276.07393523294
 21
7073.344347696006
 31
0.0
  0
LINE
  5
2A294
330
1F
100
AcDbEntity
  8
D-STR
  6
Continuous
100
AcDbLine
 10
10256.0739753341
 20
7057.343547776979
 30
0.0
 11
10256.0739753341
 21
7042.103947854103
 31
0.0
  0
LINE
  5
2A295
330
1F
100
AcDbEntity
  8
D-STR
  6
Continuous
100
AcDbLine
 10
10270.07443526327
 20
7093.343347594796
 30
0.0
 11
10270.07443526327
 21
7073.344347696006
 31
0.0
  0
LINE
  5
2A296
330
1F
100
AcDbEntity
  8
D-STR
  6
Continuous
100
AcDbLine
 10
10270.07443526327
 20
7093.343347594796
 30
0.0
 11
10276.07393523294
 21
7093.343347594796
 31
0.0
  0
TEXT
  5
2A297
330
1F
100
AcDbEntity
  8
D-STR-DIM
100
AcDbText
 10
10467.57461426377
 20
6886.043885717885
 30
0.0
 40
50.0
  1
　　４５０
 50
90.0
100
AcDbText
  0
LINE
  5
2A298
330
1F
100
AcDbEntity
  8
D-STR-DIM
  6
Continuous
100
AcDbLine
 10
11051.57443130835
 20
6163.343552301252
 30
0.0
 11
11051.57443130835
 21
7113.343547493581
 31
0.0
  0
LINE
  5
2A299
330
1F
100
AcDbEntity
  8
D-STR-DIM
  6
Continuous
100
AcDbLine
 10
10801.57457257349
 20
6713.343549517865
 30
0.0
 11
10801.57457257349
 21
6488.344350656518
 31
0.0
  0
TEXT
  5
2A29A
330
1F
100
AcDbEntity
  8
D-STR-DIM
100
AcDbText
 10
10785.57451265446
 20
6126.48375248779
 30
0.0
 40
70.0
  1
100
 50
90.0
100
AcDbText
  0
LINE
  5
2A29B
330
1F
100
AcDbEntity
  8
D-STR-DIM
  6
Continuous
100
AcDbLine
 10
10801.57457257349
 20
6263.343951795179
 30
0.0
 11
10801.57457257349
 21
6213.344352048214
 31
0.0
  0
CIRCLE
  5
2A29C
330
1F
100
AcDbEntity
  8
D-STR-DIM
  6
Continuous
100
AcDbCircle
 10
10801.57457257349
 20
6163.343552301252
 30
0.0
 40
5.999997969635766
  0
LINE
  5
2A29D
330
1F
100
AcDbEntity
  8
D-STR-DIM
  6
Continuous
100
AcDbLine
 10
10801.57457257349
 20
6163.343552301252
 30
0.0
 11
10801.57457257349
 21
6213.344352048214
 31
0.0
  0
TEXT
  5
2A29E
330
1F
100
AcDbEntity
  8
D-STR-DIM
100
AcDbText
 10
10785.57451265446
 20
6401.483751096096
 30
0.0
 40
70.0
  1
450
 50
90.0
100
AcDbText
  0
CIRCLE
  5
2A29F
330
1F
100
AcDbEntity
  8
D-STR-DIM
  6
Continuous
100
AcDbCircle
 10
10801.57457257349
 20
6263.343951795179
 30
0.0
 40
5.999997969635766
  0
LINE
  5
2A2A0
330
1F
100
AcDbEntity
  8
D-STR-DIM
  6
Continuous
100
AcDbLine
 10
10801.57457257349
 20
6263.343951795179
 30
0.0
 11
10801.57457257349
 21
6488.344350656518
 31
0.0
  0
TEXT
  5
2A2A1
330
1F
100
AcDbEntity
  8
D-STR-DIM
100
AcDbText
 10
11035.57463138932
 20
5976.483553246895
 30
0.0
 40
70.0
  1
200
 50
90.0
100
AcDbText
  0
CIRCLE
  5
2A2A2
330
1F
100
AcDbEntity
  8
D-STR-DIM
  6
Continuous
100
AcDbCircle
 10
11051.57443130835
 20
6163.343552301252
 30
0.0
 40
5.999997969635766
  0
CIRCLE
  5
2A2A3
330
1F
100
AcDbEntity
  8
D-STR-DIM
  6
Continuous
100
AcDbCircle
 10
11051.57443130835
 20
5963.343553313394
 30
0.0
 40
5.999997969635766
  0
LINE
  5
2A2A4
330
1F
100
AcDbEntity
  8
D-STR-DIM
  6
Continuous
100
AcDbLine
 10
11051.57443130835
 20
6163.343552301252
 30
0.0
 11
11051.57443130835
 21
6063.344152807322
 31
0.0
  0
LINE
  5
2A2A5
330
1F
100
AcDbEntity
  8
D-STR-DIM
  6
Continuous
100
AcDbLine
 10
11051.57443130835
 20
5963.343553313394
 30
0.0
 11
11051.57443130835
 21
6063.344152807322
 31
0.0
  0
LINE
  5
2A2A6
330
1F
100
AcDbEntity
  8
D-STR-DIM
  6
Continuous
100
AcDbLine
 10
10801.57457257349
 20
6713.343549517865
 30
0.0
 11
10801.57457257349
 21
7113.343547493581
 31
0.0
  0
LINE
  5
2A2A7
330
1F
100
AcDbEntity
  8
D-STR-DIM
  6
Continuous
100
AcDbLine
 10
10551.57451383873
 20
6863.343748758755
 30
0.0
 11
10551.57451383873
 21
7088.344147620095
 31
0.0
  0
CIRCLE
  5
2A2A8
330
1F
100
AcDbEntity
  8
D-STR-DIM
  6
Continuous
100
AcDbCircle
 10
10551.57451383873
 20
6713.343549517865
 30
0.0
 40
5.999997969635766
  0
CIRCLE
  5
2A2A9
330
1F
100
AcDbEntity
  8
D-STR-DIM
  6
Continuous
100
AcDbCircle
 10
10551.57451383873
 20
6863.343748758755
 30
0.0
 40
5.999997969635766
  0
LINE
  5
2A2AA
330
1F
100
AcDbEntity
  8
D-STR-DIM
  6
Continuous
100
AcDbLine
 10
10551.57451383873
 20
6713.343549517865
 30
0.0
 11
10551.57451383873
 21
6788.343749138309
 31
0.0
  0
LINE
  5
2A2AB
330
1F
100
AcDbEntity
  8
D-STR-DIM
  6
Continuous
100
AcDbLine
 10
10551.57451383873
 20
6863.343748758755
 30
0.0
 11
10551.57451383873
 21
6788.343749138309
 31
0.0
  0
CIRCLE
  5
2A2AC
330
1F
100
AcDbEntity
  8
D-STR-DIM
  6
Continuous
100
AcDbCircle
 10
10801.57457257349
 20
6713.343549517865
 30
0.0
 40
5.999997969635766
  0
TEXT
  5
2A2AD
330
1F
100
AcDbEntity
  8
D-STR-DIM
100
AcDbText
 10
10785.57451265446
 20
7026.483947933151
 30
0.0
 40
70.0
  1
800
 50
90.0
100
AcDbText
  0
TEXT
  5
2A2AE
330
1F
100
AcDbEntity
  8
D-STR-DIM
100
AcDbText
 10
11035.57463138932
 20
6994.483548095097
 30
0.0
 40
70.0
  1
1900
 50
90.0
100
AcDbText
  0
TEXT
  5
2A2AF
330
1F
100
AcDbEntity
  8
D-STR-DIM
100
AcDbText
 10
10539.57463389945
 20
7348.198746305047
 30
0.0
 40
50.0
  1
200
 50
90.0
100
AcDbText
  0
LINE
  5
2A2B0
330
1F
100
AcDbEntity
  8
D-STR-DIM
  6
Continuous
100
AcDbLine
 10
10321.57459510386
 20
8263.344341673764
 30
0.0
 11
11081.57443115652
 21
8263.344341673764
 31
0.0
  0
LINE
  5
2A2B1
330
1F
100
AcDbEntity
  8
D-STR-DIM
  6
Continuous
100
AcDbLine
 10
10321.57459510386
 20
8063.343342685909
 30
0.0
 11
11081.57443115652
 21
8063.343342685909
 31
0.0
  0
LINE
  5
2A2B2
330
1F
100
AcDbEntity
  8
D-STR-DIM
  6
Continuous
100
AcDbLine
 10
10021.57457662206
 20
7513.344345469294
 30
0.0
 11
10831.57457242167
 21
7513.344345469294
 31
0.0
  0
LINE
  5
2A2B3
330
1F
100
AcDbEntity
  8
D-STR-DIM
  6
Continuous
100
AcDbLine
 10
10301.57459510386
 20
7313.34334648144
 30
0.0
 11
10581.57453368684
 21
7313.34334648144
 31
0.0
  0
LINE
  5
2A2B4
330
1F
100
AcDbEntity
  8
D-STR-DIM
  6
Continuous
100
AcDbLine
 10
10021.57457662206
 20
7963.343943191977
 30
0.0
 11
10831.57457242167
 21
7963.343943191977
 31
0.0
  0
LINE
  5
2A2B5
330
1F
100
AcDbEntity
  8
D-DCR-HCH
  6
Continuous
100
AcDbLine
 10
9851.57463738119
 20
7915.379543434712
 30
0.0
 11
9899.538417138451
 21
7963.343943191977
 31
0.0
  0
LINE
  5
2A2B6
330
1F
100
AcDbEntity
  8
D-DCR-HCH
  6
Continuous
100
AcDbLine
 10
9851.57463738119
 20
7825.576943889176
 30
0.0
 11
9989.340956684007
 21
7963.343943191977
 31
0.0
  0
LINE
  5
2A2B7
330
1F
100
AcDbEntity
  8
D-STR
  6
Continuous
100
AcDbLine
 10
10042.0749364171
 20
7313.34334648144
 30
0.0
 11
10260.07315531389
 21
7313.34334648144
 31
0.0
  0
LINE
  5
2A2B8
330
1F
100
AcDbEntity
  8
D-STR
  6
Continuous
100
AcDbLine
 10
10032.07625646772
 20
7263.343746734474
 30
0.0
 11
10246.94743538029
 21
7282.141746639344
 31
0.0
  0
LINE
  5
2A2B9
330
1F
100
AcDbEntity
  8
D-STR
  6
Continuous
100
AcDbLine
 10
10042.0749364171
 20
7307.344346511801
 30
0.0
 11
10260.07315531389
 21
7307.344346511801
 31
0.0
  0
LINE
  5
2A2BA
330
1F
100
AcDbEntity
  8
D-DCR-HCH
  6
Continuous
100
AcDbLine
 10
9851.57463738119
 20
7556.169745252566
 30
0.0
 11
10001.57457662206
 21
7706.169944493459
 31
0.0
  0
LINE
  5
2A2BB
330
1F
100
AcDbEntity
  8
D-DCR-HCH
  6
Continuous
100
AcDbLine
 10
9898.551577143473
 20
7513.344345469294
 30
0.0
 11
10001.57457662206
 21
7616.367144947926
 31
0.0
  0
LINE
  5
2A2BC
330
1F
100
AcDbEntity
  8
D-STR
  6
Continuous
100
AcDbLine
 10
10001.57457662206
 20
7342.343146334683
 30
0.0
 11
10026.0753964981
 21
7342.343146334683
 31
0.0
  0
LINE
  5
2A2BD
330
1F
100
AcDbEntity
  8
D-DCR-HCH
  6
Continuous
100
AcDbLine
 10
9988.354236688998
 20
7513.344345469294
 30
0.0
 11
10001.57457662206
 21
7526.56454540239
 31
0.0
  0
LINE
  5
2A2BE
330
1F
100
AcDbEntity
  8
D-STR
  6
DASHED1
100
AcDbLine
 10
9851.57463738119
 20
7513.344345469294
 30
0.0
 11
10001.57457662206
 21
7513.344345469294
 31
0.0
  0
LINE
  5
2A2BF
330
1F
100
AcDbEntity
  8
D-STR
  6
Continuous
100
AcDbLine
 10
10001.57457662206
 20
7323.343946430829
 30
0.0
 11
9951.574596875108
 21
7313.34334648144
 31
0.0
  0
LINE
  5
2A2C0
330
1F
100
AcDbEntity
  8
D-STR
  6
Continuous
100
AcDbLine
 10
9851.575177381223
 20
7323.343946430829
 30
0.0
 11
9901.575237128135
 21
7313.34334648144
 31
0.0
  0
LINE
  5
2A2C1
330
1F
100
AcDbEntity
  8
D-STR-STR2
  6
Continuous
100
AcDbLine
 10
9921.574577026921
 20
7303.343946532044
 30
0.0
 11
9921.574577026921
 21
7323.343946430829
 31
0.0
  0
LINE
  5
2A2C2
330
1F
100
AcDbEntity
  8
D-STR-STR2
  6
Continuous
100
AcDbLine
 10
9921.574577026921
 20
7323.343946430829
 30
0.0
 11
10001.57457662206
 21
7323.343946430829
 31
0.0
  0
LINE
  5
2A2C3
330
1F
100
AcDbEntity
  8
D-STR-STR2
  6
Continuous
100
AcDbLine
 10
10001.57457662206
 20
7303.343946532044
 30
0.0
 11
9921.574577026921
 21
7303.343946532044
 31
0.0
  0
ARC
  5
2A2C4
330
1F
100
AcDbEntity
  8
D-STR
  6
Continuous
100
AcDbCircle
 10
10042.0749364171
 20
7297.34374656241
 30
0.0
 40
9.999997949392936
100
AcDbArc
 50
90.0
 51
180.0
  0
ARC
  5
2A2C5
330
1F
100
AcDbEntity
  8
D-STR
  6
Continuous
100
AcDbCircle
 10
10042.0749364171
 20
7297.34374656241
 30
0.0
 40
15.99999991902868
100
AcDbArc
 50
90.0
 51
190.287329999988
  0
LINE
  5
2A2C6
330
1F
100
AcDbEntity
  8
D-STR
  6
Continuous
100
AcDbLine
 10
10032.07377646776
 20
7297.34374656241
 30
0.0
 11
10032.07377646776
 21
7253.344146785081
 31
0.0
  0
LINE
  5
2A2C7
330
1F
100
AcDbEntity
  8
D-STR
  6
Continuous
100
AcDbLine
 10
10032.07501646774
 20
7297.341746562421
 30
0.0
 11
10042.0749364171
 21
7307.341346511815
 31
0.0
  0
LINE
  5
2A2C8
330
1F
100
AcDbEntity
  8
D-STR
  6
Continuous
100
AcDbLine
 10
10026.0753964981
 20
7253.344146785081
 30
0.0
 11
10032.07377646776
 21
7253.344146785081
 31
0.0
  0
LINE
  5
2A2C9
330
1F
100
AcDbEntity
  8
D-STR
  6
Continuous
100
AcDbLine
 10
10026.0753964981
 20
7297.34374656241
 30
0.0
 11
10026.0753964981
 21
7253.344146785081
 31
0.0
  0
LINE
  5
2A2CA
330
1F
100
AcDbEntity
  8
D-STR-DIM
  6
Continuous
100
AcDbLine
 10
10021.57457662206
 20
7748.34414428003
 30
0.0
 11
10131.57455596416
 21
7748.34414428003
 31
0.0
  0
LINE
  5
2A2CB
330
1F
100
AcDbEntity
  8
D-STR-DIM
  6
Continuous
100
AcDbLine
 10
10021.57457662206
 20
7778.343944128207
 30
0.0
 11
10131.57455596416
 21
7778.343944128207
 31
0.0
  0
LINE
  5
2A2CC
330
1F
100
AcDbEntity
  8
D-DCR-HCH
  6
Continuous
100
AcDbLine
 10
9851.57463738119
 20
7735.775144343637
 30
0.0
 11
10001.57457662206
 21
7885.77534358453
 31
0.0
  0
LINE
  5
2A2CD
330
1F
100
AcDbEntity
  8
D-DCR-HCH
  6
Continuous
100
AcDbLine
 10
9851.57463738119
 20
7645.971344798107
 30
0.0
 11
10001.57457662206
 21
7795.972544038995
 31
0.0
  0
LINE
  5
2A2CE
330
1F
100
AcDbEntity
  8
D-STR-STR2
  6
Continuous
100
AcDbLine
 10
10001.57395662207
 20
7778.343944128207
 30
0.0
 11
9901.57399712816
 21
7773.343544153513
 31
0.0
  0
LINE
  5
2A2CF
330
1F
100
AcDbEntity
  8
D-STR-STR2
  6
Continuous
100
AcDbLine
 10
9901.57399712816
 20
7753.343544254729
 30
0.0
 11
10001.57333662209
 21
7748.34414428003
 31
0.0
  0
LINE
  5
2A2D0
330
1F
100
AcDbEntity
  8
D-STR-STR2
  6
Continuous
100
AcDbLine
 10
9901.574617128151
 20
7728.344144381243
 30
0.0
 11
9901.574617128151
 21
7798.343944026993
 31
0.0
  0
LINE
  5
2A2D1
330
1F
100
AcDbEntity
  8
D-STR-STR2
  6
Continuous
100
AcDbLine
 10
9851.575177381223
 20
7718.343544431853
 30
0.0
 11
9901.574617128151
 21
7728.343144381248
 31
0.0
  0
LINE
  5
2A2D2
330
1F
100
AcDbEntity
  8
D-STR-STR2
  6
Continuous
100
AcDbLine
 10
9901.575797128179
 20
7798.34494402699
 30
0.0
 11
9851.575797381215
 21
7808.344543976383
 31
0.0
  0
TEXT
  5
2A2D3
330
1F
100
AcDbEntity
  8
D-STR-DIM
100
AcDbText
 10
10173.81463575044
 20
7698.198744533799
 30
0.0
 40
50.0
  1
φ30
 50
90.0
100
AcDbText
  0
CIRCLE
  5
2A2D4
330
1F
100
AcDbEntity
  8
D-STR-DIM
  6
Continuous
100
AcDbCircle
 10
10101.57455611598
 20
7748.34414428003
 30
0.0
 40
5.999997969635766
  0
CIRCLE
  5
2A2D5
330
1F
100
AcDbEntity
  8
D-STR-DIM
  6
Continuous
100
AcDbCircle
 10
10101.57455611598
 20
7778.343944128207
 30
0.0
 40
5.999997969635766
  0
LINE
  5
2A2D6
330
1F
100
AcDbEntity
  8
D-STR-DIM
  6
Continuous
100
AcDbLine
 10
10101.57455611598
 20
7748.34414428003
 30
0.0
 11
10101.57455611598
 21
7763.343944204118
 31
0.0
  0
LINE
  5
2A2D7
330
1F
100
AcDbEntity
  8
D-STR-DIM
  6
Continuous
100
AcDbLine
 10
10101.57455611598
 20
7778.343944128207
 30
0.0
 11
10101.57455611598
 21
7763.343944204118
 31
0.0
  0
ARC
  5
2A2D9
330
1F
100
AcDbEntity
  8
D-STR
  6
Continuous
100
AcDbCircle
 10
10246.07405538473
 20
7292.104746588925
 30
0.0
 40
9.999997949392936
100
AcDbArc
 50
275.0000000000777
 51
0.0
  0
ARC
  5
2A2DA
330
1F
100
AcDbEntity
  8
D-STR
  6
Continuous
100
AcDbCircle
 10
10260.07315531389
 20
7323.343946430829
 30
0.0
 40
9.999997949392936
100
AcDbArc
 50
270.0
 51
0.0
  0
ARC
  5
2A2DB
330
1F
100
AcDbEntity
  8
D-STR
  6
Continuous
100
AcDbCircle
 10
10260.07315531389
 20
7323.343946430829
 30
0.0
 40
15.99999991902868
100
AcDbArc
 50
270.0
 51
0.0
  0
LINE
  5
2A2DC
330
1F
100
AcDbEntity
  8
D-STR
  6
Continuous
100
AcDbLine
 10
10270.07443526327
 20
7343.344146329616
 30
0.0
 11
10276.07393523294
 21
7343.344146329616
 31
0.0
  0
LINE
  5
2A2DD
330
1F
100
AcDbEntity
  8
D-STR
  6
Continuous
100
AcDbLine
 10
10270.07443526327
 20
7343.344146329616
 30
0.0
 11
10270.07443526327
 21
7323.343946430829
 31
0.0
  0
LINE
  5
2A2DE
330
1F
100
AcDbEntity
  8
D-STR
  6
Continuous
100
AcDbLine
 10
10256.0739753341
 20
7307.344346511801
 30
0.0
 11
10256.0739753341
 21
7292.104746588925
 31
0.0
  0
LINE
  5
2A2DF
330
1F
100
AcDbEntity
  8
D-STR
  6
Continuous
100
AcDbLine
 10
10276.07393523294
 20
7343.344146329616
 30
0.0
 11
10276.07393523294
 21
7323.343946430829
 31
0.0
  0
LINE
  5
2A2E0
330
1F
100
AcDbEntity
  8
D-DCR-HCH
  6
Continuous
100
AcDbLine
 10
10101.94565611415
 20
8063.343342685909
 30
0.0
 11
10217.4161355298
 21
8263.344341673764
 31
0.0
  0
LINE
  5
2A2E1
330
1F
100
AcDbEntity
  8
D-DCR-HCH
  6
Continuous
100
AcDbLine
 10
10125.04019599723
 20
8063.343342685909
 30
0.0
 11
10240.51017541292
 21
8263.344341673764
 31
0.0
  0
LINE
  5
2A2E2
330
1F
100
AcDbEntity
  8
D-STR
  6
Continuous
100
AcDbLine
 10
10001.57457662206
 20
8063.343342685909
 30
0.0
 11
10301.57459510386
 21
8063.343342685909
 31
0.0
  0
LINE
  5
2A2E3
330
1F
100
AcDbEntity
  8
D-STR
  6
Continuous
100
AcDbLine
 10
9851.57463738119
 20
8263.344341673764
 30
0.0
 11
10301.57459510386
 21
8263.344341673764
 31
0.0
  0
LINE
  5
2A2E4
330
1F
100
AcDbEntity
  8
D-DCR-HCH
  6
Continuous
100
AcDbLine
 10
10001.57395662207
 20
8149.302342250898
 30
0.0
 11
10067.41619628885
 21
8263.344341673764
 31
0.0
  0
LINE
  5
2A2E5
330
1F
100
AcDbEntity
  8
D-DCR-HCH
  6
Continuous
100
AcDbLine
 10
10001.57457662206
 20
8109.302142453328
 30
0.0
 11
10090.51023617197
 21
8263.344341673764
 31
0.0
  0
LINE
  5
2A2E6
330
1F
100
AcDbEntity
  8
D-STR
  6
DASHED1
100
AcDbLine
 10
9851.57463738119
 20
7963.343943191977
 30
0.0
 11
10001.57457662206
 21
7963.343943191977
 31
0.0
  0
LINE
  5
2A2E7
330
1F
100
AcDbEntity
  8
D-DCR-HCH
  6
Continuous
100
AcDbLine
 10
10251.94559535502
 20
8063.343342685909
 30
0.0
 11
10301.57399510388
 21
8149.302342250898
 31
0.0
  0
LINE
  5
2A2E8
330
1F
100
AcDbEntity
  8
D-DCR-HCH
  6
Continuous
100
AcDbLine
 10
10275.03965523816
 20
8063.343342685909
 30
0.0
 11
10301.57399510388
 21
8109.303142453322
 31
0.0
  0
TEXT
  5
2A2E9
330
1F
100
AcDbEntity
  8
D-STR-DIM
100
AcDbText
 10
10785.57451265446
 20
7926.484143378516
 30
0.0
 40
70.0
  1
100
 50
90.0
100
AcDbText
  0
LINE
  5
2A2EA
330
1F
100
AcDbEntity
  8
D-STR-DIM
  6
Continuous
100
AcDbLine
 10
10801.57457257349
 20
7963.343943191977
 30
0.0
 11
10801.57457257349
 21
7738.343744330638
 31
0.0
  0
LINE
  5
2A2EB
330
1F
100
AcDbEntity
  8
D-STR-DIM
  6
Continuous
100
AcDbLine
 10
10801.57457257349
 20
7513.344345469294
 30
0.0
 11
10801.57457257349
 21
7738.343744330638
 31
0.0
  0
CIRCLE
  5
2A2EC
330
1F
100
AcDbEntity
  8
D-STR-DIM
  6
Continuous
100
AcDbCircle
 10
10551.57451383873
 20
7313.34334648144
 30
0.0
 40
5.999997969635766
  0
CIRCLE
  5
2A2ED
330
1F
100
AcDbEntity
  8
D-STR-DIM
  6
Continuous
100
AcDbCircle
 10
10551.57451383873
 20
7513.344345469294
 30
0.0
 40
5.999997969635766
  0
LINE
  5
2A2EE
330
1F
100
AcDbEntity
  8
D-STR-DIM
  6
Continuous
100
AcDbLine
 10
10551.57451383873
 20
7313.34334648144
 30
0.0
 11
10551.57451383873
 21
7413.343945975366
 31
0.0
  0
LINE
  5
2A2EF
330
1F
100
AcDbEntity
  8
D-STR-DIM
  6
Continuous
100
AcDbLine
 10
10551.57451383873
 20
7513.344345469294
 30
0.0
 11
10551.57451383873
 21
7413.343945975366
 31
0.0
  0
CIRCLE
  5
2A2F0
330
1F
100
AcDbEntity
  8
D-STR-DIM
  6
Continuous
100
AcDbCircle
 10
10801.57457257349
 20
7513.344345469294
 30
0.0
 40
5.999997969635766
  0
TEXT
  5
2A2F1
330
1F
100
AcDbEntity
  8
D-STR-DIM
100
AcDbText
 10
10785.57451265446
 20
7651.48394477021
 30
0.0
 40
70.0
  1
450
 50
90.0
100
AcDbText
  0
CIRCLE
  5
2A2F2
330
1F
100
AcDbEntity
  8
D-STR-DIM
  6
Continuous
100
AcDbCircle
 10
10801.57457257349
 20
8063.343342685909
 30
0.0
 40
5.999997969635766
  0
CIRCLE
  5
2A2F3
330
1F
100
AcDbEntity
  8
D-STR-DIM
  6
Continuous
100
AcDbCircle
 10
10801.57457257349
 20
7963.343943191977
 30
0.0
 40
5.999997969635766
  0
LINE
  5
2A2F4
330
1F
100
AcDbEntity
  8
D-STR-DIM
  6
Continuous
100
AcDbLine
 10
10801.57457257349
 20
8063.343342685909
 30
0.0
 11
10801.57457257349
 21
8013.343742938943
 31
0.0
  0
LINE
  5
2A2F5
330
1F
100
AcDbEntity
  8
D-STR-DIM
  6
Continuous
100
AcDbLine
 10
10801.57457257349
 20
7963.343943191977
 30
0.0
 11
10801.57457257349
 21
8013.343742938943
 31
0.0
  0
TEXT
  5
2A2F6
330
1F
100
AcDbEntity
  8
D-STR-DIM
100
AcDbText
 10
11035.57463138932
 20
8076.484342619407
 30
0.0
 40
70.0
  1
200
 50
90.0
100
AcDbText
  0
CIRCLE
  5
2A2F7
330
1F
100
AcDbEntity
  8
D-STR-DIM
  6
Continuous
100
AcDbCircle
 10
11051.57443130835
 20
8263.344341673764
 30
0.0
 40
5.999997969635766
  0
CIRCLE
  5
2A2F8
330
1F
100
AcDbEntity
  8
D-STR-DIM
  6
Continuous
100
AcDbCircle
 10
11051.57443130835
 20
8063.343342685909
 30
0.0
 40
5.999997969635766
  0
LINE
  5
2A2F9
330
1F
100
AcDbEntity
  8
D-STR-DIM
  6
Continuous
100
AcDbLine
 10
11051.57443130835
 20
8263.344341673764
 30
0.0
 11
11051.57443130835
 21
8163.343942179833
 31
0.0
  0
LINE
  5
2A2FA
330
1F
100
AcDbEntity
  8
D-STR-DIM
  6
Continuous
100
AcDbLine
 10
11051.57443130835
 20
8063.343342685909
 30
0.0
 11
11051.57443130835
 21
8163.343942179833
 31
0.0
  0
TEXT
  5
2A2FB
330
1F
100
AcDbEntity
  8
D-STR-DIM
100
AcDbText
 10
11531.29359246653
 20
5886.733353701096
 30
0.0
 40
70.0
  1
148.5
 50
90.0
100
AcDbText
  0
LINE
  5
2A2FC
330
1F
100
AcDbEntity
  8
D-STR-DIM
  6
Continuous
100
AcDbLine
 10
12667.29358671755
 20
5943.343553313394
 30
0.0
 11
12667.29358671755
 21
5533.344155489496
 31
0.0
  0
LINE
  5
2A2FD
330
1F
100
AcDbEntity
  8
D-STR-DIM
  6
Continuous
100
AcDbLine
 10
13267.29378368112
 20
5943.343553313394
 30
0.0
 11
13267.29378368112
 21
5533.344155489496
 31
0.0
  0
LINE
  5
2A2FE
330
1F
100
AcDbEntity
  8
D-STR-DIM
  6
Continuous
100
AcDbLine
 10
12147.29358934912
 20
5943.343553313394
 30
0.0
 11
12147.29358934912
 21
4933.34435852592
 31
0.0
  0
LINE
  5
2A2FF
330
1F
100
AcDbEntity
  8
D-STR-DIM
  6
Continuous
100
AcDbLine
 10
13787.29358104956
 20
5943.343553313394
 30
0.0
 11
13787.29358104956
 21
4933.34435852592
 31
0.0
  0
LINE
  5
2A300
330
1F
100
AcDbEntity
  8
D-STR-DIM
  6
Continuous
100
AcDbLine
 10
12827.29358590784
 20
5933.343953465213
 30
0.0
 11
12827.29358590784
 21
5697.621754658136
 31
0.0
  0
LINE
  5
2A301
330
1F
100
AcDbEntity
  8
D-STR-DIM
  6
Continuous
100
AcDbLine
 10
13107.29358449084
 20
5933.343953465213
 30
0.0
 11
13107.29358449084
 21
5697.621754658136
 31
0.0
  0
LINE
  5
2A302
330
1F
100
AcDbEntity
  8
D-STR-DIM
  6
Continuous
100
AcDbLine
 10
13507.29338246656
 20
5933.343953465213
 30
0.0
 11
13507.29338246656
 21
5697.621754658136
 31
0.0
  0
LINE
  5
2A303
330
1F
100
AcDbEntity
  8
D-STR-DIM
  6
Continuous
100
AcDbLine
 10
12427.29358793212
 20
5933.343953465213
 30
0.0
 11
12427.29358793212
 21
5697.621754658136
 31
0.0
  0
TEXT
  5
2A305
330
1F
100
AcDbEntity
  8
D-STR-DIM
100
AcDbText
 10
12330.43358842229
 20
5579.344355256701
 30
0.0
 40
70.0
  1
520
100
AcDbText
  0
LINE
  5
2A306
330
1F
100
AcDbEntity
  8
D-STR-DIM
  6
Continuous
100
AcDbLine
 10
12427.29358793212
 20
5263.344356855886
 30
0.0
 11
12627.29358691998
 21
5263.344356855886
 31
0.0
  0
LINE
  5
2A307
330
1F
100
AcDbEntity
  8
D-STR-DIM
  6
Continuous
100
AcDbLine
 10
12667.29358671755
 20
5563.343755337676
 30
0.0
 11
12407.29378803333
 21
5563.343755337676
 31
0.0
  0
LINE
  5
2A308
330
1F
100
AcDbEntity
  8
D-STR-DIM
  6
Continuous
100
AcDbLine
 10
12147.29358934912
 20
4963.3439583741
 30
0.0
 11
12967.29338519935
 21
4963.3439583741
 31
0.0
  0
CIRCLE
  5
2A30C
330
1F
100
AcDbEntity
  8
D-STR-DIM
  6
Continuous
100
AcDbCircle
 10
12147.29358934912
 20
4963.3439583741
 30
0.0
 40
5.999997969635766
  0
CIRCLE
  5
2A30D
330
1F
100
AcDbEntity
  8
D-STR-DIM
  6
Continuous
100
AcDbCircle
 10
12147.29358934912
 20
5263.344356855886
 30
0.0
 40
5.999997969635766
  0
CIRCLE
  5
2A30E
330
1F
100
AcDbEntity
  8
D-STR-DIM
  6
Continuous
100
AcDbCircle
 10
12147.29358934912
 20
5563.343755337676
 30
0.0
 40
5.999997969635766
  0
LINE
  5
2A30F
330
1F
100
AcDbEntity
  8
D-STR-DIM
  6
Continuous
100
AcDbLine
 10
12147.29358934912
 20
5263.344356855886
 30
0.0
 11
12287.29358864062
 21
5263.344356855886
 31
0.0
  0
LINE
  5
2A310
330
1F
100
AcDbEntity
  8
D-STR-DIM
  6
Continuous
100
AcDbLine
 10
12147.29358934912
 20
5563.343755337676
 30
0.0
 11
12407.29378803333
 21
5563.343755337676
 31
0.0
  0
LINE
  5
2A311
330
1F
100
AcDbEntity
  8
D-STR-DIM
  6
Continuous
100
AcDbLine
 10
12427.29358793212
 20
5543.343755337676
 30
0.0
 11
12427.29358793212
 21
5233.343757007709
 31
0.0
  0
TEXT
  5
2A312
330
1F
100
AcDbEntity
  8
D-STR-DIM
100
AcDbText
 10
12200.43358908018
 20
5279.343956774916
 30
0.0
 40
70.0
  1
280
100
AcDbText
  0
LINE
  5
2A313
330
1F
100
AcDbEntity
  8
D-STR-DIM
  6
Continuous
100
AcDbLine
 10
12427.29358793212
 20
5263.344356855886
 30
0.0
 11
12287.29358864062
 21
5263.344356855886
 31
0.0
  0
CIRCLE
  5
2A314
330
1F
100
AcDbEntity
  8
D-STR-DIM
  6
Continuous
100
AcDbCircle
 10
12427.29358793212
 20
5263.344356855886
 30
0.0
 40
5.999997969635766
  0
LINE
  5
2A315
330
1F
100
AcDbEntity
  8
D-STR-DIM
  6
Continuous
100
AcDbLine
 10
13107.29358449084
 20
5263.344356855886
 30
0.0
 11
13307.29338347871
 21
5263.344356855886
 31
0.0
  0
LINE
  5
2A316
330
1F
100
AcDbEntity
  8
D-STR-DIM
  6
Continuous
100
AcDbLine
 10
13267.29378368112
 20
5563.343755337676
 30
0.0
 11
12967.29338519935
 21
5563.343755337676
 31
0.0
  0
LINE
  5
2A317
330
1F
100
AcDbEntity
  8
D-STR-DIM
  6
Continuous
100
AcDbLine
 10
13787.29358104956
 20
4963.3439583741
 30
0.0
 11
12967.29338519935
 21
4963.3439583741
 31
0.0
  0
TEXT
  5
2A318
330
1F
100
AcDbEntity
  8
D-STR-DIM
100
AcDbText
 10
12848.43338580088
 20
4979.34355829313
 30
0.0
 40
70.0
  1
1640
100
AcDbText
  0
LINE
  5
2A319
330
1F
100
AcDbEntity
  8
D-STR-DIM
  6
Continuous
100
AcDbLine
 10
12827.29358590784
 20
5263.344356855886
 30
0.0
 11
12627.29358691998
 21
5263.344356855886
 31
0.0
  0
LINE
  5
2A31A
330
1F
100
AcDbEntity
  8
D-STR-DIM
  6
Continuous
100
AcDbLine
 10
12667.29358671755
 20
5563.343755337676
 30
0.0
 11
12967.29338519935
 21
5563.343755337676
 31
0.0
  0
TEXT
  5
2A31B
330
1F
100
AcDbEntity
  8
D-STR-DIM
100
AcDbText
 10
12540.43358735954
 20
5279.343956774916
 30
0.0
 40
70.0
  1
400
100
AcDbText
  0
CIRCLE
  5
2A31C
330
1F
100
AcDbEntity
  8
D-STR-DIM
  6
Continuous
100
AcDbCircle
 10
12667.29358671755
 20
5563.343755337676
 30
0.0
 40
5.999997969635766
  0
LINE
  5
2A31D
330
1F
100
AcDbEntity
  8
D-STR-DIM
  6
Continuous
100
AcDbLine
 10
12827.29358590784
 20
5543.343755337676
 30
0.0
 11
12827.29358590784
 21
5233.343757007709
 31
0.0
  0
LINE
  5
2A31E
330
1F
100
AcDbEntity
  8
D-STR-DIM
  6
Continuous
100
AcDbLine
 10
13107.29358449084
 20
5543.343755337676
 30
0.0
 11
13107.29358449084
 21
5233.343757007709
 31
0.0
  0
TEXT
  5
2A31F
330
1F
100
AcDbEntity
  8
D-STR-DIM
100
AcDbText
 10
12880.43378563889
 20
5279.343956774916
 30
0.0
 40
70.0
  1
280
100
AcDbText
  0
LINE
  5
2A320
330
1F
100
AcDbEntity
  8
D-STR-DIM
  6
Continuous
100
AcDbLine
 10
13107.29358449084
 20
5263.344356855886
 30
0.0
 11
12967.29338519935
 21
5263.344356855886
 31
0.0
  0
CIRCLE
  5
2A321
330
1F
100
AcDbEntity
  8
D-STR-DIM
  6
Continuous
100
AcDbCircle
 10
12827.29358590784
 20
5263.344356855886
 30
0.0
 40
5.999997969635766
  0
LINE
  5
2A322
330
1F
100
AcDbEntity
  8
D-STR-DIM
  6
Continuous
100
AcDbLine
 10
12827.29358590784
 20
5263.344356855886
 30
0.0
 11
12967.29338519935
 21
5263.344356855886
 31
0.0
  0
CIRCLE
  5
2A323
330
1F
100
AcDbEntity
  8
D-STR-DIM
  6
Continuous
100
AcDbCircle
 10
13107.29358449084
 20
5263.344356855886
 30
0.0
 40
5.999997969635766
  0
TEXT
  5
2A324
330
1F
100
AcDbEntity
  8
D-STR-DIM
100
AcDbText
 10
12880.43378563889
 20
5579.344355256701
 30
0.0
 40
70.0
  1
600
100
AcDbText
  0
TEXT
  5
2A325
330
1F
100
AcDbEntity
  8
D-STR-DIM
100
AcDbText
 10
13430.43378285551
 20
5579.344355256701
 30
0.0
 40
70.0
  1
520
100
AcDbText
  0
LINE
  5
2A326
330
1F
100
AcDbEntity
  8
D-STR-DIM
  6
Continuous
100
AcDbLine
 10
13507.29338246656
 20
5263.344356855886
 30
0.0
 11
13307.29338347871
 21
5263.344356855886
 31
0.0
  0
LINE
  5
2A327
330
1F
100
AcDbEntity
  8
D-STR-DIM
  6
Continuous
100
AcDbLine
 10
13267.29378368112
 20
5563.343755337676
 30
0.0
 11
13527.29338236535
 21
5563.343755337676
 31
0.0
  0
TEXT
  5
2A328
330
1F
100
AcDbEntity
  8
D-STR-DIM
100
AcDbText
 10
13220.43378391825
 20
5279.343956774916
 30
0.0
 40
70.0
  1
400
100
AcDbText
  0
CIRCLE
  5
2A329
330
1F
100
AcDbEntity
  8
D-STR-DIM
  6
Continuous
100
AcDbCircle
 10
13267.29378368112
 20
5563.343755337676
 30
0.0
 40
5.999997969635766
  0
LINE
  5
2A32A
330
1F
100
AcDbEntity
  8
D-STR-DIM
  6
Continuous
100
AcDbLine
 10
13507.29338246656
 20
5543.343755337676
 30
0.0
 11
13507.29338246656
 21
5233.343757007709
 31
0.0
  0
TEXT
  5
2A32B
330
1F
100
AcDbEntity
  8
D-STR-DIM
100
AcDbText
 10
13560.43338219762
 20
5279.343956774916
 30
0.0
 40
70.0
  1
280
100
AcDbText
  0
LINE
  5
2A32C
330
1F
100
AcDbEntity
  8
D-STR-DIM
  6
Continuous
100
AcDbLine
 10
13507.29338246656
 20
5263.344356855886
 30
0.0
 11
13647.29358175806
 21
5263.344356855886
 31
0.0
  0
CIRCLE
  5
2A32D
330
1F
100
AcDbEntity
  8
D-STR-DIM
  6
Continuous
100
AcDbCircle
 10
13507.29338246656
 20
5263.344356855886
 30
0.0
 40
5.999997969635766
  0
LINE
  5
2A32E
330
1F
100
AcDbEntity
  8
D-STR-DIM
  6
Continuous
100
AcDbLine
 10
13787.29358104956
 20
5263.344356855886
 30
0.0
 11
13647.29358175806
 21
5263.344356855886
 31
0.0
  0
LINE
  5
2A32F
330
1F
100
AcDbEntity
  8
D-STR-DIM
  6
Continuous
100
AcDbLine
 10
13787.29358104956
 20
5563.343755337676
 30
0.0
 11
13527.29338236535
 21
5563.343755337676
 31
0.0
  0
TEXT
  5
2A331
330
1F
100
AcDbEntity
  8
D-STR-HTXT
100
AcDbText
 10
12402.43338805797
 20
6408.343951061375
 30
0.0
 40
50.0
  1
Ｔ－Ｋタイプ
100
AcDbText
  0
TEXT
  5
2A332
330
1F
100
AcDbEntity
  8
D-STR-HTXT
100
AcDbText
 10
12370.43338821987
 20
6504.34395057555
 30
0.0
 40
50.0
  1
　支持受金物
100
AcDbText
  0
LINE
  5
2A333
330
1F
100
AcDbEntity
  8
D-STR-STR2
  6
Continuous
100
AcDbLine
 10
12467.29478772973
 20
7213.343946987507
 30
0.0
 11
12517.29538747668
 21
7163.343147240549
 31
0.0
  0
LINE
  5
2A334
330
1F
100
AcDbEntity
  8
D-STR-STR2
  6
Continuous
100
AcDbLine
 10
12517.2947874767
 20
7963.342943191982
 30
0.0
 11
12467.29498772973
 21
7913.343143445017
 31
0.0
  0
LINE
  5
2A335
330
1F
100
AcDbEntity
  8
D-STR
  6
DASHED1
100
AcDbLine
 10
12467.2935877297
 20
6163.343552301252
 30
0.0
 11
13467.29358266899
 21
6163.343552301252
 31
0.0
  0
LINE
  5
2A336
330
1F
100
AcDbEntity
  8
D-STR
  6
Continuous
100
AcDbLine
 10
12147.29358934912
 20
5963.343553313394
 30
0.0
 11
13787.29358104956
 21
5963.343553313394
 31
0.0
  0
LINE
  5
2A337
330
1F
100
AcDbEntity
  8
D-STR
  6
Continuous
100
AcDbLine
 10
12147.29358934912
 20
8263.344341673764
 30
0.0
 11
13787.29358104956
 21
8263.344341673764
 31
0.0
  0
LINE
  5
2A338
330
1F
100
AcDbEntity
  8
D-STR
  6
DASHED1
100
AcDbLine
 10
12467.2935877297
 20
8063.343342685909
 30
0.0
 11
13467.29358266899
 21
8063.343342685909
 31
0.0
  0
LINE
  5
2A339
330
1F
100
AcDbEntity
  8
D-STR-STR2
  6
Continuous
100
AcDbLine
 10
12427.29358793212
 20
6613.344150023933
 30
0.0
 11
12827.29358590784
 21
6613.344150023933
 31
0.0
  0
LINE
  5
2A33A
330
1F
100
AcDbEntity
  8
D-STR-STR2
  6
Continuous
100
AcDbLine
 10
12427.29358793212
 20
7013.343947999648
 30
0.0
 11
12827.29358590784
 21
7013.343947999648
 31
0.0
  0
LINE
  5
2A33B
330
1F
100
AcDbEntity
  8
D-STR-HTXT
  6
Continuous
100
AcDbLine
 10
12393.29358810417
 20
6488.344350656518
 30
0.0
 11
12929.79378538911
 21
6488.344350656518
 31
0.0
  0
LINE
  5
2A33C
330
1F
100
AcDbEntity
  8
D-STR-DIM
  6
Continuous
100
AcDbLine
 10
11847.29359086733
 20
6863.343748758755
 30
0.0
 11
11847.29359086733
 21
7563.344145216261
 31
0.0
  0
LINE
  5
2A33D
330
1F
100
AcDbEntity
  8
D-STR-DIM
  6
Continuous
100
AcDbLine
 10
11547.29379238554
 20
7763.343944204118
 30
0.0
 11
11547.29379238554
 21
6937.593748383
 31
0.0
  0
LINE
  5
2A33E
330
1F
100
AcDbEntity
  8
D-STR-STR2
  6
Continuous
100
AcDbLine
 10
12467.2935877297
 20
7213.343946987507
 30
0.0
 11
12467.2935877297
 21
7913.344143445012
 31
0.0
  0
LINE
  5
2A33F
330
1F
100
AcDbEntity
  8
D-STR
  6
Continuous
100
AcDbLine
 10
12147.29358934912
 20
5963.343553313394
 30
0.0
 11
12147.29358934912
 21
8263.344341673764
 31
0.0
  0
LINE
  5
2A340
330
1F
100
AcDbEntity
  8
D-STR
  6
DASHED1
100
AcDbLine
 10
12367.29358823577
 20
6263.343951795179
 30
0.0
 11
12367.29358823577
 21
7963.343943191977
 31
0.0
  0
TEXT
  5
2A341
330
1F
100
AcDbEntity
  8
D-STR-DIM
100
AcDbText
 10
11831.29359094832
 20
6526.483550463506
 30
0.0
 40
70.0
  1
500
 50
90.0
100
AcDbText
  0
TEXT
  5
2A342
330
1F
100
AcDbEntity
  8
D-STR-DIM
100
AcDbText
 10
11831.29359094832
 20
6076.483952740824
 30
0.0
 40
70.0
  1
400
 50
90.0
100
AcDbText
  0
LINE
  5
2A343
330
1F
100
AcDbEntity
  8
D-STR-DIM
  6
Continuous
100
AcDbLine
 10
12127.29358934912
 20
6863.343748758755
 30
0.0
 11
11817.29379101915
 21
6863.343748758755
 31
0.0
  0
LINE
  5
2A344
330
1F
100
AcDbEntity
  8
D-STR-DIM
  6
Continuous
100
AcDbLine
 10
12127.29358934912
 20
6363.343551289111
 30
0.0
 11
11817.29379101915
 21
6363.343551289111
 31
0.0
  0
LINE
  5
2A345
330
1F
100
AcDbEntity
  8
D-STR-DIM
  6
Continuous
100
AcDbLine
 10
12127.29358934912
 20
5963.343553313394
 30
0.0
 11
11517.29359253736
 21
5963.343553313394
 31
0.0
  0
LINE
  5
2A346
330
1F
100
AcDbEntity
  8
D-STR-DIM
  6
Continuous
100
AcDbLine
 10
11547.29379238554
 20
6111.843552561879
 30
0.0
 11
11547.29379238554
 21
6937.593748383
 31
0.0
  0
LINE
  5
2A347
330
1F
100
AcDbEntity
  8
D-STR-DIM
  6
Continuous
100
AcDbLine
 10
11730.29039135828
 20
6111.843552561879
 30
0.0
 11
11517.29359253736
 21
6111.843552561879
 31
0.0
  0
CIRCLE
  5
2A348
330
1F
100
AcDbEntity
  8
D-STR-DIM
  6
Continuous
100
AcDbCircle
 10
11547.29379238554
 20
6111.843552561879
 30
0.0
 40
5.999997969635766
  0
CIRCLE
  5
2A349
330
1F
100
AcDbEntity
  8
D-STR-DIM
  6
Continuous
100
AcDbCircle
 10
11547.29379238554
 20
5963.343553313394
 30
0.0
 40
5.999997969635766
  0
LINE
  5
2A34A
330
1F
100
AcDbEntity
  8
D-STR-DIM
  6
Continuous
100
AcDbLine
 10
11547.29379238554
 20
5963.343553313394
 30
0.0
 11
11547.29379238554
 21
6037.593552937636
 31
0.0
  0
LINE
  5
2A34B
330
1F
100
AcDbEntity
  8
D-STR-DIM
  6
Continuous
100
AcDbLine
 10
11547.29379238554
 20
6111.843552561879
 30
0.0
 11
11547.29379238554
 21
6037.593552937636
 31
0.0
  0
TEXT
  5
2A34C
330
1F
100
AcDbEntity
  8
D-STR-DIM
100
AcDbText
 10
11531.29359246653
 20
6754.734149308401
 30
0.0
 40
70.0
  1
1651.5
 50
90.0
100
AcDbText
  0
LINE
  5
2A34D
330
1F
100
AcDbEntity
  8
D-STR-DIM
  6
Continuous
100
AcDbLine
 10
11847.29359086733
 20
6363.343551289111
 30
0.0
 11
11847.29359086733
 21
6613.344150023933
 31
0.0
  0
LINE
  5
2A34E
330
1F
100
AcDbEntity
  8
D-STR-DIM
  6
Continuous
100
AcDbLine
 10
11847.29359086733
 20
6363.343551289111
 30
0.0
 11
11847.29359086733
 21
6163.343552301252
 31
0.0
  0
LINE
  5
2A34F
330
1F
100
AcDbEntity
  8
D-STR-DIM
  6
Continuous
100
AcDbLine
 10
11877.29359071551
 20
6111.843552561879
 30
0.0
 11
12117.29358950094
 21
6111.843552561879
 31
0.0
  0
CIRCLE
  5
2A350
330
1F
100
AcDbEntity
  8
D-STR-DIM
  6
Continuous
100
AcDbCircle
 10
11847.29359086733
 20
5963.343553313394
 30
0.0
 40
5.999997969635766
  0
LINE
  5
2A351
330
1F
100
AcDbEntity
  8
D-STR-DIM
  6
Continuous
100
AcDbLine
 10
11847.29359086733
 20
5963.343553313394
 30
0.0
 11
11847.29359086733
 21
6163.343552301252
 31
0.0
  0
CIRCLE
  5
2A352
330
1F
100
AcDbEntity
  8
D-STR-DIM
  6
Continuous
100
AcDbCircle
 10
11847.29359086733
 20
6363.343551289111
 30
0.0
 40
5.999997969635766
  0
LINE
  5
2A353
330
1F
100
AcDbEntity
  8
D-STR
  6
DASHED1
100
AcDbLine
 10
12467.29538772971
 20
6163.343552301252
 30
0.0
 11
12367.29558823578
 21
6263.342951795184
 31
0.0
  0
CIRCLE
  5
2A354
330
1F
100
AcDbEntity
  8
D-STR-DIM
  6
Continuous
100
AcDbCircle
 10
11847.29359086733
 20
6863.343748758755
 30
0.0
 40
5.999997969635766
  0
LINE
  5
2A355
330
1F
100
AcDbEntity
  8
D-STR-DIM
  6
Continuous
100
AcDbLine
 10
11847.29359086733
 20
6863.343748758755
 30
0.0
 11
11847.29359086733
 21
6613.344150023933
 31
0.0
  0
LINE
  5
2A356
330
1F
100
AcDbEntity
  8
D-STR-STR2
  6
Continuous
100
AcDbLine
 10
12427.29358793212
 20
6613.344150023933
 30
0.0
 11
12427.29358793212
 21
7013.343947999648
 31
0.0
  0
TEXT
  5
2A357
330
1F
100
AcDbEntity
  8
D-STR-DIM
100
AcDbText
 10
11831.29359094832
 20
7444.484145817776
 30
0.0
 40
70.0
  1
1400
 50
90.0
100
AcDbText
  0
LINE
  5
2A358
330
1F
100
AcDbEntity
  8
D-STR-DIM
  6
Continuous
100
AcDbLine
 10
12127.29358934912
 20
8263.344341673764
 30
0.0
 11
11517.29359253736
 21
8263.344341673764
 31
0.0
  0
TEXT
  5
2A359
330
1F
100
AcDbEntity
  8
D-STR-DIM
100
AcDbText
 10
11531.29359246653
 20
7926.484143378516
 30
0.0
 40
70.0
  1
500
 50
90.0
100
AcDbText
  0
LINE
  5
2A35A
330
1F
100
AcDbEntity
  8
D-STR-DIM
  6
Continuous
100
AcDbLine
 10
11547.29379238554
 20
7763.343944204118
 30
0.0
 11
11547.29379238554
 21
8013.343742938943
 31
0.0
  0
LINE
  5
2A35B
330
1F
100
AcDbEntity
  8
D-STR-DIM
  6
Continuous
100
AcDbLine
 10
11750.29039135828
 20
7763.343944204118
 30
0.0
 11
11517.29359253736
 21
7763.343944204118
 31
0.0
  0
CIRCLE
  5
2A35C
330
1F
100
AcDbEntity
  8
D-STR-DIM
  6
Continuous
100
AcDbCircle
 10
11547.29379238554
 20
7763.343944204118
 30
0.0
 40
5.999997969635766
  0
CIRCLE
  5
2A35D
330
1F
100
AcDbEntity
  8
D-STR-DIM
  6
Continuous
100
AcDbCircle
 10
11547.29379238554
 20
8263.344341673764
 30
0.0
 40
5.999997969635766
  0
LINE
  5
2A35E
330
1F
100
AcDbEntity
  8
D-STR-DIM
  6
Continuous
100
AcDbLine
 10
11547.29379238554
 20
8263.344341673764
 30
0.0
 11
11547.29379238554
 21
8013.343742938943
 31
0.0
  0
LINE
  5
2A35F
330
1F
100
AcDbEntity
  8
D-STR-DIM
  6
Continuous
100
AcDbLine
 10
11847.29359086733
 20
8263.344341673764
 30
0.0
 11
11847.29359086733
 21
7563.344145216261
 31
0.0
  0
LINE
  5
2A360
330
1F
100
AcDbEntity
  8
D-STR-DIM
  6
Continuous
100
AcDbLine
 10
11877.29359071551
 20
7763.343944204118
 30
0.0
 11
12117.29358950094
 21
7763.343944204118
 31
0.0
  0
CIRCLE
  5
2A361
330
1F
100
AcDbEntity
  8
D-STR-STR2
  6
Continuous
100
AcDbCircle
 10
12315.79458849642
 20
7763.343944204118
 30
0.0
 40
14.9999979240894
  0
CIRCLE
  5
2A362
330
1F
100
AcDbEntity
  8
D-STR-STR2
  6
Continuous
100
AcDbCircle
 10
12315.79458849642
 20
7763.343944204118
 30
0.0
 40
34.99999782287525
  0
LINE
  5
2A363
330
1F
100
AcDbEntity
  8
D-BMK
  6
CENTER2
100
AcDbLine
 10
12250.79478882536
 20
7763.343944204118
 30
0.0
 11
12380.79458816747
 21
7763.343944204118
 31
0.0
  0
LINE
  5
2A364
330
1F
100
AcDbEntity
  8
D-BMK
  6
CENTER2
100
AcDbLine
 10
12315.79458849642
 20
7828.343543875175
 30
0.0
 11
12315.79458849642
 21
7698.343544533067
 31
0.0
  0
CIRCLE
  5
2A365
330
1F
100
AcDbEntity
  8
D-STR-DIM
  6
Continuous
100
AcDbCircle
 10
11847.29359086733
 20
8263.344341673764
 30
0.0
 40
5.999997969635766
  0
LINE
  5
2A366
330
1F
100
AcDbEntity
  8
D-STR
  6
DASHED1
100
AcDbLine
 10
12367.2949882358
 20
7963.343943191977
 30
0.0
 11
12467.29538772971
 21
8063.343342685909
 31
0.0
  0
LINE
  5
2A367
330
1F
100
AcDbEntity
  8
D-STR-STR2
  6
Continuous
100
AcDbLine
 10
13467.29358266899
 20
7213.343946987507
 30
0.0
 11
13467.29358266899
 21
7913.344143445012
 31
0.0
  0
LINE
  5
2A368
330
1F
100
AcDbEntity
  8
D-STR
  6
DASHED1
100
AcDbLine
 10
13567.29358216292
 20
6263.343951795179
 30
0.0
 11
13567.29358216292
 21
7963.343943191977
 31
0.0
  0
LINE
  5
2A369
330
1F
100
AcDbEntity
  8
D-STR
  6
Continuous
100
AcDbLine
 10
13787.29358104956
 20
5963.343553313394
 30
0.0
 11
13787.29358104956
 21
8263.344341673764
 31
0.0
  0
LINE
  5
2A36A
330
1F
100
AcDbEntity
  8
D-STR-STR2
  6
Continuous
100
AcDbLine
 10
12517.29338747667
 20
7163.344147240543
 30
0.0
 11
13417.29338292203
 21
7163.344147240543
 31
0.0
  0
LINE
  5
2A36B
330
1F
100
AcDbEntity
  8
D-STR-STR2
  6
Continuous
100
AcDbLine
 10
13107.29358449084
 20
7013.343947999648
 30
0.0
 11
13507.29338246656
 21
7013.343947999648
 31
0.0
  0
LINE
  5
2A36C
330
1F
100
AcDbEntity
  8
D-STR-STR2
  6
Continuous
100
AcDbLine
 10
13107.29358449084
 20
6613.344150023933
 30
0.0
 11
13507.29338246656
 21
6613.344150023933
 31
0.0
  0
LINE
  5
2A36D
330
1F
100
AcDbEntity
  8
D-STR
  6
Continuous
100
AcDbLine
 10
13004.79338500957
 20
6897.343948586692
 30
0.0
 11
13004.79338500957
 21
6336.342351425757
 31
0.0
  0
LINE
  5
2A36E
330
1F
100
AcDbEntity
  8
D-STR
  6
Continuous
100
AcDbLine
 10
12929.79378538911
 20
6897.343948586692
 30
0.0
 11
12929.79378538911
 21
6336.342351425757
 31
0.0
  0
CIRCLE
  5
2A36F
330
1F
100
AcDbEntity
  8
D-STR-STR2
  6
Continuous
100
AcDbCircle
 10
12667.29358671755
 20
6111.843552561879
 30
0.0
 40
34.99999782287525
  0
LINE
  5
2A370
330
1F
100
AcDbEntity
  8
D-BMK
  6
CENTER2
100
AcDbLine
 10
12602.2935870465
 20
6111.843552561879
 30
0.0
 11
12732.29358638861
 21
6111.843552561879
 31
0.0
  0
CIRCLE
  5
2A372
330
1F
100
AcDbEntity
  8
D-STR-STR2
  6
Continuous
100
AcDbCircle
 10
12667.29358671755
 20
6111.843552561879
 30
0.0
 40
14.9999979240894
  0
LINE
  5
2A373
330
1F
100
AcDbEntity
  8
D-BMK
  6
CENTER2
100
AcDbLine
 10
12667.29358671755
 20
6176.844152232932
 30
0.0
 11
12667.29358671755
 21
6046.843952890824
 31
0.0
  0
LINE
  5
2A374
330
1F
100
AcDbEntity
  8
D-STR
  6
Continuous
100
AcDbLine
 10
13004.79338500957
 20
6336.342351425757
 30
0.0
 11
12929.79378538911
 21
6336.342351425757
 31
0.0
  0
CIRCLE
  5
2A375
330
1F
100
AcDbEntity
  8
D-STR-STR2
  6
Continuous
100
AcDbCircle
 10
12902.29378552828
 20
6363.343551289111
 30
0.0
 40
9.999997949392936
  0
LINE
  5
2A376
330
1F
100
AcDbEntity
  8
D-STR-HTXT
  6
Continuous
100
AcDbLine
 10
12889.79358559155
 20
6495.396750620828
 30
0.0
 11
12929.79378538911
 21
6488.344350656518
 31
0.0
  0
LINE
  5
2A377
330
1F
100
AcDbEntity
  8
D-STR
  6
Continuous
100
AcDbLine
 10
12929.79378538911
 20
6338.342151415638
 30
0.0
 11
12869.79358569276
 21
6338.342151415638
 31
0.0
  0
LINE
  5
2A378
330
1F
100
AcDbEntity
  8
D-BMK
  6
CENTER2
100
AcDbLine
 10
12847.29418580661
 20
6363.343551289111
 30
0.0
 11
12957.29278524997
 21
6363.343551289111
 31
0.0
  0
LINE
  5
2A379
330
1F
100
AcDbEntity
  8
D-BMK
  6
CENTER2
100
AcDbLine
 10
12902.29378552828
 20
6418.343551010773
 30
0.0
 11
12902.29378552828
 21
6308.34355156745
 31
0.0
  0
LINE
  5
2A37A
330
1F
100
AcDbEntity
  8
D-STR
  6
Continuous
100
AcDbLine
 10
12869.79358569276
 20
6388.342951162596
 30
0.0
 11
12869.79358569276
 21
6338.342151415638
 31
0.0
  0
LINE
  5
2A37B
330
1F
100
AcDbEntity
  8
D-STR
  6
Continuous
100
AcDbLine
 10
12929.79378538911
 20
6388.342951162596
 30
0.0
 11
12869.79358569276
 21
6388.342951162596
 31
0.0
  0
CIRCLE
  5
2A37C
330
1F
100
AcDbEntity
  8
D-STR-STR2
  6
Continuous
100
AcDbCircle
 10
13032.2933848704
 20
6363.343551289111
 30
0.0
 40
9.999997949392936
  0
LINE
  5
2A37D
330
1F
100
AcDbEntity
  8
D-BMK
  6
CENTER2
100
AcDbLine
 10
13032.2933848704
 20
6418.343551010773
 30
0.0
 11
13032.2933848704
 21
6308.34355156745
 31
0.0
  0
LINE
  5
2A37E
330
1F
100
AcDbEntity
  8
D-BMK
  6
CENTER2
100
AcDbLine
 10
12977.29438514871
 20
6363.343551289111
 30
0.0
 11
13087.29298459208
 21
6363.343551289111
 31
0.0
  0
LINE
  5
2A37F
330
1F
100
AcDbEntity
  8
D-STR
  6
Continuous
100
AcDbLine
 10
13064.79358470592
 20
6388.342951162596
 30
0.0
 11
13064.79358470592
 21
6338.342151415638
 31
0.0
  0
LINE
  5
2A380
330
1F
100
AcDbEntity
  8
D-STR
  6
Continuous
100
AcDbLine
 10
13064.79358470592
 20
6338.342151415638
 30
0.0
 11
13004.79338500957
 21
6338.342151415638
 31
0.0
  0
LINE
  5
2A381
330
1F
100
AcDbEntity
  8
D-STR
  6
Continuous
100
AcDbLine
 10
13064.79358470592
 20
6388.342951162596
 30
0.0
 11
13004.79338500957
 21
6388.342951162596
 31
0.0
  0
LINE
  5
2A383
330
1F
100
AcDbEntity
  8
D-BMK
  6
CENTER2
100
AcDbLine
 10
13032.2933848704
 20
6918.343748480417
 30
0.0
 11
13032.2933848704
 21
6808.342749037101
 31
0.0
  0
LINE
  5
2A384
330
1F
100
AcDbEntity
  8
D-BMK
  6
CENTER2
100
AcDbLine
 10
12902.29378552828
 20
6918.343748480417
 30
0.0
 11
12902.29378552828
 21
6808.342749037101
 31
0.0
  0
LINE
  5
2A385
330
1F
100
AcDbEntity
  8
D-STR-STR2
  6
Continuous
100
AcDbLine
 10
13107.29358449084
 20
6613.344150023933
 30
0.0
 11
13107.29358449084
 21
7013.343947999648
 31
0.0
  0
LINE
  5
2A386
330
1F
100
AcDbEntity
  8
D-STR-STR2
  6
Continuous
100
AcDbLine
 10
12827.29358590784
 20
6613.344150023933
 30
0.0
 11
12827.29358590784
 21
7013.343947999648
 31
0.0
  0
LINE
  5
2A387
330
1F
100
AcDbEntity
  8
D-STR
  6
Continuous
100
AcDbLine
 10
13004.79338500957
 20
6897.343948586692
 30
0.0
 11
12929.79378538911
 21
6897.343948586692
 31
0.0
  0
CIRCLE
  5
2A388
330
1F
100
AcDbEntity
  8
D-STR-STR2
  6
Continuous
100
AcDbCircle
 10
12902.29378552828
 20
6863.343748758755
 30
0.0
 40
9.999997949392936
  0
LINE
  5
2A389
330
1F
100
AcDbEntity
  8
D-STR-HTXT
  6
Continuous
100
AcDbLine
 10
12885.09058561534
 20
6910.817748518507
 30
0.0
 11
12897.60718555201
 21
6872.177148714055
 31
0.0
  0
LINE
  5
2A38A
330
1F
100
AcDbEntity
  8
D-BMK
  6
CENTER2
100
AcDbLine
 10
12847.29418580661
 20
6863.343748758755
 30
0.0
 11
12957.29278524997
 21
6863.343748758755
 31
0.0
  0
LINE
  5
2A38B
330
1F
100
AcDbEntity
  8
D-STR
  6
Continuous
100
AcDbLine
 10
12869.79358569276
 20
6888.344148632238
 30
0.0
 11
12869.79358569276
 21
6838.343548885275
 31
0.0
  0
LINE
  5
2A38C
330
1F
100
AcDbEntity
  8
D-STR
  6
Continuous
100
AcDbLine
 10
12869.79358569276
 20
6888.344148632238
 30
0.0
 11
12929.79378538911
 21
6888.344148632238
 31
0.0
  0
LINE
  5
2A38D
330
1F
100
AcDbEntity
  8
D-STR
  6
Continuous
100
AcDbLine
 10
12869.79358569276
 20
6838.343548885275
 30
0.0
 11
12929.79378538911
 21
6838.343548885275
 31
0.0
  0
CIRCLE
  5
2A38E
330
1F
100
AcDbEntity
  8
D-STR-STR2
  6
Continuous
100
AcDbCircle
 10
13032.2933848704
 20
6863.343748758755
 30
0.0
 40
9.999997949392936
  0
LINE
  5
2A38F
330
1F
100
AcDbEntity
  8
D-BMK
  6
CENTER2
100
AcDbLine
 10
12977.29438514871
 20
6863.343748758755
 30
0.0
 11
13087.29298459208
 21
6863.343748758755
 31
0.0
  0
LINE
  5
2A390
330
1F
100
AcDbEntity
  8
D-STR
  6
Continuous
100
AcDbLine
 10
13064.79358470592
 20
6888.344148632238
 30
0.0
 11
13004.79338500957
 21
6888.344148632238
 31
0.0
  0
LINE
  5
2A391
330
1F
100
AcDbEntity
  8
D-STR
  6
Continuous
100
AcDbLine
 10
13064.79358470592
 20
6838.343548885275
 30
0.0
 11
13004.79338500957
 21
6838.343548885275
 31
0.0
  0
LINE
  5
2A392
330
1F
100
AcDbEntity
  8
D-STR
  6
Continuous
100
AcDbLine
 10
13064.79358470592
 20
6888.344148632238
 30
0.0
 11
13064.79358470592
 21
6838.343548885275
 31
0.0
  0
CIRCLE
  5
2A393
330
1F
100
AcDbEntity
  8
D-STR-STR2
  6
Continuous
100
AcDbCircle
 10
13267.29378368112
 20
6111.843552561879
 30
0.0
 40
34.99999782287525
  0
LINE
  5
2A394
330
1F
100
AcDbEntity
  8
D-BMK
  6
CENTER2
100
AcDbLine
 10
13202.29358401007
 20
6111.843552561879
 30
0.0
 11
13332.29378335218
 21
6111.843552561879
 31
0.0
  0
CIRCLE
  5
2A395
330
1F
100
AcDbEntity
  8
D-STR-STR2
  6
Continuous
100
AcDbCircle
 10
13267.29378368112
 20
6111.843552561879
 30
0.0
 40
14.9999979240894
  0
LINE
  5
2A396
330
1F
100
AcDbEntity
  8
D-BMK
  6
CENTER2
100
AcDbLine
 10
13267.29378368112
 20
6176.844152232932
 30
0.0
 11
13267.29378368112
 21
6046.843952890824
 31
0.0
  0
LINE
  5
2A397
330
1F
100
AcDbEntity
  8
D-STR
  6
DASHED1
100
AcDbLine
 10
13567.29458216289
 20
6263.344951795176
 30
0.0
 11
13467.29458266896
 21
6163.343552301252
 31
0.0
  0
LINE
  5
2A399
330
1F
100
AcDbEntity
  8
D-STR-STR2
  6
Continuous
100
AcDbLine
 10
13417.29598292203
 20
7163.343147240549
 30
0.0
 11
13467.29518266901
 21
7213.342946987513
 31
0.0
  0
LINE
  5
2A39B
330
1F
100
AcDbEntity
  8
D-STR-STR2
  6
Continuous
100
AcDbLine
 10
13507.29338246656
 20
6613.344150023933
 30
0.0
 11
13507.29338246656
 21
7013.343947999648
 31
0.0
  0
LINE
  5
2A39D
330
1F
100
AcDbEntity
  8
D-STR-STR2
  6
Continuous
100
AcDbLine
 10
12517.29338747667
 20
7963.343943191977
 30
0.0
 11
13417.29338292203
 21
7963.343943191977
 31
0.0
  0
LINE
  5
2A39E
330
1F
100
AcDbEntity
  8
D-STR-STR2
  6
Continuous
100
AcDbLine
 10
13467.29518266901
 20
7913.343143445017
 30
0.0
 11
13417.29498292205
 21
7963.342943191982
 31
0.0
  0
CIRCLE
  5
2A39F
330
1F
100
AcDbEntity
  8
D-STR-STR2
  6
Continuous
100
AcDbCircle
 10
13618.79358190231
 20
7763.343944204118
 30
0.0
 40
34.99999782287525
  0
CIRCLE
  5
2A3A0
330
1F
100
AcDbEntity
  8
D-STR-STR2
  6
Continuous
100
AcDbCircle
 10
13618.79358190231
 20
7763.343944204118
 30
0.0
 40
14.9999979240894
  0
LINE
  5
2A3A1
330
1F
100
AcDbEntity
  8
D-BMK
  6
CENTER2
100
AcDbLine
 10
13553.79358223125
 20
7763.343944204118
 30
0.0
 11
13683.79378157335
 21
7763.343944204118
 31
0.0
  0
LINE
  5
2A3A2
330
1F
100
AcDbEntity
  8
D-BMK
  6
CENTER2
100
AcDbLine
 10
13618.79358190231
 20
7828.343543875175
 30
0.0
 11
13618.79358190231
 21
7698.343544533067
 31
0.0
  0
LINE
  5
2A3A3
330
1F
100
AcDbEntity
  8
D-STR
  6
DASHED1
100
AcDbLine
 10
13467.29518266901
 20
8063.343342685909
 30
0.0
 11
13567.29518216294
 21
7963.343943191977
 31
0.0
  0
TEXT
  5
2A3A7
330
1F
100
AcDbEntity
  8
D-STR-HTXT
100
AcDbText
 10
8609.333355222704
 20
8377.073087717898
 30
0.0
 40
50.0
  1
　支持受金物
100
AcDbText
  0
LINE
  5
2A3A8
330
1F
100
AcDbEntity
  8
D-STR-HTXT
  6
Continuous
100
AcDbLine
 10
8632.193353107002
 20
8361.073287798868
 30
0.0
 11
9016.19353116369
 21
8361.073287798868
 31
0.0
  0
CIRCLE
  5
2A3A9
330
1F
100
AcDbEntity
  8
D-STR-DIM
  6
Continuous
100
AcDbCircle
 10
8601.573443707108
 20
8663.344139649483
 30
0.0
 40
5.999997969635766
  0
CIRCLE
  5
2A3AA
330
1F
100
AcDbEntity
  8
D-STR-DIM
  6
Continuous
100
AcDbCircle
 10
8601.573443707108
 20
8963.343538131274
 30
0.0
 40
5.999997969635766
  0
CIRCLE
  5
2A3AB
330
1F
100
AcDbEntity
  8
D-STR-DIM
  6
Continuous
100
AcDbCircle
 10
8601.573443707108
 20
9263.343936613058
 30
0.0
 40
5.999997969635766
  0
TEXT
  5
2A3B4
330
1F
100
AcDbEntity
  8
D-STR-DIM
100
AcDbText
 10
12437.93358787826
 20
8679.343939568513
 30
0.0
 40
70.0
  1
755
100
AcDbText
  0
LINE
  5
2A3B6
330
1F
100
AcDbEntity
  8
D-STR-DIM
  6
Continuous
100
AcDbLine
 10
12467.2935877297
 20
9263.343936613058
 30
0.0
 11
12967.29338519935
 21
9263.343936613058
 31
0.0
  0
LINE
  5
2A3B7
330
1F
100
AcDbEntity
  8
D-STR-DIM
  6
Continuous
100
AcDbLine
 10
12147.29358934912
 20
8663.344139649483
 30
0.0
 11
12524.7935874387
 21
8663.344139649483
 31
0.0
  0
LINE
  5
2A3B8
330
1F
100
AcDbEntity
  8
D-STR-DIM
  6
Continuous
100
AcDbLine
 10
12315.79458849642
 20
8963.343538131274
 30
0.0
 11
12967.29438519932
 21
8963.343538131274
 31
0.0
  0
TEXT
  5
2A3C0
330
1F
100
AcDbEntity
  8
D-STR-DIM
100
AcDbText
 10
12220.43358897897
 20
9279.343736532089
 30
0.0
 40
70.0
  1
320
100
AcDbText
  0
TEXT
  5
2A3C1
330
1F
100
AcDbEntity
  8
D-STR-DIM
100
AcDbText
 10
12093.23778962269
 20
8979.344338050298
 30
0.0
 40
70.0
  1
168.5
100
AcDbText
  0
CIRCLE
  5
2A3C2
330
1F
100
AcDbEntity
  8
D-STR-DIM
  6
Continuous
100
AcDbCircle
 10
12147.29358934912
 20
9263.343936613058
 30
0.0
 40
5.999997969635766
  0
CIRCLE
  5
2A3C3
330
1F
100
AcDbEntity
  8
D-STR-DIM
  6
Continuous
100
AcDbCircle
 10
12147.29358934912
 20
8663.344139649483
 30
0.0
 40
5.999997969635766
  0
CIRCLE
  5
2A3C4
330
1F
100
AcDbEntity
  8
D-STR-DIM
  6
Continuous
100
AcDbCircle
 10
12147.29358934912
 20
8963.343538131274
 30
0.0
 40
5.999997969635766
  0
LINE
  5
2A3C5
330
1F
100
AcDbEntity
  8
D-STR-DIM
  6
Continuous
100
AcDbLine
 10
12147.29358934912
 20
9263.343936613058
 30
0.0
 11
12307.29358853941
 21
9263.343936613058
 31
0.0
  0
LINE
  5
2A3C6
330
1F
100
AcDbEntity
  8
D-STR-DIM
  6
Continuous
100
AcDbLine
 10
12147.29358934912
 20
8963.343538131274
 30
0.0
 11
12231.54398892278
 21
8963.343538131274
 31
0.0
  0
LINE
  5
2A3C8
330
1F
100
AcDbEntity
  8
D-STR-DIM
  6
Continuous
100
AcDbLine
 10
12315.79458849642
 20
8684.045739155044
 30
0.0
 11
12315.79458849642
 21
8993.344337979449
 31
0.0
  0
LINE
  5
2A3C9
330
1F
100
AcDbEntity
  8
D-STR-DIM
  6
Continuous
100
AcDbLine
 10
12467.2935877297
 20
8933.343938283092
 30
0.0
 11
12467.2935877297
 21
8791.045339003224
 31
0.0
  0
CIRCLE
  5
2A3CA
330
1F
100
AcDbEntity
  8
D-STR-DIM
  6
Continuous
100
AcDbCircle
 10
12315.79458849642
 20
8963.343538131274
 30
0.0
 40
5.999997969635766
  0
LINE
  5
2A3CB
330
1F
100
AcDbEntity
  8
D-STR-DIM
  6
Continuous
100
AcDbLine
 10
12467.2935877297
 20
9263.343936613058
 30
0.0
 11
12307.29358853941
 21
9263.343936613058
 31
0.0
  0
LINE
  5
2A3CC
330
1F
100
AcDbEntity
  8
D-STR-DIM
  6
Continuous
100
AcDbLine
 10
12315.79458849642
 20
8963.343538131274
 30
0.0
 11
12231.54398892278
 21
8963.343538131274
 31
0.0
  0
CIRCLE
  5
2A3CD
330
1F
100
AcDbEntity
  8
D-STR-DIM
  6
Continuous
100
AcDbCircle
 10
12467.2935877297
 20
9263.343936613058
 30
0.0
 40
5.999997969635766
  0
LINE
  5
2A3CE
330
1F
100
AcDbEntity
  8
D-STR-DIM
  6
Continuous
100
AcDbLine
 10
12467.2935877297
 20
8985.04093766722
 30
0.0
 11
12467.2935877297
 21
9293.343736461238
 31
0.0
  0
LINE
  5
2A3CF
330
1F
100
AcDbEntity
  8
D-STR-DIM
  6
Continuous
100
AcDbLine
 10
13467.29358266899
 20
9263.343936613058
 30
0.0
 11
12967.29338519935
 21
9263.343936613058
 31
0.0
  0
LINE
  5
2A3D0
330
1F
100
AcDbEntity
  8
D-STR-DIM
  6
Continuous
100
AcDbLine
 10
13032.2933848704
 20
8663.344139649483
 30
0.0
 11
13409.79358295998
 21
8663.344139649483
 31
0.0
  0
LINE
  5
2A3D1
330
1F
100
AcDbEntity
  8
D-STR-DIM
  6
Continuous
100
AcDbLine
 10
13618.79358190231
 20
8963.343538131274
 30
0.0
 11
12967.29438519932
 21
8963.343538131274
 31
0.0
  0
TEXT
  5
2A3D2
330
1F
100
AcDbEntity
  8
D-STR-DIM
100
AcDbText
 10
12848.43338580088
 20
9279.343736532089
 30
0.0
 40
70.0
  1
1000
100
AcDbText
  0
LINE
  5
2A3D3
330
1F
100
AcDbEntity
  8
D-STR-DIM
  6
Continuous
100
AcDbLine
 10
12902.29378552828
 20
8663.344139649483
 30
0.0
 11
12524.7935874387
 21
8663.344139649483
 31
0.0
  0
TEXT
  5
2A3D4
330
1F
100
AcDbEntity
  8
D-STR-DIM
100
AcDbText
 10
12880.43378563889
 20
8679.343939568513
 30
0.0
 40
70.0
  1
130
100
AcDbText
  0
LINE
  5
2A3D5
330
1F
100
AcDbEntity
  8
D-STR-DIM
  6
Continuous
100
AcDbLine
 10
13032.2933848704
 20
8663.344139649483
 30
0.0
 11
12967.29338519935
 21
8663.344139649483
 31
0.0
  0
CIRCLE
  5
2A3D6
330
1F
100
AcDbEntity
  8
D-STR-DIM
  6
Continuous
100
AcDbCircle
 10
12902.29378552828
 20
8663.344139649483
 30
0.0
 40
5.999997969635766
  0
LINE
  5
2A3D7
330
1F
100
AcDbEntity
  8
D-STR-DIM
  6
Continuous
100
AcDbLine
 10
12902.29378552828
 20
8663.344139649483
 30
0.0
 11
12967.29338519935
 21
8663.344139649483
 31
0.0
  0
CIRCLE
  5
2A3D8
330
1F
100
AcDbEntity
  8
D-STR-DIM
  6
Continuous
100
AcDbCircle
 10
13032.2933848704
 20
8663.344139649483
 30
0.0
 40
5.999997969635766
  0
TEXT
  5
2A3D9
330
1F
100
AcDbEntity
  8
D-STR-DIM
100
AcDbText
 10
12848.43338580088
 20
8979.344338050298
 30
0.0
 40
70.0
  1
1303
100
AcDbText
  0
TEXT
  5
2A3DA
330
1F
100
AcDbEntity
  8
D-STR-DIM
100
AcDbText
 10
13540.43378229883
 20
9279.343736532089
 30
0.0
 40
70.0
  1
320
100
AcDbText
  0
TEXT
  5
2A3DB
330
1F
100
AcDbEntity
  8
D-STR-DIM
100
AcDbText
 10
13322.93338339954
 20
8679.343939568513
 30
0.0
 40
70.0
  1
755
100
AcDbText
  0
CIRCLE
  5
2A3DC
330
1F
100
AcDbEntity
  8
D-STR-DIM
  6
Continuous
100
AcDbCircle
 10
13467.29358266899
 20
9263.343936613058
 30
0.0
 40
5.999997969635766
  0
LINE
  5
2A3DD
330
1F
100
AcDbEntity
  8
D-STR-DIM
  6
Continuous
100
AcDbLine
 10
13787.29358104956
 20
8663.344139649483
 30
0.0
 11
13409.79358295998
 21
8663.344139649483
 31
0.0
  0
LINE
  5
2A3DE
330
1F
100
AcDbEntity
  8
D-STR-DIM
  6
Continuous
100
AcDbLine
 10
13618.79358190231
 20
8684.045739155044
 30
0.0
 11
13618.79358190231
 21
8993.344337979449
 31
0.0
  0
LINE
  5
2A3DF
330
1F
100
AcDbEntity
  8
D-STR-DIM
  6
Continuous
100
AcDbLine
 10
13467.29358266899
 20
8933.343938283092
 30
0.0
 11
13467.29358266899
 21
8791.045339003224
 31
0.0
  0
LINE
  5
2A3E0
330
1F
100
AcDbEntity
  8
D-STR-DIM
  6
Continuous
100
AcDbLine
 10
13467.29358266899
 20
9263.343936613058
 30
0.0
 11
13627.29338185928
 21
9263.343936613058
 31
0.0
  0
LINE
  5
2A3E1
330
1F
100
AcDbEntity
  8
D-STR-DIM
  6
Continuous
100
AcDbLine
 10
13618.79358190231
 20
8963.343538131274
 30
0.0
 11
13703.04358147597
 21
8963.343538131274
 31
0.0
  0
CIRCLE
  5
2A3E2
330
1F
100
AcDbEntity
  8
D-STR-DIM
  6
Continuous
100
AcDbCircle
 10
13618.79358190231
 20
8963.343538131274
 30
0.0
 40
5.999997969635766
  0
LINE
  5
2A3E3
330
1F
100
AcDbEntity
  8
D-STR-DIM
  6
Continuous
100
AcDbLine
 10
13467.29358266899
 20
8985.04093766722
 30
0.0
 11
13467.29358266899
 21
9293.343736461238
 31
0.0
  0
LINE
  5
2A3E4
330
1F
100
AcDbEntity
  8
D-STR-DIM
  6
Continuous
100
AcDbLine
 10
13787.29358104956
 20
9263.343936613058
 30
0.0
 11
13627.29338185928
 21
9263.343936613058
 31
0.0
  0
LINE
  5
2A3E5
330
1F
100
AcDbEntity
  8
D-STR-DIM
  6
Continuous
100
AcDbLine
 10
13787.29358104956
 20
8963.343538131274
 30
0.0
 11
13703.04358147597
 21
8963.343538131274
 31
0.0
  0
LINE
  5
2A3EB
330
1F
100
AcDbEntity
  8
D-STR-DIM
  6
Continuous
100
AcDbLine
 10
15187.29477396461
 20
5943.343553313394
 30
0.0
 11
15187.29477396461
 21
5533.344155489496
 31
0.0
  0
LINE
  5
2A3EC
330
1F
100
AcDbEntity
  8
D-STR-DIM
  6
Continuous
100
AcDbLine
 10
15037.2949747237
 20
5943.343553313394
 30
0.0
 11
15037.2949747237
 21
5533.344155489496
 31
0.0
  0
TEXT
  5
2A3ED
330
1F
100
AcDbEntity
  8
D-STR-DIM
100
AcDbText
 10
14990.13437496231
 20
5579.344355256701
 30
0.0
 40
70.0
  1
150
100
AcDbText
  0
LINE
  5
2A3EE
330
1F
100
AcDbEntity
  8
D-STR-DIM
  6
Continuous
100
AcDbLine
 10
15037.2949747237
 20
5563.343755337676
 30
0.0
 11
15112.29517434415
 21
5563.343755337676
 31
0.0
  0
CIRCLE
  5
2A3EF
330
1F
100
AcDbEntity
  8
D-STR-DIM
  6
Continuous
100
AcDbCircle
 10
15037.2949747237
 20
5563.343755337676
 30
0.0
 40
5.999997969635766
  0
CIRCLE
  5
2A3F0
330
1F
100
AcDbEntity
  8
D-STR-DIM
  6
Continuous
100
AcDbCircle
 10
15187.29477396461
 20
5563.343755337676
 30
0.0
 40
5.999997969635766
  0
LINE
  5
2A3F1
330
1F
100
AcDbEntity
  8
D-STR-DIM
  6
Continuous
100
AcDbLine
 10
15187.29477396461
 20
5563.343755337676
 30
0.0
 11
15112.29517434415
 21
5563.343755337676
 31
0.0
  0
LINE
  5
2A3F2
330
1F
100
AcDbEntity
  8
D-DCR-HCH
  6
Continuous
100
AcDbLine
 10
15037.2949747237
 20
7837.429543829192
 30
0.0
 11
15163.20937408646
 21
7963.343943191977
 31
0.0
  0
LINE
  5
2A3F3
330
1F
100
AcDbEntity
  8
D-DCR-HCH
  6
Continuous
100
AcDbLine
 10
15037.2949747237
 20
7747.626744283659
 30
0.0
 11
15187.29477396461
 21
7897.626943524551
 31
0.0
  0
LINE
  5
2A3F4
330
1F
100
AcDbEntity
  8
D-DCR-HCH
  6
Continuous
100
AcDbLine
 10
15037.2949747237
 20
7657.824144738126
 30
0.0
 11
15187.29477396461
 21
7807.824343979016
 31
0.0
  0
LINE
  5
2A3F5
330
1F
100
AcDbEntity
  8
D-DCR-HCH
  6
Continuous
100
AcDbLine
 10
15037.2949747237
 20
7568.021345192589
 30
0.0
 11
15187.29477396461
 21
7718.021544433482
 31
0.0
  0
LINE
  5
2A3F6
330
1F
100
AcDbEntity
  8
D-DCR-HCH
  6
Continuous
100
AcDbLine
 10
15037.2949747237
 20
7478.218545647056
 30
0.0
 11
15187.29477396461
 21
7628.218744887949
 31
0.0
  0
LINE
  5
2A3F7
330
1F
100
AcDbEntity
  8
D-DCR-HCH
  6
Continuous
100
AcDbLine
 10
15037.2949747237
 20
7388.415946101519
 30
0.0
 11
15187.29477396461
 21
7538.416145342414
 31
0.0
  0
LINE
  5
2A3F8
330
1F
100
AcDbEntity
  8
D-DCR-HCH
  6
Continuous
100
AcDbLine
 10
15037.2949747237
 20
7298.613146555988
 30
0.0
 11
15187.29477396461
 21
7448.61334579688
 31
0.0
  0
LINE
  5
2A3F9
330
1F
100
AcDbEntity
  8
D-DCR-HCH
  6
Continuous
100
AcDbLine
 10
15037.2949747237
 20
7208.810347010452
 30
0.0
 11
15187.29477396461
 21
7358.810546251344
 31
0.0
  0
LINE
  5
2A3FA
330
1F
100
AcDbEntity
  8
D-DCR-HCH
  6
Continuous
100
AcDbLine
 10
15081.63057449931
 20
7163.344147240543
 30
0.0
 11
15187.29477396461
 21
7269.007946705809
 31
0.0
  0
LINE
  5
2A3FB
330
1F
100
AcDbEntity
  8
D-STR
  6
DASHED1
100
AcDbLine
 10
15037.2949747237
 20
7163.344147240543
 30
0.0
 11
15187.29477396461
 21
7163.344147240543
 31
0.0
  0
LINE
  5
2A3FC
330
1F
100
AcDbEntity
  8
D-STR
  6
DASHED1
100
AcDbLine
 10
15037.2949747237
 20
7963.343943191977
 30
0.0
 11
15187.29477396461
 21
7963.343943191977
 31
0.0
  0
LINE
  5
2A3FD
330
1F
100
AcDbEntity
  8
D-STR
  6
Continuous
100
AcDbLine
 10
15037.2949747237
 20
8263.344341673764
 30
0.0
 11
15487.29457244633
 21
8263.344341673764
 31
0.0
  0
LINE
  5
2A3FE
330
1F
100
AcDbEntity
  8
D-STR
  6
Continuous
100
AcDbLine
 10
15037.2949747237
 20
5963.343553313394
 30
0.0
 11
15487.29457244633
 21
5963.343553313394
 31
0.0
  0
LINE
  5
2A3FF
330
1F
100
AcDbEntity
  8
D-STR-STR2
  6
Continuous
100
AcDbLine
 10
15087.29417447062
 20
7753.343544254729
 30
0.0
 11
15187.29377396456
 21
7748.34414428003
 31
0.0
  0
LINE
  5
2A400
330
1F
100
AcDbEntity
  8
D-STR-STR2
  6
Continuous
100
AcDbLine
 10
15187.29417396455
 20
7778.343944128207
 30
0.0
 11
15087.29477447068
 21
7773.343544153513
 31
0.0
  0
LINE
  5
2A401
330
1F
100
AcDbEntity
  8
D-STR-STR2
  6
Continuous
100
AcDbLine
 10
15187.29477396461
 20
6126.84335248597
 30
0.0
 11
15087.29517447067
 21
6121.843152511274
 31
0.0
  0
LINE
  5
2A402
330
1F
100
AcDbEntity
  8
D-STR-STR2
  6
Continuous
100
AcDbLine
 10
15087.29417447062
 20
6101.843952612485
 30
0.0
 11
15187.2951739646
 21
6096.84375263779
 31
0.0
  0
LINE
  5
2A403
330
1F
100
AcDbEntity
  8
D-STR-DIM
  6
Continuous
100
AcDbLine
 10
14187.29357902528
 20
7163.344147240543
 30
0.0
 11
14187.29357902528
 21
7563.344145216261
 31
0.0
  0
LINE
  5
2A404
330
1F
100
AcDbEntity
  8
D-STR-DIM
  6
Continuous
100
AcDbLine
 10
14487.29337750707
 20
8263.344341673764
 30
0.0
 11
14487.29337750707
 21
7113.343547493581
 31
0.0
  0
LINE
  5
2A405
330
1F
100
AcDbEntity
  8
D-STR
  6
Continuous
100
AcDbLine
 10
15037.2949747237
 20
5963.343553313394
 30
0.0
 11
15037.2949747237
 21
8263.344341673764
 31
0.0
  0
TEXT
  5
2A406
330
1F
100
AcDbEntity
  8
D-STR-DIM
100
AcDbText
 10
14471.29377758805
 20
6994.483548095097
 30
0.0
 40
70.0
  1
2300
 50
90.0
100
AcDbText
  0
LINE
  5
2A407
330
1F
100
AcDbEntity
  8
D-STR-DIM
  6
Continuous
100
AcDbLine
 10
13817.29378089773
 20
5963.343553313394
 30
0.0
 11
15007.29477487554
 21
5963.343553313394
 31
0.0
  0
LINE
  5
2A408
330
1F
100
AcDbEntity
  8
D-STR-DIM
  6
Continuous
100
AcDbLine
 10
14187.29357902528
 20
6613.344150023933
 30
0.0
 11
14187.29357902528
 21
6288.344351668661
 31
0.0
  0
TEXT
  5
2A409
330
1F
100
AcDbEntity
  8
D-STR-DIM
100
AcDbText
 10
14171.29337910627
 20
6201.483752108238
 30
0.0
 40
70.0
  1
650
 50
90.0
100
AcDbText
  0
LINE
  5
2A40A
330
1F
100
AcDbEntity
  8
D-STR-DIM
  6
Continuous
100
AcDbLine
 10
14187.29357902528
 20
5963.343553313394
 30
0.0
 11
14187.29357902528
 21
6288.344351668661
 31
0.0
  0
CIRCLE
  5
2A40B
330
1F
100
AcDbEntity
  8
D-STR-DIM
  6
Continuous
100
AcDbCircle
 10
14187.29357902528
 20
5963.343553313394
 30
0.0
 40
5.999997969635766
  0
TEXT
  5
2A40C
330
1F
100
AcDbEntity
  8
D-STR-DIM
100
AcDbText
 10
14171.29337910627
 20
7014.798747992287
 30
0.0
 40
70.0
  1
150
 50
90.0
100
AcDbText
  0
TEXT
  5
2A40D
330
1F
100
AcDbEntity
  8
D-STR-DIM
100
AcDbText
 10
14171.29337910627
 20
6726.483549451365
 30
0.0
 40
70.0
  1
400
 50
90.0
100
AcDbText
  0
LINE
  5
2A40E
330
1F
100
AcDbEntity
  8
D-STR-DIM
  6
Continuous
100
AcDbLine
 10
14187.29357902528
 20
7013.343947999648
 30
0.0
 11
14187.29357902528
 21
6813.344149011792
 31
0.0
  0
CIRCLE
  5
2A40F
330
1F
100
AcDbEntity
  8
D-STR-DIM
  6
Continuous
100
AcDbCircle
 10
14187.29357902528
 20
6613.344150023933
 30
0.0
 40
5.999997969635766
  0
LINE
  5
2A410
330
1F
100
AcDbEntity
  8
D-STR-DIM
  6
Continuous
100
AcDbLine
 10
14187.29357902528
 20
6613.344150023933
 30
0.0
 11
14187.29357902528
 21
6813.344149011792
 31
0.0
  0
CIRCLE
  5
2A411
330
1F
100
AcDbEntity
  8
D-STR-DIM
  6
Continuous
100
AcDbCircle
 10
14187.29357902528
 20
7163.344147240543
 30
0.0
 40
5.999997969635766
  0
CIRCLE
  5
2A412
330
1F
100
AcDbEntity
  8
D-STR-DIM
  6
Continuous
100
AcDbCircle
 10
14187.29357902528
 20
7013.343947999648
 30
0.0
 40
5.999997969635766
  0
LINE
  5
2A413
330
1F
100
AcDbEntity
  8
D-STR-DIM
  6
Continuous
100
AcDbLine
 10
14187.29357902528
 20
7163.344147240543
 30
0.0
 11
14187.29357902528
 21
7088.344147620095
 31
0.0
  0
LINE
  5
2A414
330
1F
100
AcDbEntity
  8
D-STR-DIM
  6
Continuous
100
AcDbLine
 10
14187.29357902528
 20
7013.343947999648
 30
0.0
 11
14187.29357902528
 21
7088.344147620095
 31
0.0
  0
LINE
  5
2A415
330
1F
100
AcDbEntity
  8
D-STR-DIM
  6
Continuous
100
AcDbLine
 10
14487.29337750707
 20
5963.343553313394
 30
0.0
 11
14487.29337750707
 21
7113.343547493581
 31
0.0
  0
CIRCLE
  5
2A416
330
1F
100
AcDbEntity
  8
D-STR-DIM
  6
Continuous
100
AcDbCircle
 10
14487.29337750707
 20
5963.343553313394
 30
0.0
 40
5.999997969635766
  0
LINE
  5
2A417
330
1F
100
AcDbEntity
  8
D-STR-STR2
  6
Continuous
100
AcDbLine
 10
15087.29477447068
 20
6076.843552739003
 30
0.0
 11
15087.29477447068
 21
6146.843552384754
 31
0.0
  0
LINE
  5
2A418
330
1F
100
AcDbEntity
  8
D-STR-STR2
  6
Continuous
100
AcDbLine
 10
15087.29477447068
 20
6146.843552384754
 30
0.0
 11
15037.29357472368
 21
6156.843952334146
 31
0.0
  0
LINE
  5
2A419
330
1F
100
AcDbEntity
  8
D-STR-STR2
  6
Continuous
100
AcDbLine
 10
15037.29457472365
 20
6066.84415278961
 30
0.0
 11
15087.29417447062
 21
6076.843552739003
 31
0.0
  0
LINE
  5
2A41A
330
1F
100
AcDbEntity
  8
D-STR
  6
Continuous
100
AcDbLine
 10
15087.29477447068
 20
6613.344150023933
 30
0.0
 11
15087.29477447068
 21
7013.343947999648
 31
0.0
  0
LINE
  5
2A41B
330
1F
100
AcDbEntity
  8
D-STR
  6
Continuous
100
AcDbLine
 10
15037.29457472365
 20
6603.345550074532
 30
0.0
 11
15087.29477447068
 21
6613.345150023928
 31
0.0
  0
LINE
  5
2A41C
330
1F
100
AcDbEntity
  8
D-STR
  6
Continuous
100
AcDbLine
 10
15037.2949747237
 20
7023.343547949045
 30
0.0
 11
15087.29477447068
 21
7013.343947999648
 31
0.0
  0
LINE
  5
2A41D
330
1F
100
AcDbEntity
  8
D-STR-DIM
  6
Continuous
100
AcDbLine
 10
13817.29378089773
 20
8263.344341673764
 30
0.0
 11
15007.29477487554
 21
8263.344341673764
 31
0.0
  0
LINE
  5
2A41E
330
1F
100
AcDbEntity
  8
D-STR-DIM
  6
Continuous
100
AcDbLine
 10
14187.29357902528
 20
7963.343943191977
 30
0.0
 11
14187.29357902528
 21
7563.344145216261
 31
0.0
  0
TEXT
  5
2A41F
330
1F
100
AcDbEntity
  8
D-STR-DIM
100
AcDbText
 10
14171.29337910627
 20
7476.483545655835
 30
0.0
 40
70.0
  1
800
 50
90.0
100
AcDbText
  0
TEXT
  5
2A420
330
1F
100
AcDbEntity
  8
D-STR-DIM
100
AcDbText
 10
14171.29337910627
 20
8026.483542872446
 30
0.0
 40
70.0
  1
300
 50
90.0
100
AcDbText
  0
CIRCLE
  5
2A421
330
1F
100
AcDbEntity
  8
D-STR-DIM
  6
Continuous
100
AcDbCircle
 10
14187.29357902528
 20
8263.344341673764
 30
0.0
 40
5.999997969635766
  0
CIRCLE
  5
2A422
330
1F
100
AcDbEntity
  8
D-STR-DIM
  6
Continuous
100
AcDbCircle
 10
14187.29357902528
 20
7963.343943191977
 30
0.0
 40
5.999997969635766
  0
LINE
  5
2A423
330
1F
100
AcDbEntity
  8
D-STR-DIM
  6
Continuous
100
AcDbLine
 10
14187.29357902528
 20
8263.344341673764
 30
0.0
 11
14187.29357902528
 21
8113.34414243287
 31
0.0
  0
LINE
  5
2A424
330
1F
100
AcDbEntity
  8
D-STR-DIM
  6
Continuous
100
AcDbLine
 10
14187.29357902528
 20
7963.343943191977
 30
0.0
 11
14187.29357902528
 21
8113.34414243287
 31
0.0
  0
LINE
  5
2A425
330
1F
100
AcDbEntity
  8
D-DCR-HCH
  6
Continuous
100
AcDbLine
 10
15037.2949747237
 20
7927.232143374729
 30
0.0
 11
15073.40677454095
 21
7963.343943191977
 31
0.0
  0
LINE
  5
2A426
330
1F
100
AcDbEntity
  8
D-STR-DIM
  6
Continuous
100
AcDbLine
 10
15017.2949747237
 20
7808.343543976389
 30
0.0
 11
14707.29497639374
 21
7808.343543976389
 31
0.0
  0
LINE
  5
2A427
330
1F
100
AcDbEntity
  8
D-STR-DIM
  6
Continuous
100
AcDbLine
 10
15017.2949747237
 20
7718.343544431853
 30
0.0
 11
14707.29497639374
 21
7718.343544431853
 31
0.0
  0
TEXT
  5
2A428
330
1F
100
AcDbEntity
  8
D-STR-DIM
100
AcDbText
 10
14725.29477630261
 20
7674.575944653347
 30
0.0
 40
50.0
  1
φ90
 50
90.0
100
AcDbText
  0
CIRCLE
  5
2A429
330
1F
100
AcDbEntity
  8
D-STR-DIM
  6
Continuous
100
AcDbCircle
 10
14737.29517624192
 20
7808.343543976389
 30
0.0
 40
5.999997969635766
  0
CIRCLE
  5
2A42A
330
1F
100
AcDbEntity
  8
D-STR-DIM
  6
Continuous
100
AcDbCircle
 10
14737.29517624192
 20
7718.343544431853
 30
0.0
 40
5.999997969635766
  0
LINE
  5
2A42B
330
1F
100
AcDbEntity
  8
D-STR-DIM
  6
Continuous
100
AcDbLine
 10
14737.29517624192
 20
7808.343543976389
 30
0.0
 11
14737.29517624192
 21
7763.343944204118
 31
0.0
  0
LINE
  5
2A42C
330
1F
100
AcDbEntity
  8
D-STR-DIM
  6
Continuous
100
AcDbLine
 10
14737.29517624192
 20
7718.343544431853
 30
0.0
 11
14737.29517624192
 21
7763.343944204118
 31
0.0
  0
LINE
  5
2A42D
330
1F
100
AcDbEntity
  8
D-STR-DIM
  6
Continuous
100
AcDbLine
 10
15067.29477447068
 20
7798.343944026993
 30
0.0
 11
14857.29517563463
 21
7798.343944026993
 31
0.0
  0
LINE
  5
2A42E
330
1F
100
AcDbEntity
  8
D-STR-DIM
  6
Continuous
100
AcDbLine
 10
15067.29477447068
 20
7728.344144381243
 30
0.0
 11
14857.29517563463
 21
7728.344144381243
 31
0.0
  0
TEXT
  5
2A42F
330
1F
100
AcDbEntity
  8
D-STR-DIM
100
AcDbText
 10
14875.2949755435
 20
7674.575944653347
 30
0.0
 40
50.0
  1
φ70
 50
90.0
100
AcDbText
  0
CIRCLE
  5
2A430
330
1F
100
AcDbEntity
  8
D-STR-DIM
  6
Continuous
100
AcDbCircle
 10
14887.29477548282
 20
7798.343944026993
 30
0.0
 40
5.999997969635766
  0
CIRCLE
  5
2A431
330
1F
100
AcDbEntity
  8
D-STR-DIM
  6
Continuous
100
AcDbCircle
 10
14887.29477548282
 20
7728.344144381243
 30
0.0
 40
5.999997969635766
  0
LINE
  5
2A432
330
1F
100
AcDbEntity
  8
D-STR-DIM
  6
Continuous
100
AcDbLine
 10
14887.29477548282
 20
7798.343944026993
 30
0.0
 11
14887.29477548282
 21
7763.343944204118
 31
0.0
  0
LINE
  5
2A433
330
1F
100
AcDbEntity
  8
D-STR-DIM
  6
Continuous
100
AcDbLine
 10
14887.29477548282
 20
7728.344144381243
 30
0.0
 11
14887.29477548282
 21
7763.343944204118
 31
0.0
  0
LINE
  5
2A434
330
1F
100
AcDbEntity
  8
D-STR-STR2
  6
Continuous
100
AcDbLine
 10
15087.29517447067
 20
7798.34494402699
 30
0.0
 11
15037.29557472369
 21
7808.344543976383
 31
0.0
  0
LINE
  5
2A435
330
1F
100
AcDbEntity
  8
D-STR-STR2
  6
Continuous
100
AcDbLine
 10
15037.2949747237
 20
7718.343544431853
 30
0.0
 11
15087.29477447068
 21
7728.343144381248
 31
0.0
  0
LINE
  5
2A436
330
1F
100
AcDbEntity
  8
D-STR-STR2
  6
Continuous
100
AcDbLine
 10
15087.29477447068
 20
7728.344144381243
 30
0.0
 11
15087.29477447068
 21
7798.343944026993
 31
0.0
  0
CIRCLE
  5
2A437
330
1F
100
AcDbEntity
  8
D-STR-DIM
  6
Continuous
100
AcDbCircle
 10
14487.29337750707
 20
8263.344341673764
 30
0.0
 40
5.999997969635766
  0
LINE
  5
2A438
330
1F
100
AcDbEntity
  8
D-STR-DIM
  6
Continuous
100
AcDbLine
 10
15987.29496991604
 20
7163.344147240543
 30
0.0
 11
15987.29496991604
 21
7613.343744963225
 31
0.0
  0
LINE
  5
2A439
330
1F
100
AcDbEntity
  8
D-STR-DIM
  6
Continuous
100
AcDbLine
 10
16237.2945686508
 20
8063.343342685909
 30
0.0
 11
16237.2945686508
 21
7113.343547493581
 31
0.0
  0
LINE
  5
2A43A
330
1F
100
AcDbEntity
  8
D-STR
  6
Continuous
100
AcDbLine
 10
15187.29477396461
 20
5963.343553313394
 30
0.0
 11
15187.29477396461
 21
8263.344341673764
 31
0.0
  0
LINE
  5
2A43B
330
1F
100
AcDbEntity
  8
D-STR-DIM
  6
Continuous
100
AcDbLine
 10
15207.29477396461
 20
7163.344147240543
 30
0.0
 11
16017.29456976415
 21
7163.344147240543
 31
0.0
  0
LINE
  5
2A43C
330
1F
100
AcDbEntity
  8
D-STR-DIM
  6
Continuous
100
AcDbLine
 10
15487.29457244633
 20
6863.343748758755
 30
0.0
 11
15767.29497102939
 21
6863.343748758755
 31
0.0
  0
LINE
  5
2A43D
330
1F
100
AcDbEntity
  8
D-STR-DIM
  6
Continuous
100
AcDbLine
 10
15487.29457244633
 20
6413.344151036074
 30
0.0
 11
15767.29497102939
 21
6413.344151036074
 31
0.0
  0
LINE
  5
2A43E
330
1F
100
AcDbEntity
  8
D-STR-DIM
  6
Continuous
100
AcDbLine
 10
15507.29457244633
 20
6163.343552301252
 30
0.0
 11
16267.29476849904
 21
6163.343552301252
 31
0.0
  0
LINE
  5
2A43F
330
1F
100
AcDbEntity
  8
D-STR-DIM
  6
Continuous
100
AcDbLine
 10
15507.29457244633
 20
5963.343553313394
 30
0.0
 11
16267.29476849904
 21
5963.343553313394
 31
0.0
  0
TEXT
  5
2A440
330
1F
100
AcDbEntity
  8
D-STR-DIM
100
AcDbText
 10
15725.2949712419
 20
6441.188692034097
 30
0.0
 40
50.0
  1
（５０ピッチ）
 50
90.0
100
AcDbText
  0
LINE
  5
2A441
330
1F
100
AcDbEntity
  8
D-STR-DIM
  6
Continuous
100
AcDbLine
 10
15737.29477118122
 20
6413.344151036074
 30
0.0
 11
15737.29477118122
 21
6638.343549897417
 31
0.0
  0
LINE
  5
2A442
330
1F
100
AcDbEntity
  8
D-STR
  6
Continuous
100
AcDbLine
 10
15217.79417381023
 20
6597.343550104904
 30
0.0
 11
15217.79417381023
 21
6553.342950327579
 31
0.0
  0
LINE
  5
2A443
330
1F
100
AcDbEntity
  8
D-STR
  6
Continuous
100
AcDbLine
 10
15217.79677381022
 20
6563.343350276972
 30
0.0
 11
15432.66757272282
 21
6582.142550181832
 31
0.0
  0
LINE
  5
2A444
330
1F
100
AcDbEntity
  8
D-STR
  6
Continuous
100
AcDbLine
 10
15211.79557384057
 20
6597.343550104904
 30
0.0
 11
15211.79557384057
 21
6553.342950327579
 31
0.0
  0
LINE
  5
2A445
330
1F
100
AcDbEntity
  8
D-STR
  6
Continuous
100
AcDbLine
 10
15211.79557384057
 20
6892.343548611996
 30
0.0
 11
15211.79557384057
 21
6331.343151451057
 31
0.0
  0
ARC
  5
2A446
330
1F
100
AcDbEntity
  8
D-STR
  6
Continuous
100
AcDbCircle
 10
15431.79417272725
 20
6392.104551143559
 30
0.0
 40
9.999997949392936
100
AcDbArc
 50
275.0000000000777
 51
0.0
  0
LINE
  5
2A447
330
1F
100
AcDbEntity
  8
D-STR
  6
Continuous
100
AcDbLine
 10
15227.79537375959
 20
6407.344151066439
 30
0.0
 11
15445.79317265637
 21
6407.344151066439
 31
0.0
  0
LINE
  5
2A448
330
1F
100
AcDbEntity
  8
D-STR
  6
Continuous
100
AcDbLine
 10
15227.79537375959
 20
6413.344151036074
 30
0.0
 11
15445.79317265637
 21
6413.344151036074
 31
0.0
  0
LINE
  5
2A449
330
1F
100
AcDbEntity
  8
D-STR
  6
Continuous
100
AcDbLine
 10
15187.29477396461
 20
6163.343552301252
 30
0.0
 11
15487.29457244633
 21
6163.343552301252
 31
0.0
  0
LINE
  5
2A44A
330
1F
100
AcDbEntity
  8
D-DCR-HCH
  6
Continuous
100
AcDbLine
 10
15187.29477396461
 20
6009.302353080812
 30
0.0
 11
15276.23077351448
 21
6163.343552301252
 31
0.0
  0
LINE
  5
2A44B
330
1F
100
AcDbEntity
  8
D-DCR-HCH
  6
Continuous
100
AcDbLine
 10
15187.29477396461
 20
6049.302552878381
 30
0.0
 11
15253.13657363138
 21
6163.343552301252
 31
0.0
  0
LINE
  5
2A44C
330
1F
100
AcDbEntity
  8
D-STR
  6
Continuous
100
AcDbLine
 10
15187.29477396461
 20
6083.344152706107
 30
0.0
 11
15267.29497355975
 21
6083.344152706107
 31
0.0
  0
LINE
  5
2A44D
330
1F
100
AcDbEntity
  8
D-STR
  6
Continuous
100
AcDbLine
 10
15267.29497355975
 20
6083.344152706107
 30
0.0
 11
15267.29497355975
 21
6163.343552301252
 31
0.0
  0
LINE
  5
2A44E
330
1F
100
AcDbEntity
  8
D-DCR-HCH
  6
Continuous
100
AcDbLine
 10
15310.76057333976
 20
5963.343553313394
 30
0.0
 11
15426.23057275539
 21
6163.343552301252
 31
0.0
  0
LINE
  5
2A44F
330
1F
100
AcDbEntity
  8
D-DCR-HCH
  6
Continuous
100
AcDbLine
 10
15287.66617345666
 20
5963.343553313394
 30
0.0
 11
15403.13617287229
 21
6163.343552301252
 31
0.0
  0
LINE
  5
2A450
330
1F
100
AcDbEntity
  8
D-STR
  6
Continuous
100
AcDbLine
 10
15217.79617381024
 20
6363.343551289111
 30
0.0
 11
15432.66717272283
 21
6382.142551193974
 31
0.0
  0
ARC
  5
2A451
330
1F
100
AcDbEntity
  8
D-STR
  6
Continuous
100
AcDbCircle
 10
15227.79537375959
 20
6397.34455111704
 30
0.0
 40
15.99999991902868
100
AcDbArc
 50
90.0
 51
190.287329999988
  0
ARC
  5
2A452
330
1F
100
AcDbEntity
  8
D-STR
  6
Continuous
100
AcDbCircle
 10
15227.79537375959
 20
6397.34455111704
 30
0.0
 40
9.999997949392936
100
AcDbArc
 50
90.0
 51
180.0
  0
LINE
  5
2A453
330
1F
100
AcDbEntity
  8
D-STR-STR2
  6
Continuous
100
AcDbLine
 10
15187.29477396461
 20
6353.343951339716
 30
0.0
 11
15107.29477436947
 21
6353.343951339716
 31
0.0
  0
LINE
  5
2A454
330
1F
100
AcDbEntity
  8
D-STR-STR2
  6
Continuous
100
AcDbLine
 10
15107.29477436947
 20
6353.343951339716
 30
0.0
 11
15107.29477436947
 21
6373.343951238501
 31
0.0
  0
LINE
  5
2A455
330
1F
100
AcDbEntity
  8
D-STR
  6
Continuous
100
AcDbLine
 10
15187.29477396461
 20
6331.343151451057
 30
0.0
 11
15211.79557384057
 21
6331.343151451057
 31
0.0
  0
LINE
  5
2A456
330
1F
100
AcDbEntity
  8
D-STR
  6
Continuous
100
AcDbLine
 10
15211.79557384057
 20
6397.34455111704
 30
0.0
 11
15211.79557384057
 21
6353.343951339716
 31
0.0
  0
LINE
  5
2A457
330
1F
100
AcDbEntity
  8
D-STR
  6
Continuous
100
AcDbLine
 10
15211.79557384057
 20
6353.343951339716
 30
0.0
 11
15217.79417381023
 21
6353.343951339716
 31
0.0
  0
LINE
  5
2A458
330
1F
100
AcDbEntity
  8
D-STR
  6
Continuous
100
AcDbLine
 10
15217.7951738102
 20
6397.342551117052
 30
0.0
 11
15227.79537375959
 21
6407.342151066448
 31
0.0
  0
LINE
  5
2A459
330
1F
100
AcDbEntity
  8
D-STR
  6
Continuous
100
AcDbLine
 10
15217.79417381023
 20
6397.34455111704
 30
0.0
 11
15217.79417381023
 21
6353.343951339716
 31
0.0
  0
LINE
  5
2A45A
330
1F
100
AcDbEntity
  8
D-STR-STR2
  6
Continuous
100
AcDbLine
 10
15107.29477436947
 20
6373.343951238501
 30
0.0
 11
15187.29477396461
 21
6373.343951238501
 31
0.0
  0
TEXT
  5
2A45B
330
1F
100
AcDbEntity
  8
D-STR-DIM
100
AcDbText
 10
15725.2949712419
 20
6223.199151998342
 30
0.0
 40
50.0
  1
250
 50
90.0
100
AcDbText
  0
LINE
  5
2A45C
330
1F
100
AcDbEntity
  8
D-STR-DIM
  6
Continuous
100
AcDbLine
 10
15737.29477118122
 20
6163.343552301252
 30
0.0
 11
15737.29477118122
 21
6288.344351668661
 31
0.0
  0
LINE
  5
2A45D
330
1F
100
AcDbEntity
  8
D-DCR-HCH
  6
Continuous
100
AcDbLine
 10
15437.66637269755
 20
5963.343553313394
 30
0.0
 11
15487.29457244633
 21
6049.302552878381
 31
0.0
  0
LINE
  5
2A45E
330
1F
100
AcDbEntity
  8
D-DCR-HCH
  6
Continuous
100
AcDbLine
 10
15460.76017258067
 20
5963.343553313394
 30
0.0
 11
15487.29457244633
 21
6009.302353080812
 31
0.0
  0
CIRCLE
  5
2A45F
330
1F
100
AcDbEntity
  8
D-STR-DIM
  6
Continuous
100
AcDbCircle
 10
15737.29477118122
 20
6163.343552301252
 30
0.0
 40
5.999997969635766
  0
ARC
  5
2A460
330
1F
100
AcDbEntity
  8
D-STR
  6
Continuous
100
AcDbCircle
 10
15445.79317265637
 20
6423.343750985468
 30
0.0
 40
15.99999991902868
100
AcDbArc
 50
270.0
 51
0.0
  0
ARC
  5
2A461
330
1F
100
AcDbEntity
  8
D-STR
  6
Continuous
100
AcDbCircle
 10
15445.79317265637
 20
6423.343750985468
 30
0.0
 40
9.999997949392936
100
AcDbArc
 50
270.0
 51
0.0
  0
LINE
  5
2A462
330
1F
100
AcDbEntity
  8
D-STR
  6
Continuous
100
AcDbLine
 10
15461.79437257543
 20
6443.343950884252
 30
0.0
 11
15461.79437257543
 21
6423.343750985468
 31
0.0
  0
LINE
  5
2A463
330
1F
100
AcDbEntity
  8
D-STR
  6
Continuous
100
AcDbLine
 10
15441.79417267665
 20
6407.344151066439
 30
0.0
 11
15441.79417267665
 21
6392.104551143559
 31
0.0
  0
LINE
  5
2A464
330
1F
100
AcDbEntity
  8
D-STR
  6
Continuous
100
AcDbLine
 10
15455.7945726058
 20
6443.343950884252
 30
0.0
 11
15455.7945726058
 21
6423.343750985468
 31
0.0
  0
LINE
  5
2A465
330
1F
100
AcDbEntity
  8
D-STR
  6
Continuous
100
AcDbLine
 10
15455.7945726058
 20
6443.343950884252
 30
0.0
 11
15461.79437257543
 21
6443.343950884252
 31
0.0
  0
CIRCLE
  5
2A466
330
1F
100
AcDbEntity
  8
D-STR-DIM
  6
Continuous
100
AcDbCircle
 10
15737.29477118122
 20
6413.344151036074
 30
0.0
 40
5.999997969635766
  0
LINE
  5
2A467
330
1F
100
AcDbEntity
  8
D-STR-DIM
  6
Continuous
100
AcDbLine
 10
15737.29477118122
 20
6413.344151036074
 30
0.0
 11
15737.29477118122
 21
6288.344351668661
 31
0.0
  0
ARC
  5
2A468
330
1F
100
AcDbEntity
  8
D-STR
  6
Continuous
100
AcDbCircle
 10
15431.79417272725
 20
6592.10435013142
 30
0.0
 40
9.999997949392936
100
AcDbArc
 50
275.0000000000777
 51
0.0
  0
ARC
  5
2A469
330
1F
100
AcDbEntity
  8
D-STR
  6
Continuous
100
AcDbCircle
 10
15431.79417272725
 20
6842.104148866245
 30
0.0
 40
9.999997949392936
100
AcDbArc
 50
275.0000000000777
 51
0.0
  0
LINE
  5
2A46A
330
1F
100
AcDbEntity
  8
D-STR
  6
Continuous
100
AcDbLine
 10
15227.79537375959
 20
6613.343150023938
 30
0.0
 11
15445.79317265637
 21
6613.343150023938
 31
0.0
  0
LINE
  5
2A46B
330
1F
100
AcDbEntity
  8
D-STR
  6
Continuous
100
AcDbLine
 10
15227.79537375959
 20
6607.343950054296
 30
0.0
 11
15445.79317265637
 21
6607.343950054296
 31
0.0
  0
LINE
  5
2A46C
330
1F
100
AcDbEntity
  8
D-STR
  6
Continuous
100
AcDbLine
 10
15227.79537375959
 20
6857.343748789121
 30
0.0
 11
15445.79317265637
 21
6857.343748789121
 31
0.0
  0
LINE
  5
2A46D
330
1F
100
AcDbEntity
  8
D-STR
  6
Continuous
100
AcDbLine
 10
15227.79537375959
 20
6863.343748758755
 30
0.0
 11
15445.79317265637
 21
6863.343748758755
 31
0.0
  0
LINE
  5
2A46E
330
1F
100
AcDbEntity
  8
D-STR
  6
Continuous
100
AcDbLine
 10
15137.29497421764
 20
6613.344150023933
 30
0.0
 11
15137.29497421764
 21
7013.343947999648
 31
0.0
  0
LINE
  5
2A46F
330
1F
100
AcDbEntity
  8
D-STR
  6
Continuous
100
AcDbLine
 10
15217.79617381024
 20
6813.344149011792
 30
0.0
 11
15432.66757272282
 21
6832.143148916656
 31
0.0
  0
ARC
  5
2A470
330
1F
100
AcDbEntity
  8
D-STR
  6
Continuous
100
AcDbCircle
 10
15227.79537375959
 20
6597.343550104904
 30
0.0
 40
9.999997949392936
100
AcDbArc
 50
90.0
 51
180.0
  0
ARC
  5
2A471
330
1F
100
AcDbEntity
  8
D-STR
  6
Continuous
100
AcDbCircle
 10
15227.79537375959
 20
6597.343550104904
 30
0.0
 40
15.99999991902868
100
AcDbArc
 50
90.0
 51
190.287329999988
  0
ARC
  5
2A472
330
1F
100
AcDbEntity
  8
D-STR
  6
Continuous
100
AcDbCircle
 10
15227.79537375959
 20
6847.344148839727
 30
0.0
 40
15.99999991902868
100
AcDbArc
 50
90.0
 51
190.287329999988
  0
ARC
  5
2A473
330
1F
100
AcDbEntity
  8
D-STR
  6
Continuous
100
AcDbCircle
 10
15227.79537375959
 20
6847.344148839727
 30
0.0
 40
9.999997949392936
100
AcDbArc
 50
90.0
 51
180.0
  0
LINE
  5
2A474
330
1F
100
AcDbEntity
  8
D-STR
  6
Continuous
100
AcDbLine
 10
15187.29477396461
 20
6892.343548611996
 30
0.0
 11
15211.79557384057
 21
6892.343548611996
 31
0.0
  0
LINE
  5
2A475
330
1F
100
AcDbEntity
  8
D-STR
  6
Continuous
100
AcDbLine
 10
15217.7951738102
 20
6597.341550104914
 30
0.0
 11
15227.79477375961
 21
6607.342150054305
 31
0.0
  0
LINE
  5
2A476
330
1F
100
AcDbEntity
  8
D-STR
  6
Continuous
100
AcDbLine
 10
15211.79557384057
 20
6847.344148839727
 30
0.0
 11
15211.79557384057
 21
6803.3435490624
 31
0.0
  0
LINE
  5
2A477
330
1F
100
AcDbEntity
  8
D-STR
  6
Continuous
100
AcDbLine
 10
15211.79557384057
 20
6803.3435490624
 30
0.0
 11
15217.79417381023
 21
6803.3435490624
 31
0.0
  0
LINE
  5
2A478
330
1F
100
AcDbEntity
  8
D-STR
  6
Continuous
100
AcDbLine
 10
15217.7951738102
 20
6847.342148839736
 30
0.0
 11
15227.79537375959
 21
6857.342748789126
 31
0.0
  0
LINE
  5
2A479
330
1F
100
AcDbEntity
  8
D-STR
  6
Continuous
100
AcDbLine
 10
15217.79417381023
 20
6847.344148839727
 30
0.0
 11
15217.79417381023
 21
6803.3435490624
 31
0.0
  0
LINE
  5
2A47A
330
1F
100
AcDbEntity
  8
D-STR-STR2
  6
Continuous
100
AcDbLine
 10
15187.29477396461
 20
6853.344348809361
 30
0.0
 11
15107.29477436947
 21
6853.344348809361
 31
0.0
  0
LINE
  5
2A47B
330
1F
100
AcDbEntity
  8
D-STR-STR2
  6
Continuous
100
AcDbLine
 10
15107.29477436947
 20
6873.344348708148
 30
0.0
 11
15187.29477396461
 21
6873.344348708148
 31
0.0
  0
LINE
  5
2A47C
330
1F
100
AcDbEntity
  8
D-STR-STR2
  6
Continuous
100
AcDbLine
 10
15107.29477436947
 20
6853.344348809361
 30
0.0
 11
15107.29477436947
 21
6873.344348708148
 31
0.0
  0
LINE
  5
2A47D
330
1F
100
AcDbEntity
  8
D-STR
  6
Continuous
100
AcDbLine
 10
15187.29417396455
 20
6603.344550074537
 30
0.0
 11
15137.29437421758
 21
6613.344150023933
 31
0.0
  0
LINE
  5
2A47E
330
1F
100
AcDbEntity
  8
D-DCR-HCH
  6
Continuous
100
AcDbLine
 10
15171.43317404482
 20
7163.344147240543
 30
0.0
 11
15187.29477396461
 21
7179.206147160271
 31
0.0
  0
LINE
  5
2A47F
330
1F
100
AcDbEntity
  8
D-STR
  6
Continuous
100
AcDbLine
 10
15187.2951739646
 20
7023.343547949045
 30
0.0
 11
15137.29497421764
 21
7013.343947999648
 31
0.0
  0
LINE
  5
2A480
330
1F
100
AcDbEntity
  8
D-STR-DIM
  6
Continuous
100
AcDbLine
 10
15737.29477118122
 20
6863.343748758755
 30
0.0
 11
15737.29477118122
 21
7013.343947999648
 31
0.0
  0
ARC
  5
2A481
330
1F
100
AcDbEntity
  8
D-STR
  6
Continuous
100
AcDbCircle
 10
15445.79317265637
 20
6623.343749973327
 30
0.0
 40
9.999997949392936
100
AcDbArc
 50
270.0
 51
0.0
  0
ARC
  5
2A482
330
1F
100
AcDbEntity
  8
D-STR
  6
Continuous
100
AcDbCircle
 10
15445.79317265637
 20
6623.343749973327
 30
0.0
 40
15.99999991902868
100
AcDbArc
 50
270.0
 51
0.0
  0
ARC
  5
2A483
330
1F
100
AcDbEntity
  8
D-STR
  6
Continuous
100
AcDbCircle
 10
15445.79317265637
 20
6873.344348708148
 30
0.0
 40
15.99999991902868
100
AcDbArc
 50
270.0
 51
0.0
  0
ARC
  5
2A484
330
1F
100
AcDbEntity
  8
D-STR
  6
Continuous
100
AcDbCircle
 10
15445.79317265637
 20
6873.344348708148
 30
0.0
 40
9.999997949392936
100
AcDbArc
 50
270.0
 51
0.0
  0
LINE
  5
2A485
330
1F
100
AcDbEntity
  8
D-STR
  6
Continuous
100
AcDbLine
 10
15455.7945726058
 20
6643.343749872112
 30
0.0
 11
15461.79437257543
 21
6643.343749872112
 31
0.0
  0
LINE
  5
2A486
330
1F
100
AcDbEntity
  8
D-STR
  6
Continuous
100
AcDbLine
 10
15455.7945726058
 20
6643.343749872112
 30
0.0
 11
15455.7945726058
 21
6623.343749973327
 31
0.0
  0
LINE
  5
2A487
330
1F
100
AcDbEntity
  8
D-STR
  6
Continuous
100
AcDbLine
 10
15441.79417267665
 20
6607.343950054296
 30
0.0
 11
15441.79417267665
 21
6592.10435013142
 31
0.0
  0
LINE
  5
2A488
330
1F
100
AcDbEntity
  8
D-STR
  6
Continuous
100
AcDbLine
 10
15461.79437257543
 20
6643.343749872112
 30
0.0
 11
15461.79437257543
 21
6623.343749973327
 31
0.0
  0
LINE
  5
2A489
330
1F
100
AcDbEntity
  8
D-STR
  6
Continuous
100
AcDbLine
 10
15461.79437257543
 20
6893.343548606937
 30
0.0
 11
15461.79437257543
 21
6873.344348708148
 31
0.0
  0
LINE
  5
2A48A
330
1F
100
AcDbEntity
  8
D-STR
  6
Continuous
100
AcDbLine
 10
15441.79417267665
 20
6857.343748789121
 30
0.0
 11
15441.79417267665
 21
6842.104148866245
 31
0.0
  0
LINE
  5
2A48B
330
1F
100
AcDbEntity
  8
D-STR
  6
Continuous
100
AcDbLine
 10
15455.7945726058
 20
6893.343548606937
 30
0.0
 11
15455.7945726058
 21
6873.344348708148
 31
0.0
  0
LINE
  5
2A48C
330
1F
100
AcDbEntity
  8
D-STR
  6
Continuous
100
AcDbLine
 10
15455.7945726058
 20
6893.343548606937
 30
0.0
 11
15461.79437257543
 21
6893.343548606937
 31
0.0
  0
TEXT
  5
2A48D
330
1F
100
AcDbEntity
  8
D-STR-DIM
100
AcDbText
 10
15653.2949716063
 20
6441.188692034097
 30
0.0
 40
50.0
  1
　　４５０
 50
90.0
100
AcDbText
  0
CIRCLE
  5
2A48E
330
1F
100
AcDbEntity
  8
D-STR-DIM
  6
Continuous
100
AcDbCircle
 10
15737.29477118122
 20
6863.343748758755
 30
0.0
 40
5.999997969635766
  0
LINE
  5
2A48F
330
1F
100
AcDbEntity
  8
D-STR-DIM
  6
Continuous
100
AcDbLine
 10
15737.29477118122
 20
6863.343748758755
 30
0.0
 11
15737.29477118122
 21
6638.343549897417
 31
0.0
  0
TEXT
  5
2A490
330
1F
100
AcDbEntity
  8
D-STR-DIM
100
AcDbText
 10
15725.2949712419
 20
6948.198748329329
 30
0.0
 40
50.0
  1
300
 50
90.0
100
AcDbText
  0
CIRCLE
  5
2A491
330
1F
100
AcDbEntity
  8
D-STR-DIM
  6
Continuous
100
AcDbCircle
 10
15737.29477118122
 20
7163.344147240543
 30
0.0
 40
5.999997969635766
  0
LINE
  5
2A492
330
1F
100
AcDbEntity
  8
D-STR-DIM
  6
Continuous
100
AcDbLine
 10
15737.29477118122
 20
7163.344147240543
 30
0.0
 11
15737.29477118122
 21
7013.343947999648
 31
0.0
  0
TEXT
  5
2A493
330
1F
100
AcDbEntity
  8
D-STR-DIM
100
AcDbText
 10
15971.29476999696
 20
6544.483950372413
 30
0.0
 40
70.0
  1
1000
 50
90.0
100
AcDbText
  0
LINE
  5
2A494
330
1F
100
AcDbEntity
  8
D-STR-DIM
  6
Continuous
100
AcDbLine
 10
15987.29496991604
 20
6163.343552301252
 30
0.0
 11
15987.29496991604
 21
6663.343949770896
 31
0.0
  0
LINE
  5
2A495
330
1F
100
AcDbEntity
  8
D-STR-DIM
  6
Continuous
100
AcDbLine
 10
16237.2945686508
 20
6163.343552301252
 30
0.0
 11
16237.2945686508
 21
7113.343547493581
 31
0.0
  0
CIRCLE
  5
2A496
330
1F
100
AcDbEntity
  8
D-STR-DIM
  6
Continuous
100
AcDbCircle
 10
15987.29496991604
 20
6163.343552301252
 30
0.0
 40
5.999997969635766
  0
TEXT
  5
2A497
330
1F
100
AcDbEntity
  8
D-STR-DIM
100
AcDbText
 10
16221.29496873177
 20
5976.483553246895
 30
0.0
 40
70.0
  1
200
 50
90.0
100
AcDbText
  0
CIRCLE
  5
2A498
330
1F
100
AcDbEntity
  8
D-STR-DIM
  6
Continuous
100
AcDbCircle
 10
16237.2945686508
 20
6163.343552301252
 30
0.0
 40
5.999997969635766
  0
CIRCLE
  5
2A499
330
1F
100
AcDbEntity
  8
D-STR-DIM
  6
Continuous
100
AcDbCircle
 10
16237.2945686508
 20
5963.343553313394
 30
0.0
 40
5.999997969635766
  0
LINE
  5
2A49A
330
1F
100
AcDbEntity
  8
D-STR-DIM
  6
Continuous
100
AcDbLine
 10
16237.2945686508
 20
6163.343552301252
 30
0.0
 11
16237.2945686508
 21
6063.344152807322
 31
0.0
  0
LINE
  5
2A49B
330
1F
100
AcDbEntity
  8
D-STR-DIM
  6
Continuous
100
AcDbLine
 10
16237.2945686508
 20
5963.343553313394
 30
0.0
 11
16237.2945686508
 21
6063.344152807322
 31
0.0
  0
LINE
  5
2A49C
330
1F
100
AcDbEntity
  8
D-STR-DIM
  6
Continuous
100
AcDbLine
 10
15987.29496991604
 20
7163.344147240543
 30
0.0
 11
15987.29496991604
 21
6663.343949770896
 31
0.0
  0
CIRCLE
  5
2A49D
330
1F
100
AcDbEntity
  8
D-STR-DIM
  6
Continuous
100
AcDbCircle
 10
15987.29496991604
 20
7163.344147240543
 30
0.0
 40
5.999997969635766
  0
TEXT
  5
2A49E
330
1F
100
AcDbEntity
  8
D-STR-DIM
100
AcDbText
 10
16221.29496873177
 20
6994.483548095097
 30
0.0
 40
70.0
  1
1900
 50
90.0
100
AcDbText
  0
LINE
  5
2A49F
330
1F
100
AcDbEntity
  8
D-STR-DIM
  6
Continuous
100
AcDbLine
 10
15507.29457244633
 20
8063.343342685909
 30
0.0
 11
16267.29476849904
 21
8063.343342685909
 31
0.0
  0
LINE
  5
2A4A0
330
1F
100
AcDbEntity
  8
D-STR-DIM
  6
Continuous
100
AcDbLine
 10
15507.29457244633
 20
8263.344341673764
 30
0.0
 11
16267.29476849904
 21
8263.344341673764
 31
0.0
  0
LINE
  5
2A4A1
330
1F
100
AcDbEntity
  8
D-STR-DIM
  6
Continuous
100
AcDbLine
 10
15207.29477396461
 20
7748.34414428003
 30
0.0
 11
15317.29477330672
 21
7748.34414428003
 31
0.0
  0
LINE
  5
2A4A2
330
1F
100
AcDbEntity
  8
D-STR-DIM
  6
Continuous
100
AcDbLine
 10
15207.29477396461
 20
7778.343944128207
 30
0.0
 11
15317.29477330672
 21
7778.343944128207
 31
0.0
  0
TEXT
  5
2A4A4
330
1F
100
AcDbEntity
  8
D-STR-DIM
100
AcDbText
 10
15359.53497309289
 20
7698.198744533799
 30
0.0
 40
50.0
  1
φ30
 50
90.0
100
AcDbText
  0
CIRCLE
  5
2A4A5
330
1F
100
AcDbEntity
  8
D-STR-DIM
  6
Continuous
100
AcDbCircle
 10
15287.29457345847
 20
7748.34414428003
 30
0.0
 40
5.999997969635766
  0
CIRCLE
  5
2A4A6
330
1F
100
AcDbEntity
  8
D-STR-DIM
  6
Continuous
100
AcDbCircle
 10
15287.29457345847
 20
7778.343944128207
 30
0.0
 40
5.999997969635766
  0
LINE
  5
2A4A7
330
1F
100
AcDbEntity
  8
D-STR-DIM
  6
Continuous
100
AcDbLine
 10
15287.29457345847
 20
7748.34414428003
 30
0.0
 11
15287.29457345847
 21
7763.343944204118
 31
0.0
  0
LINE
  5
2A4A8
330
1F
100
AcDbEntity
  8
D-STR-DIM
  6
Continuous
100
AcDbLine
 10
15287.29457345847
 20
7778.343944128207
 30
0.0
 11
15287.29457345847
 21
7763.343944204118
 31
0.0
  0
LINE
  5
2A4A9
330
1F
100
AcDbEntity
  8
D-STR
  6
Continuous
100
AcDbLine
 10
15187.29477396461
 20
8063.343342685909
 30
0.0
 11
15487.29457244633
 21
8063.343342685909
 31
0.0
  0
LINE
  5
2A4AA
330
1F
100
AcDbEntity
  8
D-DCR-HCH
  6
Continuous
100
AcDbLine
 10
15187.29477396461
 20
8109.303142453322
 30
0.0
 11
15276.23077351448
 21
8263.344341673764
 31
0.0
  0
LINE
  5
2A4AB
330
1F
100
AcDbEntity
  8
D-DCR-HCH
  6
Continuous
100
AcDbLine
 10
15187.29477396461
 20
8149.302342250898
 30
0.0
 11
15253.13657363138
 21
8263.344341673764
 31
0.0
  0
LINE
  5
2A4AC
330
1F
100
AcDbEntity
  8
D-DCR-HCH
  6
Continuous
100
AcDbLine
 10
15310.75997333978
 20
8063.343342685909
 30
0.0
 11
15426.23057275539
 21
8263.344341673764
 31
0.0
  0
LINE
  5
2A4AD
330
1F
100
AcDbEntity
  8
D-DCR-HCH
  6
Continuous
100
AcDbLine
 10
15287.66617345666
 20
8063.343342685909
 30
0.0
 11
15403.13617287229
 21
8263.344341673764
 31
0.0
  0
LINE
  5
2A4AE
330
1F
100
AcDbEntity
  8
D-DCR-HCH
  6
Continuous
100
AcDbLine
 10
15460.75977258068
 20
8063.343342685909
 30
0.0
 11
15487.29457244633
 21
8109.303142453322
 31
0.0
  0
LINE
  5
2A4AF
330
1F
100
AcDbEntity
  8
D-DCR-HCH
  6
Continuous
100
AcDbLine
 10
15437.66637269755
 20
8063.343342685909
 30
0.0
 11
15487.29417244634
 21
8149.302342250898
 31
0.0
  0
LINE
  5
2A4B0
330
1F
100
AcDbEntity
  8
D-STR-DIM
  6
Continuous
100
AcDbLine
 10
15987.29496991604
 20
8063.343342685909
 30
0.0
 11
15987.29496991604
 21
7613.343744963225
 31
0.0
  0
TEXT
  5
2A4B1
330
1F
100
AcDbEntity
  8
D-STR-DIM
100
AcDbText
 10
15971.29476999696
 20
7526.484145402799
 30
0.0
 40
70.0
  1
900
 50
90.0
100
AcDbText
  0
CIRCLE
  5
2A4B2
330
1F
100
AcDbEntity
  8
D-STR-DIM
  6
Continuous
100
AcDbCircle
 10
15987.29496991604
 20
8063.343342685909
 30
0.0
 40
5.999997969635766
  0
TEXT
  5
2A4B3
330
1F
100
AcDbEntity
  8
D-STR-DIM
100
AcDbText
 10
16221.29496873177
 20
8076.484342619407
 30
0.0
 40
70.0
  1
200
 50
90.0
100
AcDbText
  0
CIRCLE
  5
2A4B4
330
1F
100
AcDbEntity
  8
D-STR-DIM
  6
Continuous
100
AcDbCircle
 10
16237.2945686508
 20
8063.343342685909
 30
0.0
 40
5.999997969635766
  0
CIRCLE
  5
2A4B5
330
1F
100
AcDbEntity
  8
D-STR-DIM
  6
Continuous
100
AcDbCircle
 10
16237.2945686508
 20
8263.344341673764
 30
0.0
 40
5.999997969635766
  0
LINE
  5
2A4B6
330
1F
100
AcDbEntity
  8
D-STR-DIM
  6
Continuous
100
AcDbLine
 10
16237.2945686508
 20
8263.344341673764
 30
0.0
 11
16237.2945686508
 21
8163.343942179833
 31
0.0
  0
LINE
  5
2A4B7
330
1F
100
AcDbEntity
  8
D-STR-DIM
  6
Continuous
100
AcDbLine
 10
16237.2945686508
 20
8063.343342685909
 30
0.0
 11
16237.2945686508
 21
8163.343942179833
 31
0.0
  0
TEXT
  5
2A4CB
330
1F
100
AcDbEntity
  8
D-TTL-TXT
100
AcDbText
 10
6845.118097707615
 20
9729.435292365971
 30
0.0
 40
100.0
  1
（ＫＢ－Ｃ－2は左右逆になります）
100
AcDbText
  0
TEXT
  5
2A4CC
330
1F
100
AcDbEntity
  8
D-TTL-TXT
100
AcDbText
 10
6335.060253515162
 20
9906.66489091442
 30
0.0
 40
140.0
  1
タイプ2（横断位置中間部）ＫＢ-Ｃ-1
100
AcDbText
  0
TEXT
  5
2A4CD
330
1F
100
AcDbEntity
  8
D-TTL-TXT
100
AcDbText
 10
11519.22690572494
 20
9906.66489091442
 30
0.0
 40
140.0
  1
タイプ3（横断位置下部）ＫＢ－Ｌ－1
100
AcDbText
  0
TEXT
  5
2A4CE
330
1F
100
AcDbEntity
  8
D-TTL-TXT
100
AcDbText
 10
12029.28474991739
 20
9729.435292365971
 30
0.0
 40
100.0
  1
（ＫＢ－Ｌ－2は左右逆になります）
100
AcDbText
  0
TEXT
  5
2A4D8
330
1F
100
AcDbEntity
  8
D-TTL-TXT
100
AcDbText
 10
647.0149118963891
 20
9195.568556712206
 30
0.0
 40
150.0
  1
　車　道　側　
100
AcDbText
  0
TEXT
  5
2A4D9
330
1F
100
AcDbEntity
  8
D-TTL-TXT
100
AcDbText
 10
828.7272292498819
 20
9021.568274112208
 30
0.0
 40
105.0
  1
（電　力　側）
100
AcDbText
  0
TEXT
  5
2A4DA
330
1F
100
AcDbEntity
  8
D-TTL-TXT
100
AcDbText
 10
3405.550058315719
 20
9195.568556712206
 30
0.0
 40
150.0
  1
　民　地　側　
100
AcDbText
  0
TEXT
  5
2A4DB
330
1F
100
AcDbEntity
  8
D-TTL-TXT
100
AcDbText
 10
3582.430099353354
 20
9021.568274112208
 30
0.0
 40
105.0
  1
（通　信　側）
100
AcDbText
  0
TEXT
  5
2A4DC
330
1F
100
AcDbEntity
  8
D-TTL-TXT
100
AcDbText
 10
5789.879072172978
 20
9195.568556712206
 30
0.0
 40
150.0
  1
　車　道　側　
100
AcDbText
  0
TEXT
  5
2A4DD
330
1F
100
AcDbEntity
  8
D-TTL-TXT
100
AcDbText
 10
5971.591389526471
 20
9021.568274112208
 30
0.0
 40
105.0
  1
（電　力　側）
100
AcDbText
  0
TEXT
  5
2A4DE
330
1F
100
AcDbEntity
  8
D-TTL-TXT
100
AcDbText
 10
8548.414218592309
 20
9195.568556712206
 30
0.0
 40
150.0
  1
　民　地　側　
100
AcDbText
  0
TEXT
  5
2A4DF
330
1F
100
AcDbEntity
  8
D-TTL-TXT
100
AcDbText
 10
8725.294259629944
 20
9021.568274112208
 30
0.0
 40
105.0
  1
（通　信　側）
100
AcDbText
  0
TEXT
  5
2A4E0
330
1F
100
AcDbEntity
  8
D-TTL-TXT
100
AcDbText
 10
10975.59915951545
 20
9195.568556712206
 30
0.0
 40
150.0
  1
　車　道　側　
100
AcDbText
  0
TEXT
  5
2A4E1
330
1F
100
AcDbEntity
  8
D-TTL-TXT
100
AcDbText
 10
11157.31147686894
 20
9021.568274112208
 30
0.0
 40
105.0
  1
（電　力　側）
100
AcDbText
  0
TEXT
  5
2A4E2
330
1F
100
AcDbEntity
  8
D-TTL-TXT
100
AcDbText
 10
13734.13430593478
 20
9195.568556712206
 30
0.0
 40
150.0
  1
　民　地　側　
100
AcDbText
  0
TEXT
  5
2A4E3
330
1F
100
AcDbEntity
  8
D-TTL-TXT
100
AcDbText
 10
13911.01434697241
 20
9021.568274112208
 30
0.0
 40
105.0
  1
（通　信　側）
100
AcDbText
  0
TEXT
  5
2A4E4
330
1F
100
AcDbEntity
  8
D-STR-HTXT
100
AcDbText
 10
7267.562532653679
 20
7053.343347797225
 30
0.0
 40
50.0
  1
400×400
100
AcDbText
  0
TEXT
  5
2A4E5
330
1F
100
AcDbEntity
  8
D-STR-HTXT
100
AcDbText
 10
7268.404764601266
 20
7125.343747432854
 30
0.0
 40
50.0
  1
ノックアウト
100
AcDbText
  0
TEXT
  5
2A4E6
330
1F
100
AcDbEntity
  8
D-STR-HTXT
100
AcDbText
 10
7947.562529212399
 20
7053.343347797225
 30
0.0
 40
50.0
  1
400×400
100
AcDbText
  0
TEXT
  5
2A4E7
330
1F
100
AcDbEntity
  8
D-STR-HTXT
100
AcDbText
 10
7948.404761159984
 20
7125.343747432854
 30
0.0
 40
50.0
  1
ノックアウト
100
AcDbText
  0
TEXT
  5
2A4E8
330
1F
100
AcDbEntity
  8
D-STR-HTXT
100
AcDbText
 10
12453.28264999612
 20
6753.343949315435
 30
0.0
 40
50.0
  1
400×400
100
AcDbText
  0
TEXT
  5
2A4E9
330
1F
100
AcDbEntity
  8
D-STR-HTXT
100
AcDbText
 10
12454.12488194371
 20
6825.344348951064
 30
0.0
 40
50.0
  1
ノックアウト
100
AcDbText
  0
TEXT
  5
2A4EA
330
1F
100
AcDbEntity
  8
D-STR-HTXT
100
AcDbText
 10
13133.28264655484
 20
6753.343949315435
 30
0.0
 40
50.0
  1
400×400
100
AcDbText
  0
TEXT
  5
2A4EB
330
1F
100
AcDbEntity
  8
D-STR-HTXT
100
AcDbText
 10
13134.12487850243
 20
6825.344348951064
 30
0.0
 40
50.0
  1
ノックアウト
100
AcDbText
  0
TEXT
  5
2A4EC
330
1F
100
AcDbEntity
  8
D-STR-HTXT
100
AcDbText
 10
12750.18766775983
 20
7531.343745378205
 30
0.0
 40
50.0
  1
1,000×800
100
AcDbText
  0
TEXT
  5
2A4ED
330
1F
100
AcDbEntity
  8
D-STR-HTXT
100
AcDbText
 10
7575.528501892812
 20
6470.762474473488
 30
0.0
 40
50.0
  1
1,000×450
100
AcDbText
  0
TEXT
  5
2A4EE
330
1F
100
AcDbEntity
  8
D-STR-HTXT
100
AcDbText
 10
7575.528501892812
 20
7720.762868147604
 30
0.0
 40
50.0
  1
1,000×450
100
AcDbText
  0
LINE
  5
2A4EF
330
1F
100
AcDbEntity
  8
D-STR-HTXT
  6
Continuous
100
AcDbLine
 10
7454.023469514556
 20
6090.256952671124
 30
0.0
 11
6761.57367301881
 21
5563.344755337673
 31
0.0
  0
LINE
  5
2A4F0
330
1F
100
AcDbEntity
  8
D-STR-HTXT
  6
Continuous
100
AcDbLine
 10
6333.175440087918
 20
5563.343755337676
 30
0.0
 11
6761.57367301881
 21
5563.343755337676
 31
0.0
  0
TEXT
  5
2A4F1
330
1F
100
AcDbEntity
  8
D-STR-HTXT
100
AcDbText
 10
6271.420858938687
 20
5579.344355256701
 30
0.0
 40
70.0
  1
　継壁固定部
100
AcDbText
  0
LINE
  5
2A4F2
330
1F
100
AcDbEntity
  8
D-STR-HTXT
  6
Continuous
100
AcDbLine
 10
7418.187669695922
 20
6071.136752767886
 30
0.0
 11
7454.023469514556
 21
6090.255952671126
 31
0.0
  0
LINE
  5
2A4F3
330
1F
100
AcDbEntity
  8
D-STR-HTXT
  6
Continuous
100
AcDbLine
 10
12639.743586857
 20
6090.256952671124
 30
0.0
 11
11947.29379036126
 21
5563.344755337673
 31
0.0
  0
LINE
  5
2A4F4
330
1F
100
AcDbEntity
  8
D-STR-HTXT
  6
Continuous
100
AcDbLine
 10
11518.89555743036
 20
5563.343755337676
 30
0.0
 11
11947.29379036126
 21
5563.343755337676
 31
0.0
  0
TEXT
  5
2A4F5
330
1F
100
AcDbEntity
  8
D-STR-HTXT
100
AcDbText
 10
11457.14097628113
 20
5579.344355256701
 30
0.0
 40
70.0
  1
　継壁固定部
100
AcDbText
  0
LINE
  5
2A4F6
330
1F
100
AcDbEntity
  8
D-STR-HTXT
  6
Continuous
100
AcDbLine
 10
12603.90778703837
 20
6071.136752767886
 30
0.0
 11
12639.743586857
 21
6090.255952671126
 31
0.0
  0
TEXT
  5
2A4F7
330
1F
100
AcDbEntity
  8
D-STR-HTXT
100
AcDbText
 10
5977.775801622764
 20
8679.344939568506
 30
0.0
 40
70.0
  1
　インサート　Ｍ16
100
AcDbText
  0
LINE
  5
2A4F8
330
1F
100
AcDbEntity
  8
D-STR-HTXT
  6
Continuous
100
AcDbLine
 10
6761.572453018769
 20
8663.345139649479
 30
0.0
 11
6062.305619706148
 21
8663.345139649479
 31
0.0
  0
TEXT
  5
2A4F9
330
1F
100
AcDbEntity
  8
D-STR-HTXT
100
AcDbText
 10
5977.775801622764
 20
8583.344940054335
 30
0.0
 40
70.0
  1
　　（セラミック）
100
AcDbText
  0
TEXT
  5
2A4FA
330
1F
100
AcDbEntity
  8
D-STR-HTXT
100
AcDbText
 10
11163.49713896525
 20
8679.344939568506
 30
0.0
 40
70.0
  1
　インサート　Ｍ16
100
AcDbText
  0
LINE
  5
2A4FB
330
1F
100
AcDbEntity
  8
D-STR-HTXT
  6
Continuous
100
AcDbLine
 10
11947.29379036126
 20
8663.345139649479
 30
0.0
 11
11248.02695704864
 21
8663.345139649479
 31
0.0
  0
TEXT
  5
2A4FC
330
1F
100
AcDbEntity
  8
D-STR-HTXT
100
AcDbText
 10
11163.49713896525
 20
8583.344940054335
 30
0.0
 40
70.0
  1
　　（セラミック）
100
AcDbText
  0
TEXT
  5
2A568
330
1F
100
AcDbEntity
  8
D-MTR-MTXT
100
AcDbText
 10
7553.268145251066
 20
2533.678491439082
 30
0.0
 40
69.99999999999999
  1
1.000　ｍ
100
AcDbText
  0
LINE
  5
2A569
330
1F
100
AcDbEntity
  8
D-MTR-FRAM
  6
Continuous
100
AcDbLine
 10
6162.999797940404
 20
1996.478575159082
 30
0.0
 11
8230.999529140426
 21
1996.478575159082
 31
0.0
  0
LINE
  5
2A56A
330
1F
100
AcDbEntity
  8
D-MTR-FRAM
  6
Continuous
100
AcDbLine
 10
6162.999797940404
 20
2772.47817755913
 30
0.0
 11
8230.999529140426
 21
2772.47817755913
 31
0.0
  0
TEXT
  5
2A56B
330
1F
100
AcDbEntity
  8
D-MTR-MTXT
100
AcDbText
 10
6740.329044874143
 20
2792.345678905681
 30
0.0
 40
69.99999999999999
  1
Ｔ－25　（後輪１輪　100ｋＮ）
100
AcDbText
  0
LINE
  5
2A56C
330
1F
100
AcDbEntity
  8
D-MTR-MTXT
  6
Continuous
100
AcDbLine
 10
6772.333041673741
 20
2190.477705759139
 30
0.0
 11
7612.333517673691
 21
2190.477705759139
 31
0.0
  0
TEXT
  5
2A56D
330
1F
100
AcDbEntity
  8
D-MTR-MTXT
100
AcDbText
 10
7262.149127607711
 20
1626.882623465038
 30
0.0
 40
69.99999999999999
  1
σｃｋ＝　30Ｎ／ｍｍ
100
AcDbText
  0
TEXT
  5
2A56E
330
1F
100
AcDbEntity
  8
D-MTR-MTXT
100
AcDbText
 10
7262.149127607711
 20
1497.549869731633
 30
0.0
 40
69.99999999999999
  1
σｓａ＝160Ｎ／ｍｍ
100
AcDbText
  0
LINE
  5
2A56F
330
1F
100
AcDbEntity
  8
D-MTR-FRAM
  6
Continuous
100
AcDbLine
 10
6162.999797940404
 20
1608.478633959076
 30
0.0
 11
8230.999529140426
 21
1608.478633959076
 31
0.0
  0
TEXT
  5
2A570
330
1F
100
AcDbEntity
  8
D-MTR-MTXT
100
AcDbText
 10
6740.329044874143
 20
1757.678609039068
 30
0.0
 40
69.99999999999999
  1
ｋａ＝0.5　（静止土圧係数）
100
AcDbText
  0
LINE
  5
2A571
330
1F
100
AcDbEntity
  8
D-MTR-FRAM
  6
Continuous
100
AcDbLine
 10
5523.000161940363
 20
1479.144480225795
 30
0.0
 11
8230.999529140426
 21
1479.144480225795
 31
0.0
  0
LINE
  5
2A572
330
1F
100
AcDbEntity
  8
D-MTR-FRAM
  6
Continuous
100
AcDbLine
 10
5523.000161940363
 20
1737.811387692481
 30
0.0
 11
8230.999529140426
 21
1737.811387692481
 31
0.0
  0
LINE
  5
2A573
330
1F
100
AcDbEntity
  8
D-MTR-FRAM
  6
Continuous
100
AcDbLine
 10
5523.000161940363
 20
1867.144141425836
 30
0.0
 11
8230.999529140426
 21
1867.144141425836
 31
0.0
  0
LINE
  5
2A574
330
1F
100
AcDbEntity
  8
D-MTR-FRAM
  6
Continuous
100
AcDbLine
 10
5523.000161940363
 20
2125.811328892488
 30
0.0
 11
8230.999529140426
 21
2125.811328892488
 31
0.0
  0
LINE
  5
2A575
330
1F
100
AcDbEntity
  8
D-MTR-FRAM
  6
Continuous
100
AcDbLine
 10
5523.000161940363
 20
2255.144082625841
 30
0.0
 11
8230.999529140426
 21
2255.144082625841
 31
0.0
  0
LINE
  5
2A576
330
1F
100
AcDbEntity
  8
D-MTR-FRAM
  6
Continuous
100
AcDbLine
 10
5523.000161940363
 20
2384.478236359123
 30
0.0
 11
8230.999529140426
 21
2384.478236359123
 31
0.0
  0
LINE
  5
2A577
330
1F
100
AcDbEntity
  8
D-MTR-FRAM
  6
Continuous
100
AcDbLine
 10
5523.000161940363
 20
2513.811270092495
 30
0.0
 11
8230.999529140426
 21
2513.811270092495
 31
0.0
  0
LINE
  5
2A578
330
1F
100
AcDbEntity
  8
D-MTR-FRAM
  6
Continuous
100
AcDbLine
 10
5523.000161940363
 20
2643.145423825724
 30
0.0
 11
8230.999529140426
 21
2643.145423825724
 31
0.0
  0
LINE
  5
2A579
330
1F
100
AcDbEntity
  8
D-MTR-FRAM
  6
Continuous
100
AcDbLine
 10
5523.000161940363
 20
2901.8112112925
 30
0.0
 11
8230.999529140426
 21
2901.8112112925
 31
0.0
  0
LINE
  5
2A57A
330
1F
100
AcDbEntity
  8
D-MTR-FRAM
  6
Continuous
100
AcDbLine
 10
6162.999797940404
 20
2901.8112112925
 30
0.0
 11
6162.999797940404
 21
2643.145423825724
 31
0.0
  0
LINE
  5
2A57B
330
1F
100
AcDbEntity
  8
D-MTR-FRAM
  6
Continuous
100
AcDbLine
 10
6704.333058473737
 20
2901.8112112925
 30
0.0
 11
6704.333058473736
 21
1479.144480225795
 31
0.0
  0
LINE
  5
2A57C
330
1F
100
AcDbEntity
  8
D-MTR-FRAM
  6
Continuous
100
AcDbLine
 10
5523.000161940363
 20
2901.8112112925
 30
0.0
 11
5523.000161940365
 21
1479.144480225795
 31
0.0
  0
TEXT
  5
2A57D
330
1F
100
AcDbEntity
  8
D-MTR-TXT
100
AcDbText
 10
6274.996338740744
 20
2275.011583972445
 30
0.0
 40
69.99999999999999
  1
高
100
AcDbText
  0
TEXT
  5
2A57E
330
1F
100
AcDbEntity
  8
D-MTR-TXT
100
AcDbText
 10
6190.9957871408
 20
2016.344396505844
 30
0.0
 40
69.99999999999999
  1
地下水位以上
100
AcDbText
  0
TEXT
  5
2A57F
330
1F
100
AcDbEntity
  8
D-MTR-TXT
100
AcDbText
 10
5850.905401857832
 20
2145.678550239075
 30
0.0
 40
69.99999999999999
  1
地　下　水　位
100
AcDbText
  0
TEXT
  5
2A580
330
1F
100
AcDbEntity
  8
D-MTR-TXT
100
AcDbText
 10
5786.43728170585
 20
2533.678491439082
 30
0.0
 40
69.99999999999999
  1
許　容　土　被　り
100
AcDbText
  0
TEXT
  5
2A581
330
1F
100
AcDbEntity
  8
D-MTR-TXT
100
AcDbText
 10
6001.926939573507
 20
2404.344337705851
 30
0.0
 40
69.99999999999999
  1
　（工場製品）
100
AcDbText
  0
TEXT
  5
2A582
330
1F
100
AcDbEntity
  8
D-MTR-TXT
100
AcDbText
 10
6235.796342660742
 20
2663.011245172486
 30
0.0
 40
69.99999999999999
  1
衝　　　撃
100
AcDbText
  0
TEXT
  5
2A583
330
1F
100
AcDbEntity
  8
D-MTR-TXT
100
AcDbText
 10
6235.796342660742
 20
2792.345678905681
 30
0.0
 40
69.99999999999999
  1
活　荷　重
100
AcDbText
  0
TEXT
  5
2A584
330
1F
100
AcDbEntity
  8
D-MTR-TXT
100
AcDbText
 10
5881.064013209383
 20
1757.678609039068
 30
0.0
 40
69.99999999999999
  1
土　圧　係　数
100
AcDbText
  0
TEXT
  5
2A585
330
1F
100
AcDbEntity
  8
D-MTR-TXT
100
AcDbText
 10
6280.596058180774
 20
1499.011701572432
 30
0.0
 40
69.99999999999999
  1
鉄　　筋
100
AcDbText
  0
TEXT
  5
2A586
330
1F
100
AcDbEntity
  8
D-MTR-TXT
100
AcDbText
 10
6190.9957871408
 20
1628.344455305839
 30
0.0
 40
69.99999999999999
  1
コンクリ－ト
100
AcDbText
  0
TEXT
  5
2A587
330
1F
100
AcDbEntity
  8
D-MTR-TXT
100
AcDbText
 10
6190.9957871408
 20
1887.01164277244
 30
0.0
 40
69.99999999999999
  1
地下水位以下
100
AcDbText
  0
LINE
  5
2A588
330
1F
100
AcDbEntity
  8
D-MTR-FRAM
  6
Continuous
100
AcDbLine
 10
6162.999797940404
 20
2125.811328892488
 30
0.0
 11
6162.999797940404
 21
1867.144141425836
 31
0.0
  0
TEXT
  5
2A589
330
1F
100
AcDbEntity
  8
D-MTR-TXT
100
AcDbText
 10
5586.996425540732
 20
1951.678019639142
 30
0.0
 40
69.99999999999999
  1
土の単位重量
100
AcDbText
  0
TEXT
  5
2A58A
330
1F
100
AcDbEntity
  8
D-MTR-TXT
100
AcDbText
 10
5552.639200758353
 20
1563.678078439137
 30
0.0
 40
69.99999999999999
  1
使　用　材　料
100
AcDbText
  0
LINE
  5
2A58B
330
1F
100
AcDbEntity
  8
D-MTR-FRAM
  6
Continuous
100
AcDbLine
 10
6162.999797940404
 20
1737.811387692481
 30
0.0
 11
6162.999797940404
 21
1479.144480225795
 31
0.0
  0
TEXT
  5
2A58C
330
1F
100
AcDbEntity
  8
D-MTR-TXT
100
AcDbText
 10
5550.028380693704
 20
2727.677902039153
 30
0.0
 40
69.99999999999999
  1
設　計　荷　重
100
AcDbText
  0
TEXT
  5
2A58D
330
1F
100
AcDbEntity
  8
D-MTR-TXT
100
AcDbText
 10
5597.359545843431
 20
2275.011583972445
 30
0.0
 40
69.99999999999999
  1
寸法
100
AcDbText
  0
TEXT
  5
2A58E
330
1F
100
AcDbEntity
  8
D-MTR-TXT
100
AcDbText
 10
5603.796143860767
 20
2404.344337705851
 30
0.0
 40
69.99999999999999
  1
構造形式　　　
100
AcDbText
  0
TEXT
  5
2A58F
330
1F
100
AcDbEntity
  8
D-MTR-TXT
100
AcDbText
 10
5934.767966602354
 20
2275.011583972445
 30
0.0
 40
69.99999999999999
  1
　（幅
100
AcDbText
  0
TEXT
  5
2A590
330
1F
100
AcDbEntity
  8
D-MTR-TXT
100
AcDbText
 10
6187.262738847439
 20
2275.011583972445
 30
0.0
 40
69.99999999999999
  1
×
100
AcDbText
  0
TEXT
  5
2A591
330
1F
100
AcDbEntity
  8
D-MTR-MTXT
100
AcDbText
 10
6740.329044874143
 20
1499.011701572432
 30
0.0
 40
69.99999999999999
  1
ＳＤ２９５Ａ　　
100
AcDbText
  0
TEXT
  5
2A592
330
1F
100
AcDbEntity
  8
D-MTR-MTXT
100
AcDbText
 10
6740.329044874143
 20
1628.344455305839
 30
0.0
 40
69.99999999999999
  1
設計基準強度　　
100
AcDbText
  0
TEXT
  5
2A593
330
1F
100
AcDbEntity
  8
D-MTR-MTXT
100
AcDbText
 10
6740.329044874143
 20
2663.011245172486
 30
0.0
 40
69.99999999999999
  1
ｉ＝0.3
100
AcDbText
  0
TEXT
  5
2A594
330
1F
100
AcDbEntity
  8
D-MTR-MTXT
100
AcDbText
 10
6740.329044874143
 20
2533.678491439082
 30
0.0
 40
69.99999999999999
  1
Ｈ′＝
100
AcDbText
  0
TEXT
  5
2A595
330
1F
100
AcDbEntity
  8
D-MTR-MTXT
100
AcDbText
 10
6740.329044874143
 20
2016.344396505844
 30
0.0
 40
69.99999999999999
  1
γ＝19.0ｋＮ／ｍ
100
AcDbText
  0
TEXT
  5
2A596
330
1F
100
AcDbEntity
  8
D-MTR-MTXT
100
AcDbText
 10
6740.329044874143
 20
2404.344337705851
 30
0.0
 40
69.99999999999999
  1
鉄筋コンクリ－ト版
100
AcDbText
  0
TEXT
  5
2A597
330
1F
100
AcDbEntity
  8
D-MTR-MTXT
100
AcDbText
 10
6808.020062610161
 20
2275.011583972445
 30
0.0
 40
69.99999999999999
  1
1,640
100
AcDbText
  0
TEXT
  5
2A598
330
1F
100
AcDbEntity
  8
D-MTR-TXT
100
AcDbText
 10
6376.06299196741
 20
2275.011583972445
 30
0.0
 40
69.99999999999999
  1
×
100
AcDbText
  0
TEXT
  5
2A599
330
1F
100
AcDbEntity
  8
D-MTR-TXT
100
AcDbText
 10
6477.129085194134
 20
2275.011583972445
 30
0.0
 40
69.99999999999999
  1
厚）
100
AcDbText
  0
TEXT
  5
2A59A
330
1F
100
AcDbEntity
  8
D-MTR-MTXT
100
AcDbText
 10
7166.462328927476
 20
2275.011583972445
 30
0.0
 40
69.99999999999999
  1
×
100
AcDbText
  0
TEXT
  5
2A59B
330
1F
100
AcDbEntity
  8
D-MTR-MTXT
100
AcDbText
 10
7459.062883209695
 20
2063.686755547259
 30
0.0
 40
49.99999999999999
  1
3
100
AcDbText
  0
TEXT
  5
2A59C
330
1F
100
AcDbEntity
  8
D-MTR-MTXT
100
AcDbText
 10
7316.92912641474
 20
2275.011583972445
 30
0.0
 40
69.99999999999999
  1
2,300
100
AcDbText
  0
TEXT
  5
2A59D
330
1F
100
AcDbEntity
  8
D-MTR-MTXT
100
AcDbText
 10
7053.929013514139
 20
2533.678491439082
 30
0.0
 40
69.99999999999999
  1
0.200
100
AcDbText
  0
TEXT
  5
2A59E
330
1F
100
AcDbEntity
  8
D-MTR-MTXT
100
AcDbText
 10
7418.868718691007
 20
2533.678491439082
 30
0.0
 40
69.99999999999999
  1
～
100
AcDbText
  0
TEXT
  5
2A59F
330
1F
100
AcDbEntity
  8
D-MTR
100
AcDbText
 10
6000.066447947792
 20
2985.810802892528
 30
0.0
 40
139.9999999999999
  1
　設　計　条　件　
100
AcDbText
  0
LINE
  5
2A5A7
330
1F
100
AcDbEntity
  8
D-MTR-FRAM
  6
Continuous
100
AcDbLine
 10
8230.999529140426
 20
2901.8112112925
 30
0.0
 11
8230.999529140424
 21
1479.144480225795
 31
0.0
  0
TEXT
  5
2A5A9
330
1F
100
AcDbEntity
  8
D-MTR-MTXT
100
AcDbText
 10
8107.295085999638
 20
1538.327936659268
 30
0.0
 40
49.99999999999999
  1
2
100
AcDbText
  0
TEXT
  5
2A5AA
330
1F
100
AcDbEntity
  8
D-MTR-MTXT
100
AcDbText
 10
8137.379954090906
 20
1667.660690392674
 30
0.0
 40
49.99999999999999
  1
2
100
AcDbText
  0
DIMENSION
  5
2A5E8
330
1F
100
AcDbEntity
  8
D-STR-DIM
100
AcDbDimension
  2
*D2
 10
4808.710426635535
 20
8663.345139797272
 30
0.0
 11
4783.710226752822
 21
8612.55426711993
 31
0.0
 70
   160
 71
     5
 42
50.00039976542393
  3
20
100
AcDbAlignedDimension
 13
4758.710026870111
 23
8263.344341673764
 33
0.0
 14
4808.710426635535
 24
8263.344341673764
 34
0.0
100
AcDbRotatedDimension
1001
ACAD
1000
DSTYLE
1002
{
1070
    41
1040
11.0
1070
   279
1070
     2
1070
   343
1005
2A5B4
1070
   342
1005
0
1070
   173
1070
     1
1070
   344
1005
2A5B4
1070
    75
1070
     1
1002
}
  0
DIMENSION
  5
2A5E9
330
1F
100
AcDbEntity
  8
D-STR-DIM
100
AcDbDimension
  2
*D3
 10
4858.710426400976
 20
8663.345139797272
 30
0.0
 11
4898.710426400976
 21
8663.345139797272
 31
0.0
 70
   160
 71
     5
 42
49.99999976544131
  3
20
100
AcDbAlignedDimension
 13
4808.710426635535
 23
8263.344341673764
 33
0.0
 14
4858.710426400976
 24
8263.344341673764
 34
0.0
100
AcDbRotatedDimension
1001
ACAD
1000
DSTYLE
1002
{
1070
    41
1040
11.0
1070
   343
1005
2A5B4
1070
   342
1005
0
1070
   173
1070
     1
1070
   344
1005
2A5B4
1070
    75
1070
     1
1002
}
  0
DIMENSION
  5
2A5EA
330
1F
100
AcDbEntity
  8
D-STR-DIM
100
AcDbDimension
  2
*D4
 10
4708.710427104655
 20
8663.345139797272
 30
0.0
 11
4668.710427104655
 21
8663.345139797272
 31
0.0
 70
   160
 71
     5
 42
49.99959976545506
  3
20
100
AcDbAlignedDimension
 13
4758.710026870111
 23
8263.344341673764
 33
0.0
 14
4708.710427104655
 24
8263.344341673764
 34
0.0
100
AcDbRotatedDimension
  0
DIMENSION
  5
2A661
330
1F
100
AcDbEntity
  8
D-STR-DIM
100
AcDbDimension
  2
*D5
 10
9951.574636912068
 20
8663.345139797272
 30
0.0
 11
9926.574437029357
 21
8612.55426711993
 31
0.0
 70
   160
 71
     5
 42
50.00039976542393
  3
20
100
AcDbAlignedDimension
 13
9901.574237146645
 23
8263.344341673764
 33
0.0
 14
9951.574636912068
 24
8263.344341673764
 34
0.0
100
AcDbRotatedDimension
1001
ACAD
1000
DSTYLE
1002
{
1070
    41
1040
11.0
1070
   279
1070
     2
1070
   343
1005
2A5B4
1070
   342
1005
0
1070
   173
1070
     1
1070
   344
1005
2A5B4
1070
    75
1070
     1
1002
}
  0
DIMENSION
  5
2A662
330
1F
100
AcDbEntity
  8
D-STR-DIM
100
AcDbDimension
  2
*D6
 10
10001.57463667751
 20
8663.345139797272
 30
0.0
 11
10041.57463667751
 21
8663.345139797272
 31
0.0
 70
   160
 71
     5
 42
49.99999976544131
  3
20
100
AcDbAlignedDimension
 13
9951.574636912068
 23
8263.344341673764
 33
0.0
 14
10001.57463667751
 24
8263.344341673764
 34
0.0
100
AcDbRotatedDimension
1001
ACAD
1000
DSTYLE
1002
{
1070
    41
1040
11.0
1070
   343
1005
2A5B4
1070
   342
1005
0
1070
   173
1070
     1
1070
   344
1005
2A5B4
1070
    75
1070
     1
1002
}
  0
DIMENSION
  5
2A663
330
1F
100
AcDbEntity
  8
D-STR-DIM
100
AcDbDimension
  2
*D7
 10
9851.57463738119
 20
8663.345139797272
 30
0.0
 11
9811.574637381189
 21
8663.345139797272
 31
0.0
 70
   160
 71
     5
 42
49.99959976545506
  3
20
100
AcDbAlignedDimension
 13
9901.574237146645
 23
8263.344341673764
 33
0.0
 14
9851.57463738119
 24
8263.344341673764
 34
0.0
100
AcDbRotatedDimension
  0
DIMENSION
  5
2A6DA
330
1F
100
AcDbEntity
  8
D-STR-DIM
100
AcDbDimension
  2
*D8
 10
15137.29497425458
 20
8663.345139797272
 30
0.0
 11
15112.29477437187
 21
8612.55426711993
 31
0.0
 70
   160
 71
     5
 42
50.00039976542393
  3
20
100
AcDbAlignedDimension
 13
15087.29457448916
 23
8263.344341673764
 33
0.0
 14
15137.29497425458
 24
8263.344341673764
 34
0.0
100
AcDbRotatedDimension
1001
ACAD
1000
DSTYLE
1002
{
1070
    41
1040
11.0
1070
   279
1070
     2
1070
   343
1005
2A5B4
1070
   342
1005
0
1070
   173
1070
     1
1070
   344
1005
2A5B4
1070
    75
1070
     1
1002
}
  0
DIMENSION
  5
2A6DB
330
1F
100
AcDbEntity
  8
D-STR-DIM
100
AcDbDimension
  2
*D9
 10
15187.29497402003
 20
8663.345139797272
 30
0.0
 11
15227.29497402003
 21
8663.345139797272
 31
0.0
 70
   160
 71
     5
 42
49.99999976544131
  3
20
100
AcDbAlignedDimension
 13
15137.29497425458
 23
8263.344341673764
 33
0.0
 14
15187.29497402003
 24
8263.344341673764
 34
0.0
100
AcDbRotatedDimension
1001
ACAD
1000
DSTYLE
1002
{
1070
    41
1040
11.0
1070
   343
1005
2A5B4
1070
   342
1005
0
1070
   173
1070
     1
1070
   344
1005
2A5B4
1070
    75
1070
     1
1002
}
  0
DIMENSION
  5
2A6DC
330
1F
100
AcDbEntity
  8
D-STR-DIM
100
AcDbDimension
  2
*D10
 10
15037.2949747237
 20
8663.345139797272
 30
0.0
 11
14997.2949747237
 21
8663.345139797272
 31
0.0
 70
   160
 71
     5
 42
49.99959976545506
  3
20
100
AcDbAlignedDimension
 13
15087.29457448916
 23
8263.344341673764
 33
0.0
 14
15037.2949747237
 24
8263.344341673764
 34
0.0
100
AcDbRotatedDimension
  0
DIMENSION
  5
2B1DF
330
1F
100
AcDbEntity
  8
D-STR-DIM
100
AcDbDimension
  2
*D13
 10
12667.29358855551
 20
8436.440784109892
 30
0.0
 11
12407.29358895232
 21
8491.440784109894
 31
0.0
 70
    32
 71
     5
 42
519.9999992063931
  3
20
100
AcDbAlignedDimension
 13
12147.29358934912
 23
8263.344341673764
 33
0.0
 14
12667.29358855551
 24
8263.344341673764
 34
0.0
100
AcDbRotatedDimension
1001
ACAD
1000
DSTYLE
1002
{
1070
    41
1040
10.0
1070
   343
1005
2A5B4
1070
   342
1005
0
1070
   173
1070
     1
1070
   344
1005
2A5B4
1070
    75
1070
     1
1070
    76
1070
     1
1002
}
  0
DIMENSION
  5
2B1E0
330
1F
100
AcDbEntity
  8
D-STR-DIM
100
AcDbDimension
  2
*D12
 10
13267.29358855551
 20
8436.440784109892
 30
0.0
 11
12967.29358855551
 21
8491.440784109894
 31
0.0
 70
    32
 71
     5
 42
600.0
  3
20
100
AcDbAlignedDimension
 13
12667.29358855551
 23
8263.344341673764
 33
0.0
 14
13267.29358855551
 24
8263.344341673764
 34
0.0
100
AcDbRotatedDimension
1001
ACAD
1000
DSTYLE
1002
{
1070
    41
1040
10.0
1070
   343
1005
2A5B4
1070
   342
1005
0
1070
   173
1070
     1
1070
   344
1005
2A5B4
1070
    76
1070
     1
1002
}
  0
DIMENSION
  5
2B1E1
330
1F
100
AcDbEntity
  8
D-STR-DIM
100
AcDbDimension
  2
*D11
 10
13787.29358104956
 20
8436.440784109892
 30
0.0
 11
13527.29358480254
 21
8491.440784109894
 31
0.0
 70
    32
 71
     5
 42
519.9999924940457
  3
20
100
AcDbAlignedDimension
 13
13267.29358855551
 23
8263.344341673764
 33
0.0
 14
13787.29358104956
 24
8263.344341673764
 34
0.0
100
AcDbRotatedDimension
1001
ACAD
1000
DSTYLE
1002
{
1070
    41
1040
10.0
1070
   343
1005
2A5B4
1070
   342
1005
0
1070
   173
1070
     1
1070
   344
1005
2A5B4
1070
    76
1070
     1
1002
}
  0
LEADER
  5
2B1E2
330
1F
100
AcDbEntity
  8
D-STR-HTXT
100
AcDbLeader
  3
20
 40
70.0
 41
644.0
 76
     3
 10
13275.62728852213
 20
8230.010741807324
 30
0.0
 10
13991.99962710115
 20
8494.799134896608
 30
0.0
 10
14690.52216476985
 20
8494.799134896608
 30
0.0
213
0.0
223
-35.0
233
0.0
1001
ACAD
1000
DSTYLE
1002
{
1070
    41
1040
30.0
1070
   147
1040
20.0
1070
    77
1070
     0
1002
}
  0
LINE
  5
2B1E3
330
1F
100
AcDbEntity
  8
D-STR-STR2
  6
Continuous
100
AcDbLine
 10
13275.62728852213
 20
8263.344341673764
 30
0.0
 11
13275.62728852213
 21
8196.677141940883
 31
0.0
  0
LINE
  5
2B1E4
330
1F
100
AcDbEntity
  8
D-STR-STR2
  6
Continuous
100
AcDbLine
 10
13258.9598885889
 20
8263.344341673764
 30
0.0
 11
13258.9598885889
 21
8196.677141940883
 31
0.0
  0
LINE
  5
2B1E5
330
1F
100
AcDbEntity
  8
D-STR-STR2
  6
Continuous
100
AcDbLine
 10
13258.9598885889
 20
8196.677141940883
 30
0.0
 11
13275.62728852213
 21
8196.677141940883
 31
0.0
  0
LINE
  5
2B1E6
330
1F
100
AcDbEntity
  8
D-STR-STR2
  6
Continuous
100
AcDbLine
 10
12658.9598885889
 20
8196.677141940883
 30
0.0
 11
12675.62728852213
 21
8196.677141940883
 31
0.0
  0
LINE
  5
2B1E7
330
1F
100
AcDbEntity
  8
D-STR-STR2
  6
Continuous
100
AcDbLine
 10
12658.9598885889
 20
8263.344341673764
 30
0.0
 11
12658.9598885889
 21
8196.677141940883
 31
0.0
  0
LINE
  5
2B1E8
330
1F
100
AcDbEntity
  8
D-STR-STR2
  6
Continuous
100
AcDbLine
 10
12675.62728852213
 20
8263.344341673764
 30
0.0
 11
12675.62728852213
 21
8196.677141940883
 31
0.0
  0
TEXT
  5
2B1E9
330
1F
100
AcDbEntity
  8
D-STR-HTXT
100
AcDbText
 10
14233.14901080098
 20
8419.561872099281
 30
0.0
 40
70.0
  1
Ｍ20
100
AcDbText
  0
TEXT
  5
2B1EA
330
1F
100
AcDbEntity
  8
D-STR-HTXT
100
AcDbText
 10
14031.99962710115
 20
8498.705200727162
 30
0.0
 40
70.0
  1
吊り用インサート
100
AcDbText
  0
DIMENSION
  5
2B24B
330
1F
100
AcDbEntity
  8
D-STR-DIM
100
AcDbDimension
  2
*D16
 10
8601.573443707108
 20
8436.440784109892
 30
0.0
 11
8341.573447460085
 21
8491.440784109894
 31
0.0
 70
    32
 71
     5
 42
519.9999924940457
  3
20
100
AcDbAlignedDimension
 13
8081.573451213062
 23
8263.344341673764
 33
0.0
 14
8601.573443707108
 24
8263.344341673764
 34
0.0
100
AcDbRotatedDimension
1001
ACAD
1000
DSTYLE
1002
{
1070
    41
1040
10.0
1070
   343
1005
2A5B4
1070
   342
1005
0
1070
   173
1070
     1
1070
   344
1005
2A5B4
1070
    76
1070
     1
1002
}
  0
DIMENSION
  5
2B24D
330
1F
100
AcDbEntity
  8
D-STR-DIM
100
AcDbDimension
  2
*D15
 10
8081.573451213062
 20
8436.440784109892
 30
0.0
 11
7781.573451213062
 21
8491.440784109894
 31
0.0
 70
    32
 71
     5
 42
600.0
  3
20
100
AcDbAlignedDimension
 13
7481.573451213062
 23
8263.344341673764
 33
0.0
 14
8081.573451213062
 24
8263.344341673764
 34
0.0
100
AcDbRotatedDimension
1001
ACAD
1000
DSTYLE
1002
{
1070
    41
1040
10.0
1070
   343
1005
2A5B4
1070
   342
1005
0
1070
   173
1070
     1
1070
   344
1005
2A5B4
1070
    76
1070
     1
1002
}
  0
DIMENSION
  5
2B24E
330
1F
100
AcDbEntity
  8
D-STR-DIM
100
AcDbDimension
  2
*D14
 10
7481.573451213062
 20
8436.440784109892
 30
0.0
 11
7221.573451609867
 21
8491.440784109894
 31
0.0
 70
    32
 71
     5
 42
519.9999992063931
  3
20
100
AcDbAlignedDimension
 13
6961.573452006669
 23
8263.344341673764
 33
0.0
 14
7481.573451213062
 24
8263.344341673764
 34
0.0
100
AcDbRotatedDimension
1001
ACAD
1000
DSTYLE
1002
{
1070
    41
1040
10.0
1070
   343
1005
2A5B4
1070
   342
1005
0
1070
   173
1070
     1
1070
   344
1005
2A5B4
1070
    75
1070
     1
1070
    76
1070
     1
1002
}
  0
LEADER
  5
2B24F
330
1F
100
AcDbEntity
  8
D-STR-HTXT
100
AcDbLeader
  3
20
 40
70.0
 41
644.0
 76
     3
 10
8089.907151179676
 20
8230.010741807324
 30
0.0
 10
8806.279489758697
 20
8494.799134896608
 30
0.0
 10
9504.802027427398
 20
8494.799134896608
 30
0.0
213
0.0
223
-35.0
233
0.0
1001
ACAD
1000
DSTYLE
1002
{
1070
    41
1040
30.0
1070
   147
1040
20.0
1070
    77
1070
     0
1002
}
  0
TEXT
  5
2B250
330
1F
100
AcDbEntity
  8
D-STR-HTXT
100
AcDbText
 10
8846.279489758698
 20
8498.705200727162
 30
0.0
 40
70.0
  1
吊り用インサート
100
AcDbText
  0
TEXT
  5
2B251
330
1F
100
AcDbEntity
  8
D-STR-HTXT
100
AcDbText
 10
9047.428873458532
 20
8419.561872099281
 30
0.0
 40
70.0
  1
Ｍ20
100
AcDbText
  0
DIMENSION
  5
2B28A
330
1F
100
AcDbEntity
  8
D-STR-DIM
100
AcDbDimension
  2
*D19
 10
3458.709233430502
 20
8436.440784109892
 30
0.0
 11
3198.709237183479
 21
8491.440784109894
 31
0.0
 70
    32
 71
     5
 42
519.9999924940457
  3
20
100
AcDbAlignedDimension
 13
2938.709240936456
 23
8263.344341673764
 33
0.0
 14
3458.709233430502
 24
8263.344341673764
 34
0.0
100
AcDbRotatedDimension
1001
ACAD
1000
DSTYLE
1002
{
1070
    41
1040
10.0
1070
   343
1005
2A5B4
1070
   342
1005
0
1070
   173
1070
     1
1070
   344
1005
2A5B4
1070
    76
1070
     1
1002
}
  0
DIMENSION
  5
2B28C
330
1F
100
AcDbEntity
  8
D-STR-DIM
100
AcDbDimension
  2
*D18
 10
2938.709240936456
 20
8436.440784109892
 30
0.0
 11
2638.709240936456
 21
8491.440784109894
 31
0.0
 70
    32
 71
     5
 42
600.0
  3
20
100
AcDbAlignedDimension
 13
2338.709240936456
 23
8263.344341673764
 33
0.0
 14
2938.709240936456
 24
8263.344341673764
 34
0.0
100
AcDbRotatedDimension
1001
ACAD
1000
DSTYLE
1002
{
1070
    41
1040
10.0
1070
   343
1005
2A5B4
1070
   342
1005
0
1070
   173
1070
     1
1070
   344
1005
2A5B4
1070
    76
1070
     1
1002
}
  0
DIMENSION
  5
2B28D
330
1F
100
AcDbEntity
  8
D-STR-DIM
100
AcDbDimension
  2
*D17
 10
2338.709240936456
 20
8436.440784109892
 30
0.0
 11
2078.709241333259
 21
8491.440784109894
 31
0.0
 70
    32
 71
     5
 42
519.9999992063931
  3
20
100
AcDbAlignedDimension
 13
1818.709241730063
 23
8263.344341673764
 33
0.0
 14
2338.709240936456
 24
8263.344341673764
 34
0.0
100
AcDbRotatedDimension
1001
ACAD
1000
DSTYLE
1002
{
1070
    41
1040
10.0
1070
   343
1005
2A5B4
1070
   342
1005
0
1070
   173
1070
     1
1070
   344
1005
2A5B4
1070
    75
1070
     1
1070
    76
1070
     1
1002
}
  0
LEADER
  5
2B28E
330
1F
100
AcDbEntity
  8
D-STR-HTXT
100
AcDbLeader
  3
20
 40
70.0
 41
644.0
 76
     3
 10
2947.042940903069
 20
8230.010741807324
 30
0.0
 10
3663.415279482091
 20
8494.799134896608
 30
0.0
 10
4361.937817150792
 20
8494.799134896608
 30
0.0
213
0.0
223
-35.0
233
0.0
1001
ACAD
1000
DSTYLE
1002
{
1070
    41
1040
30.0
1070
   147
1040
20.0
1070
    77
1070
     0
1002
}
  0
TEXT
  5
2B28F
330
1F
100
AcDbEntity
  8
D-STR-HTXT
100
AcDbText
 10
3703.415279482091
 20
8498.705200727162
 30
0.0
 40
70.0
  1
吊り用インサート
100
AcDbText
  0
TEXT
  5
2B290
330
1F
100
AcDbEntity
  8
D-STR-HTXT
100
AcDbText
 10
3904.564663181925
 20
8419.561872099281
 30
0.0
 40
70.0
  1
Ｍ20
100
AcDbText
  0
LINE
  5
2B2C8
330
1F
100
AcDbEntity
  8
D-STR-DIM
  6
Continuous
100
AcDbLine
 10
2298.709239300922
 20
8421.662187176812
 30
0.0
 11
2298.709239300922
 21
8293.343941521944
 31
0.0
  0
LINE
  5
2B2C9
330
1F
100
AcDbEntity
  8
D-STR-DIM
  6
Continuous
100
AcDbLine
 10
2098.709240313063
 20
8421.662187176812
 30
0.0
 11
2098.709240313063
 21
8293.343941521944
 31
0.0
  0
LINE
  5
2B2CA
330
1F
100
AcDbEntity
  8
D-STR-DIM
  6
Continuous
100
AcDbLine
 10
1987.210440877356
 20
8421.662187176812
 30
0.0
 11
1987.210440877356
 21
8293.343941521944
 31
0.0
  0
LINE
  5
2B2CB
330
1F
100
AcDbEntity
  8
D-STR-DIM
  6
Continuous
100
AcDbLine
 10
2573.709237909228
 20
8542.281077240387
 30
0.0
 11
2573.709237909228
 21
8693.343939497662
 31
0.0
  0
LINE
  5
2B2CC
330
1F
100
AcDbEntity
  8
D-STR-DIM
  6
Continuous
100
AcDbLine
 10
2703.709437251331
 20
8542.281077240387
 30
0.0
 11
2703.709437251331
 21
8693.343939497662
 31
0.0
  0
LINE
  5
2B2CD
330
1F
100
AcDbEntity
  8
D-STR-DIM
  6
Continuous
100
AcDbLine
 10
2498.709238288782
 20
8421.662187176812
 30
0.0
 11
2498.709238288782
 21
8293.343941521944
 31
0.0
  0
LINE
  5
2B2CE
330
1F
100
AcDbEntity
  8
D-STR-DIM
  6
Continuous
100
AcDbLine
 10
2778.709436871777
 20
8421.662187176812
 30
0.0
 11
2778.709436871777
 21
8293.343941521944
 31
0.0
  0
LINE
  5
2B2CF
330
1F
100
AcDbEntity
  8
D-STR-DIM
  6
Continuous
100
AcDbLine
 10
3178.709434847493
 20
8421.662187176812
 30
0.0
 11
3178.709434847493
 21
8293.343941521944
 31
0.0
  0
LINE
  5
2B2D0
330
1F
100
AcDbEntity
  8
D-STR-DIM
  6
Continuous
100
AcDbLine
 10
3290.209634283234
 20
8421.662187176812
 30
0.0
 11
3290.209634283234
 21
8293.343941521944
 31
0.0
  0
LINE
  5
2B2D1
330
1F
100
AcDbEntity
  8
D-STR-STR2
  6
Continuous
100
AcDbLine
 10
7473.239751246449
 20
8263.344341673764
 30
0.0
 11
7473.239751246449
 21
8196.677141940883
 31
0.0
  0
LINE
  5
2B2D2
330
1F
100
AcDbEntity
  8
D-STR-STR2
  6
Continuous
100
AcDbLine
 10
7489.907151179676
 20
8263.344341673764
 30
0.0
 11
7489.907151179676
 21
8196.677141940883
 31
0.0
  0
LINE
  5
2B2D3
330
1F
100
AcDbEntity
  8
D-STR-STR2
  6
Continuous
100
AcDbLine
 10
7473.239751246449
 20
8196.677141940883
 30
0.0
 11
7489.907151179676
 21
8196.677141940883
 31
0.0
  0
LINE
  5
2B2D4
330
1F
100
AcDbEntity
  8
D-STR-STR2
  6
Continuous
100
AcDbLine
 10
8089.907151179676
 20
8263.344341673764
 30
0.0
 11
8089.907151179676
 21
8196.677141940883
 31
0.0
  0
LINE
  5
2B2D5
330
1F
100
AcDbEntity
  8
D-STR-STR2
  6
Continuous
100
AcDbLine
 10
8073.239751246449
 20
8263.344341673764
 30
0.0
 11
8073.239751246449
 21
8196.677141940883
 31
0.0
  0
LINE
  5
2B2D6
330
1F
100
AcDbEntity
  8
D-STR-STR2
  6
Continuous
100
AcDbLine
 10
8073.239751246449
 20
8196.677141940883
 30
0.0
 11
8089.907151179676
 21
8196.677141940883
 31
0.0
  0
LINE
  5
2B2D7
330
1F
100
AcDbEntity
  8
D-STR-STR2
  6
Continuous
100
AcDbLine
 10
2330.375540969843
 20
8263.344341673764
 30
0.0
 11
2330.375540969843
 21
8196.677141940883
 31
0.0
  0
LINE
  5
2B2D8
330
1F
100
AcDbEntity
  8
D-STR-STR2
  6
Continuous
100
AcDbLine
 10
2347.042940903069
 20
8263.344341673764
 30
0.0
 11
2347.042940903069
 21
8196.677141940883
 31
0.0
  0
LINE
  5
2B2D9
330
1F
100
AcDbEntity
  8
D-STR-STR2
  6
Continuous
100
AcDbLine
 10
2330.375540969843
 20
8196.677141940883
 30
0.0
 11
2347.042940903069
 21
8196.677141940883
 31
0.0
  0
LINE
  5
2B2DA
330
1F
100
AcDbEntity
  8
D-STR-STR2
  6
Continuous
100
AcDbLine
 10
2947.042940903069
 20
8263.344341673764
 30
0.0
 11
2947.042940903069
 21
8196.677141940883
 31
0.0
  0
LINE
  5
2B2DB
330
1F
100
AcDbEntity
  8
D-STR-STR2
  6
Continuous
100
AcDbLine
 10
2930.375540969843
 20
8263.344341673764
 30
0.0
 11
2930.375540969843
 21
8196.677141940883
 31
0.0
  0
LINE
  5
2B2DC
330
1F
100
AcDbEntity
  8
D-STR-STR2
  6
Continuous
100
AcDbLine
 10
2930.375540969843
 20
8196.677141940883
 30
0.0
 11
2947.042940903069
 21
8196.677141940883
 31
0.0
  0
LINE
  5
2B2DD
330
1F
100
AcDbEntity
  8
D-STR-DIM
  6
Continuous
100
AcDbLine
 10
7241.573470589678
 20
8421.662187176812
 30
0.0
 11
7241.573470589679
 21
8293.343941521944
 31
0.0
  0
LINE
  5
2B2DE
330
1F
100
AcDbEntity
  8
D-STR-DIM
  6
Continuous
100
AcDbLine
 10
7130.074551153929
 20
8421.662187176812
 30
0.0
 11
7130.074551153928
 21
8293.343941521944
 31
0.0
  0
LINE
  5
2B2DF
330
1F
100
AcDbEntity
  8
D-STR-DIM
  6
Continuous
100
AcDbLine
 10
7441.573529577486
 20
8421.662187176812
 30
0.0
 11
7441.573529577486
 21
8293.343941521944
 31
0.0
  0
LINE
  5
2B2E0
330
1F
100
AcDbEntity
  8
D-STR-DIM
  6
Continuous
100
AcDbLine
 10
7641.573468565394
 20
8421.662187176812
 30
0.0
 11
7641.573468565396
 21
8293.343941521944
 31
0.0
  0
LINE
  5
2B2E1
330
1F
100
AcDbEntity
  8
D-STR-DIM
  6
Continuous
100
AcDbLine
 10
7716.573448185839
 20
8542.281077240387
 30
0.0
 11
7716.573448185838
 21
8693.343939497662
 31
0.0
  0
LINE
  5
2B2E2
330
1F
100
AcDbEntity
  8
D-STR-DIM
  6
Continuous
100
AcDbLine
 10
7846.573487527888
 20
8542.281077240387
 30
0.0
 11
7846.573487527887
 21
8693.343939497662
 31
0.0
  0
LINE
  5
2B2E3
330
1F
100
AcDbEntity
  8
D-STR-DIM
  6
Continuous
100
AcDbLine
 10
7921.573467148398
 20
8421.662187176812
 30
0.0
 11
7921.573467148398
 21
8293.343941521944
 31
0.0
  0
LINE
  5
2B2E4
330
1F
100
AcDbEntity
  8
D-STR-DIM
  6
Continuous
100
AcDbLine
 10
8321.573465124114
 20
8421.662187176812
 30
0.0
 11
8321.573465124115
 21
8293.343941521944
 31
0.0
  0
LINE
  5
2B2E5
330
1F
100
AcDbEntity
  8
D-STR-DIM
  6
Continuous
100
AcDbLine
 10
8433.073664559783
 20
8421.662187176812
 30
0.0
 11
8433.073664559783
 21
8293.343941521944
 31
0.0
  0
LINE
  5
2B2E6
330
1F
100
AcDbEntity
  8
D-STR-DIM
  6
Continuous
100
AcDbLine
 10
12467.2935877297
 20
8421.662187176812
 30
0.0
 11
12467.2935877297
 21
8293.343941521944
 31
0.0
  0
LINE
  5
2B2E7
330
1F
100
AcDbEntity
  8
D-STR-DIM
  6
Continuous
100
AcDbLine
 10
12315.79458849642
 20
8421.662187176812
 30
0.0
 11
12315.79458849642
 21
8293.343941521944
 31
0.0
  0
LINE
  5
2B2E8
330
1F
100
AcDbEntity
  8
D-STR-DIM
  6
Continuous
100
AcDbLine
 10
12902.29378552828
 20
8542.281077240387
 30
0.0
 11
12902.29378552828
 21
8693.343939497662
 31
0.0
  0
LINE
  5
2B2E9
330
1F
100
AcDbEntity
  8
D-STR-DIM
  6
Continuous
100
AcDbLine
 10
13032.2933848704
 20
8542.281077240387
 30
0.0
 11
13032.2933848704
 21
8693.343939497662
 31
0.0
  0
LINE
  5
2B2EA
330
1F
100
AcDbEntity
  8
D-STR-DIM
  6
Continuous
100
AcDbLine
 10
13467.29358266899
 20
8421.662187176812
 30
0.0
 11
13467.29358266899
 21
8293.343941521944
 31
0.0
  0
LINE
  5
2B2EB
330
1F
100
AcDbEntity
  8
D-STR-DIM
  6
Continuous
100
AcDbLine
 10
13618.79358190231
 20
8421.662187176812
 30
0.0
 11
13618.79358190231
 21
8293.343941521944
 31
0.0
  0
LINE
  5
2B2EC
330
1F
100
AcDbEntity
  8
D-STR-STR2
  6
Continuous
100
AcDbLine
 10
15103.96127440525
 20
8263.344341673764
 30
0.0
 11
15103.96127440525
 21
8196.677141940883
 31
0.0
  0
LINE
  5
2B2ED
330
1F
100
AcDbEntity
  8
D-STR-STR2
  6
Continuous
100
AcDbLine
 10
15120.62867433848
 20
8263.344341673764
 30
0.0
 11
15120.62867433848
 21
8196.677141940883
 31
0.0
  0
LINE
  5
2B2EE
330
1F
100
AcDbEntity
  8
D-STR-STR2
  6
Continuous
100
AcDbLine
 10
15103.96127440525
 20
8196.677141940883
 30
0.0
 11
15120.62867433848
 21
8196.677141940883
 31
0.0
  0
LINE
  5
2B2EF
330
1F
100
AcDbEntity
  8
D-STR-STR2
  6
Continuous
100
AcDbLine
 10
9934.908336995963
 20
8263.344341673764
 30
0.0
 11
9934.908336995963
 21
8196.677141940883
 31
0.0
  0
LINE
  5
2B2F0
330
1F
100
AcDbEntity
  8
D-STR-STR2
  6
Continuous
100
AcDbLine
 10
9918.240937062735
 20
8263.344341673764
 30
0.0
 11
9918.240937062735
 21
8196.677141940883
 31
0.0
  0
LINE
  5
2B2F1
330
1F
100
AcDbEntity
  8
D-STR-STR2
  6
Continuous
100
AcDbLine
 10
9918.240937062735
 20
8196.677141940883
 30
0.0
 11
9934.908336995963
 21
8196.677141940883
 31
0.0
  0
LINE
  5
2B2F2
330
1F
100
AcDbEntity
  8
D-STR-STR2
  6
Continuous
100
AcDbLine
 10
4775.376726786202
 20
8263.344341673764
 30
0.0
 11
4775.376726786202
 21
8196.677141940883
 31
0.0
  0
LINE
  5
2B2F3
330
1F
100
AcDbEntity
  8
D-STR-STR2
  6
Continuous
100
AcDbLine
 10
4792.044126719429
 20
8263.344341673764
 30
0.0
 11
4792.044126719429
 21
8196.677141940883
 31
0.0
  0
LINE
  5
2B2F4
330
1F
100
AcDbEntity
  8
D-STR-STR2
  6
Continuous
100
AcDbLine
 10
4775.376726786202
 20
8196.677141940883
 30
0.0
 11
4792.044126719429
 21
8196.677141940883
 31
0.0
  0
TEXT
  5
2B2F5
330
1F
100
AcDbEntity
  8
D-MTR-MTXT
100
AcDbText
 10
7805.399098489077
 20
2275.011583972445
 30
0.0
 40
69.99999999999999
  1
150
100
AcDbText
  0
TEXT
  5
2B2F6
330
1F
100
AcDbEntity
  8
D-MTR-MTXT
100
AcDbText
 10
7654.932301001813
 20
2275.011583972445
 30
0.0
 40
69.99999999999999
  1
×
100
AcDbText
  0
VIEWPORT
  5
2E
102
{ACAD_XDICTIONARY
360
2B375
102
}
330
1B
100
AcDbEntity
 67
     1
  8
0
100
AcDbViewport
 10
473.1810839499198
 20
473.2126938647103
 30
0.0
 40
2443.154659054329
 41
1598.230339464706
 68
     1
 69
     1
 12
473.1810839499198
 22
473.2126938647103
 13
0.0
 23
0.0
 14
10.0
 24
10.0
 15
10.0
 25
10.0
 16
0.0
 26
0.0
 36
1.0
 17
0.0
 27
0.0
 37
0.0
 42
50.0
 43
0.0
 44
0.0
 45
1598.230339464706
 50
0.0
 51
0.0
 72
   100
 90
    32800
  1

281
     0
 71
     1
 74
     0
110
0.0
120
0.0
130
0.0
111
1.0
121
0.0
131
0.0
112
0.0
122
1.0
132
0.0
 79
     0
146
0.0
  0
ENDSEC
  0
SECTION
  2
OBJECTS
  0
DICTIONARY
  5
C
330
0
100
AcDbDictionary
281
     1
  3
ACAD_COLOR
350
2B36B
  3
ACAD_GROUP
350
D
  3
ACAD_LAYOUT
350
1A
  3
ACAD_MATERIAL
350
2B36A
  3
ACAD_MLINESTYLE
350
17
  3
ACAD_PLOTSETTINGS
350
19
  3
ACAD_PLOTSTYLENAME
350
7E80
  3
ACAD_TABLESTYLE
350
2B36C
  3
AcadDim
350
8E27
  3
ACDBHEADERROUNDTRIPXREC
350
2B374
  3
AcDbVariableDictionary
350
7E86
1001
ACAD
1000
TREAT_AS_HARD
1070
     0
  0
DICTIONARY
  5
7BCB
330
1F
100
AcDbDictionary
280
     1
281
     1
  3
ACAD_LAYOUTSELFREF
360
7DA3
1001
ACAD
1000
TREAT_AS_HARD
1070
     1
  0
DICTIONARY
  5
7BCD
330
1B
100
AcDbDictionary
280
     1
281
     1
  3
ACAD_LAYOUTSELFREF
360
7DA2
1001
ACAD
1000
TREAT_AS_HARD
1070
     1
  0
DICTIONARY
  5
2B375
330
2E
100
AcDbDictionary
280
     1
281
     1
  3
ACAD_XREC_ROUNDTRIP
360
2B376
  0
DICTIONARY
  5
2B36B
102
{ACAD_REACTORS
330
C
102
}
330
C
100
AcDbDictionary
281
     1
  0
DICTIONARY
  5
D
102
{ACAD_REACTORS
330
C
102
}
330
C
100
AcDbDictionary
281
     1
  3
*A1
350
2A724
1001
ACAD
1000
TREAT_AS_HARD
1070
     0
  0
DICTIONARY
  5
1A
102
{ACAD_REACTORS
330
C
102
}
330
C
100
AcDbDictionary
281
     1
  3
Model
350
7E82
  3
ﾚｲｱｳﾄ1
350
7E83
1001
ACAD
1000
TREAT_AS_HARD
1070
     0
  0
DICTIONARY
  5
2B36A
102
{ACAD_REACTORS
330
C
102
}
330
C
100
AcDbDictionary
281
     1
  0
DICTIONARY
  5
17
102
{ACAD_REACTORS
330
C
102
}
330
C
100
AcDbDictionary
281
     1
  3
STANDARD
350
18
1001
ACAD
1000
TREAT_AS_HARD
1070
     0
  0
DICTIONARY
  5
19
102
{ACAD_REACTORS
330
C
102
}
330
C
100
AcDbDictionary
281
     1
1001
ACAD
1000
TREAT_AS_HARD
1070
     0
  0
ACDBDICTIONARYWDFLT
  5
7E80
102
{ACAD_REACTORS
330
C
102
}
330
C
100
AcDbDictionary
281
     1
  3
Normal
350
7E81
100
AcDbDictionaryWithDefault
340
7E81
  0
DICTIONARY
  5
2B36C
102
{ACAD_REACTORS
330
C
102
}
330
C
100
AcDbDictionary
281
     1
  3
Standard
350
2B36D
  0
XRECORD
  5
8E27
102
{ACAD_REACTORS
330
C
102
}
330
C
100
AcDbXrecord
280
     1
 90
   990106
  3

 60
     0
 61
     0
 62
     1
 63
     3
 64
     0
 65
     0
 66
     0
 67
     3
 68
     1
 69
     0
 70
     0
 71
     0
 72
     0
 40
0.0
170
     0
340
0
  0
DICTIONARY
  5
2B374
102
{ACAD_REACTORS
330
C
102
}
330
C
100
AcDbDictionary
281
     1
  0
DICTIONARY
  5
7E86
102
{ACAD_REACTORS
330
C
102
}
330
C
100
AcDbDictionary
281
     1
  3
CTABLESTYLE
350
2B371
  3
DIMASSOC
350
7E87
  3
PROJECTNAME
350
2B372
  3
SORTENTS
350
B6AF
  0
XRECORD
  5
7DA3
102
{ACAD_REACTORS
330
7BCB
102
}
330
7BCB
100
AcDbXrecord
280
     1
340
1F
  0
XRECORD
  5
7DA2
102
{ACAD_REACTORS
330
7BCD
102
}
330
7BCD
100
AcDbXrecord
280
     1
340
1B
  0
XRECORD
  5
2B376
102
{ACAD_REACTORS
330
2B375
102
}
330
2B375
100
AcDbXrecord
280
     1
102
SHADEPLOT
 70
     0
  0
GROUP
  5
2A724
102
{ACAD_REACTORS
330
D
102
}
330
D
100
AcDbGroup
300

 70
     1
 71
     1
  0
LAYOUT
  5
7E82
102
{ACAD_XDICTIONARY
360
2B377
102
}
102
{ACAD_REACTORS
330
1A
102
}
330
1A
100
AcDbPlotSettings
  1

  2
RICOH IPSiO NX730N RPCS★
  4
A3
  6

 40
5.873749732971191
 41
5.873747825622558
 42
5.873748779296875
 43
5.873748779296875
 44
296.9259948730469
 45
419.9466552734374
 46
-5.91
 47
-6.15
 48
0.0
 49
0.0
140
16819.99991487857
141
11879.99993987879
142
1.0
143
40.0
 70
 11948
 72
     1
 73
     1
 74
     4
  7
canon国土交通省.ctb
 75
     0
147
0.025
148
0.0
149
0.0
100
AcDbLayout
  1
Model
 70
     1
 71
     0
 10
0.0
 20
0.0
 11
12.0
 21
9.0
 12
0.0
 22
0.0
 32
0.0
 14
0.0
 24
0.0
 34
0.0
 15
0.0
 25
0.0
 35
0.0
146
0.0
 13
0.0
 23
0.0
 33
0.0
 16
1.0
 26
0.0
 36
0.0
 17
0.0
 27
1.0
 37
0.0
 76
     0
330
1F
  0
LAYOUT
  5
7E83
102
{ACAD_XDICTIONARY
360
2B379
102
}
102
{ACAD_REACTORS
330
1A
102
}
330
1A
100
AcDbPlotSettings
  1

  2
Canon LASER SHOT LBP-740
  4

  6

 40
0.0
 41
0.0
 42
0.0
 43
0.0
 44
0.0
 45
0.0
 46
0.0
 47
0.0
 48
0.0
 49
0.0
140
0.0
141
0.0
142
1.0
143
0.000000000000000E+99
 70
   688
 72
     0
 73
     1
 74
     1
  7
canon国土交通省.ctb
 75
     0
147
0.0
148
182.4834335403793
149
501.366229236586
100
AcDbLayout
  1
ﾚｲｱｳﾄ1
 70
     1
 71
     1
 10
-7.184387147259029
 20
-19.73882792270024
 11
-7.184387147259029
 21
-19.73882792270024
 12
0.0
 22
0.0
 32
0.0
 14
-7.18438714725903
 24
-19.73882792270024
 34
-0.0015258207003583
 15
833.8481947040165
 25
574.2966304217307
 35
0.0000000349246037
146
0.0
 13
0.0
 23
0.0
 33
0.0
 16
1.0
 26
0.0
 36
0.0
 17
0.0
 27
1.0
 37
0.0
 76
     0
330
1B
331
2E
  0
MLINESTYLE
  5
18
102
{ACAD_REACTORS
330
17
102
}
330
17
100
AcDbMlineStyle
  2
STANDARD
 70
     0
  3

 62
   256
 51
90.0
 52
90.0
 71
     2
 49
0.5
 62
   256
  6
BYLAYER
 49
-0.5
 62
   256
  6
BYLAYER
  0
ACDBPLACEHOLDER
  5
7E81
102
{ACAD_REACTORS
330
7E80
102
}
330
7E80
  0
TABLESTYLE
  5
2B36D
102
{ACAD_REACTORS
330
2B36C
102
}
330
2B36C
100
AcDbTableStyle
  3
Standard
 70
     0
 71
     0
 40
0.06
 41
0.06
280
     0
281
     0
  7
STANDARD
140
0.18
170
     2
 62
     0
 63
     7
283
     0
274
    -2
284
     1
 64
     0
275
    -2
285
     1
 65
     0
276
    -2
286
     1
 66
     0
277
    -2
287
     1
 67
     0
278
    -2
288
     1
 68
     0
279
    -2
289
     1
 69
     0
  7
STANDARD
140
0.25
170
     5
 62
     0
 63
     7
283
     0
274
    -2
284
     1
 64
     0
275
    -2
285
     1
 65
     0
276
    -2
286
     1
 66
     0
277
    -2
287
     1
 67
     0
278
    -2
288
     1
 68
     0
279
    -2
289
     1
 69
     0
  7
STANDARD
140
0.18
170
     5
 62
     0
 63
     7
283
     0
274
    -2
284
     1
 64
     0
275
    -2
285
     1
 65
     0
276
    -2
286
     1
 66
     0
277
    -2
287
     1
 67
     0
278
    -2
288
     1
 68
     0
279
    -2
289
     1
 69
     0
  0
DICTIONARYVAR
  5
2B371
102
{ACAD_REACTORS
330
7E86
102
}
330
7E86
100
DictionaryVariables
280
     0
  1
STANDARD
  0
DICTIONARYVAR
  5
7E87
102
{ACAD_REACTORS
330
7E86
102
}
330
7E86
100
DictionaryVariables
280
     0
  1
1
  0
DICTIONARYVAR
  5
2B372
102
{ACAD_REACTORS
330
7E86
102
}
330
7E86
100
DictionaryVariables
280
     0
  1

  0
DICTIONARYVAR
  5
B6AF
102
{ACAD_REACTORS
330
7E86
102
}
330
7E86
100
DictionaryVariables
280
     0
  1
112
  0
DICTIONARY
  5
2B377
330
7E82
100
AcDbDictionary
280
     1
281
     1
  3
ACAD_XREC_ROUNDTRIP
360
2B378
  0
DICTIONARY
  5
2B379
330
7E83
100
AcDbDictionary
280
     1
281
     1
  3
ACAD_XREC_ROUNDTRIP
360
2B37A
  0
XRECORD
  5
2B378
102
{ACAD_REACTORS
330
2B377
102
}
330
2B377
100
AcDbXrecord
280
     1
102
SHADEPLOT
 70
     2
102
SHADEPLOTRESLEVEL
 70
     2
102
SHADEPLOTCUSTOMDPI
 70
   300
  0
XRECORD
  5
2B37A
102
{ACAD_REACTORS
330
2B379
102
}
330
2B379
100
AcDbXrecord
280
     1
102
SHADEPLOT
 70
     0
102
SHADEPLOTRESLEVEL
 70
     2
102
SHADEPLOTCUSTOMDPI
 70
   300
  0
ENDSEC
  0
EOF
