  0
SECTION
  2
HEADER
  9
$ACADVER
  1
AC1027
  9
$ACADMAINTVER
 70
   125
  9
$DWGCODEPAGE
  3
ANSI_932
  9
$LASTSAVEDBY
  1
yano27
  9
$REQUIREDVERSIONS
160
                 0
  9
$INSBASE
 10
0.0
 20
0.0
 30
0.0
  9
$EXTMIN
 10
5261.042763046038
 20
8598.899784166922
 30
0.0
  9
$EXTMAX
 10
17580.55988147332
 20
15039.64264130977
 30
0.0
  9
$LIMMIN
 10
0.0
 20
0.0
  9
$LIMMAX
 10
420.0
 20
297.0
  9
$ORTHOMODE
 70
     0
  9
$REGENMODE
 70
     1
  9
$FILLMODE
 70
     1
  9
$QTEXTMODE
 70
     0
  9
$MIRRTEXT
 70
     0
  9
$LTSCALE
 40
1.0
  9
$ATTMODE
 70
     1
  9
$TEXTSIZE
 40
35.0
  9
$TRACEWID
 40
1.0
  9
$TEXTSTYLE
  7
STANDARD
  9
$CLAYER
  8
D-BGD
  9
$CELTYPE
  6
BYLAYER
  9
$CECOLOR
 62
   256
  9
$CELTSCALE
 40
1.0
  9
$DISPSILH
 70
     0
  9
$DIMSCALE
 40
1.0
  9
$DIMASZ
 40
0.18
  9
$DIMEXO
 40
0.0625
  9
$DIMDLI
 40
0.38
  9
$DIMRND
 40
0.0
  9
$DIMDLE
 40
0.0
  9
$DIMEXE
 40
0.18
  9
$DIMTP
 40
0.0
  9
$DIMTM
 40
0.0
  9
$DIMTXT
 40
0.18
  9
$DIMCEN
 40
0.09
  9
$DIMTSZ
 40
0.0
  9
$DIMTOL
 70
     0
  9
$DIMLIM
 70
     0
  9
$DIMTIH
 70
     1
  9
$DIMTOH
 70
     1
  9
$DIMSE1
 70
     0
  9
$DIMSE2
 70
     0
  9
$DIMTAD
 70
     0
  9
$DIMZIN
 70
     0
  9
$DIMBLK
  1

  9
$DIMASO
 70
     1
  9
$DIMSHO
 70
     1
  9
$DIMPOST
  1

  9
$DIMAPOST
  1

  9
$DIMALT
 70
     0
  9
$DIMALTD
 70
     2
  9
$DIMALTF
 40
25.4
  9
$DIMLFAC
 40
1.0
  9
$DIMTOFL
 70
     0
  9
$DIMTVP
 40
0.0
  9
$DIMTIX
 70
     0
  9
$DIMSOXD
 70
     0
  9
$DIMSAH
 70
     0
  9
$DIMBLK1
  1

  9
$DIMBLK2
  1

  9
$DIMSTYLE
  2
Standard
  9
$DIMCLRD
 70
     0
  9
$DIMCLRE
 70
     0
  9
$DIMCLRT
 70
     0
  9
$DIMTFAC
 40
1.0
  9
$DIMGAP
 40
0.09
  9
$DIMJUST
 70
     0
  9
$DIMSD1
 70
     0
  9
$DIMSD2
 70
     0
  9
$DIMTOLJ
 70
     1
  9
$DIMTZIN
 70
     0
  9
$DIMALTZ
 70
     0
  9
$DIMALTTZ
 70
     0
  9
$DIMUPT
 70
     0
  9
$DIMDEC
 70
     4
  9
$DIMTDEC
 70
     4
  9
$DIMALTU
 70
     2
  9
$DIMALTTD
 70
     2
  9
$DIMTXSTY
  7
STANDARD
  9
$DIMAUNIT
 70
     0
  9
$DIMADEC
 70
     0
  9
$DIMALTRND
 40
0.0
  9
$DIMAZIN
 70
     0
  9
$DIMDSEP
 70
    46
  9
$DIMATFIT
 70
     3
  9
$DIMFRAC
 70
     0
  9
$DIMLDRBLK
  1

  9
$DIMLUNIT
 70
     2
  9
$DIMLWD
 70
    -2
  9
$DIMLWE
 70
    -2
  9
$DIMTMOVE
 70
     0
  9
$DIMFXL
 40
1.0
  9
$DIMFXLON
 70
     0
  9
$DIMJOGANG
 40
0.7853981633974483
  9
$DIMTFILL
 70
     0
  9
$DIMTFILLCLR
 70
     0
  9
$DIMARCSYM
 70
     0
  9
$DIMLTYPE
  6

  9
$DIMLTEX1
  6

  9
$DIMLTEX2
  6

  9
$DIMTXTDIRECTION
 70
     0
  9
$LUNITS
 70
     2
  9
$LUPREC
 70
     4
  9
$SKETCHINC
 40
1.0
  9
$FILLETRAD
 40
200.0
  9
$AUNITS
 70
     0
  9
$AUPREC
 70
     0
  9
$MENU
  1
.
  9
$ELEVATION
 40
0.0
  9
$PELEVATION
 40
0.0
  9
$THICKNESS
 40
0.0
  9
$LIMCHECK
 70
     0
  9
$CHAMFERA
 40
0.0
  9
$CHAMFERB
 40
0.0
  9
$CHAMFERC
 40
20.0
  9
$CHAMFERD
 40
0.0
  9
$SKPOLY
 70
     0
  9
$TDCREATE
 40
2452404.412662037
  9
$TDUCREATE
 40
2452404.037662234
  9
$TDUPDATE
 40
2459920.786724537
  9
$TDUUPDATE
 40
2459920.411724537
  9
$TDINDWG
 40
3.6376981713
  9
$TDUSRTIMER
 40
3.6376974769
  9
$USRTIMER
 70
     1
  9
$ANGBASE
 50
0.0
  9
$ANGDIR
 70
     0
  9
$PDMODE
 70
    35
  9
$PDSIZE
 40
-10.0
  9
$PLINEWID
 40
0.0
  9
$SPLFRAME
 70
     0
  9
$SPLINETYPE
 70
     6
  9
$SPLINESEGS
 70
     8
  9
$HANDSEED
  5
4880F
  9
$SURFTAB1
 70
     6
  9
$SURFTAB2
 70
     6
  9
$SURFTYPE
 70
     6
  9
$SURFU
 70
     6
  9
$SURFV
 70
     6
  9
$UCSBASE
  2

  9
$UCSNAME
  2

  9
$UCSORG
 10
0.0
 20
0.0
 30
0.0
  9
$UCSXDIR
 10
1.0
 20
0.0
 30
0.0
  9
$UCSYDIR
 10
0.0
 20
1.0
 30
0.0
  9
$UCSORTHOREF
  2

  9
$UCSORTHOVIEW
 70
     0
  9
$UCSORGTOP
 10
0.0
 20
0.0
 30
0.0
  9
$UCSORGBOTTOM
 10
0.0
 20
0.0
 30
0.0
  9
$UCSORGLEFT
 10
0.0
 20
0.0
 30
0.0
  9
$UCSORGRIGHT
 10
0.0
 20
0.0
 30
0.0
  9
$UCSORGFRONT
 10
0.0
 20
0.0
 30
0.0
  9
$UCSORGBACK
 10
0.0
 20
0.0
 30
0.0
  9
$PUCSBASE
  2

  9
$PUCSNAME
  2

  9
$PUCSORG
 10
0.0
 20
0.0
 30
0.0
  9
$PUCSXDIR
 10
1.0
 20
0.0
 30
0.0
  9
$PUCSYDIR
 10
0.0
 20
1.0
 30
0.0
  9
$PUCSORTHOREF
  2

  9
$PUCSORTHOVIEW
 70
     0
  9
$PUCSORGTOP
 10
0.0
 20
0.0
 30
0.0
  9
$PUCSORGBOTTOM
 10
0.0
 20
0.0
 30
0.0
  9
$PUCSORGLEFT
 10
0.0
 20
0.0
 30
0.0
  9
$PUCSORGRIGHT
 10
0.0
 20
0.0
 30
0.0
  9
$PUCSORGFRONT
 10
0.0
 20
0.0
 30
0.0
  9
$PUCSORGBACK
 10
0.0
 20
0.0
 30
0.0
  9
$USERI1
 70
     0
  9
$USERI2
 70
     0
  9
$USERI3
 70
     0
  9
$USERI4
 70
     0
  9
$USERI5
 70
     0
  9
$USERR1
 40
0.0
  9
$USERR2
 40
0.0
  9
$USERR3
 40
0.0
  9
$USERR4
 40
0.0
  9
$USERR5
 40
0.0
  9
$WORLDVIEW
 70
     1
  9
$SHADEDGE
 70
     3
  9
$SHADEDIF
 70
    70
  9
$TILEMODE
 70
     0
  9
$MAXACTVP
 70
    48
  9
$PINSBASE
 10
0.0
 20
0.0
 30
0.0
  9
$PLIMCHECK
 70
     0
  9
$PEXTMIN
 10
0.0
 20
0.0
 30
0.0
  9
$PEXTMAX
 10
841.0
 20
594.0
 30
0.0
  9
$PLIMMIN
 10
0.5525024414062507
 20
0.0725005340576175
  9
$PLIMMAX
 10
840.4458129882812
 20
593.9244902801513
  9
$UNITMODE
 70
     0
  9
$VISRETAIN
 70
     1
  9
$PLINEGEN
 70
     0
  9
$PSLTSCALE
 70
     1
  9
$TREEDEPTH
 70
  3020
  9
$CMLSTYLE
  2
STANDARD
  9
$CMLJUST
 70
     0
  9
$CMLSCALE
 40
20.0
  9
$PROXYGRAPHICS
 70
     1
  9
$MEASUREMENT
 70
     0
  9
$CELWEIGHT
370
    -1
  9
$ENDCAPS
280
     0
  9
$JOINSTYLE
280
     0
  9
$LWDISPLAY
290
     0
  9
$INSUNITS
 70
     0
  9
$HYPERLINKBASE
  1

  9
$STYLESHEET
  1
canon国土交通省.ctb
  9
$XEDIT
290
     1
  9
$CEPSNTYPE
380
     0
  9
$PSTYLEMODE
290
     1
  9
$FINGERPRINTGUID
  2
{2179596F-6415-11D6-8A52-000255ECC0C6}
  9
$VERSIONGUID
  2
{76F08618-D460-41C2-AF6E-F332E2A82137}
  9
$EXTNAMES
290
     1
  9
$PSVPSCALE
 40
0.05
  9
$OLESTARTUP
290
     0
  9
$SORTENTS
280
   112
  9
$INDEXCTL
280
     0
  9
$HIDETEXT
280
     0
  9
$XCLIPFRAME
280
     0
  9
$HALOGAP
280
     0
  9
$OBSCOLOR
 70
   257
  9
$OBSLTYPE
280
     0
  9
$INTERSECTIONDISPLAY
280
     0
  9
$INTERSECTIONCOLOR
 70
   257
  9
$DIMASSOC
280
     1
  9
$PROJECTNAME
  1

  9
$CAMERADISPLAY
290
     0
  9
$LENSLENGTH
 40
50.0
  9
$CAMERAHEIGHT
 40
0.0
  9
$STEPSPERSEC
 40
2.0
  9
$STEPSIZE
 40
6.0
  9
$3DDWFPREC
 40
2.0
  9
$PSOLWIDTH
 40
0.25
  9
$PSOLHEIGHT
 40
4.0
  9
$LOFTANG1
 40
1.570796326794896
  9
$LOFTANG2
 40
1.570796326794896
  9
$LOFTMAG1
 40
0.0
  9
$LOFTMAG2
 40
0.0
  9
$LOFTPARAM
 70
     7
  9
$LOFTNORMALS
280
     1
  9
$LATITUDE
 40
37.795
  9
$LONGITUDE
 40
-122.394
  9
$NORTHDIRECTION
 40
0.0
  9
$TIMEZONE
 70
 -8000
  9
$LIGHTGLYPHDISPLAY
280
     1
  9
$TILEMODELIGHTSYNCH
280
     1
  9
$CMATERIAL
347
48795
  9
$SOLIDHIST
280
     0
  9
$SHOWHIST
280
     1
  9
$DWFFRAME
280
     2
  9
$DGNFRAME
280
     0
  9
$REALWORLDSCALE
290
     1
  9
$INTERFERECOLOR
 62
     1
  9
$INTERFEREOBJVS
345
487AF
  9
$INTERFEREVPVS
346
487AC
  9
$CSHADOW
280
     0
  9
$SHADOWPLANELOCATION
 40
0.0
  0
ENDSEC
  0
SECTION
  2
CLASSES
  0
CLASS
  1
ACDBDICTIONARYWDFLT
  2
AcDbDictionaryWithDefault
  3
ObjectDBX Classes
 90
        0
 91
        1
280
     0
281
     0
  0
CLASS
  1
DICTIONARYVAR
  2
AcDbDictionaryVar
  3
ObjectDBX Classes
 90
        0
 91
       13
280
     0
281
     0
  0
CLASS
  1
PLOTSETTINGS
  2
AcDbPlotSettings
  3
ObjectDBX Classes
 90
        0
 91
        0
280
     0
281
     0
  0
CLASS
  1
DIMASSOC
  2
AcDbDimAssoc
  3
"AcDbDimAssoc|Product Desc:     AcDim ARX App For Dimension|Company:          Autodesk, Inc.|WEB Address:      www.autodesk.com"
 90
        0
 91
        0
280
     0
281
     0
  0
CLASS
  1
MATERIAL
  2
AcDbMaterial
  3
ObjectDBX Classes
 90
     1153
 91
        3
280
     0
281
     0
  0
CLASS
  1
SORTENTSTABLE
  2
AcDbSortentsTable
  3
ObjectDBX Classes
 90
        0
 91
        0
280
     0
281
     0
  0
CLASS
  1
VISUALSTYLE
  2
AcDbVisualStyle
  3
ObjectDBX Classes
 90
     4095
 91
       24
280
     0
281
     0
  0
CLASS
  1
TABLESTYLE
  2
AcDbTableStyle
  3
ObjectDBX Classes
 90
     4095
 91
        1
280
     0
281
     0
  0
CLASS
  1
SCALE
  2
AcDbScale
  3
ObjectDBX Classes
 90
     1153
 91
       17
280
     0
281
     0
  0
CLASS
  1
MLEADERSTYLE
  2
AcDbMLeaderStyle
  3
ACDB_MLEADERSTYLE_CLASS
 90
     4095
 91
        1
280
     0
281
     0
  0
CLASS
  1
ACDBSECTIONVIEWSTYLE
  2
AcDbSectionViewStyle
  3
ObjectDBX Classes
 90
     1025
 91
        1
280
     0
281
     0
  0
CLASS
  1
ACDBDETAILVIEWSTYLE
  2
AcDbDetailViewStyle
  3
ObjectDBX Classes
 90
     1025
 91
        1
280
     0
281
     0
  0
CLASS
  1
CELLSTYLEMAP
  2
AcDbCellStyleMap
  3
ObjectDBX Classes
 90
     1152
 91
        1
280
     0
281
     0
  0
ENDSEC
  0
SECTION
  2
TABLES
  0
TABLE
  2
VPORT
  5
8
330
0
100
AcDbSymbolTable
 70
     1
1001
ACAD
1000
DbSaveVer
1071
      278
  0
VPORT
  5
4877E
330
8
100
AcDbSymbolTableRecord
100
AcDbViewportTableRecord
  2
*Active
 70
     0
 10
0.0
 20
0.0
 11
1.0
 21
1.0
 12
8412.008064443613
 22
13353.13233924325
 13
0.0
 23
0.0
 14
10.0
 24
10.0
 15
10.0
 25
10.0
 16
0.0
 26
0.0
 36
1.0
 17
0.0
 27
0.0
 37
0.0
 40
6494.866468618422
 41
1.672676837725381
 42
50.0
 43
0.0
 44
0.0
 50
0.0
 51
0.0
 71
     0
 72
   100
 73
     1
 74
     3
 75
     0
 76
     0
 77
     0
 78
     0
281
     0
 65
     1
110
0.0
120
0.0
130
0.0
111
1.0
121
0.0
131
0.0
112
0.0
122
1.0
132
0.0
 79
     0
146
0.0
348
487AB
 60
     3
 61
     5
292
     1
282
     1
141
0.0
142
0.0
 63
   250
421
  3355443
  0
ENDTAB
  0
TABLE
  2
LTYPE
  5
5
330
0
100
AcDbSymbolTable
 70
     3
  0
LTYPE
  5
14
330
5
100
AcDbSymbolTableRecord
100
AcDbLinetypeTableRecord
  2
BYBLOCK
 70
     0
  3

 72
    65
 73
     0
 40
0.0
  0
LTYPE
  5
15
330
5
100
AcDbSymbolTableRecord
100
AcDbLinetypeTableRecord
  2
BYLAYER
 70
     0
  3

 72
    65
 73
     0
 40
0.0
  0
LTYPE
  5
16
330
5
100
AcDbSymbolTableRecord
100
AcDbLinetypeTableRecord
  2
CONTINUOUS
 70
     0
  3
Solid line
 72
    65
 73
     0
 40
0.0
  0
LTYPE
  5
45504
330
5
100
AcDbSymbolTableRecord
100
AcDbLinetypeTableRecord
  2
SXF_一点鎖線
 70
     0
  3
08 chain ---- - --- - --- - ---
 72
    65
 73
     4
 40
18.5
 49
12.0
 74
     0
 49
-1.5
 74
     0
 49
3.5
 74
     0
 49
-1.5
 74
     0
  0
LTYPE
  5
485A2
330
5
100
AcDbSymbolTableRecord
100
AcDbLinetypeTableRecord
  2
SXF_破線
 70
     0
  3
02 dashed -- -- -- -- -- --
 72
    65
 73
     2
 40
7.5
 49
6.0
 74
     0
 49
-1.5
 74
     0
  0
ENDTAB
  0
TABLE
  2
LAYER
  5
2
102
{ACAD_XDICTIONARY
360
1F315
102
}
330
0
100
AcDbSymbolTable
 70
    15
  0
LAYER
  5
10
102
{ACAD_XDICTIONARY
360
487E3
102
}
330
2
100
AcDbSymbolTableRecord
100
AcDbLayerTableRecord
  2
0
 70
     0
 62
     7
  6
CONTINUOUS
370
    13
390
7E81
347
48789
348
0
  0
LAYER
  5
AC
102
{ACAD_XDICTIONARY
360
487E5
102
}
330
2
100
AcDbSymbolTableRecord
100
AcDbLayerTableRecord
  2
D-STR-DIM
 70
     0
 62
    31
  6
CONTINUOUS
370
    13
390
7E81
347
48789
348
0
  0
LAYER
  5
D6
102
{ACAD_XDICTIONARY
360
487E7
102
}
330
2
100
AcDbSymbolTableRecord
100
AcDbLayerTableRecord
  2
D-TTL-TXT
 70
     0
 62
     7
  6
CONTINUOUS
370
    13
390
7E81
347
48789
348
0
  0
LAYER
  5
3CD
330
2
100
AcDbSymbolTableRecord
100
AcDbLayerTableRecord
  2
DEFPOINTS
 70
     0
 62
     7
  6
CONTINUOUS
290
     0
370
    13
390
7E81
347
48789
348
0
  0
LAYER
  5
6662
102
{ACAD_XDICTIONARY
360
487E9
102
}
330
2
100
AcDbSymbolTableRecord
100
AcDbLayerTableRecord
  2
D-BGD-DIM
 70
     0
 62
   115
  6
CONTINUOUS
370
    13
390
7E81
347
48789
348
0
  0
LAYER
  5
8A66
102
{ACAD_XDICTIONARY
360
487EB
102
}
330
2
100
AcDbSymbolTableRecord
100
AcDbLayerTableRecord
  2
D-STR-DIM1
 70
     0
 62
   101
  6
CONTINUOUS
370
    13
390
7E81
347
48789
348
0
  0
LAYER
  5
1408F
102
{ACAD_XDICTIONARY
360
487ED
102
}
330
2
100
AcDbSymbolTableRecord
100
AcDbLayerTableRecord
  2
D-STR
 70
     0
 62
     1
  6
CONTINUOUS
370
    25
390
7E81
347
48789
348
0
  0
LAYER
  5
1620E
102
{ACAD_XDICTIONARY
360
487EF
102
}
330
2
100
AcDbSymbolTableRecord
100
AcDbLayerTableRecord
  2
D-TTL
 70
     0
 62
     2
  6
CONTINUOUS
370
   140
390
7E81
347
48789
348
0
  0
LAYER
  5
16210
102
{ACAD_XDICTIONARY
360
487F1
102
}
330
2
100
AcDbSymbolTableRecord
100
AcDbLayerTableRecord
  2
D-BGD
 70
     0
 62
    84
  6
CONTINUOUS
370
    13
390
7E81
347
48789
348
0
  0
LAYER
  5
16212
102
{ACAD_XDICTIONARY
360
487F3
102
}
330
2
100
AcDbSymbolTableRecord
100
AcDbLayerTableRecord
  2
D-BMK
 70
     0
 62
     2
  6
SXF_一点鎖線
370
    13
390
7E81
347
48789
348
0
  0
LAYER
  5
16213
102
{ACAD_XDICTIONARY
360
487F5
102
}
330
2
100
AcDbSymbolTableRecord
100
AcDbLayerTableRecord
  2
D-STR-HTXT
 70
     0
 62
   142
  6
CONTINUOUS
370
    13
390
7E81
347
48789
348
0
  0
LAYER
  5
16216
102
{ACAD_XDICTIONARY
360
487F7
102
}
330
2
100
AcDbSymbolTableRecord
100
AcDbLayerTableRecord
  2
D-MTR-FRAM
 70
     0
 62
   173
  6
CONTINUOUS
370
    13
390
7E81
347
48789
348
0
  0
LAYER
  5
16217
102
{ACAD_XDICTIONARY
360
487F9
102
}
330
2
100
AcDbSymbolTableRecord
100
AcDbLayerTableRecord
  2
D-MTR
 70
     0
 62
     6
  6
CONTINUOUS
370
    13
390
7E81
347
48789
348
0
  0
LAYER
  5
16218
102
{ACAD_XDICTIONARY
360
487FB
102
}
330
2
100
AcDbSymbolTableRecord
100
AcDbLayerTableRecord
  2
D-MTR-TXT
 70
     0
 62
   213
  6
CONTINUOUS
370
    13
390
7E81
347
48789
348
0
  0
LAYER
  5
1F32E
102
{ACAD_XDICTIONARY
360
487FD
102
}
330
2
100
AcDbSymbolTableRecord
100
AcDbLayerTableRecord
  2
D-STR-STR1
 70
     0
 62
     4
  6
CONTINUOUS
370
    25
390
7E81
347
48789
348
0
  0
ENDTAB
  0
TABLE
  2
STYLE
  5
3
330
0
100
AcDbSymbolTable
 70
     2
  0
STYLE
  5
11
330
3
100
AcDbSymbolTableRecord
100
AcDbTextStyleTableRecord
  2
STANDARD
 70
     0
 40
0.0
 41
1.0
 50
0.0
 71
     0
 42
35.0
  3
MS Mincho.ttf
  4

1001
ACAD
1000
MS Mincho
1071
    32785
  0
STYLE
  5
37B26
330
3
100
AcDbSymbolTableRecord
100
AcDbTextStyleTableRecord
  2
WMF-ＭＳ 明朝0
 70
     0
 40
0.0
 41
1.0
 50
0.0
 71
     0
 42
175.0
  3
MS Mincho.ttf
  4

1001
ACAD
1000
MS Mincho
1071
    32784
  0
ENDTAB
  0
TABLE
  2
VIEW
  5
6
330
0
100
AcDbSymbolTable
 70
     0
  0
ENDTAB
  0
TABLE
  2
UCS
  5
7
330
0
100
AcDbSymbolTable
 70
     0
  0
ENDTAB
  0
TABLE
  2
APPID
  5
9
330
0
100
AcDbSymbolTable
 70
     3
  0
APPID
  5
12
330
9
100
AcDbSymbolTableRecord
100
AcDbRegAppTableRecord
  2
ACAD
 70
     0
  0
APPID
  5
7C1E
330
9
100
AcDbSymbolTableRecord
100
AcDbRegAppTableRecord
  2
CONTENTBLOCKICON
 70
     0
  0
APPID
  5
45143
330
9
100
AcDbSymbolTableRecord
100
AcDbRegAppTableRecord
  2
ADE
 70
     0
  0
ENDTAB
  0
TABLE
  2
DIMSTYLE
  5
A
330
0
100
AcDbSymbolTable
 70
     3
100
AcDbDimStyleTable
 71
     2
340
33C25
340
45519
  0
DIMSTYLE
105
33C25
330
A
100
AcDbSymbolTableRecord
100
AcDbDimStyleTableRecord
  2
Standard
 70
     0
340
11
  0
DIMSTYLE
105
45519
102
{ACAD_REACTORS
330
45AC1
330
45B2A
330
45AEC
330
45ADF
330
45AF9
330
45B53
330
45B46
330
45B39
330
45AD0
330
4781E
330
4782B
330
477D4
330
458D2
330
4565D
330
45788
330
45737
330
45841
330
45834
330
45744
330
456F1
330
456DB
330
45728
330
455E6
330
455D9
330
4558E
330
45626
330
45ED3
330
458C5
330
4566B
330
45922
330
45915
330
45950
330
45943
330
48741
330
48740
102
}
330
A
100
AcDbSymbolTableRecord
100
AcDbDimStyleTableRecord
  2
SXF-20
 70
     0
 40
20.0
 41
2.0
 42
0.625
 43
3.75
 44
1.25
 73
     0
 74
     0
 77
     1
 78
     1
140
3.5
141
2.5
143
0.03937007874016
147
0.625
171
     3
172
     1
174
     1
179
     4
271
     0
272
     0
274
     3
275
     1
279
     2
283
     0
284
     8
340
11
341
31
342
31
371
    13
372
    13
  0
DIMSTYLE
105
48788
330
A
100
AcDbSymbolTableRecord
100
AcDbDimStyleTableRecord
  2
SXF-10
 70
     0
 40
10.0
 41
2.0
 42
0.625
 43
3.75
 44
1.25
 73
     0
 74
     0
 77
     1
 78
     1
140
3.5
141
2.5
143
0.03937007874016
147
0.625
171
     3
172
     1
174
     1
179
     4
271
     0
272
     0
274
     3
275
     1
279
     2
283
     0
284
     8
340
11
341
31
342
31
371
    13
372
    13
  0
ENDTAB
  0
TABLE
  2
BLOCK_RECORD
  5
1
330
0
100
AcDbSymbolTable
 70
    35
  0
BLOCK_RECORD
  5
1F
102
{ACAD_XDICTIONARY
360
7BCB
102
}
330
1
100
AcDbSymbolTableRecord
100
AcDbBlockTableRecord
  2
*MODEL_SPACE
340
7E82
 70
     0
280
     1
281
     0
  0
BLOCK_RECORD
  5
214E1
102
{ACAD_XDICTIONARY
360
214F4
102
}
330
1
100
AcDbSymbolTableRecord
100
AcDbBlockTableRecord
  2
*PAPER_SPACE
340
214F8
 70
     0
280
     1
281
     0
  0
BLOCK_RECORD
  5
31
330
1
100
AcDbSymbolTableRecord
100
AcDbBlockTableRecord
  2
_OPEN
340
0
310
2800000020000000200000000100080000000000000400000000000000000000000000000000000000000000000080000080000000808000800000008000800080800000C0C0C000C0DCC000F0CAA6000020400000206000002080000020A0000020C0000020E00000400000004020000040400000406000004080000040A0
310
000040C0000040E00000600000006020000060400000606000006080000060A0000060C0000060E00000800000008020000080400000806000008080000080A0000080C0000080E00000A0000000A0200000A0400000A0600000A0800000A0A00000A0C00000A0E00000C0000000C0200000C0400000C0600000C0800000C0
310
A00000C0C00000C0E00000E0000000E0200000E0400000E0600000E0800000E0A00000E0C00000E0E00040000000400020004000400040006000400080004000A0004000C0004000E00040200000402020004020400040206000402080004020A0004020C0004020E000404000004040200040404000404060004040800040
310
40A0004040C0004040E00040600000406020004060400040606000406080004060A0004060C0004060E00040800000408020004080400040806000408080004080A0004080C0004080E00040A0000040A0200040A0400040A0600040A0800040A0A00040A0C00040A0E00040C0000040C0200040C0400040C0600040C08000
310
40C0A00040C0C00040C0E00040E0000040E0200040E0400040E0600040E0800040E0A00040E0C00040E0E00080000000800020008000400080006000800080008000A0008000C0008000E00080200000802020008020400080206000802080008020A0008020C0008020E00080400000804020008040400080406000804080
310
008040A0008040C0008040E00080600000806020008060400080606000806080008060A0008060C0008060E00080800000808020008080400080806000808080008080A0008080C0008080E00080A0000080A0200080A0400080A0600080A0800080A0A00080A0C00080A0E00080C0000080C0200080C0400080C0600080C0
310
800080C0A00080C0C00080C0E00080E0000080E0200080E0400080E0600080E0800080E0A00080E0C00080E0E000C0000000C0002000C0004000C0006000C0008000C000A000C000C000C000E000C0200000C0202000C0204000C0206000C0208000C020A000C020C000C020E000C0400000C0402000C0404000C0406000C0
310
408000C040A000C040C000C040E000C0600000C0602000C0604000C0606000C0608000C060A000C060C000C060E000C0800000C0802000C0804000C0806000C0808000C080A000C080C000C080E000C0A00000C0A02000C0A04000C0A06000C0A08000C0A0A000C0A0C000C0A0E000C0C00000C0C02000C0C04000C0C06000
310
C0C08000C0C0A000F0FBFF00A4A0A000808080000000FF0000FF000000FFFF00FF000000FF00FF00FFFF0000FFFFFF0000000000000000000000000000000000000000000000000000000000000000000000000000000000000000000000000000000000000000000000000000000000000000000000000000000000000000
310
00000000000000000000000000000000000000000000000000000000000000000000000000000000000000000000000000000000000000000000000000000000000000000000000000000000000000000000000000000000000000000000000000000000000000000000000000000000000000000000000000000000000000
310
00000000000000000000000000000000000000000000000000000000000000000000000000000000000000000000000000000000000000000000000000000000000000000000000000000000000000000000000000000000000000000000000000000000000000000000000000000000000000000000000000000000000000
310
0000000000000000000000000000000000000000FFFFFF0000000000000000000000000000000000000000000000000000000000000000FFFFFFFFFFFF0000000000000000000000000000000000000000000000000000000000000000FFFFFFFFFFFF00000000000000000000000000000000000000000000000000000000
310
00000000FFFFFFFFFFFF0000000000000000000000000000000000000000000000000000000000000000FFFFFFFFFFFF0000000000FFFFFFFFFFFFFFFFFFFFFFFFFFFFFFFFFFFFFFFFFFFFFFFFFFFFFFFFFFFF000000000000000000000000000000000000000000FFFFFFFFFFFFFF00000000000000000000000000000000
310
00FFFFFFFFFFFFFFFF0000000000000000000000000000000000FFFFFFFFFFFFFF000000000000000000000000000000000000000000FFFFFFFF000000000000000000000000000000000000000000000000000000000000000000000000000000000000000000000000000000000000000000000000000000000000000000
310
00000000000000000000000000000000000000000000000000000000000000000000000000000000000000000000000000000000000000000000000000000000000000000000000000000000000000000000000000000000000000000000000000000000000000000000000000000000000000000000000000000000000000
310
00000000000000000000000000000000000000000000000000000000000000000000000000000000000000000000000000000000000000000000000000000000000000000000000000000000000000000000000000000000000000000000000000000000000000000000000000000000000000000000000000000000000000
310
0000000000000000000000000000000000000000000000000000000000000000000000000000000000000000000000000000000000000000
102
{BLKREFS
331
4815B
331
4815C
331
481DE
331
481DF
331
4834D
331
4834E
331
48356
331
48357
331
484FC
331
484FD
331
48505
331
48506
331
4875F
331
48760
331
4876A
331
4876B
331
48510
331
48511
331
4866E
331
4866F
331
48680
331
48681
331
486A8
331
486A9
331
486B3
331
486B4
331
486BC
331
486BD
331
486C5
331
486C6
331
476F1
331
476F2
331
47703
331
47704
331
47739
331
4773A
331
47742
331
47743
331
4774B
331
4774C
331
4775D
331
4775E
331
47778
331
47779
331
47781
331
47782
331
47797
331
47798
331
47AE0
331
47AE2
331
4806F
331
48070
331
480A0
331
480A1
331
480A9
331
480AA
331
480B2
331
480B3
331
480BB
331
480BC
331
480C6
331
480C7
331
480CF
331
480D0
331
480D8
331
480D9
331
480E3
331
480E4
331
4811E
331
4811F
102
}
 70
     0
280
     1
281
     0
  0
BLOCK_RECORD
  5
4558F
330
1
100
AcDbSymbolTableRecord
100
AcDbBlockTableRecord
  2
*D1
340
0
 70
     0
280
     1
281
     0
  0
BLOCK_RECORD
  5
455DA
330
1
100
AcDbSymbolTableRecord
100
AcDbBlockTableRecord
  2
*D2
340
0
 70
     0
280
     1
281
     0
  0
BLOCK_RECORD
  5
455E7
330
1
100
AcDbSymbolTableRecord
100
AcDbBlockTableRecord
  2
*D3
340
0
 70
     0
280
     1
281
     0
  0
BLOCK_RECORD
  5
45627
330
1
100
AcDbSymbolTableRecord
100
AcDbBlockTableRecord
  2
*D4
340
0
 70
     0
280
     1
281
     0
  0
BLOCK_RECORD
  5
4565E
330
1
100
AcDbSymbolTableRecord
100
AcDbBlockTableRecord
  2
*D5
340
0
 70
     0
280
     1
281
     0
  0
BLOCK_RECORD
  5
4566C
330
1
100
AcDbSymbolTableRecord
100
AcDbBlockTableRecord
  2
*D6
340
0
 70
     0
280
     1
281
     0
  0
BLOCK_RECORD
  5
456DC
330
1
100
AcDbSymbolTableRecord
100
AcDbBlockTableRecord
  2
*D7
340
0
 70
     0
280
     1
281
     0
  0
BLOCK_RECORD
  5
456F2
330
1
100
AcDbSymbolTableRecord
100
AcDbBlockTableRecord
  2
*D8
340
0
 70
     0
280
     1
281
     0
  0
BLOCK_RECORD
  5
45729
330
1
100
AcDbSymbolTableRecord
100
AcDbBlockTableRecord
  2
*D9
340
0
 70
     0
280
     1
281
     0
  0
BLOCK_RECORD
  5
45738
330
1
100
AcDbSymbolTableRecord
100
AcDbBlockTableRecord
  2
*D10
340
0
 70
     0
280
     1
281
     0
  0
BLOCK_RECORD
  5
45745
330
1
100
AcDbSymbolTableRecord
100
AcDbBlockTableRecord
  2
*D11
340
0
 70
     0
280
     1
281
     0
  0
BLOCK_RECORD
  5
45789
330
1
100
AcDbSymbolTableRecord
100
AcDbBlockTableRecord
  2
*D12
340
0
 70
     0
280
     1
281
     0
  0
BLOCK_RECORD
  5
45835
330
1
100
AcDbSymbolTableRecord
100
AcDbBlockTableRecord
  2
*D13
340
0
 70
     0
280
     1
281
     0
  0
BLOCK_RECORD
  5
45842
330
1
100
AcDbSymbolTableRecord
100
AcDbBlockTableRecord
  2
*D14
340
0
 70
     0
280
     1
281
     0
  0
BLOCK_RECORD
  5
458C6
330
1
100
AcDbSymbolTableRecord
100
AcDbBlockTableRecord
  2
*D15
340
0
 70
     0
280
     1
281
     0
  0
BLOCK_RECORD
  5
458D3
330
1
100
AcDbSymbolTableRecord
100
AcDbBlockTableRecord
  2
*D16
340
0
 70
     0
280
     1
281
     0
  0
BLOCK_RECORD
  5
45916
330
1
100
AcDbSymbolTableRecord
100
AcDbBlockTableRecord
  2
*D17
340
0
 70
     0
280
     1
281
     0
  0
BLOCK_RECORD
  5
45923
330
1
100
AcDbSymbolTableRecord
100
AcDbBlockTableRecord
  2
*D18
340
0
 70
     0
280
     1
281
     0
  0
BLOCK_RECORD
  5
45944
330
1
100
AcDbSymbolTableRecord
100
AcDbBlockTableRecord
  2
*D19
340
0
 70
     0
280
     1
281
     0
  0
BLOCK_RECORD
  5
45951
330
1
100
AcDbSymbolTableRecord
100
AcDbBlockTableRecord
  2
*D20
340
0
 70
     0
280
     1
281
     0
  0
BLOCK_RECORD
  5
45AC2
330
1
100
AcDbSymbolTableRecord
100
AcDbBlockTableRecord
  2
*D21
340
0
 70
     0
280
     1
281
     0
  0
BLOCK_RECORD
  5
45AD1
330
1
100
AcDbSymbolTableRecord
100
AcDbBlockTableRecord
  2
*D22
340
0
 70
     0
280
     1
281
     0
  0
BLOCK_RECORD
  5
45AE0
330
1
100
AcDbSymbolTableRecord
100
AcDbBlockTableRecord
  2
*D23
340
0
 70
     0
280
     1
281
     0
  0
BLOCK_RECORD
  5
45AED
330
1
100
AcDbSymbolTableRecord
100
AcDbBlockTableRecord
  2
*D24
340
0
 70
     0
280
     1
281
     0
  0
BLOCK_RECORD
  5
45AFA
330
1
100
AcDbSymbolTableRecord
100
AcDbBlockTableRecord
  2
*D25
340
0
 70
     0
280
     1
281
     0
  0
BLOCK_RECORD
  5
45B2B
330
1
100
AcDbSymbolTableRecord
100
AcDbBlockTableRecord
  2
*D26
340
0
 70
     0
280
     1
281
     0
  0
BLOCK_RECORD
  5
45B3A
330
1
100
AcDbSymbolTableRecord
100
AcDbBlockTableRecord
  2
*D27
340
0
 70
     0
280
     1
281
     0
  0
BLOCK_RECORD
  5
45B47
330
1
100
AcDbSymbolTableRecord
100
AcDbBlockTableRecord
  2
*D28
340
0
 70
     0
280
     1
281
     0
  0
BLOCK_RECORD
  5
45B54
330
1
100
AcDbSymbolTableRecord
100
AcDbBlockTableRecord
  2
*D29
340
0
 70
     0
280
     1
281
     0
  0
BLOCK_RECORD
  5
477E3
330
1
100
AcDbSymbolTableRecord
100
AcDbBlockTableRecord
  2
*D30
340
0
 70
     0
280
     1
281
     0
  0
BLOCK_RECORD
  5
4781F
330
1
100
AcDbSymbolTableRecord
100
AcDbBlockTableRecord
  2
*D31
340
0
 70
     0
280
     1
281
     0
  0
BLOCK_RECORD
  5
4782C
330
1
100
AcDbSymbolTableRecord
100
AcDbBlockTableRecord
  2
*D32
340
0
 70
     0
280
     1
281
     0
  0
BLOCK_RECORD
  5
48742
330
1
100
AcDbSymbolTableRecord
100
AcDbBlockTableRecord
  2
*D33
340
0
 70
     0
280
     1
281
     0
  0
BLOCK_RECORD
  5
4874E
330
1
100
AcDbSymbolTableRecord
100
AcDbBlockTableRecord
  2
*D34
340
0
 70
     0
280
     1
281
     0
  0
ENDTAB
  0
ENDSEC
  0
SECTION
  2
BLOCKS
  0
BLOCK
  5
20
330
1F
100
AcDbEntity
  8
0
100
AcDbBlockBegin
  2
*MODEL_SPACE
 70
     0
 10
0.0
 20
0.0
 30
0.0
  3
*MODEL_SPACE
  1

  0
ENDBLK
  5
21
330
1F
100
AcDbEntity
  8
0
100
AcDbBlockEnd
  0
BLOCK
  5
214F6
330
214E1
100
AcDbEntity
 67
     1
  8
0
100
AcDbBlockBegin
  2
*PAPER_SPACE
 70
     0
 10
0.0
 20
0.0
 30
0.0
  3
*PAPER_SPACE
  1

  0
ENDBLK
  5
214F7
330
214E1
100
AcDbEntity
 67
     1
  8
0
100
AcDbBlockEnd
  0
BLOCK
  5
35
330
31
100
AcDbEntity
  8
0
100
AcDbBlockBegin
  2
_OPEN
 70
     0
 10
0.0
 20
0.0
 30
0.0
  3
_OPEN
  1

  0
LINE
  5
32
330
31
100
AcDbEntity
  8
0
  6
ByBlock
 62
     0
100
AcDbLine
 10
-1.0
 20
0.1666666666666666
 30
0.0
 11
0.0
 21
0.0
 31
0.0
  0
LINE
  5
33
330
31
100
AcDbEntity
  8
0
  6
ByBlock
 62
     0
100
AcDbLine
 10
-1.0
 20
-0.1666666666666666
 30
0.0
 11
0.0
 21
0.0
 31
0.0
  0
LINE
  5
34
330
31
100
AcDbEntity
  8
0
  6
ByBlock
 62
     0
100
AcDbLine
 10
0.0
 20
0.0
 30
0.0
 11
-1.0
 21
0.0
 31
0.0
  0
ENDBLK
  5
36
330
31
100
AcDbEntity
  8
0
100
AcDbBlockEnd
  0
BLOCK
  5
45599
330
4558F
100
AcDbEntity
  8
0
100
AcDbBlockBegin
  2
*D1
 70
     1
 10
0.0
 20
0.0
 30
0.0
  3
*D1
  1

  0
LINE
  5
481D9
330
4558F
100
AcDbEntity
  8
D-BGD-DIM
 62
     0
440
 16777216
370
    13
100
AcDbLine
 10
6261.54276304604
 20
14233.39978416692
 30
0.0
 11
6261.54276304604
 21
14545.89978416692
 31
0.0
  0
LINE
  5
481DA
330
4558F
100
AcDbEntity
  8
D-BGD-DIM
 62
     0
440
 16777216
370
    13
100
AcDbLine
 10
6361.54276304604
 20
14233.39978416692
 30
0.0
 11
6361.54276304604
 21
14545.89978416692
 31
0.0
  0
LINE
  5
481DB
330
4558F
100
AcDbEntity
  8
D-BGD-DIM
 62
     0
440
 16777216
370
    13
100
AcDbLine
 10
6221.54276304604
 20
14520.89978416692
 30
0.0
 11
6181.54276304604
 21
14520.89978416692
 31
0.0
  0
LINE
  5
481DC
330
4558F
100
AcDbEntity
  8
D-BGD-DIM
 62
     0
440
 16777216
370
    13
100
AcDbLine
 10
6401.542763046039
 20
14520.89978416692
 30
0.0
 11
6441.54276304604
 21
14520.89978416692
 31
0.0
  0
LINE
  5
481DD
330
4558F
100
AcDbEntity
  8
D-BGD-DIM
 62
     0
440
 16777216
370
    13
100
AcDbLine
 10
6261.54276304604
 20
14520.89978416692
 30
0.0
 11
6361.54276304604
 21
14520.89978416692
 31
0.0
  0
INSERT
  5
481DE
330
4558F
100
AcDbEntity
  8
D-BGD-DIM
 62
     0
440
 16777216
370
    13
100
AcDbBlockReference
  2
_OPEN
 10
6261.54276304604
 20
14520.89978416692
 30
0.0
 41
40.0
 42
40.0
 43
40.0
  0
INSERT
  5
481DF
330
4558F
100
AcDbEntity
  8
D-BGD-DIM
 62
     0
440
 16777216
370
    13
100
AcDbBlockReference
  2
_OPEN
 10
6361.54276304604
 20
14520.89978416692
 30
0.0
 41
40.0
 42
40.0
 43
40.0
 50
180.0
  0
MTEXT
  5
481E0
330
4558F
100
AcDbEntity
  8
D-BGD-DIM
 62
     0
440
 16777216
100
AcDbMText
 10
6311.54276304604
 20
14568.39978416692
 30
0.0
 40
70.0
 41
0.0
 46
0.0
 71
     5
 72
     1
  1
100
 73
     1
 44
1.0
  0
POINT
  5
481E1
330
4558F
100
AcDbEntity
  8
DEFPOINTS
 62
     0
440
 16777216
100
AcDbPoint
 10
6261.54276304604
 20
14220.89978416692
 30
0.0
  0
POINT
  5
481E2
330
4558F
100
AcDbEntity
  8
DEFPOINTS
 62
     0
440
 16777216
100
AcDbPoint
 10
6361.54276304604
 20
14220.89978416692
 30
0.0
  0
POINT
  5
481E3
330
4558F
100
AcDbEntity
  8
DEFPOINTS
 62
     0
440
 16777216
100
AcDbPoint
 10
6361.54276304604
 20
14520.89978416692
 30
0.0
  0
ENDBLK
  5
4559A
330
4558F
100
AcDbEntity
  8
0
100
AcDbBlockEnd
  0
BLOCK
  5
455E4
330
455DA
100
AcDbEntity
  8
0
100
AcDbBlockBegin
  2
*D2
 70
     1
 10
0.0
 20
0.0
 30
0.0
  3
*D2
  1

  0
LINE
  5
48349
330
455DA
100
AcDbEntity
  8
D-BGD-DIM
 62
     0
440
 16777216
370
    13
100
AcDbLine
 10
6249.04276304604
 20
12730.89978416692
 30
0.0
 11
5636.54276304604
 21
12730.89978416692
 31
0.0
  0
LINE
  5
4834A
330
455DA
100
AcDbEntity
  8
D-BGD-DIM
 62
     0
440
 16777216
370
    13
100
AcDbLine
 10
6249.04276304604
 20
12620.89978416692
 30
0.0
 11
5636.54276304604
 21
12620.89978416692
 31
0.0
  0
LINE
  5
4834B
330
455DA
100
AcDbEntity
  8
D-BGD-DIM
 62
     0
440
 16777216
370
    13
100
AcDbLine
 10
5661.54276304604
 20
12690.89978416692
 30
0.0
 11
5661.54276304604
 21
12660.89978416692
 31
0.0
  0
MTEXT
  5
4834C
330
455DA
100
AcDbEntity
  8
D-BGD-DIM
 62
     0
440
 16777216
100
AcDbMText
 10
5614.042763046038
 20
12655.89978416692
 30
0.0
 40
70.0
 41
0.0
 46
0.0
 71
     5
 72
     1
  1
110
 11
0.0000000000000001
 21
1.0
 31
0.0
 73
     1
 44
1.0
  0
INSERT
  5
4834D
330
455DA
100
AcDbEntity
  8
D-BGD-DIM
 62
     0
440
 16777216
370
    13
100
AcDbBlockReference
  2
_OPEN
 10
5661.54276304604
 20
12730.89978416692
 30
0.0
 41
40.0
 42
40.0
 43
40.0
 50
90.0
  0
INSERT
  5
4834E
330
455DA
100
AcDbEntity
  8
D-BGD-DIM
 62
     0
440
 16777216
370
    13
100
AcDbBlockReference
  2
_OPEN
 10
5661.54276304604
 20
12620.89978416692
 30
0.0
 41
40.0
 42
40.0
 43
40.0
 50
270.0
  0
POINT
  5
4834F
330
455DA
100
AcDbEntity
  8
DEFPOINTS
 62
     0
440
 16777216
100
AcDbPoint
 10
6261.54276304604
 20
12730.89978416692
 30
0.0
  0
POINT
  5
48350
330
455DA
100
AcDbEntity
  8
DEFPOINTS
 62
     0
440
 16777216
100
AcDbPoint
 10
6261.54276304604
 20
12620.89978416692
 30
0.0
  0
POINT
  5
48351
330
455DA
100
AcDbEntity
  8
DEFPOINTS
 62
     0
440
 16777216
100
AcDbPoint
 10
5661.54276304604
 20
12620.89978416692
 30
0.0
  0
ENDBLK
  5
455E5
330
455DA
100
AcDbEntity
  8
0
100
AcDbBlockEnd
  0
BLOCK
  5
455F1
330
455E7
100
AcDbEntity
  8
0
100
AcDbBlockBegin
  2
*D3
 70
     1
 10
0.0
 20
0.0
 30
0.0
  3
*D3
  1

  0
LINE
  5
4811B
330
455E7
100
AcDbEntity
  8
D-BGD-DIM
 62
     0
440
 16777216
370
    13
100
AcDbLine
 10
6249.04276304604
 20
14220.89978416692
 30
0.0
 11
5336.54276304604
 21
14220.89978416692
 31
0.0
  0
LINE
  5
4811C
330
455E7
100
AcDbEntity
  8
D-BGD-DIM
 62
     0
440
 16777216
370
    13
100
AcDbLine
 10
6249.04276304604
 20
12620.89978416692
 30
0.0
 11
5336.54276304604
 21
12620.89978416692
 31
0.0
  0
LINE
  5
4811D
330
455E7
100
AcDbEntity
  8
D-BGD-DIM
 62
     0
440
 16777216
370
    13
100
AcDbLine
 10
5361.54276304604
 20
14180.89978416692
 30
0.0
 11
5361.54276304604
 21
12660.89978416692
 31
0.0
  0
INSERT
  5
4811E
330
455E7
100
AcDbEntity
  8
D-BGD-DIM
 62
     0
440
 16777216
370
    13
100
AcDbBlockReference
  2
_OPEN
 10
5361.54276304604
 20
14220.89978416692
 30
0.0
 41
40.0
 42
40.0
 43
40.0
 50
90.0
  0
INSERT
  5
4811F
330
455E7
100
AcDbEntity
  8
D-BGD-DIM
 62
     0
440
 16777216
370
    13
100
AcDbBlockReference
  2
_OPEN
 10
5361.54276304604
 20
12620.89978416692
 30
0.0
 41
40.0
 42
40.0
 43
40.0
 50
270.0
  0
MTEXT
  5
48120
330
455E7
100
AcDbEntity
  8
D-BGD-DIM
 62
     0
440
 16777216
100
AcDbMText
 10
5314.042763046038
 20
13420.89978416692
 30
0.0
 40
70.0
 41
0.0
 46
0.0
 71
     5
 72
     1
  1
1600
 11
0.0000000000000001
 21
1.0
 31
0.0
 73
     1
 44
1.0
  0
POINT
  5
48121
330
455E7
100
AcDbEntity
  8
DEFPOINTS
 62
     0
440
 16777216
100
AcDbPoint
 10
6261.54276304604
 20
14220.89978416692
 30
0.0
  0
POINT
  5
48122
330
455E7
100
AcDbEntity
  8
DEFPOINTS
 62
     0
440
 16777216
100
AcDbPoint
 10
6261.54276304604
 20
12620.89978416692
 30
0.0
  0
POINT
  5
48123
330
455E7
100
AcDbEntity
  8
DEFPOINTS
 62
     0
440
 16777216
100
AcDbPoint
 10
5361.54276304604
 20
12620.89978416692
 30
0.0
  0
ENDBLK
  5
455F2
330
455E7
100
AcDbEntity
  8
0
100
AcDbBlockEnd
  0
BLOCK
  5
45631
330
45627
100
AcDbEntity
  8
0
100
AcDbBlockBegin
  2
*D4
 70
     1
 10
0.0
 20
0.0
 30
0.0
  3
*D4
  1

  0
LINE
  5
48352
330
45627
100
AcDbEntity
  8
D-BGD-DIM
 62
     0
440
 16777216
370
    13
100
AcDbLine
 10
6261.54276304604
 20
12608.39978416692
 30
0.0
 11
6261.54276304604
 21
11995.89978416692
 31
0.0
  0
LINE
  5
48353
330
45627
100
AcDbEntity
  8
D-BGD-DIM
 62
     0
440
 16777216
370
    13
100
AcDbLine
 10
6371.542763046042
 20
12608.39978416692
 30
0.0
 11
6371.542763046042
 21
11995.89978416692
 31
0.0
  0
LINE
  5
48354
330
45627
100
AcDbEntity
  8
D-BGD-DIM
 62
     0
440
 16777216
370
    13
100
AcDbLine
 10
6301.54276304604
 20
12020.89978416692
 30
0.0
 11
6331.542763046042
 21
12020.89978416692
 31
0.0
  0
MTEXT
  5
48355
330
45627
100
AcDbEntity
  8
D-BGD-DIM
 62
     0
440
 16777216
100
AcDbMText
 10
6296.542763046041
 20
12068.39978416692
 30
0.0
 40
70.0
 41
0.0
 46
0.0
 71
     5
 72
     1
  1
110
 73
     1
 44
1.0
  0
INSERT
  5
48356
330
45627
100
AcDbEntity
  8
D-BGD-DIM
 62
     0
440
 16777216
370
    13
100
AcDbBlockReference
  2
_OPEN
 10
6261.54276304604
 20
12020.89978416692
 30
0.0
 41
40.0
 42
40.0
 43
40.0
 50
180.0
  0
INSERT
  5
48357
330
45627
100
AcDbEntity
  8
D-BGD-DIM
 62
     0
440
 16777216
370
    13
100
AcDbBlockReference
  2
_OPEN
 10
6371.542763046042
 20
12020.89978416692
 30
0.0
 41
40.0
 42
40.0
 43
40.0
  0
POINT
  5
48358
330
45627
100
AcDbEntity
  8
DEFPOINTS
 62
     0
440
 16777216
100
AcDbPoint
 10
6261.54276304604
 20
12620.89978416692
 30
0.0
  0
POINT
  5
48359
330
45627
100
AcDbEntity
  8
DEFPOINTS
 62
     0
440
 16777216
100
AcDbPoint
 10
6371.542763046042
 20
12620.89978416692
 30
0.0
  0
POINT
  5
4835A
330
45627
100
AcDbEntity
  8
DEFPOINTS
 62
     0
440
 16777216
100
AcDbPoint
 10
6371.542763046042
 20
12020.89978416692
 30
0.0
  0
ENDBLK
  5
45632
330
45627
100
AcDbEntity
  8
0
100
AcDbBlockEnd
  0
BLOCK
  5
45668
330
4565E
100
AcDbEntity
  8
0
100
AcDbBlockBegin
  2
*D5
 70
     1
 10
0.0
 20
0.0
 30
0.0
  3
*D5
  1

  0
LINE
  5
4806C
330
4565E
100
AcDbEntity
  8
D-BGD-DIM
 62
     0
440
 16777216
370
    13
100
AcDbLine
 10
6261.54276304604
 20
12608.39978416692
 30
0.0
 11
6261.54276304604
 21
11695.89978416692
 31
0.0
  0
LINE
  5
4806D
330
4565E
100
AcDbEntity
  8
D-BGD-DIM
 62
     0
440
 16777216
370
    13
100
AcDbLine
 10
7471.54276304604
 20
12608.39978416692
 30
0.0
 11
7471.54276304604
 21
11695.89978416692
 31
0.0
  0
LINE
  5
4806E
330
4565E
100
AcDbEntity
  8
D-BGD-DIM
 62
     0
440
 16777216
370
    13
100
AcDbLine
 10
6301.54276304604
 20
11720.89978416692
 30
0.0
 11
7431.54276304604
 21
11720.89978416692
 31
0.0
  0
INSERT
  5
4806F
330
4565E
100
AcDbEntity
  8
D-BGD-DIM
 62
     0
440
 16777216
370
    13
100
AcDbBlockReference
  2
_OPEN
 10
6261.54276304604
 20
11720.89978416692
 30
0.0
 41
40.0
 42
40.0
 43
40.0
 50
180.0
  0
INSERT
  5
48070
330
4565E
100
AcDbEntity
  8
D-BGD-DIM
 62
     0
440
 16777216
370
    13
100
AcDbBlockReference
  2
_OPEN
 10
7471.54276304604
 20
11720.89978416692
 30
0.0
 41
40.0
 42
40.0
 43
40.0
  0
MTEXT
  5
48071
330
4565E
100
AcDbEntity
  8
D-BGD-DIM
 62
     0
440
 16777216
100
AcDbMText
 10
6866.54276304604
 20
11768.39978416692
 30
0.0
 40
70.0
 41
0.0
 46
0.0
 71
     5
 72
     1
  1
1210
 73
     1
 44
1.0
  0
POINT
  5
48072
330
4565E
100
AcDbEntity
  8
DEFPOINTS
 62
     0
440
 16777216
100
AcDbPoint
 10
6261.54276304604
 20
12620.89978416692
 30
0.0
  0
POINT
  5
48073
330
4565E
100
AcDbEntity
  8
DEFPOINTS
 62
     0
440
 16777216
100
AcDbPoint
 10
7471.54276304604
 20
12620.89978416692
 30
0.0
  0
POINT
  5
48074
330
4565E
100
AcDbEntity
  8
DEFPOINTS
 62
     0
440
 16777216
100
AcDbPoint
 10
7471.54276304604
 20
11720.89978416692
 30
0.0
  0
ENDBLK
  5
45669
330
4565E
100
AcDbEntity
  8
0
100
AcDbBlockEnd
  0
BLOCK
  5
45678
330
4566C
100
AcDbEntity
  8
0
100
AcDbBlockBegin
  2
*D6
 70
     1
 10
0.0
 20
0.0
 30
0.0
  3
*D6
  1

  0
LINE
  5
48156
330
4566C
100
AcDbEntity
  8
D-BGD-DIM
 62
     0
440
 16777216
370
    13
100
AcDbLine
 10
7484.042763046042
 20
12690.89978416692
 30
0.0
 11
7796.54276304604
 21
12690.89978416692
 31
0.0
  0
LINE
  5
48157
330
4566C
100
AcDbEntity
  8
D-BGD-DIM
 62
     0
440
 16777216
370
    13
100
AcDbLine
 10
7484.04276304604
 20
12620.89978416692
 30
0.0
 11
7796.54276304604
 21
12620.89978416692
 31
0.0
  0
LINE
  5
48158
330
4566C
100
AcDbEntity
  8
D-BGD-DIM
 62
     0
440
 16777216
370
    13
100
AcDbLine
 10
7771.542763046039
 20
12730.89978416692
 30
0.0
 11
7771.542763046039
 21
12770.89978416692
 31
0.0
  0
LINE
  5
48159
330
4566C
100
AcDbEntity
  8
D-BGD-DIM
 62
     0
440
 16777216
370
    13
100
AcDbLine
 10
7771.542763046039
 20
12580.89978416692
 30
0.0
 11
7771.542763046039
 21
12540.89978416692
 31
0.0
  0
LINE
  5
4815A
330
4566C
100
AcDbEntity
  8
D-BGD-DIM
 62
     0
440
 16777216
370
    13
100
AcDbLine
 10
7771.542763046039
 20
12690.89978416692
 30
0.0
 11
7771.542763046039
 21
12620.89978416692
 31
0.0
  0
INSERT
  5
4815B
330
4566C
100
AcDbEntity
  8
D-BGD-DIM
 62
     0
440
 16777216
370
    13
100
AcDbBlockReference
  2
_OPEN
 10
7771.542763046039
 20
12690.89978416692
 30
0.0
 41
40.0
 42
40.0
 43
40.0
 50
270.0
  0
INSERT
  5
4815C
330
4566C
100
AcDbEntity
  8
D-BGD-DIM
 62
     0
440
 16777216
370
    13
100
AcDbBlockReference
  2
_OPEN
 10
7771.542763046039
 20
12620.89978416692
 30
0.0
 41
40.0
 42
40.0
 43
40.0
 50
90.0
  0
MTEXT
  5
4815D
330
4566C
100
AcDbEntity
  8
D-BGD-DIM
 62
     0
440
 16777216
100
AcDbMText
 10
7724.042763046039
 20
12655.89978416692
 30
0.0
 40
70.0
 41
0.0
 46
0.0
 71
     5
 72
     1
  1
70
 11
0.0000000000000001
 21
1.0
 31
0.0
 73
     1
 44
1.0
  0
POINT
  5
4815E
330
4566C
100
AcDbEntity
  8
DEFPOINTS
 62
     0
440
 16777216
100
AcDbPoint
 10
7471.542763046042
 20
12690.89978416692
 30
0.0
  0
POINT
  5
4815F
330
4566C
100
AcDbEntity
  8
DEFPOINTS
 62
     0
440
 16777216
100
AcDbPoint
 10
7471.54276304604
 20
12620.89978416692
 30
0.0
  0
POINT
  5
48160
330
4566C
100
AcDbEntity
  8
DEFPOINTS
 62
     0
440
 16777216
100
AcDbPoint
 10
7771.542763046039
 20
12620.89978416692
 30
0.0
  0
ENDBLK
  5
45679
330
4566C
100
AcDbEntity
  8
0
100
AcDbBlockEnd
  0
BLOCK
  5
456E6
330
456DC
100
AcDbEntity
  8
0
100
AcDbBlockBegin
  2
*D7
 70
     1
 10
0.0
 20
0.0
 30
0.0
  3
*D7
  1

  0
LINE
  5
480D5
330
456DC
100
AcDbEntity
  8
D-STR-DIM1
 62
     0
440
 16777216
370
    13
100
AcDbLine
 10
6261.54276304604
 20
11133.39978416692
 30
0.0
 11
6261.54276304604
 21
11445.89978416692
 31
0.0
  0
LINE
  5
480D6
330
456DC
100
AcDbEntity
  8
D-STR-DIM1
 62
     0
440
 16777216
370
    13
100
AcDbLine
 10
6811.54276304604
 20
11133.39978416692
 30
0.0
 11
6811.54276304604
 21
11445.89978416692
 31
0.0
  0
LINE
  5
480D7
330
456DC
100
AcDbEntity
  8
D-STR-DIM1
 62
     0
440
 16777216
370
    13
100
AcDbLine
 10
6301.54276304604
 20
11420.89978416692
 30
0.0
 11
6771.542763046039
 21
11420.89978416692
 31
0.0
  0
INSERT
  5
480D8
330
456DC
100
AcDbEntity
  8
D-STR-DIM1
 62
     0
440
 16777216
370
    13
100
AcDbBlockReference
  2
_OPEN
 10
6261.54276304604
 20
11420.89978416692
 30
0.0
 41
40.0
 42
40.0
 43
40.0
 50
180.0
  0
INSERT
  5
480D9
330
456DC
100
AcDbEntity
  8
D-STR-DIM1
 62
     0
440
 16777216
370
    13
100
AcDbBlockReference
  2
_OPEN
 10
6811.54276304604
 20
11420.89978416692
 30
0.0
 41
40.0
 42
40.0
 43
40.0
  0
MTEXT
  5
480DA
330
456DC
100
AcDbEntity
  8
D-STR-DIM1
 62
     0
440
 16777216
100
AcDbMText
 10
6536.54276304604
 20
11468.39978416692
 30
0.0
 40
70.0
 41
0.0
 46
0.0
 71
     5
 72
     1
  1
550
 73
     1
 44
1.0
  0
POINT
  5
480DB
330
456DC
100
AcDbEntity
  8
DEFPOINTS
 62
     0
440
 16777216
100
AcDbPoint
 10
6261.54276304604
 20
11120.89978416692
 30
0.0
  0
POINT
  5
480DC
330
456DC
100
AcDbEntity
  8
DEFPOINTS
 62
     0
440
 16777216
100
AcDbPoint
 10
6811.54276304604
 20
11120.89978416692
 30
0.0
  0
POINT
  5
480DD
330
456DC
100
AcDbEntity
  8
DEFPOINTS
 62
     0
440
 16777216
100
AcDbPoint
 10
6811.54276304604
 20
11420.89978416692
 30
0.0
  0
ENDBLK
  5
456E7
330
456DC
100
AcDbEntity
  8
0
100
AcDbBlockEnd
  0
BLOCK
  5
456FC
330
456F2
100
AcDbEntity
  8
0
100
AcDbBlockBegin
  2
*D8
 70
     1
 10
0.0
 20
0.0
 30
0.0
  3
*D8
  1

  0
LINE
  5
480CC
330
456F2
100
AcDbEntity
  8
D-STR-DIM1
 62
     0
440
 16777216
370
    13
100
AcDbLine
 10
6811.54276304604
 20
11133.39978416692
 30
0.0
 11
6811.54276304604
 21
11445.89978416692
 31
0.0
  0
LINE
  5
480CD
330
456F2
100
AcDbEntity
  8
D-STR-DIM1
 62
     0
440
 16777216
370
    13
100
AcDbLine
 10
7471.54276304604
 20
11133.39978416692
 30
0.0
 11
7471.54276304604
 21
11445.89978416692
 31
0.0
  0
LINE
  5
480CE
330
456F2
100
AcDbEntity
  8
D-STR-DIM1
 62
     0
440
 16777216
370
    13
100
AcDbLine
 10
6851.542763046039
 20
11420.89978416692
 30
0.0
 11
7431.54276304604
 21
11420.89978416692
 31
0.0
  0
INSERT
  5
480CF
330
456F2
100
AcDbEntity
  8
D-STR-DIM1
 62
     0
440
 16777216
370
    13
100
AcDbBlockReference
  2
_OPEN
 10
6811.54276304604
 20
11420.89978416692
 30
0.0
 41
40.0
 42
40.0
 43
40.0
 50
180.0
  0
INSERT
  5
480D0
330
456F2
100
AcDbEntity
  8
D-STR-DIM1
 62
     0
440
 16777216
370
    13
100
AcDbBlockReference
  2
_OPEN
 10
7471.54276304604
 20
11420.89978416692
 30
0.0
 41
40.0
 42
40.0
 43
40.0
  0
MTEXT
  5
480D1
330
456F2
100
AcDbEntity
  8
D-STR-DIM1
 62
     0
440
 16777216
100
AcDbMText
 10
7141.542763046039
 20
11468.39978416692
 30
0.0
 40
70.0
 41
0.0
 46
0.0
 71
     5
 72
     1
  1
660
 73
     1
 44
1.0
  0
POINT
  5
480D2
330
456F2
100
AcDbEntity
  8
DEFPOINTS
 62
     0
440
 16777216
100
AcDbPoint
 10
6811.54276304604
 20
11120.89978416692
 30
0.0
  0
POINT
  5
480D3
330
456F2
100
AcDbEntity
  8
DEFPOINTS
 62
     0
440
 16777216
100
AcDbPoint
 10
7471.54276304604
 20
11120.89978416692
 30
0.0
  0
POINT
  5
480D4
330
456F2
100
AcDbEntity
  8
DEFPOINTS
 62
     0
440
 16777216
100
AcDbPoint
 10
7471.54276304604
 20
11420.89978416692
 30
0.0
  0
ENDBLK
  5
456FD
330
456F2
100
AcDbEntity
  8
0
100
AcDbBlockEnd
  0
BLOCK
  5
45735
330
45729
100
AcDbEntity
  8
0
100
AcDbBlockBegin
  2
*D9
 70
     1
 10
0.0
 20
0.0
 30
0.0
  3
*D9
  1

  0
LINE
  5
480DE
330
45729
100
AcDbEntity
  8
D-BGD-DIM
 62
     0
440
 16777216
370
    13
100
AcDbLine
 10
7484.04276304604
 20
11120.89978416692
 30
0.0
 11
7996.54276304604
 21
11120.89978416692
 31
0.0
  0
LINE
  5
480DF
330
45729
100
AcDbEntity
  8
D-BGD-DIM
 62
     0
440
 16777216
370
    13
100
AcDbLine
 10
7484.04276304604
 20
11110.89978416692
 30
0.0
 11
7996.54276304604
 21
11110.89978416692
 31
0.0
  0
LINE
  5
480E0
330
45729
100
AcDbEntity
  8
D-BGD-DIM
 62
     0
440
 16777216
370
    13
100
AcDbLine
 10
7971.54276304604
 20
11160.89978416692
 30
0.0
 11
7971.54276304604
 21
11200.89978416692
 31
0.0
  0
LINE
  5
480E1
330
45729
100
AcDbEntity
  8
D-BGD-DIM
 62
     0
440
 16777216
370
    13
100
AcDbLine
 10
7971.54276304604
 20
11070.89978416692
 30
0.0
 11
7971.54276304604
 21
11030.89978416692
 31
0.0
  0
LINE
  5
480E2
330
45729
100
AcDbEntity
  8
D-BGD-DIM
 62
     0
440
 16777216
370
    13
100
AcDbLine
 10
7971.54276304604
 20
11120.89978416692
 30
0.0
 11
7971.54276304604
 21
11110.89978416692
 31
0.0
  0
INSERT
  5
480E3
330
45729
100
AcDbEntity
  8
D-BGD-DIM
 62
     0
440
 16777216
370
    13
100
AcDbBlockReference
  2
_OPEN
 10
7971.54276304604
 20
11120.89978416692
 30
0.0
 41
40.0
 42
40.0
 43
40.0
 50
270.0
  0
INSERT
  5
480E4
330
45729
100
AcDbEntity
  8
D-BGD-DIM
 62
     0
440
 16777216
370
    13
100
AcDbBlockReference
  2
_OPEN
 10
7971.54276304604
 20
11110.89978416692
 30
0.0
 41
40.0
 42
40.0
 43
40.0
 50
90.0
  0
MTEXT
  5
480E5
330
45729
100
AcDbEntity
  8
D-BGD-DIM
 62
     0
440
 16777216
100
AcDbMText
 10
7924.042763046038
 20
11115.89978416692
 30
0.0
 40
70.0
 41
0.0
 46
0.0
 71
     5
 72
     1
  1
10
 11
0.0000000000000001
 21
1.0
 31
0.0
 73
     1
 44
1.0
  0
POINT
  5
480E6
330
45729
100
AcDbEntity
  8
DEFPOINTS
 62
     0
440
 16777216
100
AcDbPoint
 10
7471.54276304604
 20
11120.89978416692
 30
0.0
  0
POINT
  5
480E7
330
45729
100
AcDbEntity
  8
DEFPOINTS
 62
     0
440
 16777216
100
AcDbPoint
 10
7471.54276304604
 20
11110.89978416692
 30
0.0
  0
POINT
  5
480E8
330
45729
100
AcDbEntity
  8
DEFPOINTS
 62
     0
440
 16777216
100
AcDbPoint
 10
7971.54276304604
 20
11110.89978416692
 30
0.0
  0
ENDBLK
  5
45736
330
45729
100
AcDbEntity
  8
0
100
AcDbBlockEnd
  0
BLOCK
  5
45742
330
45738
100
AcDbEntity
  8
0
100
AcDbBlockBegin
  2
*D10
 70
     1
 10
0.0
 20
0.0
 30
0.0
  3
*D10
  1

  0
LINE
  5
480A6
330
45738
100
AcDbEntity
  8
D-BGD-DIM
 62
     0
440
 16777216
370
    13
100
AcDbLine
 10
7484.04276304604
 20
11110.89978416692
 30
0.0
 11
7996.54276304604
 21
11110.89978416692
 31
0.0
  0
LINE
  5
480A7
330
45738
100
AcDbEntity
  8
D-BGD-DIM
 62
     0
440
 16777216
370
    13
100
AcDbLine
 10
7484.04276304604
 20
9133.899784166922
 30
0.0
 11
7996.54276304604
 21
9133.899784166922
 31
0.0
  0
LINE
  5
480A8
330
45738
100
AcDbEntity
  8
D-BGD-DIM
 62
     0
440
 16777216
370
    13
100
AcDbLine
 10
7971.54276304604
 20
11070.89978416692
 30
0.0
 11
7971.54276304604
 21
9173.899784166923
 31
0.0
  0
INSERT
  5
480A9
330
45738
100
AcDbEntity
  8
D-BGD-DIM
 62
     0
440
 16777216
370
    13
100
AcDbBlockReference
  2
_OPEN
 10
7971.54276304604
 20
11110.89978416692
 30
0.0
 41
40.0
 42
40.0
 43
40.0
 50
90.0
  0
INSERT
  5
480AA
330
45738
100
AcDbEntity
  8
D-BGD-DIM
 62
     0
440
 16777216
370
    13
100
AcDbBlockReference
  2
_OPEN
 10
7971.54276304604
 20
9133.899784166922
 30
0.0
 41
40.0
 42
40.0
 43
40.0
 50
270.0
  0
MTEXT
  5
480AB
330
45738
100
AcDbEntity
  8
D-BGD-DIM
 62
     0
440
 16777216
100
AcDbMText
 10
7924.042763046038
 20
10122.39978416692
 30
0.0
 40
70.0
 41
0.0
 46
0.0
 71
     5
 72
     1
  1
1977
 11
0.0000000000000001
 21
1.0
 31
0.0
 73
     1
 44
1.0
  0
POINT
  5
480AC
330
45738
100
AcDbEntity
  8
DEFPOINTS
 62
     0
440
 16777216
100
AcDbPoint
 10
7471.54276304604
 20
11110.89978416692
 30
0.0
  0
POINT
  5
480AD
330
45738
100
AcDbEntity
  8
DEFPOINTS
 62
     0
440
 16777216
100
AcDbPoint
 10
7471.54276304604
 20
9133.899784166922
 30
0.0
  0
POINT
  5
480AE
330
45738
100
AcDbEntity
  8
DEFPOINTS
 62
     0
440
 16777216
100
AcDbPoint
 10
7971.54276304604
 20
9133.899784166922
 30
0.0
  0
ENDBLK
  5
45743
330
45738
100
AcDbEntity
  8
0
100
AcDbBlockEnd
  0
BLOCK
  5
45751
330
45745
100
AcDbEntity
  8
0
100
AcDbBlockBegin
  2
*D11
 70
     1
 10
0.0
 20
0.0
 30
0.0
  3
*D11
  1

  0
LINE
  5
480C1
330
45745
100
AcDbEntity
  8
D-BGD-DIM
 62
     0
440
 16777216
370
    13
100
AcDbLine
 10
7484.04276304604
 20
9133.899784166922
 30
0.0
 11
7996.54276304604
 21
9133.899784166922
 31
0.0
  0
LINE
  5
480C2
330
45745
100
AcDbEntity
  8
D-BGD-DIM
 62
     0
440
 16777216
370
    13
100
AcDbLine
 10
7484.04276304604
 20
9123.899784166923
 30
0.0
 11
7996.54276304604
 21
9123.899784166923
 31
0.0
  0
LINE
  5
480C3
330
45745
100
AcDbEntity
  8
D-BGD-DIM
 62
     0
440
 16777216
370
    13
100
AcDbLine
 10
7971.54276304604
 20
9173.899784166923
 30
0.0
 11
7971.54276304604
 21
9213.899784166923
 31
0.0
  0
LINE
  5
480C4
330
45745
100
AcDbEntity
  8
D-BGD-DIM
 62
     0
440
 16777216
370
    13
100
AcDbLine
 10
7971.54276304604
 20
9083.899784166922
 30
0.0
 11
7971.54276304604
 21
9043.899784166923
 31
0.0
  0
LINE
  5
480C5
330
45745
100
AcDbEntity
  8
D-BGD-DIM
 62
     0
440
 16777216
370
    13
100
AcDbLine
 10
7971.54276304604
 20
9133.899784166922
 30
0.0
 11
7971.54276304604
 21
9123.899784166923
 31
0.0
  0
INSERT
  5
480C6
330
45745
100
AcDbEntity
  8
D-BGD-DIM
 62
     0
440
 16777216
370
    13
100
AcDbBlockReference
  2
_OPEN
 10
7971.54276304604
 20
9133.899784166922
 30
0.0
 41
40.0
 42
40.0
 43
40.0
 50
270.0
  0
INSERT
  5
480C7
330
45745
100
AcDbEntity
  8
D-BGD-DIM
 62
     0
440
 16777216
370
    13
100
AcDbBlockReference
  2
_OPEN
 10
7971.54276304604
 20
9123.899784166923
 30
0.0
 41
40.0
 42
40.0
 43
40.0
 50
90.0
  0
MTEXT
  5
480C8
330
45745
100
AcDbEntity
  8
D-BGD-DIM
 62
     0
440
 16777216
100
AcDbMText
 10
7924.042763046038
 20
9128.899784166923
 30
0.0
 40
70.0
 41
0.0
 46
0.0
 71
     5
 72
     1
  1
10
 11
0.0000000000000001
 21
1.0
 31
0.0
 73
     1
 44
1.0
  0
POINT
  5
480C9
330
45745
100
AcDbEntity
  8
DEFPOINTS
 62
     0
440
 16777216
100
AcDbPoint
 10
7471.54276304604
 20
9133.899784166922
 30
0.0
  0
POINT
  5
480CA
330
45745
100
AcDbEntity
  8
DEFPOINTS
 62
     0
440
 16777216
100
AcDbPoint
 10
7471.54276304604
 20
9123.899784166923
 30
0.0
  0
POINT
  5
480CB
330
45745
100
AcDbEntity
  8
DEFPOINTS
 62
     0
440
 16777216
100
AcDbPoint
 10
7971.54276304604
 20
9123.899784166923
 30
0.0
  0
ENDBLK
  5
45752
330
45745
100
AcDbEntity
  8
0
100
AcDbBlockEnd
  0
BLOCK
  5
45793
330
45789
100
AcDbEntity
  8
0
100
AcDbBlockBegin
  2
*D12
 70
     1
 10
0.0
 20
0.0
 30
0.0
  3
*D12
  1

  0
LINE
  5
4809D
330
45789
100
AcDbEntity
  8
D-BGD-DIM
 62
     0
440
 16777216
370
    13
100
AcDbLine
 10
6249.04276304604
 20
11120.89978416692
 30
0.0
 11
5336.542763046041
 21
11120.89978416692
 31
0.0
  0
LINE
  5
4809E
330
45789
100
AcDbEntity
  8
D-BGD-DIM
 62
     0
440
 16777216
370
    13
100
AcDbLine
 10
6249.04276304604
 20
9123.899784166923
 30
0.0
 11
5336.54276304604
 21
9123.899784166923
 31
0.0
  0
LINE
  5
4809F
330
45789
100
AcDbEntity
  8
D-BGD-DIM
 62
     0
440
 16777216
370
    13
100
AcDbLine
 10
5361.542763046041
 20
11080.89978416692
 30
0.0
 11
5361.54276304604
 21
9163.899784166922
 31
0.0
  0
INSERT
  5
480A0
330
45789
100
AcDbEntity
  8
D-BGD-DIM
 62
     0
440
 16777216
370
    13
100
AcDbBlockReference
  2
_OPEN
 10
5361.542763046041
 20
11120.89978416692
 30
0.0
 41
40.0
 42
40.0
 43
40.0
 50
90.0
  0
INSERT
  5
480A1
330
45789
100
AcDbEntity
  8
D-BGD-DIM
 62
     0
440
 16777216
370
    13
100
AcDbBlockReference
  2
_OPEN
 10
5361.54276304604
 20
9123.899784166923
 30
0.0
 41
40.0
 42
40.0
 43
40.0
 50
270.0
  0
MTEXT
  5
480A2
330
45789
100
AcDbEntity
  8
D-BGD-DIM
 62
     0
440
 16777216
100
AcDbMText
 10
5314.042763046039
 20
10122.39978416692
 30
0.0
 40
70.0
 41
0.0
 46
0.0
 71
     5
 72
     1
  1
1997
 11
0.0000000000000001
 21
1.0
 31
0.0
 73
     1
 44
1.0
  0
POINT
  5
480A3
330
45789
100
AcDbEntity
  8
DEFPOINTS
 62
     0
440
 16777216
100
AcDbPoint
 10
6261.54276304604
 20
11120.89978416692
 30
0.0
  0
POINT
  5
480A4
330
45789
100
AcDbEntity
  8
DEFPOINTS
 62
     0
440
 16777216
100
AcDbPoint
 10
6261.54276304604
 20
9123.899784166923
 30
0.0
  0
POINT
  5
480A5
330
45789
100
AcDbEntity
  8
DEFPOINTS
 62
     0
440
 16777216
100
AcDbPoint
 10
5361.54276304604
 20
9123.899784166923
 30
0.0
  0
ENDBLK
  5
45794
330
45789
100
AcDbEntity
  8
0
100
AcDbBlockEnd
  0
BLOCK
  5
4583F
330
45835
100
AcDbEntity
  8
0
100
AcDbBlockBegin
  2
*D13
 70
     1
 10
0.0
 20
0.0
 30
0.0
  3
*D13
  1

  0
LINE
  5
480B8
330
45835
100
AcDbEntity
  8
D-BGD-DIM
 62
     0
440
 16777216
370
    13
100
AcDbLine
 10
6261.54276304604
 20
9111.399784166923
 30
0.0
 11
6261.54276304604
 21
8598.899784166922
 31
0.0
  0
LINE
  5
480B9
330
45835
100
AcDbEntity
  8
D-BGD-DIM
 62
     0
440
 16777216
370
    13
100
AcDbLine
 10
6571.542763045858
 20
9111.399784166923
 30
0.0
 11
6571.542763045858
 21
8598.899784166922
 31
0.0
  0
LINE
  5
480BA
330
45835
100
AcDbEntity
  8
D-BGD-DIM
 62
     0
440
 16777216
370
    13
100
AcDbLine
 10
6301.54276304604
 20
8623.899784166923
 30
0.0
 11
6531.542763045859
 21
8623.899784166923
 31
0.0
  0
INSERT
  5
480BB
330
45835
100
AcDbEntity
  8
D-BGD-DIM
 62
     0
440
 16777216
370
    13
100
AcDbBlockReference
  2
_OPEN
 10
6261.54276304604
 20
8623.899784166923
 30
0.0
 41
40.0
 42
40.0
 43
40.0
 50
180.0
  0
INSERT
  5
480BC
330
45835
100
AcDbEntity
  8
D-BGD-DIM
 62
     0
440
 16777216
370
    13
100
AcDbBlockReference
  2
_OPEN
 10
6571.542763045858
 20
8623.899784166923
 30
0.0
 41
40.0
 42
40.0
 43
40.0
  0
MTEXT
  5
480BD
330
45835
100
AcDbEntity
  8
D-BGD-DIM
 62
     0
440
 16777216
100
AcDbMText
 10
6416.542763045949
 20
8671.399784166922
 30
0.0
 40
70.0
 41
0.0
 46
0.0
 71
     5
 72
     1
  1
310
 73
     1
 44
1.0
  0
POINT
  5
480BE
330
45835
100
AcDbEntity
  8
DEFPOINTS
 62
     0
440
 16777216
100
AcDbPoint
 10
6261.54276304604
 20
9123.899784166923
 30
0.0
  0
POINT
  5
480BF
330
45835
100
AcDbEntity
  8
DEFPOINTS
 62
     0
440
 16777216
100
AcDbPoint
 10
6571.542763045858
 20
9123.899784166923
 30
0.0
  0
POINT
  5
480C0
330
45835
100
AcDbEntity
  8
DEFPOINTS
 62
     0
440
 16777216
100
AcDbPoint
 10
6571.542763045858
 20
8623.899784166923
 30
0.0
  0
ENDBLK
  5
45840
330
45835
100
AcDbEntity
  8
0
100
AcDbBlockEnd
  0
BLOCK
  5
4584C
330
45842
100
AcDbEntity
  8
0
100
AcDbBlockBegin
  2
*D14
 70
     1
 10
0.0
 20
0.0
 30
0.0
  3
*D14
  1

  0
LINE
  5
480AF
330
45842
100
AcDbEntity
  8
D-BGD-DIM
 62
     0
440
 16777216
370
    13
100
AcDbLine
 10
6571.542763045858
 20
9111.399784166923
 30
0.0
 11
6571.542763045858
 21
8598.899784166922
 31
0.0
  0
LINE
  5
480B0
330
45842
100
AcDbEntity
  8
D-BGD-DIM
 62
     0
440
 16777216
370
    13
100
AcDbLine
 10
7471.54276304604
 20
9111.399784166923
 30
0.0
 11
7471.54276304604
 21
8598.899784166922
 31
0.0
  0
LINE
  5
480B1
330
45842
100
AcDbEntity
  8
D-BGD-DIM
 62
     0
440
 16777216
370
    13
100
AcDbLine
 10
6611.542763045858
 20
8623.899784166923
 30
0.0
 11
7431.54276304604
 21
8623.899784166923
 31
0.0
  0
INSERT
  5
480B2
330
45842
100
AcDbEntity
  8
D-BGD-DIM
 62
     0
440
 16777216
370
    13
100
AcDbBlockReference
  2
_OPEN
 10
6571.542763045858
 20
8623.899784166923
 30
0.0
 41
40.0
 42
40.0
 43
40.0
 50
180.0
  0
INSERT
  5
480B3
330
45842
100
AcDbEntity
  8
D-BGD-DIM
 62
     0
440
 16777216
370
    13
100
AcDbBlockReference
  2
_OPEN
 10
7471.54276304604
 20
8623.899784166923
 30
0.0
 41
40.0
 42
40.0
 43
40.0
  0
MTEXT
  5
480B4
330
45842
100
AcDbEntity
  8
D-BGD-DIM
 62
     0
440
 16777216
100
AcDbMText
 10
7021.542763045949
 20
8671.399784166922
 30
0.0
 40
70.0
 41
0.0
 46
0.0
 71
     5
 72
     1
  1
900
 73
     1
 44
1.0
  0
POINT
  5
480B5
330
45842
100
AcDbEntity
  8
DEFPOINTS
 62
     0
440
 16777216
100
AcDbPoint
 10
6571.542763045858
 20
9123.899784166923
 30
0.0
  0
POINT
  5
480B6
330
45842
100
AcDbEntity
  8
DEFPOINTS
 62
     0
440
 16777216
100
AcDbPoint
 10
7471.54276304604
 20
9123.899784166923
 30
0.0
  0
POINT
  5
480B7
330
45842
100
AcDbEntity
  8
DEFPOINTS
 62
     0
440
 16777216
100
AcDbPoint
 10
7471.54276304604
 20
8623.899784166923
 30
0.0
  0
ENDBLK
  5
4584D
330
45842
100
AcDbEntity
  8
0
100
AcDbBlockEnd
  0
BLOCK
  5
458D0
330
458C6
100
AcDbEntity
  8
0
100
AcDbBlockBegin
  2
*D15
 70
     1
 10
0.0
 20
0.0
 30
0.0
  3
*D15
  1

  0
LINE
  5
4867D
330
458C6
100
AcDbEntity
  8
D-BGD-DIM
 62
     0
440
 16777216
370
    13
100
AcDbLine
 10
8759.042763046039
 20
14220.89978416692
 30
0.0
 11
8346.54276304604
 21
14220.89978416692
 31
0.0
  0
LINE
  5
4867E
330
458C6
100
AcDbEntity
  8
D-BGD-DIM
 62
     0
440
 16777216
370
    13
100
AcDbLine
 10
8759.042763046039
 20
12620.89978416692
 30
0.0
 11
8346.54276304604
 21
12620.89978416692
 31
0.0
  0
LINE
  5
4867F
330
458C6
100
AcDbEntity
  8
D-BGD-DIM
 62
     0
440
 16777216
370
    13
100
AcDbLine
 10
8371.54276304604
 20
14180.89978416692
 30
0.0
 11
8371.54276304604
 21
12660.89978416692
 31
0.0
  0
INSERT
  5
48680
330
458C6
100
AcDbEntity
  8
D-BGD-DIM
 62
     0
440
 16777216
370
    13
100
AcDbBlockReference
  2
_OPEN
 10
8371.54276304604
 20
14220.89978416692
 30
0.0
 41
40.0
 42
40.0
 43
40.0
 50
90.0
  0
INSERT
  5
48681
330
458C6
100
AcDbEntity
  8
D-BGD-DIM
 62
     0
440
 16777216
370
    13
100
AcDbBlockReference
  2
_OPEN
 10
8371.54276304604
 20
12620.89978416692
 30
0.0
 41
40.0
 42
40.0
 43
40.0
 50
270.0
  0
MTEXT
  5
48682
330
458C6
100
AcDbEntity
  8
D-BGD-DIM
 62
     0
440
 16777216
100
AcDbMText
 10
8324.042763046035
 20
13420.89978416692
 30
0.0
 40
70.0
 41
0.0
 46
0.0
 71
     5
 72
     1
  1
1600
 11
0.0000000000000001
 21
1.0
 31
0.0
 73
     1
 44
1.0
  0
POINT
  5
48683
330
458C6
100
AcDbEntity
  8
DEFPOINTS
 62
     0
440
 16777216
100
AcDbPoint
 10
8771.54276304604
 20
14220.89978416692
 30
0.0
  0
POINT
  5
48684
330
458C6
100
AcDbEntity
  8
DEFPOINTS
 62
     0
440
 16777216
100
AcDbPoint
 10
8771.54276304604
 20
12620.89978416692
 30
0.0
  0
POINT
  5
48685
330
458C6
100
AcDbEntity
  8
DEFPOINTS
 62
     0
440
 16777216
100
AcDbPoint
 10
8371.54276304604
 20
12620.89978416692
 30
0.0
  0
ENDBLK
  5
458D1
330
458C6
100
AcDbEntity
  8
0
100
AcDbBlockEnd
  0
BLOCK
  5
458DD
330
458D3
100
AcDbEntity
  8
0
100
AcDbBlockBegin
  2
*D16
 70
     1
 10
0.0
 20
0.0
 30
0.0
  3
*D16
  1

  0
LINE
  5
4866B
330
458D3
100
AcDbEntity
  8
D-BGD-DIM
 62
     0
440
 16777216
370
    13
100
AcDbLine
 10
8771.54276304604
 20
14233.39978416692
 30
0.0
 11
8771.54276304604
 21
14845.89978416692
 31
0.0
  0
LINE
  5
4866C
330
458D3
100
AcDbEntity
  8
D-BGD-DIM
 62
     0
440
 16777216
370
    13
100
AcDbLine
 10
10768.54276304604
 20
14233.39978416692
 30
0.0
 11
10768.54276304604
 21
14845.89978416692
 31
0.0
  0
LINE
  5
4866D
330
458D3
100
AcDbEntity
  8
D-BGD-DIM
 62
     0
440
 16777216
370
    13
100
AcDbLine
 10
8811.542763046039
 20
14820.89978416692
 30
0.0
 11
10728.54276304604
 21
14820.89978416692
 31
0.0
  0
INSERT
  5
4866E
330
458D3
100
AcDbEntity
  8
D-BGD-DIM
 62
     0
440
 16777216
370
    13
100
AcDbBlockReference
  2
_OPEN
 10
8771.54276304604
 20
14820.89978416692
 30
0.0
 41
40.0
 42
40.0
 43
40.0
 50
180.0
  0
INSERT
  5
4866F
330
458D3
100
AcDbEntity
  8
D-BGD-DIM
 62
     0
440
 16777216
370
    13
100
AcDbBlockReference
  2
_OPEN
 10
10768.54276304604
 20
14820.89978416692
 30
0.0
 41
40.0
 42
40.0
 43
40.0
  0
MTEXT
  5
48670
330
458D3
100
AcDbEntity
  8
D-BGD-DIM
 62
     0
440
 16777216
100
AcDbMText
 10
9770.04276304604
 20
14868.39978416692
 30
0.0
 40
70.0
 41
0.0
 46
0.0
 71
     5
 72
     1
  1
1997
 73
     1
 44
1.0
  0
POINT
  5
48671
330
458D3
100
AcDbEntity
  8
DEFPOINTS
 62
     0
440
 16777216
100
AcDbPoint
 10
8771.54276304604
 20
14220.89978416692
 30
0.0
  0
POINT
  5
48672
330
458D3
100
AcDbEntity
  8
DEFPOINTS
 62
     0
440
 16777216
100
AcDbPoint
 10
10768.54276304604
 20
14220.89978416692
 30
0.0
  0
POINT
  5
48673
330
458D3
100
AcDbEntity
  8
DEFPOINTS
 62
     0
440
 16777216
100
AcDbPoint
 10
10768.54276304604
 20
14820.89978416692
 30
0.0
  0
ENDBLK
  5
458DE
330
458D3
100
AcDbEntity
  8
0
100
AcDbBlockEnd
  0
BLOCK
  5
45920
330
45916
100
AcDbEntity
  8
0
100
AcDbBlockBegin
  2
*D17
 70
     1
 10
0.0
 20
0.0
 30
0.0
  3
*D17
  1

  0
LINE
  5
486A5
330
45916
100
AcDbEntity
  8
D-BGD-DIM
 62
     0
440
 16777216
370
    13
100
AcDbLine
 10
9770.04276304604
 20
14433.39978416692
 30
0.0
 11
9770.04276304604
 21
14545.89978416692
 31
0.0
  0
LINE
  5
486A6
330
45916
100
AcDbEntity
  8
D-BGD-DIM
 62
     0
440
 16777216
370
    13
100
AcDbLine
 10
10520.04276304604
 20
14233.39978416692
 30
0.0
 11
10520.04276304604
 21
14545.89978416692
 31
0.0
  0
LINE
  5
486A7
330
45916
100
AcDbEntity
  8
D-BGD-DIM
 62
     0
440
 16777216
370
    13
100
AcDbLine
 10
9810.042763046041
 20
14520.89978416692
 30
0.0
 11
10480.04276304604
 21
14520.89978416692
 31
0.0
  0
INSERT
  5
486A8
330
45916
100
AcDbEntity
  8
D-BGD-DIM
 62
     0
440
 16777216
370
    13
100
AcDbBlockReference
  2
_OPEN
 10
9770.04276304604
 20
14520.89978416692
 30
0.0
 41
40.0
 42
40.0
 43
40.0
 50
180.0
  0
INSERT
  5
486A9
330
45916
100
AcDbEntity
  8
D-BGD-DIM
 62
     0
440
 16777216
370
    13
100
AcDbBlockReference
  2
_OPEN
 10
10520.04276304604
 20
14520.89978416692
 30
0.0
 41
40.0
 42
40.0
 43
40.0
  0
MTEXT
  5
486AA
330
45916
100
AcDbEntity
  8
D-BGD-DIM
 62
     0
440
 16777216
100
AcDbMText
 10
10145.04276304604
 20
14572.79978416692
 30
0.0
 40
70.0
 41
0.0
 46
0.0
 71
     5
 72
     1
  1
3@250=750
 73
     1
 44
1.0
  0
POINT
  5
486AB
330
45916
100
AcDbEntity
  8
DEFPOINTS
 62
     0
440
 16777216
100
AcDbPoint
 10
9770.04276304604
 20
14420.89978416692
 30
0.0
  0
POINT
  5
486AC
330
45916
100
AcDbEntity
  8
DEFPOINTS
 62
     0
440
 16777216
100
AcDbPoint
 10
10520.04276304604
 20
14220.89978416692
 30
0.0
  0
POINT
  5
486AD
330
45916
100
AcDbEntity
  8
DEFPOINTS
 62
     0
440
 16777216
100
AcDbPoint
 10
10520.04276304604
 20
14520.89978416692
 30
0.0
  0
ENDBLK
  5
45921
330
45916
100
AcDbEntity
  8
0
100
AcDbBlockEnd
  0
BLOCK
  5
4592D
330
45923
100
AcDbEntity
  8
0
100
AcDbBlockBegin
  2
*D18
 70
     1
 10
0.0
 20
0.0
 30
0.0
  3
*D18
  1

  0
LINE
  5
486AE
330
45923
100
AcDbEntity
  8
D-BGD-DIM
 62
     0
440
 16777216
370
    13
100
AcDbLine
 10
10520.04276304604
 20
14233.39978416692
 30
0.0
 11
10520.04276304604
 21
14545.89978416692
 31
0.0
  0
LINE
  5
486AF
330
45923
100
AcDbEntity
  8
D-BGD-DIM
 62
     0
440
 16777216
370
    13
100
AcDbLine
 10
10768.54276304604
 20
14233.39978416692
 30
0.0
 11
10768.54276304604
 21
14545.89978416692
 31
0.0
  0
LINE
  5
486B0
330
45923
100
AcDbEntity
  8
D-BGD-DIM
 62
     0
440
 16777216
370
    13
100
AcDbLine
 10
10480.04276304604
 20
14520.89978416692
 30
0.0
 11
10440.04276304604
 21
14520.89978416692
 31
0.0
  0
LINE
  5
486B1
330
45923
100
AcDbEntity
  8
D-BGD-DIM
 62
     0
440
 16777216
370
    13
100
AcDbLine
 10
10808.54276304604
 20
14520.89978416692
 30
0.0
 11
10848.54276304604
 21
14520.89978416692
 31
0.0
  0
LINE
  5
486B2
330
45923
100
AcDbEntity
  8
D-BGD-DIM
 62
     0
440
 16777216
370
    13
100
AcDbLine
 10
10520.04276304604
 20
14520.89978416692
 30
0.0
 11
10768.54276304604
 21
14520.89978416692
 31
0.0
  0
INSERT
  5
486B3
330
45923
100
AcDbEntity
  8
D-BGD-DIM
 62
     0
440
 16777216
370
    13
100
AcDbBlockReference
  2
_OPEN
 10
10520.04276304604
 20
14520.89978416692
 30
0.0
 41
40.0
 42
40.0
 43
40.0
  0
INSERT
  5
486B4
330
45923
100
AcDbEntity
  8
D-BGD-DIM
 62
     0
440
 16777216
370
    13
100
AcDbBlockReference
  2
_OPEN
 10
10768.54276304604
 20
14520.89978416692
 30
0.0
 41
40.0
 42
40.0
 43
40.0
 50
180.0
  0
MTEXT
  5
486B5
330
45923
100
AcDbEntity
  8
D-BGD-DIM
 62
     0
440
 16777216
100
AcDbMText
 10
10644.29276304604
 20
14568.39978416692
 30
0.0
 40
70.0
 41
0.0
 46
0.0
 71
     5
 72
     1
  1
248.5
 73
     1
 44
1.0
  0
POINT
  5
486B6
330
45923
100
AcDbEntity
  8
DEFPOINTS
 62
     0
440
 16777216
100
AcDbPoint
 10
10520.04276304604
 20
14220.89978416692
 30
0.0
  0
POINT
  5
486B7
330
45923
100
AcDbEntity
  8
DEFPOINTS
 62
     0
440
 16777216
100
AcDbPoint
 10
10768.54276304604
 20
14220.89978416692
 30
0.0
  0
POINT
  5
486B8
330
45923
100
AcDbEntity
  8
DEFPOINTS
 62
     0
440
 16777216
100
AcDbPoint
 10
10768.54276304604
 20
14520.89978416692
 30
0.0
  0
ENDBLK
  5
4592E
330
45923
100
AcDbEntity
  8
0
100
AcDbBlockEnd
  0
BLOCK
  5
4594E
330
45944
100
AcDbEntity
  8
0
100
AcDbBlockBegin
  2
*D19
 70
     1
 10
0.0
 20
0.0
 30
0.0
  3
*D19
  1

  0
LINE
  5
486B9
330
45944
100
AcDbEntity
  8
D-BGD-DIM
 62
     0
440
 16777216
370
    13
100
AcDbLine
 10
10781.04276304604
 20
14220.89978416692
 30
0.0
 11
11093.54276304604
 21
14220.89978416692
 31
0.0
  0
LINE
  5
486BA
330
45944
100
AcDbEntity
  8
D-BGD-DIM
 62
     0
440
 16777216
370
    13
100
AcDbLine
 10
10781.04276304604
 20
13320.89978416692
 30
0.0
 11
11093.54276304604
 21
13320.89978416692
 31
0.0
  0
LINE
  5
486BB
330
45944
100
AcDbEntity
  8
D-BGD-DIM
 62
     0
440
 16777216
370
    13
100
AcDbLine
 10
11068.54276304604
 20
14180.89978416692
 30
0.0
 11
11068.54276304604
 21
13360.89978416692
 31
0.0
  0
INSERT
  5
486BC
330
45944
100
AcDbEntity
  8
D-BGD-DIM
 62
     0
440
 16777216
370
    13
100
AcDbBlockReference
  2
_OPEN
 10
11068.54276304604
 20
14220.89978416692
 30
0.0
 41
40.0
 42
40.0
 43
40.0
 50
90.0
  0
INSERT
  5
486BD
330
45944
100
AcDbEntity
  8
D-BGD-DIM
 62
     0
440
 16777216
370
    13
100
AcDbBlockReference
  2
_OPEN
 10
11068.54276304604
 20
13320.89978416692
 30
0.0
 41
40.0
 42
40.0
 43
40.0
 50
270.0
  0
MTEXT
  5
486BE
330
45944
100
AcDbEntity
  8
D-BGD-DIM
 62
     0
440
 16777216
100
AcDbMText
 10
11021.04276304603
 20
13770.89978416692
 30
0.0
 40
70.0
 41
0.0
 46
0.0
 71
     5
 72
     1
  1
900
 11
0.0000000000000001
 21
1.0
 31
0.0
 73
     1
 44
1.0
  0
POINT
  5
486BF
330
45944
100
AcDbEntity
  8
DEFPOINTS
 62
     0
440
 16777216
100
AcDbPoint
 10
10768.54276304604
 20
14220.89978416692
 30
0.0
  0
POINT
  5
486C0
330
45944
100
AcDbEntity
  8
DEFPOINTS
 62
     0
440
 16777216
100
AcDbPoint
 10
10768.54276304604
 20
13320.89978416692
 30
0.0
  0
POINT
  5
486C1
330
45944
100
AcDbEntity
  8
DEFPOINTS
 62
     0
440
 16777216
100
AcDbPoint
 10
11068.54276304604
 20
13320.89978416692
 30
0.0
  0
ENDBLK
  5
4594F
330
45944
100
AcDbEntity
  8
0
100
AcDbBlockEnd
  0
BLOCK
  5
4595B
330
45951
100
AcDbEntity
  8
0
100
AcDbBlockBegin
  2
*D20
 70
     1
 10
0.0
 20
0.0
 30
0.0
  3
*D20
  1

  0
LINE
  5
486C2
330
45951
100
AcDbEntity
  8
D-BGD-DIM
 62
     0
440
 16777216
370
    13
100
AcDbLine
 10
10781.04276304604
 20
13320.89978416692
 30
0.0
 11
11093.54276304604
 21
13320.89978416692
 31
0.0
  0
LINE
  5
486C3
330
45951
100
AcDbEntity
  8
D-BGD-DIM
 62
     0
440
 16777216
370
    13
100
AcDbLine
 10
10781.04276304604
 20
12620.89978416692
 30
0.0
 11
11093.54276304604
 21
12620.89978416692
 31
0.0
  0
LINE
  5
486C4
330
45951
100
AcDbEntity
  8
D-BGD-DIM
 62
     0
440
 16777216
370
    13
100
AcDbLine
 10
11068.54276304604
 20
13280.89978416692
 30
0.0
 11
11068.54276304604
 21
12660.89978416692
 31
0.0
  0
INSERT
  5
486C5
330
45951
100
AcDbEntity
  8
D-BGD-DIM
 62
     0
440
 16777216
370
    13
100
AcDbBlockReference
  2
_OPEN
 10
11068.54276304604
 20
13320.89978416692
 30
0.0
 41
40.0
 42
40.0
 43
40.0
 50
90.0
  0
INSERT
  5
486C6
330
45951
100
AcDbEntity
  8
D-BGD-DIM
 62
     0
440
 16777216
370
    13
100
AcDbBlockReference
  2
_OPEN
 10
11068.54276304604
 20
12620.89978416692
 30
0.0
 41
40.0
 42
40.0
 43
40.0
 50
270.0
  0
MTEXT
  5
486C7
330
45951
100
AcDbEntity
  8
D-BGD-DIM
 62
     0
440
 16777216
100
AcDbMText
 10
11021.04276304603
 20
12970.89978416692
 30
0.0
 40
70.0
 41
0.0
 46
0.0
 71
     5
 72
     1
  1
700
 11
0.0000000000000001
 21
1.0
 31
0.0
 73
     1
 44
1.0
  0
POINT
  5
486C8
330
45951
100
AcDbEntity
  8
DEFPOINTS
 62
     0
440
 16777216
100
AcDbPoint
 10
10768.54276304604
 20
13320.89978416692
 30
0.0
  0
POINT
  5
486C9
330
45951
100
AcDbEntity
  8
DEFPOINTS
 62
     0
440
 16777216
100
AcDbPoint
 10
10768.54276304604
 20
12620.89978416692
 30
0.0
  0
POINT
  5
486CA
330
45951
100
AcDbEntity
  8
DEFPOINTS
 62
     0
440
 16777216
100
AcDbPoint
 10
11068.54276304604
 20
12620.89978416692
 30
0.0
  0
ENDBLK
  5
4595C
330
45951
100
AcDbEntity
  8
0
100
AcDbBlockEnd
  0
BLOCK
  5
45ACE
330
45AC2
100
AcDbEntity
  8
0
100
AcDbBlockBegin
  2
*D21
 70
     1
 10
0.0
 20
0.0
 30
0.0
  3
*D21
  1

  0
LINE
  5
476EC
330
45AC2
100
AcDbEntity
  8
D-STR-DIM
 62
     0
440
 16777216
370
    13
100
AcDbLine
 10
12970.55988147332
 20
14233.39978416692
 30
0.0
 11
12970.55988147332
 21
14545.89978416692
 31
0.0
  0
LINE
  5
476ED
330
45AC2
100
AcDbEntity
  8
D-STR-DIM
 62
     0
440
 16777216
370
    13
100
AcDbLine
 10
13070.55988147332
 20
14233.39978416692
 30
0.0
 11
13070.55988147332
 21
14545.89978416692
 31
0.0
  0
LINE
  5
476EE
330
45AC2
100
AcDbEntity
  8
D-STR-DIM
 62
     0
440
 16777216
370
    13
100
AcDbLine
 10
12930.55988147332
 20
14520.89978416692
 30
0.0
 11
12890.55988147332
 21
14520.89978416692
 31
0.0
  0
LINE
  5
476EF
330
45AC2
100
AcDbEntity
  8
D-STR-DIM
 62
     0
440
 16777216
370
    13
100
AcDbLine
 10
13110.55988147332
 20
14520.89978416692
 30
0.0
 11
13150.55988147332
 21
14520.89978416692
 31
0.0
  0
LINE
  5
476F0
330
45AC2
100
AcDbEntity
  8
D-STR-DIM
 62
     0
440
 16777216
370
    13
100
AcDbLine
 10
12970.55988147332
 20
14520.89978416692
 30
0.0
 11
13070.55988147332
 21
14520.89978416692
 31
0.0
  0
INSERT
  5
476F1
330
45AC2
100
AcDbEntity
  8
D-STR-DIM
 62
     0
440
 16777216
370
    13
100
AcDbBlockReference
  2
_OPEN
 10
12970.55988147332
 20
14520.89978416692
 30
0.0
 41
40.0
 42
40.0
 43
40.0
  0
INSERT
  5
476F2
330
45AC2
100
AcDbEntity
  8
D-STR-DIM
 62
     0
440
 16777216
370
    13
100
AcDbBlockReference
  2
_OPEN
 10
13070.55988147332
 20
14520.89978416692
 30
0.0
 41
40.0
 42
40.0
 43
40.0
 50
180.0
  0
MTEXT
  5
476F3
330
45AC2
100
AcDbEntity
  8
D-STR-DIM
 62
     0
440
 16777216
100
AcDbMText
 10
13020.55988147332
 20
14568.39978416692
 30
0.0
 40
70.0
 41
0.0
 46
0.0
 71
     5
 72
     1
  1
100
 73
     1
 44
1.0
  0
POINT
  5
476F4
330
45AC2
100
AcDbEntity
  8
DEFPOINTS
 62
     0
440
 16777216
100
AcDbPoint
 10
12970.55988147332
 20
14220.89978416692
 30
0.0
  0
POINT
  5
476F5
330
45AC2
100
AcDbEntity
  8
DEFPOINTS
 62
     0
440
 16777216
100
AcDbPoint
 10
13070.55988147332
 20
14220.89978416692
 30
0.0
  0
POINT
  5
476F6
330
45AC2
100
AcDbEntity
  8
DEFPOINTS
 62
     0
440
 16777216
100
AcDbPoint
 10
13070.55988147332
 20
14520.89978416692
 30
0.0
  0
ENDBLK
  5
45ACF
330
45AC2
100
AcDbEntity
  8
0
100
AcDbBlockEnd
  0
BLOCK
  5
45ADD
330
45AD1
100
AcDbEntity
  8
0
100
AcDbBlockBegin
  2
*D22
 70
     1
 10
0.0
 20
0.0
 30
0.0
  3
*D22
  1

  0
LINE
  5
47792
330
45AD1
100
AcDbEntity
  8
D-STR-DIM
 62
     0
440
 16777216
370
    13
100
AcDbLine
 10
14193.05988147332
 20
12690.89978416692
 30
0.0
 11
14505.55988147332
 21
12690.89978416692
 31
0.0
  0
LINE
  5
47793
330
45AD1
100
AcDbEntity
  8
D-STR-DIM
 62
     0
440
 16777216
370
    13
100
AcDbLine
 10
14193.05988147332
 20
12620.89978416692
 30
0.0
 11
14505.55988147332
 21
12620.89978416692
 31
0.0
  0
LINE
  5
47794
330
45AD1
100
AcDbEntity
  8
D-STR-DIM
 62
     0
440
 16777216
370
    13
100
AcDbLine
 10
14480.55988147332
 20
12730.89978416692
 30
0.0
 11
14480.55988147332
 21
12770.89978416692
 31
0.0
  0
LINE
  5
47795
330
45AD1
100
AcDbEntity
  8
D-STR-DIM
 62
     0
440
 16777216
370
    13
100
AcDbLine
 10
14480.55988147332
 20
12580.89978416692
 30
0.0
 11
14480.55988147332
 21
12540.89978416692
 31
0.0
  0
LINE
  5
47796
330
45AD1
100
AcDbEntity
  8
D-STR-DIM
 62
     0
440
 16777216
370
    13
100
AcDbLine
 10
14480.55988147332
 20
12690.89978416692
 30
0.0
 11
14480.55988147332
 21
12620.89978416692
 31
0.0
  0
INSERT
  5
47797
330
45AD1
100
AcDbEntity
  8
D-STR-DIM
 62
     0
440
 16777216
370
    13
100
AcDbBlockReference
  2
_OPEN
 10
14480.55988147332
 20
12690.89978416692
 30
0.0
 41
40.0
 42
40.0
 43
40.0
 50
270.0
  0
INSERT
  5
47798
330
45AD1
100
AcDbEntity
  8
D-STR-DIM
 62
     0
440
 16777216
370
    13
100
AcDbBlockReference
  2
_OPEN
 10
14480.55988147332
 20
12620.89978416692
 30
0.0
 41
40.0
 42
40.0
 43
40.0
 50
90.0
  0
MTEXT
  5
47799
330
45AD1
100
AcDbEntity
  8
D-STR-DIM
 62
     0
440
 16777216
100
AcDbMText
 10
14433.05988147332
 20
12655.89978416692
 30
0.0
 40
70.0
 41
0.0
 46
0.0
 71
     5
 72
     1
  1
70
 11
0.0000000000000001
 21
1.0
 31
0.0
 73
     1
 44
1.0
  0
POINT
  5
4779A
330
45AD1
100
AcDbEntity
  8
DEFPOINTS
 62
     0
440
 16777216
100
AcDbPoint
 10
14180.55988147332
 20
12690.89978416692
 30
0.0
  0
POINT
  5
4779B
330
45AD1
100
AcDbEntity
  8
DEFPOINTS
 62
     0
440
 16777216
100
AcDbPoint
 10
14180.55988147332
 20
12620.89978416692
 30
0.0
  0
POINT
  5
4779C
330
45AD1
100
AcDbEntity
  8
DEFPOINTS
 62
     0
440
 16777216
100
AcDbPoint
 10
14480.55988147332
 20
12620.89978416692
 30
0.0
  0
ENDBLK
  5
45ADE
330
45AD1
100
AcDbEntity
  8
0
100
AcDbBlockEnd
  0
BLOCK
  5
45AEA
330
45AE0
100
AcDbEntity
  8
0
100
AcDbBlockBegin
  2
*D23
 70
     1
 10
0.0
 20
0.0
 30
0.0
  3
*D23
  1

  0
LINE
  5
4773F
330
45AE0
100
AcDbEntity
  8
D-STR-DIM1
 62
     0
440
 16777216
370
    13
100
AcDbLine
 10
12958.05988147332
 20
14220.89978416692
 30
0.0
 11
12645.55988147332
 21
14220.89978416692
 31
0.0
  0
LINE
  5
47740
330
45AE0
100
AcDbEntity
  8
D-STR-DIM1
 62
     0
440
 16777216
370
    13
100
AcDbLine
 10
12958.05988147332
 20
14020.87417246688
 30
0.0
 11
12645.55988147332
 21
14020.87417246688
 31
0.0
  0
LINE
  5
47741
330
45AE0
100
AcDbEntity
  8
D-STR-DIM1
 62
     0
440
 16777216
370
    13
100
AcDbLine
 10
12670.55988147332
 20
14180.89978416692
 30
0.0
 11
12670.55988147332
 21
14060.87417246688
 31
0.0
  0
INSERT
  5
47742
330
45AE0
100
AcDbEntity
  8
D-STR-DIM1
 62
     0
440
 16777216
370
    13
100
AcDbBlockReference
  2
_OPEN
 10
12670.55988147332
 20
14220.89978416692
 30
0.0
 41
40.0
 42
40.0
 43
40.0
 50
90.0
  0
INSERT
  5
47743
330
45AE0
100
AcDbEntity
  8
D-STR-DIM1
 62
     0
440
 16777216
370
    13
100
AcDbBlockReference
  2
_OPEN
 10
12670.55988147332
 20
14020.87417246688
 30
0.0
 41
40.0
 42
40.0
 43
40.0
 50
270.0
  0
MTEXT
  5
47744
330
45AE0
100
AcDbEntity
  8
D-STR-DIM1
 62
     0
440
 16777216
100
AcDbMText
 10
12623.05988147332
 20
14120.8869783169
 30
0.0
 40
70.0
 41
0.0
 46
0.0
 71
     5
 72
     1
  1
200
 11
0.0000000000000001
 21
1.0
 31
0.0
 73
     1
 44
1.0
  0
POINT
  5
47745
330
45AE0
100
AcDbEntity
  8
DEFPOINTS
 62
     0
440
 16777216
100
AcDbPoint
 10
12970.55988147332
 20
14220.89978416692
 30
0.0
  0
POINT
  5
47746
330
45AE0
100
AcDbEntity
  8
DEFPOINTS
 62
     0
440
 16777216
100
AcDbPoint
 10
12970.55988147332
 20
14020.87417246688
 30
0.0
  0
POINT
  5
47747
330
45AE0
100
AcDbEntity
  8
DEFPOINTS
 62
     0
440
 16777216
100
AcDbPoint
 10
12670.55988147332
 20
14020.87417246688
 30
0.0
  0
ENDBLK
  5
45AEB
330
45AE0
100
AcDbEntity
  8
0
100
AcDbBlockEnd
  0
BLOCK
  5
45AF7
330
45AED
100
AcDbEntity
  8
0
100
AcDbBlockBegin
  2
*D24
 70
     1
 10
0.0
 20
0.0
 30
0.0
  3
*D24
  1

  0
LINE
  5
47736
330
45AED
100
AcDbEntity
  8
D-STR-DIM1
 62
     0
440
 16777216
370
    13
100
AcDbLine
 10
12958.05988147332
 20
14020.87417246688
 30
0.0
 11
12645.55988147332
 21
14020.87417246688
 31
0.0
  0
LINE
  5
47737
330
45AED
100
AcDbEntity
  8
D-STR-DIM1
 62
     0
440
 16777216
370
    13
100
AcDbLine
 10
12958.05988147332
 20
13040.89978416692
 30
0.0
 11
12645.55988147332
 21
13040.89978416692
 31
0.0
  0
LINE
  5
47738
330
45AED
100
AcDbEntity
  8
D-STR-DIM1
 62
     0
440
 16777216
370
    13
100
AcDbLine
 10
12670.55988147332
 20
13980.87417246688
 30
0.0
 11
12670.55988147332
 21
13080.89978416692
 31
0.0
  0
INSERT
  5
47739
330
45AED
100
AcDbEntity
  8
D-STR-DIM1
 62
     0
440
 16777216
370
    13
100
AcDbBlockReference
  2
_OPEN
 10
12670.55988147332
 20
14020.87417246688
 30
0.0
 41
40.0
 42
40.0
 43
40.0
 50
90.0
  0
INSERT
  5
4773A
330
45AED
100
AcDbEntity
  8
D-STR-DIM1
 62
     0
440
 16777216
370
    13
100
AcDbBlockReference
  2
_OPEN
 10
12670.55988147332
 20
13040.89978416692
 30
0.0
 41
40.0
 42
40.0
 43
40.0
 50
270.0
  0
MTEXT
  5
4773B
330
45AED
100
AcDbEntity
  8
D-STR-DIM1
 62
     0
440
 16777216
100
AcDbMText
 10
12623.05988147332
 20
13530.8869783169
 30
0.0
 40
70.0
 41
0.0
 46
0.0
 71
     5
 72
     1
  1
980
 11
0.0000000000000001
 21
1.0
 31
0.0
 73
     1
 44
1.0
  0
POINT
  5
4773C
330
45AED
100
AcDbEntity
  8
DEFPOINTS
 62
     0
440
 16777216
100
AcDbPoint
 10
12970.55988147332
 20
14020.87417246688
 30
0.0
  0
POINT
  5
4773D
330
45AED
100
AcDbEntity
  8
DEFPOINTS
 62
     0
440
 16777216
100
AcDbPoint
 10
12970.55988147332
 20
13040.89978416692
 30
0.0
  0
POINT
  5
4773E
330
45AED
100
AcDbEntity
  8
DEFPOINTS
 62
     0
440
 16777216
100
AcDbPoint
 10
12670.55988147332
 20
13040.89978416692
 30
0.0
  0
ENDBLK
  5
45AF8
330
45AED
100
AcDbEntity
  8
0
100
AcDbBlockEnd
  0
BLOCK
  5
45B04
330
45AFA
100
AcDbEntity
  8
0
100
AcDbBlockBegin
  2
*D25
 70
     1
 10
0.0
 20
0.0
 30
0.0
  3
*D25
  1

  0
LINE
  5
47748
330
45AFA
100
AcDbEntity
  8
D-STR-DIM1
 62
     0
440
 16777216
370
    13
100
AcDbLine
 10
12958.05988147332
 20
13040.89978416692
 30
0.0
 11
12645.55988147332
 21
13040.89978416692
 31
0.0
  0
LINE
  5
47749
330
45AFA
100
AcDbEntity
  8
D-STR-DIM1
 62
     0
440
 16777216
370
    13
100
AcDbLine
 10
12958.05988147332
 20
12620.89978416692
 30
0.0
 11
12645.55988147332
 21
12620.89978416692
 31
0.0
  0
LINE
  5
4774A
330
45AFA
100
AcDbEntity
  8
D-STR-DIM1
 62
     0
440
 16777216
370
    13
100
AcDbLine
 10
12670.55988147332
 20
13000.89978416692
 30
0.0
 11
12670.55988147332
 21
12660.89978416692
 31
0.0
  0
INSERT
  5
4774B
330
45AFA
100
AcDbEntity
  8
D-STR-DIM1
 62
     0
440
 16777216
370
    13
100
AcDbBlockReference
  2
_OPEN
 10
12670.55988147332
 20
13040.89978416692
 30
0.0
 41
40.0
 42
40.0
 43
40.0
 50
90.0
  0
INSERT
  5
4774C
330
45AFA
100
AcDbEntity
  8
D-STR-DIM1
 62
     0
440
 16777216
370
    13
100
AcDbBlockReference
  2
_OPEN
 10
12670.55988147332
 20
12620.89978416692
 30
0.0
 41
40.0
 42
40.0
 43
40.0
 50
270.0
  0
MTEXT
  5
4774D
330
45AFA
100
AcDbEntity
  8
D-STR-DIM1
 62
     0
440
 16777216
100
AcDbMText
 10
12623.05988147332
 20
12830.89978416692
 30
0.0
 40
70.0
 41
0.0
 46
0.0
 71
     5
 72
     1
  1
420
 11
0.0000000000000001
 21
1.0
 31
0.0
 73
     1
 44
1.0
  0
POINT
  5
4774E
330
45AFA
100
AcDbEntity
  8
DEFPOINTS
 62
     0
440
 16777216
100
AcDbPoint
 10
12970.55988147332
 20
13040.89978416692
 30
0.0
  0
POINT
  5
4774F
330
45AFA
100
AcDbEntity
  8
DEFPOINTS
 62
     0
440
 16777216
100
AcDbPoint
 10
12970.55988147332
 20
12620.89978416692
 30
0.0
  0
POINT
  5
47750
330
45AFA
100
AcDbEntity
  8
DEFPOINTS
 62
     0
440
 16777216
100
AcDbPoint
 10
12670.55988147332
 20
12620.89978416692
 30
0.0
  0
ENDBLK
  5
45B05
330
45AFA
100
AcDbEntity
  8
0
100
AcDbBlockEnd
  0
BLOCK
  5
45B35
330
45B2B
100
AcDbEntity
  8
0
100
AcDbBlockBegin
  2
*D26
 70
     1
 10
0.0
 20
0.0
 30
0.0
  3
*D26
  1

  0
LINE
  5
47700
330
45B2B
100
AcDbEntity
  8
D-STR-DIM
 62
     0
440
 16777216
370
    13
100
AcDbLine
 10
12958.05988147332
 20
14220.89978416692
 30
0.0
 11
12345.55988147332
 21
14220.89978416692
 31
0.0
  0
LINE
  5
47701
330
45B2B
100
AcDbEntity
  8
D-STR-DIM
 62
     0
440
 16777216
370
    13
100
AcDbLine
 10
12958.05988147332
 20
12620.89978416692
 30
0.0
 11
12345.55988147332
 21
12620.89978416692
 31
0.0
  0
LINE
  5
47702
330
45B2B
100
AcDbEntity
  8
D-STR-DIM
 62
     0
440
 16777216
370
    13
100
AcDbLine
 10
12370.55988147332
 20
14180.89978416692
 30
0.0
 11
12370.55988147332
 21
12660.89978416692
 31
0.0
  0
INSERT
  5
47703
330
45B2B
100
AcDbEntity
  8
D-STR-DIM
 62
     0
440
 16777216
370
    13
100
AcDbBlockReference
  2
_OPEN
 10
12370.55988147332
 20
14220.89978416692
 30
0.0
 41
40.0
 42
40.0
 43
40.0
 50
90.0
  0
INSERT
  5
47704
330
45B2B
100
AcDbEntity
  8
D-STR-DIM
 62
     0
440
 16777216
370
    13
100
AcDbBlockReference
  2
_OPEN
 10
12370.55988147332
 20
12620.89978416692
 30
0.0
 41
40.0
 42
40.0
 43
40.0
 50
270.0
  0
MTEXT
  5
47705
330
45B2B
100
AcDbEntity
  8
D-STR-DIM
 62
     0
440
 16777216
100
AcDbMText
 10
12323.05988147332
 20
13420.89978416692
 30
0.0
 40
70.0
 41
0.0
 46
0.0
 71
     5
 72
     1
  1
1600
 11
0.0000000000000001
 21
1.0
 31
0.0
 73
     1
 44
1.0
  0
POINT
  5
47706
330
45B2B
100
AcDbEntity
  8
DEFPOINTS
 62
     0
440
 16777216
100
AcDbPoint
 10
12970.55988147332
 20
14220.89978416692
 30
0.0
  0
POINT
  5
47707
330
45B2B
100
AcDbEntity
  8
DEFPOINTS
 62
     0
440
 16777216
100
AcDbPoint
 10
12970.55988147332
 20
12620.89978416692
 30
0.0
  0
POINT
  5
47708
330
45B2B
100
AcDbEntity
  8
DEFPOINTS
 62
     0
440
 16777216
100
AcDbPoint
 10
12370.55988147332
 20
12620.89978416692
 30
0.0
  0
ENDBLK
  5
45B36
330
45B2B
100
AcDbEntity
  8
0
100
AcDbBlockEnd
  0
BLOCK
  5
45B44
330
45B3A
100
AcDbEntity
  8
0
100
AcDbBlockBegin
  2
*D27
 70
     1
 10
0.0
 20
0.0
 30
0.0
  3
*D27
  1

  0
LINE
  5
4777E
330
45B3A
100
AcDbEntity
  8
D-STR-DIM
 62
     0
440
 16777216
370
    13
100
AcDbLine
 10
12970.55988147332
 20
12608.39978416692
 30
0.0
 11
12970.55988147332
 21
12295.89978416692
 31
0.0
  0
LINE
  5
4777F
330
45B3A
100
AcDbEntity
  8
D-STR-DIM
 62
     0
440
 16777216
370
    13
100
AcDbLine
 10
13280.55988147332
 20
12608.39978416692
 30
0.0
 11
13280.55988147332
 21
12295.89978416692
 31
0.0
  0
LINE
  5
47780
330
45B3A
100
AcDbEntity
  8
D-STR-DIM
 62
     0
440
 16777216
370
    13
100
AcDbLine
 10
13010.55988147332
 20
12320.89978416692
 30
0.0
 11
13240.55988147332
 21
12320.89978416692
 31
0.0
  0
INSERT
  5
47781
330
45B3A
100
AcDbEntity
  8
D-STR-DIM
 62
     0
440
 16777216
370
    13
100
AcDbBlockReference
  2
_OPEN
 10
12970.55988147332
 20
12320.89978416692
 30
0.0
 41
40.0
 42
40.0
 43
40.0
 50
180.0
  0
INSERT
  5
47782
330
45B3A
100
AcDbEntity
  8
D-STR-DIM
 62
     0
440
 16777216
370
    13
100
AcDbBlockReference
  2
_OPEN
 10
13280.55988147332
 20
12320.89978416692
 30
0.0
 41
40.0
 42
40.0
 43
40.0
  0
MTEXT
  5
47783
330
45B3A
100
AcDbEntity
  8
D-STR-DIM
 62
     0
440
 16777216
100
AcDbMText
 10
13125.55988147332
 20
12368.39978416692
 30
0.0
 40
70.0
 41
0.0
 46
0.0
 71
     5
 72
     1
  1
310
 73
     1
 44
1.0
  0
POINT
  5
47784
330
45B3A
100
AcDbEntity
  8
DEFPOINTS
 62
     0
440
 16777216
100
AcDbPoint
 10
12970.55988147332
 20
12620.89978416692
 30
0.0
  0
POINT
  5
47785
330
45B3A
100
AcDbEntity
  8
DEFPOINTS
 62
     0
440
 16777216
100
AcDbPoint
 10
13280.55988147332
 20
12620.89978416692
 30
0.0
  0
POINT
  5
47786
330
45B3A
100
AcDbEntity
  8
DEFPOINTS
 62
     0
440
 16777216
100
AcDbPoint
 10
13280.55988147332
 20
12320.89978416692
 30
0.0
  0
ENDBLK
  5
45B45
330
45B3A
100
AcDbEntity
  8
0
100
AcDbBlockEnd
  0
BLOCK
  5
45B51
330
45B47
100
AcDbEntity
  8
0
100
AcDbBlockBegin
  2
*D28
 70
     1
 10
0.0
 20
0.0
 30
0.0
  3
*D28
  1

  0
LINE
  5
47775
330
45B47
100
AcDbEntity
  8
D-STR-DIM
 62
     0
440
 16777216
370
    13
100
AcDbLine
 10
13280.55988147332
 20
12608.39978416692
 30
0.0
 11
13280.55988147332
 21
12295.89978416692
 31
0.0
  0
LINE
  5
47776
330
45B47
100
AcDbEntity
  8
D-STR-DIM
 62
     0
440
 16777216
370
    13
100
AcDbLine
 10
14180.55988147332
 20
12608.39978416692
 30
0.0
 11
14180.55988147332
 21
12295.89978416692
 31
0.0
  0
LINE
  5
47777
330
45B47
100
AcDbEntity
  8
D-STR-DIM
 62
     0
440
 16777216
370
    13
100
AcDbLine
 10
13320.55988147332
 20
12320.89978416692
 30
0.0
 11
14140.55988147332
 21
12320.89978416692
 31
0.0
  0
INSERT
  5
47778
330
45B47
100
AcDbEntity
  8
D-STR-DIM
 62
     0
440
 16777216
370
    13
100
AcDbBlockReference
  2
_OPEN
 10
13280.55988147332
 20
12320.89978416692
 30
0.0
 41
40.0
 42
40.0
 43
40.0
 50
180.0
  0
INSERT
  5
47779
330
45B47
100
AcDbEntity
  8
D-STR-DIM
 62
     0
440
 16777216
370
    13
100
AcDbBlockReference
  2
_OPEN
 10
14180.55988147332
 20
12320.89978416692
 30
0.0
 41
40.0
 42
40.0
 43
40.0
  0
MTEXT
  5
4777A
330
45B47
100
AcDbEntity
  8
D-STR-DIM
 62
     0
440
 16777216
100
AcDbMText
 10
13730.55988147332
 20
12368.39978416692
 30
0.0
 40
70.0
 41
0.0
 46
0.0
 71
     5
 72
     1
  1
900
 73
     1
 44
1.0
  0
POINT
  5
4777B
330
45B47
100
AcDbEntity
  8
DEFPOINTS
 62
     0
440
 16777216
100
AcDbPoint
 10
13280.55988147332
 20
12620.89978416692
 30
0.0
  0
POINT
  5
4777C
330
45B47
100
AcDbEntity
  8
DEFPOINTS
 62
     0
440
 16777216
100
AcDbPoint
 10
14180.55988147332
 20
12620.89978416692
 30
0.0
  0
POINT
  5
4777D
330
45B47
100
AcDbEntity
  8
DEFPOINTS
 62
     0
440
 16777216
100
AcDbPoint
 10
14180.55988147332
 20
12320.89978416692
 30
0.0
  0
ENDBLK
  5
45B52
330
45B47
100
AcDbEntity
  8
0
100
AcDbBlockEnd
  0
BLOCK
  5
45B5E
330
45B54
100
AcDbEntity
  8
0
100
AcDbBlockBegin
  2
*D29
 70
     1
 10
0.0
 20
0.0
 30
0.0
  3
*D29
  1

  0
LINE
  5
4775A
330
45B54
100
AcDbEntity
  8
D-STR-DIM
 62
     0
440
 16777216
370
    13
100
AcDbLine
 10
12970.55988147332
 20
12608.39978416692
 30
0.0
 11
12970.55988147332
 21
11995.89978416692
 31
0.0
  0
LINE
  5
4775B
330
45B54
100
AcDbEntity
  8
D-STR-DIM
 62
     0
440
 16777216
370
    13
100
AcDbLine
 10
14180.55988147332
 20
12608.39978416692
 30
0.0
 11
14180.55988147332
 21
11995.89978416692
 31
0.0
  0
LINE
  5
4775C
330
45B54
100
AcDbEntity
  8
D-STR-DIM
 62
     0
440
 16777216
370
    13
100
AcDbLine
 10
13010.55988147332
 20
12020.89978416692
 30
0.0
 11
14140.55988147332
 21
12020.89978416692
 31
0.0
  0
INSERT
  5
4775D
330
45B54
100
AcDbEntity
  8
D-STR-DIM
 62
     0
440
 16777216
370
    13
100
AcDbBlockReference
  2
_OPEN
 10
12970.55988147332
 20
12020.89978416692
 30
0.0
 41
40.0
 42
40.0
 43
40.0
 50
180.0
  0
INSERT
  5
4775E
330
45B54
100
AcDbEntity
  8
D-STR-DIM
 62
     0
440
 16777216
370
    13
100
AcDbBlockReference
  2
_OPEN
 10
14180.55988147332
 20
12020.89978416692
 30
0.0
 41
40.0
 42
40.0
 43
40.0
  0
MTEXT
  5
4775F
330
45B54
100
AcDbEntity
  8
D-STR-DIM
 62
     0
440
 16777216
100
AcDbMText
 10
13575.55988147332
 20
12068.39978416692
 30
0.0
 40
70.0
 41
0.0
 46
0.0
 71
     5
 72
     1
  1
1210
 73
     1
 44
1.0
  0
POINT
  5
47760
330
45B54
100
AcDbEntity
  8
DEFPOINTS
 62
     0
440
 16777216
100
AcDbPoint
 10
12970.55988147332
 20
12620.89978416692
 30
0.0
  0
POINT
  5
47761
330
45B54
100
AcDbEntity
  8
DEFPOINTS
 62
     0
440
 16777216
100
AcDbPoint
 10
14180.55988147332
 20
12620.89978416692
 30
0.0
  0
POINT
  5
47762
330
45B54
100
AcDbEntity
  8
DEFPOINTS
 62
     0
440
 16777216
100
AcDbPoint
 10
14180.55988147332
 20
12020.89978416692
 30
0.0
  0
ENDBLK
  5
45B5F
330
45B54
100
AcDbEntity
  8
0
100
AcDbBlockEnd
  0
BLOCK
  5
477ED
330
477E3
100
AcDbEntity
  8
0
100
AcDbBlockBegin
  2
*D30
 70
     1
 10
0.0
 20
0.0
 30
0.0
  3
*D30
  1

  0
LINE
  5
4850B
330
477E3
100
AcDbEntity
  8
D-STR-DIM1
 62
     0
440
 16777216
370
    13
100
AcDbLine
 10
15255.55663147332
 20
13978.39853416692
 30
0.0
 11
15255.55663147332
 21
13765.89853416692
 31
0.0
  0
LINE
  5
4850C
330
477E3
100
AcDbEntity
  8
D-STR-DIM1
 62
     0
440
 16777216
370
    13
100
AcDbLine
 10
15405.55663147332
 20
13978.39853416692
 30
0.0
 11
15405.55663147332
 21
13765.89853416692
 31
0.0
  0
LINE
  5
4850D
330
477E3
100
AcDbEntity
  8
D-STR-DIM1
 62
     0
440
 16777216
370
    13
100
AcDbLine
 10
15215.55663147332
 20
13790.89853416692
 30
0.0
 11
15175.55663147332
 21
13790.89853416692
 31
0.0
  0
LINE
  5
4850E
330
477E3
100
AcDbEntity
  8
D-STR-DIM1
 62
     0
440
 16777216
370
    13
100
AcDbLine
 10
15445.55663147332
 20
13790.89853416692
 30
0.0
 11
15485.55663147332
 21
13790.89853416692
 31
0.0
  0
LINE
  5
4850F
330
477E3
100
AcDbEntity
  8
D-STR-DIM1
 62
     0
440
 16777216
370
    13
100
AcDbLine
 10
15255.55663147332
 20
13790.89853416692
 30
0.0
 11
15405.55663147332
 21
13790.89853416692
 31
0.0
  0
INSERT
  5
48510
330
477E3
100
AcDbEntity
  8
D-STR-DIM1
 62
     0
440
 16777216
370
    13
100
AcDbBlockReference
  2
_OPEN
 10
15255.55663147332
 20
13790.89853416692
 30
0.0
 41
40.0
 42
40.0
 43
40.0
  0
INSERT
  5
48511
330
477E3
100
AcDbEntity
  8
D-STR-DIM1
 62
     0
440
 16777216
370
    13
100
AcDbBlockReference
  2
_OPEN
 10
15405.55663147332
 20
13790.89853416692
 30
0.0
 41
40.0
 42
40.0
 43
40.0
 50
180.0
  0
MTEXT
  5
48512
330
477E3
100
AcDbEntity
  8
D-STR-DIM1
 62
     0
440
 16777216
100
AcDbMText
 10
15330.55663147332
 20
13838.39853416692
 30
0.0
 40
70.0
 41
0.0
 46
0.0
 71
     5
 72
     1
  1
150
 73
     1
 44
1.0
  0
POINT
  5
48513
330
477E3
100
AcDbEntity
  8
DEFPOINTS
 62
     0
440
 16777216
100
AcDbPoint
 10
15255.55663147332
 20
13990.89853416692
 30
0.0
  0
POINT
  5
48514
330
477E3
100
AcDbEntity
  8
DEFPOINTS
 62
     0
440
 16777216
100
AcDbPoint
 10
15405.55663147332
 20
13990.89853416692
 30
0.0
  0
POINT
  5
48515
330
477E3
100
AcDbEntity
  8
DEFPOINTS
 62
     0
440
 16777216
100
AcDbPoint
 10
15405.55663147332
 20
13790.89853416692
 30
0.0
  0
ENDBLK
  5
477EE
330
477E3
100
AcDbEntity
  8
0
100
AcDbBlockEnd
  0
BLOCK
  5
47829
330
4781F
100
AcDbEntity
  8
0
100
AcDbBlockBegin
  2
*D31
 70
     1
 10
0.0
 20
0.0
 30
0.0
  3
*D31
  1

  0
LINE
  5
484F9
330
4781F
100
AcDbEntity
  8
D-STR-DIM
 62
     0
440
 16777216
370
    13
100
AcDbLine
 10
15330.55988147332
 20
14233.39978416692
 30
0.0
 11
15330.55988147332
 21
14545.89978416692
 31
0.0
  0
LINE
  5
484FA
330
4781F
100
AcDbEntity
  8
D-STR-DIM
 62
     0
440
 16777216
370
    13
100
AcDbLine
 10
17330.55988147332
 20
14233.39978416692
 30
0.0
 11
17330.55988147332
 21
14545.89978416692
 31
0.0
  0
LINE
  5
484FB
330
4781F
100
AcDbEntity
  8
D-STR-DIM
 62
     0
440
 16777216
370
    13
100
AcDbLine
 10
15370.55988147332
 20
14520.89978416692
 30
0.0
 11
17290.55988147332
 21
14520.89978416692
 31
0.0
  0
INSERT
  5
484FC
330
4781F
100
AcDbEntity
  8
D-STR-DIM
 62
     0
440
 16777216
370
    13
100
AcDbBlockReference
  2
_OPEN
 10
15330.55988147332
 20
14520.89978416692
 30
0.0
 41
40.0
 42
40.0
 43
40.0
 50
180.0
  0
INSERT
  5
484FD
330
4781F
100
AcDbEntity
  8
D-STR-DIM
 62
     0
440
 16777216
370
    13
100
AcDbBlockReference
  2
_OPEN
 10
17330.55988147332
 20
14520.89978416692
 30
0.0
 41
40.0
 42
40.0
 43
40.0
  0
MTEXT
  5
484FE
330
4781F
100
AcDbEntity
  8
D-STR-DIM
 62
     0
440
 16777216
100
AcDbMText
 10
16330.55988147332
 20
14568.39978416692
 30
0.0
 40
70.0
 41
0.0
 46
0.0
 71
     5
 72
     1
  1
2000
 73
     1
 44
1.0
  0
POINT
  5
484FF
330
4781F
100
AcDbEntity
  8
DEFPOINTS
 62
     0
440
 16777216
100
AcDbPoint
 10
15330.55988147332
 20
14220.89978416692
 30
0.0
  0
POINT
  5
48500
330
4781F
100
AcDbEntity
  8
DEFPOINTS
 62
     0
440
 16777216
100
AcDbPoint
 10
17330.55988147332
 20
14220.89978416692
 30
0.0
  0
POINT
  5
48501
330
4781F
100
AcDbEntity
  8
DEFPOINTS
 62
     0
440
 16777216
100
AcDbPoint
 10
17330.55988147332
 20
14520.89978416692
 30
0.0
  0
ENDBLK
  5
4782A
330
4781F
100
AcDbEntity
  8
0
100
AcDbBlockEnd
  0
BLOCK
  5
47836
330
4782C
100
AcDbEntity
  8
0
100
AcDbBlockBegin
  2
*D32
 70
     1
 10
0.0
 20
0.0
 30
0.0
  3
*D32
  1

  0
LINE
  5
48502
330
4782C
100
AcDbEntity
  8
D-STR-DIM
 62
     0
440
 16777216
370
    13
100
AcDbLine
 10
15068.05988147332
 20
14220.89903416692
 30
0.0
 11
14755.55988147332
 21
14220.89903416692
 31
0.0
  0
LINE
  5
48503
330
4782C
100
AcDbEntity
  8
D-STR-DIM
 62
     0
440
 16777216
370
    13
100
AcDbLine
 10
15068.05988147332
 20
13770.89903416692
 30
0.0
 11
14755.55988147332
 21
13770.89903416692
 31
0.0
  0
LINE
  5
48504
330
4782C
100
AcDbEntity
  8
D-STR-DIM
 62
     0
440
 16777216
370
    13
100
AcDbLine
 10
14780.55988147332
 20
14180.89903416692
 30
0.0
 11
14780.55988147332
 21
13810.89903416692
 31
0.0
  0
INSERT
  5
48505
330
4782C
100
AcDbEntity
  8
D-STR-DIM
 62
     0
440
 16777216
370
    13
100
AcDbBlockReference
  2
_OPEN
 10
14780.55988147332
 20
14220.89903416692
 30
0.0
 41
40.0
 42
40.0
 43
40.0
 50
90.0
  0
INSERT
  5
48506
330
4782C
100
AcDbEntity
  8
D-STR-DIM
 62
     0
440
 16777216
370
    13
100
AcDbBlockReference
  2
_OPEN
 10
14780.55988147332
 20
13770.89903416692
 30
0.0
 41
40.0
 42
40.0
 43
40.0
 50
270.0
  0
MTEXT
  5
48507
330
4782C
100
AcDbEntity
  8
D-STR-DIM
 62
     0
440
 16777216
100
AcDbMText
 10
14733.05988147332
 20
13995.89903416692
 30
0.0
 40
70.0
 41
0.0
 46
0.0
 71
     5
 72
     1
  1
450
 11
0.0000000000000001
 21
1.0
 31
0.0
 73
     1
 44
1.0
  0
POINT
  5
48508
330
4782C
100
AcDbEntity
  8
DEFPOINTS
 62
     0
440
 16777216
100
AcDbPoint
 10
15080.55988147332
 20
14220.89903416692
 30
0.0
  0
POINT
  5
48509
330
4782C
100
AcDbEntity
  8
DEFPOINTS
 62
     0
440
 16777216
100
AcDbPoint
 10
15080.55988147332
 20
13770.89903416692
 30
0.0
  0
POINT
  5
4850A
330
4782C
100
AcDbEntity
  8
DEFPOINTS
 62
     0
440
 16777216
100
AcDbPoint
 10
14780.55988147332
 20
13770.89903416692
 30
0.0
  0
ENDBLK
  5
47837
330
4782C
100
AcDbEntity
  8
0
100
AcDbBlockEnd
  0
BLOCK
  5
4874C
330
48742
100
AcDbEntity
  8
0
100
AcDbBlockBegin
  2
*D33
 70
     1
 10
0.0
 20
0.0
 30
0.0
  3
*D33
  1

  0
LINE
  5
4875C
330
48742
100
AcDbEntity
  8
D-BGD-DIM
 62
     0
440
 16777216
370
    13
100
AcDbLine
 10
9770.042763046042
 20
14433.39978416692
 30
0.0
 11
9770.042763046042
 21
14545.89978416692
 31
0.0
  0
LINE
  5
4875D
330
48742
100
AcDbEntity
  8
D-BGD-DIM
 62
     0
440
 16777216
370
    13
100
AcDbLine
 10
9020.042763046042
 20
14233.39978416692
 30
0.0
 11
9020.042763046042
 21
14545.89978416692
 31
0.0
  0
LINE
  5
4875E
330
48742
100
AcDbEntity
  8
D-BGD-DIM
 62
     0
440
 16777216
370
    13
100
AcDbLine
 10
9730.042763046043
 20
14520.89978416692
 30
0.0
 11
9060.042763046041
 21
14520.89978416692
 31
0.0
  0
INSERT
  5
4875F
330
48742
100
AcDbEntity
  8
D-BGD-DIM
 62
     0
440
 16777216
370
    13
100
AcDbBlockReference
  2
_OPEN
 10
9770.042763046042
 20
14520.89978416692
 30
0.0
 41
40.0
 42
40.0
 43
40.0
  0
INSERT
  5
48760
330
48742
100
AcDbEntity
  8
D-BGD-DIM
 62
     0
440
 16777216
370
    13
100
AcDbBlockReference
  2
_OPEN
 10
9020.042763046042
 20
14520.89978416692
 30
0.0
 41
40.0
 42
40.0
 43
40.0
 50
180.0
  0
MTEXT
  5
48761
330
48742
100
AcDbEntity
  8
D-BGD-DIM
 62
     0
440
 16777216
100
AcDbMText
 10
9395.042763046042
 20
14572.79978416692
 30
0.0
 40
70.0
 41
0.0
 46
0.0
 71
     5
 72
     1
  1
3@250=750
 73
     1
 44
1.0
  0
POINT
  5
48762
330
48742
100
AcDbEntity
  8
DEFPOINTS
 62
     0
440
 16777216
100
AcDbPoint
 10
9770.042763046042
 20
14420.89978416692
 30
0.0
  0
POINT
  5
48763
330
48742
100
AcDbEntity
  8
DEFPOINTS
 62
     0
440
 16777216
100
AcDbPoint
 10
9020.042763046042
 20
14220.89978416692
 30
0.0
  0
POINT
  5
48764
330
48742
100
AcDbEntity
  8
DEFPOINTS
 62
     0
440
 16777216
100
AcDbPoint
 10
9020.042763046042
 20
14520.89978416692
 30
0.0
  0
ENDBLK
  5
4874D
330
48742
100
AcDbEntity
  8
0
100
AcDbBlockEnd
  0
BLOCK
  5
4875A
330
4874E
100
AcDbEntity
  8
0
100
AcDbBlockBegin
  2
*D34
 70
     1
 10
0.0
 20
0.0
 30
0.0
  3
*D34
  1

  0
LINE
  5
48765
330
4874E
100
AcDbEntity
  8
D-BGD-DIM
 62
     0
440
 16777216
370
    13
100
AcDbLine
 10
9020.042763046042
 20
14233.39978416692
 30
0.0
 11
9020.042763046042
 21
14545.89978416692
 31
0.0
  0
LINE
  5
48766
330
4874E
100
AcDbEntity
  8
D-BGD-DIM
 62
     0
440
 16777216
370
    13
100
AcDbLine
 10
8771.542763046042
 20
14233.39978416692
 30
0.0
 11
8771.542763046042
 21
14545.89978416692
 31
0.0
  0
LINE
  5
48767
330
4874E
100
AcDbEntity
  8
D-BGD-DIM
 62
     0
440
 16777216
370
    13
100
AcDbLine
 10
9060.042763046041
 20
14520.89978416692
 30
0.0
 11
9100.042763046042
 21
14520.89978416692
 31
0.0
  0
LINE
  5
48768
330
4874E
100
AcDbEntity
  8
D-BGD-DIM
 62
     0
440
 16777216
370
    13
100
AcDbLine
 10
8731.542763046041
 20
14520.89978416692
 30
0.0
 11
8691.542763046042
 21
14520.89978416692
 31
0.0
  0
LINE
  5
48769
330
4874E
100
AcDbEntity
  8
D-BGD-DIM
 62
     0
440
 16777216
370
    13
100
AcDbLine
 10
9020.042763046042
 20
14520.89978416692
 30
0.0
 11
8771.542763046042
 21
14520.89978416692
 31
0.0
  0
INSERT
  5
4876A
330
4874E
100
AcDbEntity
  8
D-BGD-DIM
 62
     0
440
 16777216
370
    13
100
AcDbBlockReference
  2
_OPEN
 10
9020.042763046042
 20
14520.89978416692
 30
0.0
 41
40.0
 42
40.0
 43
40.0
 50
180.0
  0
INSERT
  5
4876B
330
4874E
100
AcDbEntity
  8
D-BGD-DIM
 62
     0
440
 16777216
370
    13
100
AcDbBlockReference
  2
_OPEN
 10
8771.542763046042
 20
14520.89978416692
 30
0.0
 41
40.0
 42
40.0
 43
40.0
  0
MTEXT
  5
4876C
330
4874E
100
AcDbEntity
  8
D-BGD-DIM
 62
     0
440
 16777216
100
AcDbMText
 10
8895.792763046042
 20
14568.39978416692
 30
0.0
 40
70.0
 41
0.0
 46
0.0
 71
     5
 72
     1
  1
248.5
 73
     1
 44
1.0
  0
POINT
  5
4876D
330
4874E
100
AcDbEntity
  8
DEFPOINTS
 62
     0
440
 16777216
100
AcDbPoint
 10
9020.042763046042
 20
14220.89978416692
 30
0.0
  0
POINT
  5
4876E
330
4874E
100
AcDbEntity
  8
DEFPOINTS
 62
     0
440
 16777216
100
AcDbPoint
 10
8771.542763046042
 20
14220.89978416692
 30
0.0
  0
POINT
  5
4876F
330
4874E
100
AcDbEntity
  8
DEFPOINTS
 62
     0
440
 16777216
100
AcDbPoint
 10
8771.542763046042
 20
14520.89978416692
 30
0.0
  0
ENDBLK
  5
4875B
330
4874E
100
AcDbEntity
  8
0
100
AcDbBlockEnd
  0
ENDSEC
  0
SECTION
  2
ENTITIES
  0
LINE
  5
454FA
330
1F
100
AcDbEntity
  8
D-BGD
100
AcDbLine
 10
6261.54276304604
 20
14220.89978416692
 30
0.0
 11
6361.54276304604
 21
14220.89978416692
 31
0.0
  0
LINE
  5
454FB
330
1F
100
AcDbEntity
  8
D-BGD
100
AcDbLine
 10
6261.54276304604
 20
14220.89978416692
 30
0.0
 11
6261.54276304604
 21
12620.89978416692
 31
0.0
  0
LINE
  5
454FC
330
1F
100
AcDbEntity
  8
D-BGD
100
AcDbLine
 10
6261.54276304604
 20
12620.89978416692
 30
0.0
 11
7471.54276304604
 21
12620.89978416692
 31
0.0
  0
LINE
  5
454FD
330
1F
100
AcDbEntity
  8
D-BGD
100
AcDbLine
 10
7471.54276304604
 20
12620.89978416692
 30
0.0
 11
7471.542763046042
 21
12690.89978416692
 31
0.0
  0
LINE
  5
454FE
330
1F
100
AcDbEntity
  8
D-BGD
100
AcDbLine
 10
7471.542763046042
 20
12690.89978416692
 30
0.0
 11
6562.568662440785
 21
12723.5526341902
 31
0.0
  0
LINE
  5
454FF
330
1F
100
AcDbEntity
  8
D-BGD
100
AcDbLine
 10
6361.54276304604
 20
14220.89978416692
 30
0.0
 11
6370.259791010474
 21
12922.06261746646
 31
0.0
  0
TEXT
  5
4557F
330
1F
100
AcDbEntity
  8
D-STR-HTXT
100
AcDbText
 10
6555.076670805314
 20
12849.57699349821
 30
0.0
 40
70.0
  1
R=200
 50
45.0
 72
     4
 11
6621.403286880613
 21
12964.26971340667
 31
0.0
100
AcDbText
  0
DIMENSION
  5
4558E
330
1F
100
AcDbEntity
  8
D-BGD-DIM
100
AcDbDimension
280
     0
  2
*D1
 10
6361.54276304604
 20
14520.89978416692
 30
0.0
 11
6311.54276304604
 21
14568.39978416692
 31
0.0
 70
    32
 71
     5
 42
100.0
 73
     0
 74
     0
 75
     0
  3
SXF-20
100
AcDbAlignedDimension
 13
6261.54276304604
 23
14220.89978416692
 33
0.0
 14
6361.54276304604
 24
14220.89978416692
 34
0.0
100
AcDbRotatedDimension
  0
DIMENSION
  5
455D9
330
1F
100
AcDbEntity
  8
D-BGD-DIM
100
AcDbDimension
280
     0
  2
*D2
 10
5661.54276304604
 20
12620.89978416692
 30
0.0
 11
5614.042763046038
 21
12655.89978416692
 31
0.0
 70
   160
 71
     5
 42
110.0000000000018
 73
     0
 74
     0
 75
     0
  3
SXF-20
100
AcDbAlignedDimension
 13
6261.54276304604
 23
12730.89978416692
 33
0.0
 14
6261.54276304604
 24
12620.89978416692
 34
0.0
 50
90.0
100
AcDbRotatedDimension
  0
DIMENSION
  5
455E6
330
1F
100
AcDbEntity
  8
D-BGD-DIM
100
AcDbDimension
280
     0
  2
*D3
 10
5361.54276304604
 20
12620.89978416692
 30
0.0
 11
5314.042763046038
 21
13420.89978416692
 31
0.0
 70
    32
 71
     5
 42
1600.0
 73
     0
 74
     0
 75
     0
  3
SXF-20
100
AcDbAlignedDimension
 13
6261.54276304604
 23
14220.89978416692
 33
0.0
 14
6261.54276304604
 24
12620.89978416692
 34
0.0
 50
90.0
100
AcDbRotatedDimension
  0
DIMENSION
  5
45626
330
1F
100
AcDbEntity
  8
D-BGD-DIM
100
AcDbDimension
280
     0
  2
*D4
 10
6371.542763046042
 20
12020.89978416692
 30
0.0
 11
6296.542763046041
 21
12068.39978416692
 31
0.0
 70
   160
 71
     5
 42
110.0000000000018
 73
     0
 74
     0
 75
     0
  3
SXF-20
100
AcDbAlignedDimension
 13
6261.54276304604
 23
12620.89978416692
 33
0.0
 14
6371.542763046042
 24
12620.89978416692
 34
0.0
100
AcDbRotatedDimension
  0
DIMENSION
  5
4565D
330
1F
100
AcDbEntity
  8
D-BGD-DIM
100
AcDbDimension
280
     0
  2
*D5
 10
7471.54276304604
 20
11720.89978416692
 30
0.0
 11
6866.54276304604
 21
11768.39978416692
 31
0.0
 70
    32
 71
     5
 42
1210.0
 73
     0
 74
     0
 75
     0
  3
SXF-20
100
AcDbAlignedDimension
 13
6261.54276304604
 23
12620.89978416692
 33
0.0
 14
7471.54276304604
 24
12620.89978416692
 34
0.0
100
AcDbRotatedDimension
  0
DIMENSION
  5
4566B
330
1F
100
AcDbEntity
  8
D-BGD-DIM
100
AcDbDimension
280
     0
  2
*D6
 10
7771.542763046039
 20
12620.89978416692
 30
0.0
 11
7724.042763046039
 21
12655.89978416692
 31
0.0
 70
    32
 71
     5
 42
70.00000000000364
 73
     0
 74
     0
 75
     0
  3
SXF-20
100
AcDbAlignedDimension
 13
7471.542763046042
 23
12690.89978416692
 33
0.0
 14
7471.54276304604
 24
12620.89978416692
 34
0.0
 50
90.0
100
AcDbRotatedDimension
  0
LINE
  5
4567B
330
1F
100
AcDbEntity
  8
D-BGD
100
AcDbLine
 10
7471.54276304604
 20
11110.89978416692
 30
0.0
 11
6571.542763045859
 21
11110.89978416692
 31
0.0
  0
LINE
  5
4567C
330
1F
100
AcDbEntity
  8
D-BGD
100
AcDbLine
 10
6261.54276304604
 20
11120.89978416692
 30
0.0
 11
6261.54276304604
 21
9123.899784166923
 31
0.0
  0
LINE
  5
4567D
330
1F
100
AcDbEntity
  8
D-BGD
100
AcDbLine
 10
6571.542763046039
 20
11120.89978416692
 30
0.0
 11
6571.542763046039
 21
11110.89978416692
 31
0.0
  0
LINE
  5
4567E
330
1F
100
AcDbEntity
  8
D-BGD
100
AcDbLine
 10
6261.54276304604
 20
11120.89978416692
 30
0.0
 11
6571.542763046039
 21
11120.89978416692
 31
0.0
  0
LINE
  5
4567F
330
1F
100
AcDbEntity
  8
D-BGD
100
AcDbLine
 10
7471.54276304604
 20
9133.899784166922
 30
0.0
 11
6571.542763046039
 21
9133.899784166922
 31
0.0
  0
LINE
  5
45680
330
1F
100
AcDbEntity
  8
D-BGD
100
AcDbLine
 10
6261.54276304604
 20
9123.899784166923
 30
0.0
 11
6571.542763045858
 21
9123.899784166923
 31
0.0
  0
LINE
  5
45681
330
1F
100
AcDbEntity
  8
D-BGD
100
AcDbLine
 10
6571.542763046039
 20
9123.899784166923
 30
0.0
 11
6571.542763046039
 21
9133.899784166922
 31
0.0
  0
LINE
  5
45682
330
1F
100
AcDbEntity
  8
D-BGD
100
AcDbLine
 10
7471.54276304604
 20
11110.89978416692
 30
0.0
 11
7471.54276304604
 21
9133.899784166922
 31
0.0
  0
LINE
  5
45683
330
1F
100
AcDbEntity
  8
D-BMK
100
AcDbLine
 10
7671.54276304604
 20
10122.39978416692
 30
0.0
 11
6061.54276304604
 21
10122.39978416692
 31
0.0
  0
TEXT
  5
45684
330
1F
100
AcDbEntity
  8
D-BMK
100
AcDbText
 10
6198.869150807919
 20
10093.42517673273
 30
0.0
 40
70.0
  1
C
 50
90.0
100
AcDbText
  0
TEXT
  5
45685
330
1F
100
AcDbEntity
  8
D-BMK
100
AcDbText
 10
6225.26788817282
 20
10104.82590125329
 30
0.0
 40
70.0
  1
L
 50
90.0
100
AcDbText
  0
LINE
  5
45688
330
1F
100
AcDbEntity
  8
D-BGD
100
AcDbLine
 10
6361.54276304604
 20
11120.89978416692
 30
0.0
 11
6361.542763046038
 21
9123.899784166923
 31
0.0
  0
CIRCLE
  5
456A6
330
1F
100
AcDbEntity
  8
D-STR-STR1
  6
Continuous
100
AcDbCircle
 10
6811.54276304604
 20
10122.39978416692
 30
0.0
 40
30.7999995
  0
LINE
  5
456A7
330
1F
100
AcDbEntity
  8
D-BMK
100
AcDbLine
 10
6811.54276304604
 20
10173.19978366692
 30
0.0
 11
6811.54276304604
 21
10071.59978466692
 31
0.0
  0
MTEXT
  5
456AE
330
1F
100
AcDbEntity
  8
D-STR-HTXT
100
AcDbMText
 10
6701.770733540612
 20
10334.36292491789
 30
0.0
 40
70.0
 41
0.0
 46
0.0
 71
     7
 72
     1
  1
dehaアンカー
 73
     1
 44
1.0
  0
DIMENSION
  5
456DB
330
1F
100
AcDbEntity
  8
D-STR-DIM1
100
AcDbDimension
280
     0
  2
*D7
 10
6811.54276304604
 20
11420.89978416692
 30
0.0
 11
6536.54276304604
 21
11468.39978416692
 31
0.0
 70
    32
 71
     5
 42
550.0
 73
     0
 74
     0
 75
     0
  3
SXF-20
100
AcDbAlignedDimension
 13
6261.54276304604
 23
11120.89978416692
 33
0.0
 14
6811.54276304604
 24
11120.89978416692
 34
0.0
100
AcDbRotatedDimension
  0
DIMENSION
  5
456F1
330
1F
100
AcDbEntity
  8
D-STR-DIM1
100
AcDbDimension
280
     0
  2
*D8
 10
7471.54276304604
 20
11420.89978416692
 30
0.0
 11
7141.542763046039
 21
11468.39978416692
 31
0.0
 70
    32
 71
     5
 42
660.0
 73
     0
 74
     0
 75
     0
  3
SXF-20
100
AcDbAlignedDimension
 13
6811.54276304604
 23
11120.89978416692
 33
0.0
 14
7471.54276304604
 24
11120.89978416692
 34
0.0
100
AcDbRotatedDimension
  0
DIMENSION
  5
45728
330
1F
100
AcDbEntity
  8
D-BGD-DIM
100
AcDbDimension
280
     0
  2
*D9
 10
7971.54276304604
 20
11110.89978416692
 30
0.0
 11
7924.042763046038
 21
11115.89978416692
 31
0.0
 70
    32
 71
     5
 42
10.0
 73
     0
 74
     0
 75
     0
  3
SXF-20
100
AcDbAlignedDimension
 13
7471.54276304604
 23
11120.89978416692
 33
0.0
 14
7471.54276304604
 24
11110.89978416692
 34
0.0
 50
90.0
100
AcDbRotatedDimension
  0
DIMENSION
  5
45737
330
1F
100
AcDbEntity
  8
D-BGD-DIM
100
AcDbDimension
280
     0
  2
*D10
 10
7971.54276304604
 20
9133.899784166922
 30
0.0
 11
7924.042763046038
 21
10122.39978416692
 31
0.0
 70
    32
 71
     5
 42
1977.0
 73
     0
 74
     0
 75
     0
  3
SXF-20
100
AcDbAlignedDimension
 13
7471.54276304604
 23
11110.89978416692
 33
0.0
 14
7471.54276304604
 24
9133.899784166922
 34
0.0
 50
90.0
100
AcDbRotatedDimension
  0
DIMENSION
  5
45744
330
1F
100
AcDbEntity
  8
D-BGD-DIM
100
AcDbDimension
280
     0
  2
*D11
 10
7971.54276304604
 20
9123.899784166923
 30
0.0
 11
7924.042763046038
 21
9128.899784166923
 31
0.0
 70
    32
 71
     5
 42
10.0
 73
     0
 74
     0
 75
     0
  3
SXF-20
100
AcDbAlignedDimension
 13
7471.54276304604
 23
9133.899784166922
 33
0.0
 14
7471.54276304604
 24
9123.899784166923
 34
0.0
 50
90.0
100
AcDbRotatedDimension
  0
DIMENSION
  5
45788
330
1F
100
AcDbEntity
  8
D-BGD-DIM
100
AcDbDimension
280
     0
  2
*D12
 10
5361.54276304604
 20
9123.899784166923
 30
0.0
 11
5314.042763046039
 21
10122.39978416692
 31
0.0
 70
    32
 71
     5
 42
1997.0
 73
     0
 74
     0
 75
     0
  3
SXF-20
100
AcDbAlignedDimension
 13
6261.54276304604
 23
11120.89978416692
 33
0.0
 14
6261.54276304604
 24
9123.899784166923
 34
0.0
 50
90.0
100
AcDbRotatedDimension
  0
DIMENSION
  5
45834
330
1F
100
AcDbEntity
  8
D-BGD-DIM
100
AcDbDimension
280
     0
  2
*D13
 10
6571.542763045858
 20
8623.899784166923
 30
0.0
 11
6416.542763045949
 21
8671.399784166922
 31
0.0
 70
    32
 71
     5
 42
309.9999999998181
 73
     0
 74
     0
 75
     0
  3
SXF-20
100
AcDbAlignedDimension
 13
6261.54276304604
 23
9123.899784166923
 33
0.0
 14
6571.542763045858
 24
9123.899784166923
 34
0.0
100
AcDbRotatedDimension
  0
DIMENSION
  5
45841
330
1F
100
AcDbEntity
  8
D-BGD-DIM
100
AcDbDimension
280
     0
  2
*D14
 10
7471.54276304604
 20
8623.899784166923
 30
0.0
 11
7021.542763045949
 21
8671.399784166922
 31
0.0
 70
    32
 71
     5
 42
900.0000000001818
 73
     0
 74
     0
 75
     0
  3
SXF-20
100
AcDbAlignedDimension
 13
6571.542763045858
 23
9123.899784166923
 33
0.0
 14
7471.54276304604
 24
9123.899784166923
 34
0.0
100
AcDbRotatedDimension
  0
LINE
  5
4584F
330
1F
100
AcDbEntity
  8
D-BGD
100
AcDbLine
 10
8771.54276304604
 20
12620.89978416692
 30
0.0
 11
8771.54276304604
 21
14220.89978416692
 31
0.0
  0
LINE
  5
45850
330
1F
100
AcDbEntity
  8
D-BGD
100
AcDbLine
 10
8771.54276304604
 20
14220.89978416692
 30
0.0
 11
10768.54276304604
 21
14220.89978416692
 31
0.0
  0
LINE
  5
45851
330
1F
100
AcDbEntity
  8
D-BGD
100
AcDbLine
 10
10768.54276304604
 20
14220.89978416692
 30
0.0
 11
10768.54276304604
 21
12620.89978416692
 31
0.0
  0
LINE
  5
45852
330
1F
100
AcDbEntity
  8
D-BGD
100
AcDbLine
 10
8771.54276304604
 20
12620.89978416692
 30
0.0
 11
10768.54276304604
 21
12620.89978416692
 31
0.0
  0
LINE
  5
45853
330
1F
100
AcDbEntity
  8
D-BMK
100
AcDbLine
 10
9770.04276304604
 20
14420.89978416692
 30
0.0
 11
9770.042763046042
 21
12420.89978416692
 31
0.0
  0
LINE
  5
4587E
330
1F
100
AcDbEntity
  8
D-BGD
100
AcDbLine
 10
10750.04276304604
 20
14220.89978416692
 30
0.0
 11
10750.04276304604
 21
12620.89978416692
 31
0.0
  0
LINE
  5
45884
330
1F
100
AcDbEntity
  8
D-BGD
100
AcDbLine
 10
9790.04276304604
 20
14220.89978416692
 30
0.0
 11
9790.04276304604
 21
12620.89978416692
 31
0.0
  0
LINE
  5
45887
330
1F
100
AcDbEntity
  8
D-BGD
100
AcDbLine
 10
10020.04276304604
 20
14220.89978416692
 30
0.0
 11
10020.04276304604
 21
12620.89978416692
 31
0.0
  0
LINE
  5
45888
330
1F
100
AcDbEntity
  8
D-BGD
100
AcDbLine
 10
10035.04276304604
 20
14220.89978416692
 30
0.0
 11
10035.04276304604
 21
12620.89978416692
 31
0.0
  0
DIMENSION
  5
458C5
330
1F
100
AcDbEntity
  8
D-BGD-DIM
100
AcDbDimension
280
     0
  2
*D15
 10
8371.54276304604
 20
12620.89978416692
 30
0.0
 11
8324.042763046035
 21
13420.89978416692
 31
0.0
 70
    32
 71
     5
 42
1600.0
 73
     0
 74
     0
 75
     0
  3
SXF-20
100
AcDbAlignedDimension
 13
8771.54276304604
 23
14220.89978416692
 33
0.0
 14
8771.54276304604
 24
12620.89978416692
 34
0.0
 50
90.0
100
AcDbRotatedDimension
  0
DIMENSION
  5
458D2
330
1F
100
AcDbEntity
  8
D-BGD-DIM
100
AcDbDimension
280
     0
  2
*D16
 10
10768.54276304604
 20
14820.89978416692
 30
0.0
 11
9770.04276304604
 21
14868.39978416692
 31
0.0
 70
    32
 71
     5
 42
1997.0
 73
     0
 74
     0
 75
     0
  3
SXF-20
100
AcDbAlignedDimension
 13
8771.54276304604
 23
14220.89978416692
 33
0.0
 14
10768.54276304604
 24
14220.89978416692
 34
0.0
100
AcDbRotatedDimension
  0
DIMENSION
  5
45915
330
1F
100
AcDbEntity
  8
D-BGD-DIM
100
AcDbDimension
280
     0
  2
*D17
 10
10520.04276304604
 20
14520.89978416692
 30
0.0
 11
10145.04276304604
 21
14572.79978416692
 31
0.0
 70
    32
  1
3@250=<>
 71
     5
 42
750.0
 73
     0
 74
     0
 75
     0
  3
SXF-20
100
AcDbAlignedDimension
 13
9770.04276304604
 23
14420.89978416692
 33
0.0
 14
10520.04276304604
 24
14220.89978416692
 34
0.0
100
AcDbRotatedDimension
  0
DIMENSION
  5
45922
330
1F
100
AcDbEntity
  8
D-BGD-DIM
100
AcDbDimension
280
     0
  2
*D18
 10
10768.54276304604
 20
14520.89978416692
 30
0.0
 11
10644.29276304604
 21
14568.39978416692
 31
0.0
 70
    32
 71
     5
 42
248.5
 73
     0
 74
     0
 75
     0
  3
SXF-20
100
AcDbAlignedDimension
 13
10520.04276304604
 23
14220.89978416692
 33
0.0
 14
10768.54276304604
 24
14220.89978416692
 34
0.0
100
AcDbRotatedDimension
1001
ACAD
1000
DSTYLE
1002
{
1070
   271
1070
     1
1002
}
  0
LINE
  5
4592F
330
1F
100
AcDbEntity
  8
D-BGD
100
AcDbLine
 10
10512.54276304604
 20
14220.89978416692
 30
0.0
 11
10512.54276304604
 21
12620.89978416692
 31
0.0
  0
LINE
  5
45930
330
1F
100
AcDbEntity
  8
D-BGD
100
AcDbLine
 10
10527.54276304604
 20
14220.89978416692
 30
0.0
 11
10527.54276304604
 21
12620.89978416692
 31
0.0
  0
DIMENSION
  5
45943
330
1F
100
AcDbEntity
  8
D-BGD-DIM
100
AcDbDimension
280
     0
  2
*D19
 10
11068.54276304604
 20
13320.89978416692
 30
0.0
 11
11021.04276304603
 21
13770.89978416692
 31
0.0
 70
    32
 71
     5
 42
900.0
 73
     0
 74
     0
 75
     0
  3
SXF-20
100
AcDbAlignedDimension
 13
10768.54276304604
 23
14220.89978416692
 33
0.0
 14
10768.54276304604
 24
13320.89978416692
 34
0.0
 50
90.0
100
AcDbRotatedDimension
  0
DIMENSION
  5
45950
330
1F
100
AcDbEntity
  8
D-BGD-DIM
100
AcDbDimension
280
     0
  2
*D20
 10
11068.54276304604
 20
12620.89978416692
 30
0.0
 11
11021.04276304603
 21
12970.89978416692
 31
0.0
 70
    32
 71
     5
 42
700.0
 73
     0
 74
     0
 75
     0
  3
SXF-20
100
AcDbAlignedDimension
 13
10768.54276304604
 23
13320.89978416692
 33
0.0
 14
10768.54276304604
 24
12620.89978416692
 34
0.0
 50
90.0
100
AcDbRotatedDimension
  0
LINE
  5
45A84
330
1F
100
AcDbEntity
  8
D-STR
100
AcDbLine
 10
12970.55988147332
 20
14220.89978416692
 30
0.0
 11
13070.55988147332
 21
14220.89978416692
 31
0.0
  0
LINE
  5
45A85
330
1F
100
AcDbEntity
  8
D-STR
100
AcDbLine
 10
12970.55988147332
 20
14220.89978416692
 30
0.0
 11
12970.55988147332
 21
12620.89978416692
 31
0.0
  0
LINE
  5
45A86
330
1F
100
AcDbEntity
  8
D-STR
100
AcDbLine
 10
13070.55988147332
 20
14220.89978416692
 30
0.0
 11
13079.18527842761
 21
12921.96960752088
 31
0.0
  0
LINE
  5
45A87
330
1F
100
AcDbEntity
  8
D-STR
100
AcDbLine
 10
12970.55988147332
 20
12620.89978416692
 30
0.0
 11
14180.55988147332
 21
12620.89978416692
 31
0.0
  0
LINE
  5
45A88
330
1F
100
AcDbEntity
  8
D-STR
100
AcDbLine
 10
14180.55988147332
 20
12690.89978416692
 30
0.0
 11
13271.49347849273
 21
12723.55618428156
 31
0.0
  0
LINE
  5
45A8A
330
1F
100
AcDbEntity
  8
D-STR
100
AcDbLine
 10
14180.55988147332
 20
12620.89978416692
 30
0.0
 11
14180.55988147332
 21
12690.89978416692
 31
0.0
  0
DIMENSION
  5
45AC1
330
1F
100
AcDbEntity
  8
D-STR-DIM
100
AcDbDimension
280
     0
  2
*D21
 10
13070.55988147332
 20
14520.89978416692
 30
0.0
 11
13020.55988147332
 21
14568.39978416692
 31
0.0
 70
    32
 71
     5
 42
99.99999999999818
 73
     0
 74
     0
 75
     0
  3
SXF-20
100
AcDbAlignedDimension
 13
12970.55988147332
 23
14220.89978416692
 33
0.0
 14
13070.55988147332
 24
14220.89978416692
 34
0.0
100
AcDbRotatedDimension
  0
DIMENSION
  5
45AD0
330
1F
100
AcDbEntity
  8
D-STR-DIM
100
AcDbDimension
280
     0
  2
*D22
 10
14480.55988147332
 20
12620.89978416692
 30
0.0
 11
14433.05988147332
 21
12655.89978416692
 31
0.0
 70
    32
 71
     5
 42
70.0
 73
     0
 74
     0
 75
     0
  3
SXF-20
100
AcDbAlignedDimension
 13
14180.55988147332
 23
12690.89978416692
 33
0.0
 14
14180.55988147332
 24
12620.89978416692
 34
0.0
 50
90.0
100
AcDbRotatedDimension
  0
DIMENSION
  5
45ADF
330
1F
100
AcDbEntity
  8
D-STR-DIM1
100
AcDbDimension
280
     0
  2
*D23
 10
12670.55988147332
 20
14020.87417246688
 30
0.0
 11
12623.05988147332
 21
14120.8869783169
 31
0.0
 70
    32
 71
     5
 42
200.0256117000372
 73
     0
 74
     0
 75
     0
  3
SXF-20
100
AcDbAlignedDimension
 13
12970.55988147332
 23
14220.89978416692
 33
0.0
 14
12970.55988147332
 24
14020.87417246688
 34
0.0
 50
90.0
100
AcDbRotatedDimension
  0
DIMENSION
  5
45AEC
330
1F
100
AcDbEntity
  8
D-STR-DIM1
100
AcDbDimension
280
     0
  2
*D24
 10
12670.55988147332
 20
13040.89978416692
 30
0.0
 11
12623.05988147332
 21
13530.8869783169
 31
0.0
 70
    32
 71
     5
 42
979.9743882999628
 73
     0
 74
     0
 75
     0
  3
SXF-20
100
AcDbAlignedDimension
 13
12970.55988147332
 23
14020.87417246688
 33
0.0
 14
12970.55988147332
 24
13040.89978416692
 34
0.0
 50
90.0
100
AcDbRotatedDimension
  0
DIMENSION
  5
45AF9
330
1F
100
AcDbEntity
  8
D-STR-DIM1
100
AcDbDimension
280
     0
  2
*D25
 10
12670.55988147332
 20
12620.89978416692
 30
0.0
 11
12623.05988147332
 21
12830.89978416692
 31
0.0
 70
    32
 71
     5
 42
420.0
 73
     0
 74
     0
 75
     0
  3
SXF-20
100
AcDbAlignedDimension
 13
12970.55988147332
 23
13040.89978416692
 33
0.0
 14
12970.55988147332
 24
12620.89978416692
 34
0.0
 50
90.0
100
AcDbRotatedDimension
  0
DIMENSION
  5
45B2A
330
1F
100
AcDbEntity
  8
D-STR-DIM
100
AcDbDimension
280
     0
  2
*D26
 10
12370.55988147332
 20
12620.89978416692
 30
0.0
 11
12323.05988147332
 21
13420.89978416692
 31
0.0
 70
    32
 71
     5
 42
1600.0
 73
     0
 74
     0
 75
     0
  3
SXF-20
100
AcDbAlignedDimension
 13
12970.55988147332
 23
14220.89978416692
 33
0.0
 14
12970.55988147332
 24
12620.89978416692
 34
0.0
 50
90.0
100
AcDbRotatedDimension
  0
DIMENSION
  5
45B39
330
1F
100
AcDbEntity
  8
D-STR-DIM
100
AcDbDimension
280
     0
  2
*D27
 10
13280.55988147332
 20
12320.89978416692
 30
0.0
 11
13125.55988147332
 21
12368.39978416692
 31
0.0
 70
    32
 71
     5
 42
310.0
 73
     0
 74
     0
 75
     0
  3
SXF-20
100
AcDbAlignedDimension
 13
12970.55988147332
 23
12620.89978416692
 33
0.0
 14
13280.55988147332
 24
12620.89978416692
 34
0.0
100
AcDbRotatedDimension
  0
DIMENSION
  5
45B46
330
1F
100
AcDbEntity
  8
D-STR-DIM
100
AcDbDimension
280
     0
  2
*D28
 10
14180.55988147332
 20
12320.89978416692
 30
0.0
 11
13730.55988147332
 21
12368.39978416692
 31
0.0
 70
    32
 71
     5
 42
900.0
 73
     0
 74
     0
 75
     0
  3
SXF-20
100
AcDbAlignedDimension
 13
13280.55988147332
 23
12620.89978416692
 33
0.0
 14
14180.55988147332
 24
12620.89978416692
 34
0.0
100
AcDbRotatedDimension
  0
DIMENSION
  5
45B53
330
1F
100
AcDbEntity
  8
D-STR-DIM
100
AcDbDimension
280
     0
  2
*D29
 10
14180.55988147332
 20
12020.89978416692
 30
0.0
 11
13575.55988147332
 21
12068.39978416692
 31
0.0
 70
    32
 71
     5
 42
1210.0
 73
     0
 74
     0
 75
     0
  3
SXF-20
100
AcDbAlignedDimension
 13
12970.55988147332
 23
12620.89978416692
 33
0.0
 14
14180.55988147332
 24
12620.89978416692
 34
0.0
100
AcDbRotatedDimension
  0
TEXT
  5
45B61
330
1F
100
AcDbEntity
  8
D-STR-HTXT
100
AcDbText
 10
13230.2863172154
 20
12823.29609966443
 30
0.0
 40
70.0
  1
R=200
 50
45.0
 72
     4
 11
13296.6129332907
 21
12937.98881957289
 31
0.0
100
AcDbText
  0
LINE
  5
45B96
330
1F
100
AcDbEntity
  8
D-STR
100
AcDbLine
 10
15080.55988147332
 20
12620.89903416692
 30
0.0
 11
17580.55988147332
 21
12620.89903416692
 31
0.0
  0
LINE
  5
45B9D
330
1F
100
AcDbEntity
  8
D-STR-STR1
100
AcDbLine
 10
17430.55663147332
 20
13010.89853416692
 30
0.0
 11
17230.55663147332
 21
13010.89853416692
 31
0.0
  0
LINE
  5
45B9E
330
1F
100
AcDbEntity
  8
D-STR-STR1
100
AcDbLine
 10
17430.55663147332
 20
13070.89853416692
 30
0.0
 11
17230.55663147332
 21
13070.89853416692
 31
0.0
  0
LINE
  5
45B9F
330
1F
100
AcDbEntity
  8
D-STR-STR1
100
AcDbLine
 10
17230.55663147332
 20
13070.89928416692
 30
0.0
 11
17230.55663147332
 21
13010.89953416692
 31
0.0
  0
CIRCLE
  5
45BA0
330
1F
100
AcDbEntity
  8
D-STR-STR1
100
AcDbCircle
 10
17255.55663147332
 20
13040.89903416692
 30
0.0
 40
15.99999975
  0
LINE
  5
45BA1
330
1F
100
AcDbEntity
  8
D-STR-STR1
100
AcDbLine
 10
17430.55663147332
 20
13070.89928416692
 30
0.0
 11
17430.55663147332
 21
13010.89953416692
 31
0.0
  0
CIRCLE
  5
45BA2
330
1F
100
AcDbEntity
  8
D-STR-STR1
100
AcDbCircle
 10
17405.55663147332
 20
13040.89903416692
 30
0.0
 40
15.99999975
  0
LINE
  5
45BA3
330
1F
100
AcDbEntity
  8
D-STR
100
AcDbLine
 10
15080.55988147332
 20
14220.89903416692
 30
0.0
 11
17580.55988147332
 21
14220.89903416692
 31
0.0
  0
LINE
  5
45BA6
330
1F
100
AcDbEntity
  8
D-STR-STR1
100
AcDbLine
 10
17230.55663147332
 20
14050.89928416692
 30
0.0
 11
17230.55663147332
 21
13990.89953416692
 31
0.0
  0
LINE
  5
45BA7
330
1F
100
AcDbEntity
  8
D-STR-STR1
100
AcDbLine
 10
17430.55663147332
 20
14050.89928416692
 30
0.0
 11
17430.55663147332
 21
13990.89953416692
 31
0.0
  0
CIRCLE
  5
45BA8
330
1F
100
AcDbEntity
  8
D-STR-STR1
100
AcDbCircle
 10
17255.55663147332
 20
14020.89903416692
 30
0.0
 40
15.99999975
  0
CIRCLE
  5
45BA9
330
1F
100
AcDbEntity
  8
D-STR-STR1
100
AcDbCircle
 10
17405.55663147332
 20
14020.89903416692
 30
0.0
 40
15.99999975
  0
LINE
  5
45BAB
330
1F
100
AcDbEntity
  8
D-STR-STR1
100
AcDbLine
 10
17430.55663147332
 20
13990.89853416692
 30
0.0
 11
17230.55663147332
 21
13990.89853416692
 31
0.0
  0
LINE
  5
45BAE
330
1F
100
AcDbEntity
  8
D-STR-STR1
100
AcDbLine
 10
17430.55663147332
 20
14050.89853416692
 30
0.0
 11
17230.55663147332
 21
14050.89853416692
 31
0.0
  0
LEADER
  5
45ED3
330
1F
100
AcDbEntity
  8
D-STR-HTXT
100
AcDbLeader
  3
SXF-20
 76
     2
 10
6426.71089058064
 20
12784.47734328437
 30
0.0
 10
6511.484117989015
 20
12867.86404504075
 30
0.0
  0
LINE
  5
463E0
330
1F
100
AcDbEntity
  8
D-STR-STR1
  6
Continuous
100
AcDbLine
 10
13090.98043646785
 20
14007.78932667514
 30
0.0
 11
13090.80471265669
 21
14034.2645044735
 31
0.0
  0
LINE
  5
463E1
330
1F
100
AcDbEntity
  8
D-STR-STR1
  6
Continuous
100
AcDbLine
 10
13078.05765726695
 20
13995.93949010033
 30
0.0
 11
13077.72586955078
 21
14045.93871171151
 31
0.0
  0
ARC
  5
463E2
330
1F
100
AcDbEntity
  8
D-STR-STR1
  6
Continuous
100
AcDbCircle
 10
13081.95504516172
 20
14034.20446820578
 30
0.0
 40
8.844741499999999
100
AcDbArc
 50
324.0711041590982
 51
36.68877615912225
  0
LINE
  5
463E3
330
1F
100
AcDbEntity
  8
D-STR-STR1
  6
Continuous
100
AcDbLine
 10
13078.00872242935
 20
14002.47947616257
 30
0.0
 11
13089.29014431266
 21
14002.55451975486
 31
0.0
  0
LINE
  5
463E4
330
1F
100
AcDbEntity
  8
D-STR-STR1
  6
Continuous
100
AcDbLine
 10
13072.05386245561
 20
13995.91570615645
 30
0.0
 11
13078.05414945888
 21
13995.95554493707
 31
0.0
  0
LINE
  5
463E5
330
1F
100
AcDbEntity
  8
D-STR-STR1
  6
Continuous
100
AcDbLine
 10
13077.83501727765
 20
14028.95587359774
 30
0.0
 11
13089.11718152022
 21
14029.03040591444
 31
0.0
  0
LINE
  5
463E6
330
1F
100
AcDbEntity
  8
D-STR-STR1
  6
Continuous
100
AcDbLine
 10
13077.9397667891
 20
14012.95596415925
 30
0.0
 11
13089.22118111729
 21
14013.03050780863
 31
0.0
  0
ARC
  5
463E7
330
1F
100
AcDbEntity
  8
D-STR-STR1
  6
Continuous
100
AcDbCircle
 10
13082.13325735479
 20
14007.72850271745
 30
0.0
 40
8.84278575
100
AcDbArc
 50
324.0581541591042
 51
36.70910315912084
  0
ARC
  5
463E8
330
1F
100
AcDbEntity
  8
D-STR-STR1
  6
Continuous
100
AcDbCircle
 10
13071.40125248135
 20
14020.89641920114
 30
0.0
 40
19.48605625
100
AcDbArc
 50
336.136604159114
 51
24.61453015916417
  0
LINE
  5
463E9
330
1F
100
AcDbEntity
  8
D-STR-STR1
  6
Continuous
100
AcDbLine
 10
13077.76454292086
 20
14039.4311344025
 30
0.0
 11
13089.04620344295
 21
14039.50542430286
 31
0.0
  0
LINE
  5
463EA
330
1F
100
AcDbEntity
  8
D-STR-STR1
  6
Continuous
100
AcDbLine
 10
13071.72083621484
 20
14045.9156965698
 30
0.0
 11
13077.72087324665
 21
14045.95553912798
 31
0.0
  0
ARC
  5
46CC7
330
1F
100
AcDbEntity
  8
D-BGD
100
AcDbCircle
 10
6570.255286861026
 20
12923.40486911646
 30
0.0
 40
200.0
100
AcDbArc
 50
180.3845296595845
 51
267.7974018382344
  0
LINE
  5
47160
330
1F
100
AcDbEntity
  8
D-BGD-DIM
100
AcDbLine
 10
6261.54276304604
 20
11702.14978416692
 30
0.0
 11
6261.54276304604
 21
11439.64978416692
 31
0.0
  0
LINE
  5
47161
330
1F
100
AcDbEntity
  8
D-BGD-DIM
100
AcDbLine
 10
7471.54276304604
 20
11702.14978416692
 30
0.0
 11
7471.54276304604
 21
11439.64978416692
 31
0.0
  0
TEXT
  5
472D1
330
1F
100
AcDbEntity
  8
D-BMK
100
AcDbText
 10
7635.267888172819
 20
10104.82590125329
 30
0.0
 40
70.0
  1
L
 50
90.0
100
AcDbText
  0
TEXT
  5
472D2
330
1F
100
AcDbEntity
  8
D-BMK
100
AcDbText
 10
7608.869150807918
 20
10093.42517673273
 30
0.0
 40
70.0
  1
C
 50
90.0
100
AcDbText
  0
TEXT
  5
47546
330
1F
100
AcDbEntity
  8
D-BMK
100
AcDbText
 10
9741.068155611845
 20
12483.57339640504
 30
0.0
 40
70.0
  1
C
100
AcDbText
  0
TEXT
  5
47547
330
1F
100
AcDbEntity
  8
D-BMK
100
AcDbText
 10
9752.468880132409
 20
12457.17465904015
 30
0.0
 40
70.0
  1
L
100
AcDbText
  0
TEXT
  5
47548
330
1F
100
AcDbEntity
  8
D-BMK
100
AcDbText
 10
9752.468880132409
 20
14257.17465904015
 30
0.0
 40
70.0
  1
L
100
AcDbText
  0
TEXT
  5
47549
330
1F
100
AcDbEntity
  8
D-BMK
100
AcDbText
 10
9741.068155611845
 20
14283.57339640504
 30
0.0
 40
70.0
  1
C
100
AcDbText
  0
LINE
  5
47565
330
1F
100
AcDbEntity
  8
D-BMK
100
AcDbLine
 10
9270.04276304604
 20
13263.39978116692
 30
0.0
 11
9270.04276304604
 21
13378.39978716692
 31
0.0
  0
CIRCLE
  5
47566
330
1F
100
AcDbEntity
  8
D-BGD
  6
Continuous
100
AcDbCircle
 10
9270.04276304604
 20
13320.89978416692
 30
0.0
 40
37.500003
  0
LINE
  5
47567
330
1F
100
AcDbEntity
  8
D-BMK
100
AcDbLine
 10
9327.54276604604
 20
13320.89978416692
 30
0.0
 11
9212.542760046041
 21
13320.89978416692
 31
0.0
  0
LINE
  5
47570
330
1F
100
AcDbEntity
  8
D-BGD
100
AcDbLine
 10
10290.04276304604
 20
14220.89978416692
 30
0.0
 11
10290.04276304604
 21
12620.89978416692
 31
0.0
  0
LINE
  5
47571
330
1F
100
AcDbEntity
  8
D-BGD
100
AcDbLine
 10
10250.04276304604
 20
14220.89978416692
 30
0.0
 11
10250.04276304604
 21
12620.89978416692
 31
0.0
  0
ARC
  5
475C2
330
1F
100
AcDbEntity
  8
D-STR
100
AcDbCircle
 10
13279.18010291297
 20
12923.40841920782
 30
0.0
 40
200.0
100
AcDbArc
 50
180.4121927414024
 51
267.7974018382343
  0
LINE
  5
475C3
330
1F
100
AcDbEntity
  8
D-STR
100
AcDbLine
 10
13280.55988147332
 20
12723.20747647461
 30
0.0
 11
13280.55988147332
 21
12620.89978416692
 31
0.0
  0
LEADER
  5
475D7
330
1F
100
AcDbEntity
  8
D-STR-HTXT
100
AcDbLeader
  3
SXF-20
 76
     2
 10
13135.56649741102
 20
12784.21383484934
 30
0.0
 10
13197.69143499045
 20
12846.33877242876
 30
0.0
1001
ACAD
1000
DSTYLE
1002
{
1070
   147
1040
0.625
1070
    77
1070
     0
1002
}
  0
LINE
  5
4761F
330
1F
100
AcDbEntity
  8
D-STR-STR1
  6
Continuous
100
AcDbLine
 10
13084.27197712283
 20
13059.45274009979
 30
0.0
 11
13095.55363764492
 21
13059.52703000015
 31
0.0
  0
LINE
  5
47620
330
1F
100
AcDbEntity
  8
D-STR-STR1
  6
Continuous
100
AcDbLine
 10
13084.44720099108
 20
13032.97756985654
 30
0.0
 11
13095.72861531927
 21
13033.05211350593
 31
0.0
  0
LINE
  5
47621
330
1F
100
AcDbEntity
  8
D-STR-STR1
  6
Continuous
100
AcDbLine
 10
13084.34245147963
 20
13048.97747929503
 30
0.0
 11
13095.6246157222
 21
13049.05201161173
 31
0.0
  0
LINE
  5
47622
330
1F
100
AcDbEntity
  8
D-STR-STR1
  6
Continuous
100
AcDbLine
 10
13084.51615663133
 20
13022.50108185986
 30
0.0
 11
13095.79757851464
 21
13022.57612545215
 31
0.0
  0
LINE
  5
47623
330
1F
100
AcDbEntity
  8
D-STR-STR1
  6
Continuous
100
AcDbLine
 10
13078.22827041682
 20
13065.93730226709
 30
0.0
 11
13084.22830744863
 21
13065.97714482528
 31
0.0
  0
LINE
  5
47624
330
1F
100
AcDbEntity
  8
D-STR-STR1
  6
Continuous
100
AcDbLine
 10
13078.56129665759
 20
13015.93731185374
 30
0.0
 11
13084.56158366086
 21
13015.97715063437
 31
0.0
  0
LINE
  5
47625
330
1F
100
AcDbEntity
  8
D-STR-STR1
  6
Continuous
100
AcDbLine
 10
13084.56509146892
 20
13015.96109579763
 30
0.0
 11
13084.23330375276
 21
13065.96031740881
 31
0.0
  0
ARC
  5
47626
330
1F
100
AcDbEntity
  8
D-STR-STR1
  6
Continuous
100
AcDbCircle
 10
13077.90868668333
 20
13040.91802489844
 30
0.0
 40
19.48605625
100
AcDbArc
 50
336.136604159114
 51
24.61453015916417
  0
ARC
  5
47627
330
1F
100
AcDbEntity
  8
D-STR-STR1
  6
Continuous
100
AcDbCircle
 10
13088.64069155676
 20
13027.75010841474
 30
0.0
 40
8.84278575
100
AcDbArc
 50
324.0581541591042
 51
36.70910315912084
  0
ARC
  5
47628
330
1F
100
AcDbEntity
  8
D-STR-STR1
  6
Continuous
100
AcDbCircle
 10
13088.4624793637
 20
13054.22607390307
 30
0.0
 40
8.844741499999999
100
AcDbArc
 50
324.0711041590982
 51
36.68877615912225
  0
LINE
  5
47629
330
1F
100
AcDbEntity
  8
D-STR-STR1
  6
Continuous
100
AcDbLine
 10
13097.48787066982
 20
13027.81093237244
 30
0.0
 11
13097.31214685867
 21
13054.28611017079
 31
0.0
  0
LINE
  5
477B9
330
1F
100
AcDbEntity
  8
D-STR
100
AcDbLine
 10
15330.55988147332
 20
14220.89978416692
 30
0.0
 11
15330.55988147332
 21
14050.89853416692
 31
0.0
  0
LINE
  5
477BA
330
1F
100
AcDbEntity
  8
D-STR
100
AcDbLine
 10
17330.55988147332
 20
14220.89978416692
 30
0.0
 11
17330.55988147332
 21
14050.89853416692
 31
0.0
  0
LINE
  5
477C6
330
1F
100
AcDbEntity
  8
D-STR
  6
SXF_一点鎖線
100
AcDbLine
 10
15080.55988147332
 20
14220.89978416692
 30
0.0
 11
15080.55988147332
 21
12620.89903416692
 31
0.0
  0
LINE
  5
477C7
330
1F
100
AcDbEntity
  8
D-STR
  6
SXF_一点鎖線
100
AcDbLine
 10
17580.55988147332
 20
14220.89978416692
 30
0.0
 11
17580.55988147332
 21
12620.89903416692
 31
0.0
  0
DIMENSION
  5
477D4
330
1F
100
AcDbEntity
  8
D-STR-DIM1
100
AcDbDimension
280
     0
  2
*D30
 10
15405.55663147332
 20
13790.89853416692
 30
0.0
 11
15330.55663147332
 21
13838.39853416692
 31
0.0
 70
    32
 71
     5
 42
150.0
 73
     0
 74
     0
 75
     0
  3
SXF-20
100
AcDbAlignedDimension
 13
15255.55663147332
 23
13990.89853416692
 33
0.0
 14
15405.55663147332
 24
13990.89853416692
 34
0.0
100
AcDbRotatedDimension
  0
LINE
  5
477D5
330
1F
100
AcDbEntity
  8
D-STR-STR1
100
AcDbLine
 10
15430.55663147332
 20
13990.89853416692
 30
0.0
 11
15230.55663147332
 21
13990.89853416692
 31
0.0
  0
LINE
  5
477D6
330
1F
100
AcDbEntity
  8
D-STR-STR1
100
AcDbLine
 10
15430.55663147332
 20
14050.89853416692
 30
0.0
 11
15230.55663147332
 21
14050.89853416692
 31
0.0
  0
CIRCLE
  5
477D7
330
1F
100
AcDbEntity
  8
D-STR-STR1
100
AcDbCircle
 10
15255.55663147332
 20
14020.89903416692
 30
0.0
 40
15.99999975
  0
LINE
  5
477D8
330
1F
100
AcDbEntity
  8
D-STR-STR1
100
AcDbLine
 10
15230.55663147332
 20
14050.89928416692
 30
0.0
 11
15230.55663147332
 21
13990.89953416692
 31
0.0
  0
CIRCLE
  5
477D9
330
1F
100
AcDbEntity
  8
D-STR-STR1
100
AcDbCircle
 10
15405.55663147332
 20
14020.89903416692
 30
0.0
 40
15.99999975
  0
LINE
  5
477DA
330
1F
100
AcDbEntity
  8
D-STR-STR1
100
AcDbLine
 10
15430.55663147332
 20
14050.89928416692
 30
0.0
 11
15430.55663147332
 21
13990.89953416692
 31
0.0
  0
LEADER
  5
477DB
330
1F
100
AcDbEntity
  8
D-STR-HTXT
100
AcDbLeader
  3
SXF-20
 76
     3
 10
15330.55663147332
 20
13010.89853416692
 30
0.0
 10
15422.38443551557
 20
12851.84811201828
 30
0.0
 10
15874.43687948727
 20
12851.84811201828
 30
0.0
1001
ACAD
1000
DSTYLE
1002
{
1070
   147
1040
0.625
1070
    77
1070
     0
1002
}
  0
LINE
  5
477DC
330
1F
100
AcDbEntity
  8
D-STR-STR1
100
AcDbLine
 10
15430.55663147332
 20
13010.89853416692
 30
0.0
 11
15230.55663147332
 21
13010.89853416692
 31
0.0
  0
LINE
  5
477DD
330
1F
100
AcDbEntity
  8
D-STR-STR1
100
AcDbLine
 10
15430.55663147332
 20
13070.89853416692
 30
0.0
 11
15230.55663147332
 21
13070.89853416692
 31
0.0
  0
LINE
  5
477DE
330
1F
100
AcDbEntity
  8
D-STR-STR1
100
AcDbLine
 10
15230.55663147332
 20
13070.89928416692
 30
0.0
 11
15230.55663147332
 21
13010.89953416692
 31
0.0
  0
CIRCLE
  5
477DF
330
1F
100
AcDbEntity
  8
D-STR-STR1
100
AcDbCircle
 10
15255.55663147332
 20
13040.89903416692
 30
0.0
 40
15.99999975
  0
MTEXT
  5
477E0
330
1F
100
AcDbEntity
  8
D-STR-HTXT
100
AcDbMText
 10
15436.5015487335
 20
12864.77903262589
 30
0.0
 40
70.0
 41
0.0
 46
0.0
 71
     7
 72
     1
  1
連結金具
 73
     1
 44
1.0
  0
LINE
  5
477E1
330
1F
100
AcDbEntity
  8
D-STR-STR1
100
AcDbLine
 10
15430.55663147332
 20
13070.89928416692
 30
0.0
 11
15430.55663147332
 21
13010.89953416692
 31
0.0
  0
CIRCLE
  5
477E2
330
1F
100
AcDbEntity
  8
D-STR-STR1
100
AcDbCircle
 10
15405.55663147332
 20
13040.89903416692
 30
0.0
 40
15.99999975
  0
LINE
  5
47801
330
1F
100
AcDbEntity
  8
D-STR
100
AcDbLine
 10
15330.55988147332
 20
13990.89853416692
 30
0.0
 11
15330.55988147333
 21
13070.89853416692
 31
0.0
  0
LINE
  5
47802
330
1F
100
AcDbEntity
  8
D-STR
100
AcDbLine
 10
15330.55988147333
 20
13010.89853416692
 30
0.0
 11
15330.55988147332
 21
12620.89903416692
 31
0.0
  0
LINE
  5
47803
330
1F
100
AcDbEntity
  8
D-STR
100
AcDbLine
 10
17330.55988147332
 20
13010.89853416692
 30
0.0
 11
17330.55988147332
 21
12620.89903416692
 31
0.0
  0
LINE
  5
47804
330
1F
100
AcDbEntity
  8
D-STR
100
AcDbLine
 10
17330.55988147332
 20
13990.89853416692
 30
0.0
 11
17330.55988147332
 21
13070.89853416692
 31
0.0
  0
MTEXT
  5
4780E
330
1F
100
AcDbEntity
  8
D-STR-HTXT
100
AcDbMText
 10
15937.9990487335
 20
13174.78516179102
 30
0.0
 40
70.0
 41
0.0
 46
0.0
 71
     7
 72
     1
  1
水抜穴
 73
     1
 44
1.0
  0
LEADER
  5
4780F
330
1F
100
AcDbEntity
  8
D-STR-HTXT
100
AcDbLeader
  3
SXF-20
 76
     3
 10
15832.05413147332
 20
13320.90466333205
 30
0.0
 10
15923.88193551557
 20
13161.8542411834
 30
0.0
 10
16251.28922354082
 20
13161.8542411834
 30
0.0
1001
ACAD
1000
DSTYLE
1002
{
1070
   147
1040
0.625
1070
    77
1070
     0
1002
}
  0
LEADER
  5
47810
330
1F
100
AcDbEntity
  8
D-STR-HTXT
100
AcDbLeader
  3
SXF-20
 76
     3
 10
15832.05413147332
 20
13770.90466333205
 30
0.0
 10
15923.88193551557
 20
13611.8542411834
 30
0.0
 10
16544.77730157848
 20
13611.8542411834
 30
0.0
1001
ACAD
1000
DSTYLE
1002
{
1070
   147
1040
0.625
1070
    77
1070
     0
1002
}
  0
MTEXT
  5
47811
330
1F
100
AcDbEntity
  8
D-STR-HTXT
100
AcDbMText
 10
15937.9990487335
 20
13624.78516179102
 30
0.0
 40
70.0
 41
0.0
 46
0.0
 71
     7
 72
     1
  1
dehaアンカー
 73
     1
 44
1.0
  0
DIMENSION
  5
4781E
330
1F
100
AcDbEntity
  8
D-STR-DIM
100
AcDbDimension
280
     0
  2
*D31
 10
17330.55988147332
 20
14520.89978416692
 30
0.0
 11
16330.55988147332
 21
14568.39978416692
 31
0.0
 70
    32
 71
     5
 42
2000.0
 73
     0
 74
     0
 75
     0
  3
SXF-20
100
AcDbAlignedDimension
 13
15330.55988147332
 23
14220.89978416692
 33
0.0
 14
17330.55988147332
 24
14220.89978416692
 34
0.0
100
AcDbRotatedDimension
  0
DIMENSION
  5
4782B
330
1F
100
AcDbEntity
  8
D-STR-DIM
100
AcDbDimension
280
     0
  2
*D32
 10
14780.55988147332
 20
13770.89903416692
 30
0.0
 11
14733.05988147332
 21
13995.89903416692
 31
0.0
 70
    32
 71
     5
 42
450.0
 73
     0
 74
     0
 75
     0
  3
SXF-20
100
AcDbAlignedDimension
 13
15080.55988147332
 23
14220.89903416692
 33
0.0
 14
15080.55988147332
 24
13770.89903416692
 34
0.0
 50
90.0
100
AcDbRotatedDimension
  0
MTEXT
  5
47988
330
1F
100
AcDbEntity
  8
D-STR-HTXT
100
AcDbMText
 10
10308.99964930131
 20
13403.62212837906
 30
0.0
 40
70.0
 41
0.0
 46
0.0
 71
     7
 72
     1
  1
φ75
 73
     1
 44
1.0
  0
CIRCLE
  5
479F6
330
1F
100
AcDbEntity
  8
D-STR
100
AcDbCircle
 10
16829.05738147332
 20
13320.89903416692
 30
0.0
 40
37.5
  0
CIRCLE
  5
479F7
330
1F
100
AcDbEntity
  8
D-STR
100
AcDbCircle
 10
16829.05738147332
 20
13770.89903416692
 30
0.0
 40
30.8
  0
LINE
  5
479F8
330
1F
100
AcDbEntity
  8
D-BMK
100
AcDbLine
 10
16886.55738147333
 20
13320.89903416692
 30
0.0
 11
16771.55738147333
 21
13320.89903416692
 31
0.0
  0
LINE
  5
479F9
330
1F
100
AcDbEntity
  8
D-BMK
100
AcDbLine
 10
16778.25738147332
 20
13770.89903416692
 30
0.0
 11
16879.85738147332
 21
13770.89903416692
 31
0.0
  0
LINE
  5
479FA
330
1F
100
AcDbEntity
  8
D-BMK
100
AcDbLine
 10
16829.05738147332
 20
13263.39903416692
 30
0.0
 11
16829.05738147332
 21
13378.39903416692
 31
0.0
  0
LINE
  5
479FB
330
1F
100
AcDbEntity
  8
D-BMK
100
AcDbLine
 10
16829.05738147332
 20
13821.69903416692
 30
0.0
 11
16829.05738147332
 21
13720.09903416692
 31
0.0
  0
LINE
  5
479FC
330
1F
100
AcDbEntity
  8
D-BMK
100
AcDbLine
 10
15774.56238147332
 20
13320.89903416692
 30
0.0
 11
15889.56238147332
 21
13320.89903416692
 31
0.0
  0
CIRCLE
  5
479FD
330
1F
100
AcDbEntity
  8
D-STR
100
AcDbCircle
 10
15832.06238147332
 20
13320.89903416692
 30
0.0
 40
37.5
  0
LINE
  5
479FE
330
1F
100
AcDbEntity
  8
D-BMK
100
AcDbLine
 10
15832.06238147332
 20
13263.39903416692
 30
0.0
 11
15832.06238147332
 21
13378.39903416692
 31
0.0
  0
LINE
  5
479FF
330
1F
100
AcDbEntity
  8
D-BMK
100
AcDbLine
 10
15882.86238147332
 20
13770.89903416692
 30
0.0
 11
15781.26238147332
 21
13770.89903416692
 31
0.0
  0
LINE
  5
47A00
330
1F
100
AcDbEntity
  8
D-BMK
100
AcDbLine
 10
15832.06238147332
 20
13821.69903416692
 30
0.0
 11
15832.06238147332
 21
13720.09903416692
 31
0.0
  0
CIRCLE
  5
47A01
330
1F
100
AcDbEntity
  8
D-STR
100
AcDbCircle
 10
15832.06238147332
 20
13770.89903416692
 30
0.0
 40
30.8
  0
LWPOLYLINE
  5
47ACD
330
1F
100
AcDbEntity
  8
D-TTL-TXT
100
AcDbPolyline
 90
        4
 70
     1
 43
0.0
 10
13671.41702433045
 20
15039.64264130977
 10
12970.55988147333
 20
15039.64264130977
 10
12970.55988147333
 20
14820.89978416692
 10
13671.41702433045
 20
14820.89978416692
  0
TEXT
  5
47ACE
330
1F
100
AcDbEntity
  8
D-TTL-TXT
100
AcDbText
 10
13032.13567931104
 20
14878.84701057606
 30
0.0
 40
100.0
  1
構 造 図
 72
     4
 11
13324.70710788247
 21
14930.27558200463
 31
0.0
100
AcDbText
  0
INSERT
  5
47AE0
330
1F
100
AcDbEntity
  8
D-STR-HTXT
100
AcDbBlockReference
  2
_OPEN
 10
6789.866505357462
 20
10144.28082211804
 30
0.0
 41
-40.0
 42
40.0
 43
40.0
 50
119.9999999999999
  0
INSERT
  5
47AE2
330
1F
100
AcDbEntity
  8
D-STR-HTXT
100
AcDbBlockReference
  2
_OPEN
 10
10299.79068293507
 20
13343.28422415701
 30
0.0
 41
40.0
 42
40.0
 43
40.0
 50
240.0000000000002
1001
ACAD
1000
DSTYLE
1002
{
1070
   147
1040
0.625
1070
    77
1070
     0
1002
}
  0
LINE
  5
48300
330
1F
100
AcDbEntity
  8
D-STR-HTXT
100
AcDbLine
 10
6769.866505357462
 20
10178.92183826942
 30
0.0
 11
6687.029474670765
 21
10322.39978416692
 31
0.0
  0
LINE
  5
48301
330
1F
100
AcDbEntity
  8
D-STR-HTXT
100
AcDbLine
 10
6687.029474670765
 20
10322.39978416692
 30
0.0
 11
7329.858347903194
 21
10322.39978416692
 31
0.0
  0
LINE
  5
4840B
330
1F
100
AcDbEntity
  8
D-BMK
100
AcDbLine
 10
10212.54276004604
 20
13320.89978416692
 30
0.0
 11
10327.54276604604
 21
13320.89978416692
 31
0.0
  0
CIRCLE
  5
4840C
330
1F
100
AcDbEntity
  8
D-BGD
  6
Continuous
100
AcDbCircle
 10
10270.04276304604
 20
13320.89978416692
 30
0.0
 40
37.500003
  0
LINE
  5
4840D
330
1F
100
AcDbEntity
  8
D-BMK
100
AcDbLine
 10
10270.04276304604
 20
13263.39978116692
 30
0.0
 11
10270.04276304604
 21
13378.39978716692
 31
0.0
  0
LINE
  5
4840F
330
1F
100
AcDbEntity
  8
D-STR-HTXT
100
AcDbLine
 10
10319.79068293507
 20
13377.92524030839
 30
0.0
 11
10330.16829067036
 21
13395.89978416692
 31
0.0
1001
ACAD
1000
DSTYLE
1002
{
1070
   147
1040
0.625
1070
    77
1070
     0
1002
}
  0
LINE
  5
48410
330
1F
100
AcDbEntity
  8
D-STR-HTXT
100
AcDbLine
 10
10330.16829067036
 20
13395.89978416692
 30
0.0
 11
10514.37145746324
 21
13395.89978416692
 31
0.0
1001
ACAD
1000
DSTYLE
1002
{
1070
   147
1040
0.625
1070
    77
1070
     0
1002
}
  0
TEXT
  5
48479
330
1F
100
AcDbEntity
  8
D-TTL-TXT
100
AcDbText
 10
5323.189932956051
 20
14578.86123979121
 30
0.0
 40
100.0
  1
断 面 図
 72
     4
 11
5615.761361527479
 21
14628.86123979121
 31
0.0
100
AcDbText
  0
LWPOLYLINE
  5
4847A
330
1F
100
AcDbEntity
  8
D-TTL-TXT
100
AcDbPolyline
 90
        4
 70
     1
 43
0.0
 10
5961.54276304604
 20
14736.81406988119
 10
5271.685620188895
 20
14736.81406988119
 10
5271.685620188895
 20
14520.89978416692
 10
5961.54276304604
 20
14520.89978416692
  0
LINE
  5
4858C
330
1F
100
AcDbEntity
  8
D-STR
100
AcDbLine
 10
15080.55988147332
 20
12690.89903416692
 30
0.0
 11
17580.55988147332
 21
12690.89903416692
 31
0.0
  0
LINE
  5
48738
330
1F
100
AcDbEntity
  8
D-BGD
100
AcDbLine
 10
8790.04276304604
 20
14220.89978416692
 30
0.0
 11
8790.04276304604
 21
12620.89978416692
 31
0.0
  0
LINE
  5
48739
330
1F
100
AcDbEntity
  8
D-BGD
100
AcDbLine
 10
9505.04276304604
 20
14220.89978416692
 30
0.0
 11
9505.04276304604
 21
12620.89978416692
 31
0.0
  0
LINE
  5
4873A
330
1F
100
AcDbEntity
  8
D-BGD
100
AcDbLine
 10
9520.04276304604
 20
14220.89978416692
 30
0.0
 11
9520.04276304604
 21
12620.89978416692
 31
0.0
  0
LINE
  5
4873B
330
1F
100
AcDbEntity
  8
D-BGD
100
AcDbLine
 10
9750.042763046041
 20
14220.89978416692
 30
0.0
 11
9750.042763046041
 21
12620.89978416692
 31
0.0
  0
LINE
  5
4873C
330
1F
100
AcDbEntity
  8
D-BGD
100
AcDbLine
 10
9290.04276304604
 20
14220.89978416692
 30
0.0
 11
9290.04276304604
 21
12620.89978416692
 31
0.0
  0
LINE
  5
4873D
330
1F
100
AcDbEntity
  8
D-BGD
100
AcDbLine
 10
9250.042763046041
 20
14220.89978416692
 30
0.0
 11
9250.042763046041
 21
12620.89978416692
 31
0.0
  0
LINE
  5
4873E
330
1F
100
AcDbEntity
  8
D-BGD
100
AcDbLine
 10
9012.54276304604
 20
14220.89978416692
 30
0.0
 11
9012.54276304604
 21
12620.89978416692
 31
0.0
  0
LINE
  5
4873F
330
1F
100
AcDbEntity
  8
D-BGD
100
AcDbLine
 10
9027.54276304604
 20
14220.89978416692
 30
0.0
 11
9027.54276304604
 21
12620.89978416692
 31
0.0
  0
DIMENSION
  5
48740
330
1F
100
AcDbEntity
  8
D-BGD-DIM
100
AcDbDimension
280
     0
  2
*D34
 10
8771.542763046042
 20
14520.89978416692
 30
0.0
 11
8895.792763046042
 21
14568.39978416692
 31
0.0
 70
    32
 71
     5
 42
248.5
 73
     0
 74
     0
 75
     0
  3
SXF-20
100
AcDbAlignedDimension
 13
9020.042763046042
 23
14220.89978416692
 33
0.0
 14
8771.542763046042
 24
14220.89978416692
 34
0.0
 50
180.0
100
AcDbRotatedDimension
1001
ACAD
1000
DSTYLE
1002
{
1070
   271
1070
     1
1002
}
  0
DIMENSION
  5
48741
330
1F
100
AcDbEntity
  8
D-BGD-DIM
100
AcDbDimension
280
     0
  2
*D33
 10
9020.042763046042
 20
14520.89978416692
 30
0.0
 11
9395.042763046042
 21
14572.79978416692
 31
0.0
 70
    32
  1
3@250=<>
 71
     5
 42
750.0
 73
     0
 74
     0
 75
     0
  3
SXF-20
100
AcDbAlignedDimension
 13
9770.042763046042
 23
14420.89978416692
 33
0.0
 14
9020.042763046042
 24
14220.89978416692
 34
0.0
 50
180.0
100
AcDbRotatedDimension
  0
LWPOLYLINE
  5
4877A
330
1F
100
AcDbEntity
  8
D-TTL-TXT
100
AcDbPolyline
 90
        4
 70
     1
 43
0.0
 10
8436.727934200982
 20
14736.81406988119
 10
7746.870791343837
 20
14736.81406988119
 10
7746.870791343837
 20
14520.89978416692
 10
8436.727934200982
 20
14520.89978416692
  0
TEXT
  5
4877B
330
1F
100
AcDbEntity
  8
D-TTL-TXT
100
AcDbText
 10
7798.375104110992
 20
14578.57552550549
 30
0.0
 40
100.0
  1
側 面 図
 72
     4
 11
8090.946532682421
 21
14628.86123979121
 31
0.0
100
AcDbText
  0
LWPOLYLINE
  5
4877C
330
1F
100
AcDbEntity
  8
D-TTL-TXT
100
AcDbPolyline
 90
        4
 70
     1
 43
0.0
 10
5961.54276304604
 20
11678.28968764591
 10
5271.685620188895
 20
11678.28968764591
 10
5271.685620188895
 20
11462.37540193163
 10
5961.54276304604
 20
11462.37540193163
  0
TEXT
  5
4877D
330
1F
100
AcDbEntity
  8
D-TTL-TXT
100
AcDbText
 10
5323.189932956051
 20
11520.90828612735
 30
0.0
 40
100.0
  1
平 面 図
 72
     4
 11
5615.761361527479
 21
11570.33685755592
 31
0.0
100
AcDbText
  0
VIEWPORT
  5
214E2
330
214E1
100
AcDbEntity
 67
     1
  8
0
100
AcDbViewport
 10
420.5000039163311
 20
317.6954415278665
 30
0.0
 40
1017.70372737027
 41
614.2824687489045
 68
     1
 69
     1
 12
420.5000039163311
 22
317.6954415278665
 13
0.0
 23
0.0
 14
10.0
 24
10.0
 15
10.0
 25
10.0
 16
0.0
 26
0.0
 36
1.0
 17
0.0
 27
0.0
 37
0.0
 42
50.0
 43
0.0
 44
0.0
 45
614.2824687489045
 50
0.0
 51
0.0
 72
   100
 90
    32800
  1

281
     0
 71
     1
 74
     0
110
0.0
120
0.0
130
0.0
111
1.0
121
0.0
131
0.0
112
0.0
122
1.0
132
0.0
 79
     0
146
0.0
170
     0
 61
     5
348
487AB
292
     1
282
     1
141
0.0
142
0.0
 63
   250
421
  3355443
  0
TEXT
  5
37D0C
330
214E1
100
AcDbEntity
 67
     1
  8
0
 62
     7
370
     0
100
AcDbText
 10
304.7990235012664
 20
-492.9645257403233
 30
0.0
 40
3.185536336889355
  1

  7
WMF-ＭＳ 明朝0
100
AcDbText
  0
TEXT
  5
37D0D
330
214E1
100
AcDbEntity
 67
     1
  8
0
 62
     7
370
     0
100
AcDbText
 10
418.3428929349463
 20
-492.9645257403233
 30
0.0
 40
3.185536336889355
  1

  7
WMF-ＭＳ 明朝0
100
AcDbText
  0
TEXT
  5
37D10
330
214E1
100
AcDbEntity
 67
     1
  8
0
 62
     7
370
     0
100
AcDbText
 10
367.2481516897903
 20
-396.925336177669
 30
0.0
 40
3.185536336889355
  1

  7
WMF-ＭＳ 明朝0
100
AcDbText
  0
TEXT
  5
37D11
330
214E1
100
AcDbEntity
 67
     1
  8
0
 62
     7
370
     0
100
AcDbText
 10
321.8306039163184
 20
-492.9645257403233
 30
0.0
 40
3.185536336889355
  1

  7
WMF-ＭＳ 明朝0
100
AcDbText
  0
TEXT
  5
37D12
330
214E1
100
AcDbEntity
 67
     1
  8
0
 62
     7
370
     0
100
AcDbText
 10
344.5393778030544
 20
-492.9645257403233
 30
0.0
 40
3.185536336889355
  1

  7
WMF-ＭＳ 明朝0
100
AcDbText
  0
TEXT
  5
37D13
330
214E1
100
AcDbEntity
 67
     1
  8
0
 62
     7
370
     0
100
AcDbText
 10
367.2481516897903
 20
-492.9645257403233
 30
0.0
 40
3.185536336889355
  1

  7
WMF-ＭＳ 明朝0
100
AcDbText
  0
TEXT
  5
37D14
330
214E1
100
AcDbEntity
 67
     1
  8
0
 62
     7
370
     0
100
AcDbText
 10
395.6341190482104
 20
-492.9645257403233
 30
0.0
 40
3.185536336889355
  1

  7
WMF-ＭＳ 明朝0
100
AcDbText
  0
TEXT
  5
37D15
330
214E1
100
AcDbEntity
 67
     1
  8
0
 62
     7
370
     0
100
AcDbText
 10
287.7674430862144
 20
-492.9645257403233
 30
0.0
 40
3.185536336889355
  1

  7
WMF-ＭＳ 明朝0
100
AcDbText
  0
TEXT
  5
37D1A
330
214E1
100
AcDbEntity
 67
     1
  8
0
 62
     7
370
     0
100
AcDbText
 10
287.7674430862144
 20
-486.1045836287051
 30
0.0
 40
3.185536336889355
  1

  7
WMF-ＭＳ 明朝0
100
AcDbText
  0
TEXT
  5
37D20
330
214E1
100
AcDbEntity
 67
     1
  8
0
 62
     7
370
     0
100
AcDbText
 10
304.7990235012664
 20
-396.925336177669
 30
0.0
 40
3.185536336889355
  1

  7
WMF-ＭＳ 明朝0
100
AcDbText
  0
TEXT
  5
37D22
330
214E1
100
AcDbEntity
 67
     1
  8
0
 62
     7
370
     0
100
AcDbText
 10
287.7674430862144
 20
-410.6452204009054
 30
0.0
 40
3.185536336889355
  1

  7
WMF-ＭＳ 明朝0
100
AcDbText
  0
TEXT
  5
37D27
330
214E1
100
AcDbEntity
 67
     1
  8
0
 62
     7
370
     0
100
AcDbText
 10
287.7674430862144
 20
-396.925336177669
 30
0.0
 40
3.185536336889355
  1

  7
WMF-ＭＳ 明朝0
100
AcDbText
  0
TEXT
  5
37D28
330
214E1
100
AcDbEntity
 67
     1
  8
0
 62
     7
370
     0
100
AcDbText
 10
304.7990235012664
 20
-410.6452204009054
 30
0.0
 40
3.185536336889355
  1

  7
WMF-ＭＳ 明朝0
100
AcDbText
  0
TEXT
  5
37D33
330
214E1
100
AcDbEntity
 67
     1
  8
0
 62
     7
370
     0
100
AcDbText
 10
304.7990235012664
 20
-486.1045836287051
 30
0.0
 40
3.185536336889355
  1

  7
WMF-ＭＳ 明朝0
100
AcDbText
  0
TEXT
  5
37D34
330
214E1
100
AcDbEntity
 67
     1
  8
0
 62
     7
370
     0
100
AcDbText
 10
321.8306039163184
 20
-410.6452204009054
 30
0.0
 40
3.185536336889355
  1

  7
WMF-ＭＳ 明朝0
100
AcDbText
  0
TEXT
  5
37D36
330
214E1
100
AcDbEntity
 67
     1
  8
0
 62
     7
370
     0
100
AcDbText
 10
321.8306039163184
 20
-424.3651046241416
 30
0.0
 40
3.185536336889355
  1

  7
WMF-ＭＳ 明朝0
100
AcDbText
  0
TEXT
  5
37D40
330
214E1
100
AcDbEntity
 67
     1
  8
0
 62
     7
370
     0
100
AcDbText
 10
321.8306039163184
 20
-438.084988847378
 30
0.0
 40
3.185536336889355
  1

  7
WMF-ＭＳ 明朝0
100
AcDbText
  0
TEXT
  5
37D47
330
214E1
100
AcDbEntity
 67
     1
  8
0
 62
     7
370
     0
100
AcDbText
 10
344.5393778030544
 20
-424.3651046241416
 30
0.0
 40
3.185536336889355
  1

  7
WMF-ＭＳ 明朝0
100
AcDbText
  0
TEXT
  5
37D49
330
214E1
100
AcDbEntity
 67
     1
  8
0
 62
     7
370
     0
100
AcDbText
 10
344.5393778030544
 20
-438.084988847378
 30
0.0
 40
3.185536336889355
  1

  7
WMF-ＭＳ 明朝0
100
AcDbText
  0
TEXT
  5
37D4B
330
214E1
100
AcDbEntity
 67
     1
  8
0
 62
     7
370
     0
100
AcDbText
 10
344.5393778030544
 20
-396.925336177669
 30
0.0
 40
3.185536336889355
  1

  7
WMF-ＭＳ 明朝0
100
AcDbText
  0
TEXT
  5
37D4C
330
214E1
100
AcDbEntity
 67
     1
  8
0
 62
     7
370
     0
100
AcDbText
 10
344.5393778030544
 20
-410.6452204009054
 30
0.0
 40
3.185536336889355
  1

  7
WMF-ＭＳ 明朝0
100
AcDbText
  0
TEXT
  5
37D4D
330
214E1
100
AcDbEntity
 67
     1
  8
0
 62
     7
370
     0
100
AcDbText
 10
344.5393778030544
 20
-403.7852782892872
 30
0.0
 40
3.185536336889355
  1

  7
WMF-ＭＳ 明朝0
100
AcDbText
  0
TEXT
  5
37D4F
330
214E1
100
AcDbEntity
 67
     1
  8
0
 62
     7
370
     0
100
AcDbText
 10
367.2481516897903
 20
-410.6452204009054
 30
0.0
 40
3.185536336889355
  1

  7
WMF-ＭＳ 明朝0
100
AcDbText
  0
TEXT
  5
37D50
330
214E1
100
AcDbEntity
 67
     1
  8
0
 62
     7
370
     0
100
AcDbText
 10
367.2481516897903
 20
-403.7852782892872
 30
0.0
 40
3.185536336889355
  1

  7
WMF-ＭＳ 明朝0
100
AcDbText
  0
TEXT
  5
37D54
330
214E1
100
AcDbEntity
 67
     1
  8
0
 62
     7
370
     0
100
AcDbText
 10
367.2481516897903
 20
-424.3651046241416
 30
0.0
 40
3.185536336889355
  1

  7
WMF-ＭＳ 明朝0
100
AcDbText
  0
TEXT
  5
37D56
330
214E1
100
AcDbEntity
 67
     1
  8
0
 62
     7
370
     0
100
AcDbText
 10
367.2481516897903
 20
-438.084988847378
 30
0.0
 40
3.185536336889355
  1

  7
WMF-ＭＳ 明朝0
100
AcDbText
  0
TEXT
  5
37D5E
330
214E1
100
AcDbEntity
 67
     1
  8
0
 62
     7
370
     0
100
AcDbText
 10
395.6341190482104
 20
-431.2250467357598
 30
0.0
 40
3.185536336889355
  1

  7
WMF-ＭＳ 明朝0
100
AcDbText
  0
TEXT
  5
37D60
330
214E1
100
AcDbEntity
 67
     1
  8
0
 62
     7
370
     0
100
AcDbText
 10
395.6341190482104
 20
-438.084988847378
 30
0.0
 40
3.185536336889355
  1

  7
WMF-ＭＳ 明朝0
100
AcDbText
  0
TEXT
  5
37D61
330
214E1
100
AcDbEntity
 67
     1
  8
0
 62
     7
370
     0
100
AcDbText
 10
395.6341190482104
 20
-444.9449309589962
 30
0.0
 40
3.185536336889355
  1

  7
WMF-ＭＳ 明朝0
100
AcDbText
  0
TEXT
  5
37D62
330
214E1
100
AcDbEntity
 67
     1
  8
0
 62
     7
370
     0
100
AcDbText
 10
418.3428929349463
 20
-438.084988847378
 30
0.0
 40
3.185536336889355
  1

  7
WMF-ＭＳ 明朝0
100
AcDbText
  0
TEXT
  5
37D65
330
214E1
100
AcDbEntity
 67
     1
  8
0
 62
     7
370
     0
100
AcDbText
 10
395.6341190482104
 20
-410.6452204009054
 30
0.0
 40
3.185536336889355
  1

  7
WMF-ＭＳ 明朝0
100
AcDbText
  0
TEXT
  5
37D66
330
214E1
100
AcDbEntity
 67
     1
  8
0
 62
     7
370
     0
100
AcDbText
 10
395.6341190482104
 20
-417.5051625125234
 30
0.0
 40
3.185536336889355
  1

  7
WMF-ＭＳ 明朝0
100
AcDbText
  0
TEXT
  5
37D67
330
214E1
100
AcDbEntity
 67
     1
  8
0
 62
     7
370
     0
100
AcDbText
 10
418.3428929349463
 20
-410.6452204009054
 30
0.0
 40
3.185536336889355
  1

  7
WMF-ＭＳ 明朝0
100
AcDbText
  0
TEXT
  5
37D69
330
214E1
100
AcDbEntity
 67
     1
  8
0
 62
     7
370
     0
100
AcDbText
 10
418.3428929349463
 20
-424.3651046241416
 30
0.0
 40
3.185536336889355
  1

  7
WMF-ＭＳ 明朝0
100
AcDbText
  0
TEXT
  5
37D6B
330
214E1
100
AcDbEntity
 67
     1
  8
0
 62
     7
370
     0
100
AcDbText
 10
395.6341190482104
 20
-424.3651046241416
 30
0.0
 40
3.185536336889355
  1

  7
WMF-ＭＳ 明朝0
100
AcDbText
  0
TEXT
  5
37D6C
330
214E1
100
AcDbEntity
 67
     1
  8
0
 62
     7
370
     0
100
AcDbText
 10
395.6341190482104
 20
-472.3846994054688
 30
0.0
 40
3.185536336889355
  1

  7
WMF-ＭＳ 明朝0
100
AcDbText
  0
TEXT
  5
37D6D
330
214E1
100
AcDbEntity
 67
     1
  8
0
 62
     7
370
     0
100
AcDbText
 10
395.6341190482104
 20
-479.244641517087
 30
0.0
 40
3.185536336889355
  1

  7
WMF-ＭＳ 明朝0
100
AcDbText
  0
TEXT
  5
37D6E
330
214E1
100
AcDbEntity
 67
     1
  8
0
 62
     7
370
     0
100
AcDbText
 10
395.6341190482104
 20
-486.1045836287051
 30
0.0
 40
3.185536336889355
  1

  7
WMF-ＭＳ 明朝0
100
AcDbText
  0
TEXT
  5
37D6F
330
214E1
100
AcDbEntity
 67
     1
  8
0
 62
     7
370
     0
100
AcDbText
 10
395.6341190482104
 20
-451.8048730706143
 30
0.0
 40
3.185536336889355
  1

  7
WMF-ＭＳ 明朝0
100
AcDbText
  0
TEXT
  5
37D70
330
214E1
100
AcDbEntity
 67
     1
  8
0
 62
     7
370
     0
100
AcDbText
 10
395.6341190482104
 20
-458.6648151822324
 30
0.0
 40
3.185536336889355
  1

  7
WMF-ＭＳ 明朝0
100
AcDbText
  0
TEXT
  5
37D71
330
214E1
100
AcDbEntity
 67
     1
  8
0
 62
     7
370
     0
100
AcDbText
 10
395.6341190482104
 20
-465.5247572938506
 30
0.0
 40
3.185536336889355
  1

  7
WMF-ＭＳ 明朝0
100
AcDbText
  0
TEXT
  5
37D77
330
214E1
100
AcDbEntity
 67
     1
  8
0
 62
     7
370
     0
100
AcDbText
 10
389.9569255765264
 20
-527.2642362984141
 30
0.0
 40
3.185536336889355
  1

  7
WMF-ＭＳ 明朝0
100
AcDbText
  0
TEXT
  5
37D78
330
214E1
100
AcDbEntity
 67
     1
  8
0
 62
     7
370
     0
100
AcDbText
 10
293.4446365578984
 20
-540.9841205216505
 30
0.0
 40
3.185536336889355
  1

  7
WMF-ＭＳ 明朝0
100
AcDbText
  0
TEXT
  5
37D7D
330
214E1
100
AcDbEntity
 67
     1
  8
0
 62
     7
370
     0
100
AcDbText
 10
304.7990235012664
 20
-540.9841205216505
 30
0.0
 40
3.185536336889355
  1

  7
WMF-ＭＳ 明朝0
100
AcDbText
  0
TEXT
  5
37D7F
330
214E1
100
AcDbEntity
 67
     1
  8
0
 62
     7
370
     0
100
AcDbText
 10
418.3428929349463
 20
-486.1045836287051
 30
0.0
 40
3.185536336889355
  1

  7
WMF-ＭＳ 明朝0
100
AcDbText
  0
TEXT
  5
37D87
330
214E1
100
AcDbEntity
 67
     1
  8
0
 62
     7
370
     0
100
AcDbText
 10
367.2481516897903
 20
-486.1045836287051
 30
0.0
 40
3.185536336889355
  1

  7
WMF-ＭＳ 明朝0
100
AcDbText
  0
TEXT
  5
37D88
330
214E1
100
AcDbEntity
 67
     1
  8
0
 62
     7
370
     0
100
AcDbText
 10
344.5393778030544
 20
-486.1045836287051
 30
0.0
 40
3.185536336889355
  1

  7
WMF-ＭＳ 明朝0
100
AcDbText
  0
TEXT
  5
37D89
330
214E1
100
AcDbEntity
 67
     1
  8
0
 62
     7
370
     0
100
AcDbText
 10
321.8306039163184
 20
-486.1045836287051
 30
0.0
 40
3.185536336889355
  1

  7
WMF-ＭＳ 明朝0
100
AcDbText
  0
TEXT
  5
37D8A
330
214E1
100
AcDbEntity
 67
     1
  8
0
 62
     7
370
     0
100
AcDbText
 10
412.6656994632623
 20
-506.6844099635597
 30
0.0
 40
3.185536336889355
  1

  7
WMF-ＭＳ 明朝0
100
AcDbText
  0
TEXT
  5
37D8B
330
214E1
100
AcDbEntity
 67
     1
  8
0
 62
     7
370
     0
100
AcDbText
 10
287.7674430862144
 20
-403.7852782892872
 30
0.0
 40
3.185536336889355
  1

  7
WMF-ＭＳ 明朝0
100
AcDbText
  0
TEXT
  5
37D8C
330
214E1
100
AcDbEntity
 67
     1
  8
0
 62
     7
370
     0
100
AcDbText
 10
304.7990235012664
 20
-403.7852782892872
 30
0.0
 40
3.185536336889355
  1

  7
WMF-ＭＳ 明朝0
100
AcDbText
  0
TEXT
  5
37D8D
330
214E1
100
AcDbEntity
 67
     1
  8
0
 62
     7
370
     0
100
AcDbText
 10
321.8306039163184
 20
-403.7852782892872
 30
0.0
 40
3.185536336889355
  1

  7
WMF-ＭＳ 明朝0
100
AcDbText
  0
TEXT
  5
37D8E
330
214E1
100
AcDbEntity
 67
     1
  8
0
 62
     7
370
     0
100
AcDbText
 10
321.8306039163184
 20
-396.925336177669
 30
0.0
 40
3.185536336889355
  1

  7
WMF-ＭＳ 明朝0
100
AcDbText
  0
TEXT
  5
37D91
330
214E1
100
AcDbEntity
 67
     1
  8
0
 62
     7
370
     0
100
AcDbText
 10
395.6341190482104
 20
-383.2054519544327
 30
0.0
 40
3.185536336889355
  1

  7
WMF-ＭＳ 明朝0
100
AcDbText
  0
TEXT
  5
37D92
330
214E1
100
AcDbEntity
 67
     1
  8
0
 62
     7
370
     0
100
AcDbText
 10
418.3428929349463
 20
-403.7852782892872
 30
0.0
 40
3.185536336889355
  1

  7
WMF-ＭＳ 明朝0
100
AcDbText
  0
TEXT
  5
37D94
330
214E1
100
AcDbEntity
 67
     1
  8
0
 62
     7
370
     0
100
AcDbText
 10
395.6341190482104
 20
-390.0653940660509
 30
0.0
 40
3.185536336889355
  1

  7
WMF-ＭＳ 明朝0
100
AcDbText
  0
TEXT
  5
37D95
330
214E1
100
AcDbEntity
 67
     1
  8
0
 62
     7
370
     0
100
AcDbText
 10
395.6341190482104
 20
-396.925336177669
 30
0.0
 40
3.185536336889355
  1

  7
WMF-ＭＳ 明朝0
100
AcDbText
  0
TEXT
  5
37D96
330
214E1
100
AcDbEntity
 67
     1
  8
0
 62
     7
370
     0
100
AcDbText
 10
418.3428929349463
 20
-396.925336177669
 30
0.0
 40
3.185536336889355
  1

  7
WMF-ＭＳ 明朝0
100
AcDbText
  0
TEXT
  5
37D97
330
214E1
100
AcDbEntity
 67
     1
  8
0
 62
     7
370
     0
100
AcDbText
 10
395.6341190482104
 20
-403.7852782892872
 30
0.0
 40
3.185536336889355
  1

  7
WMF-ＭＳ 明朝0
100
AcDbText
  0
TEXT
  5
38151
330
214E1
100
AcDbEntity
 67
     1
  8
0
 62
     7
370
     0
100
AcDbText
 10
307.0302425824479
 20
-390.5899013717108
 30
0.0
 40
1.929729329366315
  1

  7
WMF-ＭＳ 明朝0
100
AcDbText
  0
TEXT
  5
38152
330
214E1
100
AcDbEntity
 67
     1
  8
0
 62
     7
370
     0
100
AcDbText
 10
320.7867288908019
 20
-403.0567170886565
 30
0.0
 40
1.929729329366315
  1

  7
WMF-ＭＳ 明朝0
100
AcDbText
  0
TEXT
  5
38154
330
214E1
100
AcDbEntity
 67
     1
  8
0
 62
     7
370
     0
100
AcDbText
 10
307.0302425824479
 20
-394.7455066106928
 30
0.0
 40
1.929729329366315
  1

  7
WMF-ＭＳ 明朝0
100
AcDbText
  0
TEXT
  5
38155
330
214E1
100
AcDbEntity
 67
     1
  8
0
 62
     7
370
     0
100
AcDbText
 10
307.0302425824479
 20
-398.9011118496747
 30
0.0
 40
1.929729329366315
  1

  7
WMF-ＭＳ 明朝0
100
AcDbText
  0
TEXT
  5
38156
330
214E1
100
AcDbEntity
 67
     1
  8
0
 62
     7
370
     0
100
AcDbText
 10
320.7867288908019
 20
-398.9011118496747
 30
0.0
 40
1.929729329366315
  1

  7
WMF-ＭＳ 明朝0
100
AcDbText
  0
TEXT
  5
38157
330
214E1
100
AcDbEntity
 67
     1
  8
0
 62
     7
370
     0
100
AcDbText
 10
307.0302425824479
 20
-403.0567170886565
 30
0.0
 40
1.929729329366315
  1

  7
WMF-ＭＳ 明朝0
100
AcDbText
  0
TEXT
  5
38159
330
214E1
100
AcDbEntity
 67
     1
  8
0
 62
     7
370
     0
100
AcDbText
 10
241.6869326177668
 20
-403.0567170886565
 30
0.0
 40
1.929729329366315
  1

  7
WMF-ＭＳ 明朝0
100
AcDbText
  0
TEXT
  5
3815A
330
214E1
100
AcDbEntity
 67
     1
  8
0
 62
     7
370
     0
100
AcDbText
 10
252.0042973490323
 20
-403.0567170886565
 30
0.0
 40
1.929729329366315
  1

  7
WMF-ＭＳ 明朝0
100
AcDbText
  0
TEXT
  5
3815B
330
214E1
100
AcDbEntity
 67
     1
  8
0
 62
     7
370
     0
100
AcDbText
 10
262.3216620802977
 20
-403.0567170886565
 30
0.0
 40
1.929729329366315
  1

  7
WMF-ＭＳ 明朝0
100
AcDbText
  0
TEXT
  5
3815C
330
214E1
100
AcDbEntity
 67
     1
  8
0
 62
     7
370
     0
100
AcDbText
 10
262.3216620802977
 20
-398.9011118496747
 30
0.0
 40
1.929729329366315
  1

  7
WMF-ＭＳ 明朝0
100
AcDbText
  0
TEXT
  5
3815D
330
214E1
100
AcDbEntity
 67
     1
  8
0
 62
     7
370
     0
100
AcDbText
 10
320.7867288908019
 20
-452.9239799564396
 30
0.0
 40
1.929729329366315
  1

  7
WMF-ＭＳ 明朝0
100
AcDbText
  0
TEXT
  5
38165
330
214E1
100
AcDbEntity
 67
     1
  8
0
 62
     7
370
     0
100
AcDbText
 10
289.8346346970055
 20
-452.9239799564396
 30
0.0
 40
1.929729329366315
  1

  7
WMF-ＭＳ 明朝0
100
AcDbText
  0
TEXT
  5
38166
330
214E1
100
AcDbEntity
 67
     1
  8
0
 62
     7
370
     0
100
AcDbText
 10
276.0781483886516
 20
-452.9239799564396
 30
0.0
 40
1.929729329366315
  1

  7
WMF-ＭＳ 明朝0
100
AcDbText
  0
TEXT
  5
38167
330
214E1
100
AcDbEntity
 67
     1
  8
0
 62
     7
370
     0
100
AcDbText
 10
262.3216620802977
 20
-452.9239799564396
 30
0.0
 40
1.929729329366315
  1

  7
WMF-ＭＳ 明朝0
100
AcDbText
  0
TEXT
  5
38168
330
214E1
100
AcDbEntity
 67
     1
  8
0
 62
     7
370
     0
100
AcDbText
 10
317.3476073137134
 20
-465.3907956733853
 30
0.0
 40
1.929729329366315
  1

  7
WMF-ＭＳ 明朝0
100
AcDbText
  0
TEXT
  5
3816A
330
214E1
100
AcDbEntity
 67
     1
  8
0
 62
     7
370
     0
100
AcDbText
 10
303.5911210053594
 20
-477.857611390331
 30
0.0
 40
1.929729329366315
  1

  7
WMF-ＭＳ 明朝0
100
AcDbText
  0
TEXT
  5
3816B
330
214E1
100
AcDbEntity
 67
     1
  8
0
 62
     7
370
     0
100
AcDbText
 10
245.1260541948553
 20
-486.1688218682949
 30
0.0
 40
1.929729329366315
  1

  7
WMF-ＭＳ 明朝0
100
AcDbText
  0
TEXT
  5
38170
330
214E1
100
AcDbEntity
 67
     1
  8
0
 62
     7
370
     0
100
AcDbText
 10
252.0042973490323
 20
-486.1688218682949
 30
0.0
 40
1.929729329366315
  1

  7
WMF-ＭＳ 明朝0
100
AcDbText
  0
TEXT
  5
38176
330
214E1
100
AcDbEntity
 67
     1
  8
0
 62
     7
370
     0
100
AcDbText
 10
307.0302425824479
 20
-444.6127694784757
 30
0.0
 40
1.929729329366315
  1

  7
WMF-ＭＳ 明朝0
100
AcDbText
  0
TEXT
  5
38177
330
214E1
100
AcDbEntity
 67
     1
  8
0
 62
     7
370
     0
100
AcDbText
 10
307.0302425824479
 20
-448.7683747174576
 30
0.0
 40
1.929729329366315
  1

  7
WMF-ＭＳ 明朝0
100
AcDbText
  0
TEXT
  5
38178
330
214E1
100
AcDbEntity
 67
     1
  8
0
 62
     7
370
     0
100
AcDbText
 10
307.0302425824479
 20
-452.9239799564396
 30
0.0
 40
1.929729329366315
  1

  7
WMF-ＭＳ 明朝0
100
AcDbText
  0
TEXT
  5
38179
330
214E1
100
AcDbEntity
 67
     1
  8
0
 62
     7
370
     0
100
AcDbText
 10
307.0302425824479
 20
-432.1459537615299
 30
0.0
 40
1.929729329366315
  1

  7
WMF-ＭＳ 明朝0
100
AcDbText
  0
TEXT
  5
3817A
330
214E1
100
AcDbEntity
 67
     1
  8
0
 62
     7
370
     0
100
AcDbText
 10
307.0302425824479
 20
-436.3015590005119
 30
0.0
 40
1.929729329366315
  1

  7
WMF-ＭＳ 明朝0
100
AcDbText
  0
TEXT
  5
3817B
330
214E1
100
AcDbEntity
 67
     1
  8
0
 62
     7
370
     0
100
AcDbText
 10
307.0302425824479
 20
-440.4571642394938
 30
0.0
 40
1.929729329366315
  1

  7
WMF-ＭＳ 明朝0
100
AcDbText
  0
TEXT
  5
3817C
330
214E1
100
AcDbEntity
 67
     1
  8
0
 62
     7
370
     0
100
AcDbText
 10
320.7867288908019
 20
-423.8347432835661
 30
0.0
 40
1.929729329366315
  1

  7
WMF-ＭＳ 明朝0
100
AcDbText
  0
TEXT
  5
3817F
330
214E1
100
AcDbEntity
 67
     1
  8
0
 62
     7
370
     0
100
AcDbText
 10
307.0302425824479
 20
-407.2123223276385
 30
0.0
 40
1.929729329366315
  1

  7
WMF-ＭＳ 明朝0
100
AcDbText
  0
TEXT
  5
38180
330
214E1
100
AcDbEntity
 67
     1
  8
0
 62
     7
370
     0
100
AcDbText
 10
307.0302425824479
 20
-411.3679275666204
 30
0.0
 40
1.929729329366315
  1

  7
WMF-ＭＳ 明朝0
100
AcDbText
  0
TEXT
  5
38181
330
214E1
100
AcDbEntity
 67
     1
  8
0
 62
     7
370
     0
100
AcDbText
 10
320.7867288908019
 20
-407.2123223276385
 30
0.0
 40
1.929729329366315
  1

  7
WMF-ＭＳ 明朝0
100
AcDbText
  0
TEXT
  5
38183
330
214E1
100
AcDbEntity
 67
     1
  8
0
 62
     7
370
     0
100
AcDbText
 10
320.7867288908019
 20
-415.5235328056023
 30
0.0
 40
1.929729329366315
  1

  7
WMF-ＭＳ 明朝0
100
AcDbText
  0
TEXT
  5
38185
330
214E1
100
AcDbEntity
 67
     1
  8
0
 62
     7
370
     0
100
AcDbText
 10
307.0302425824479
 20
-415.5235328056023
 30
0.0
 40
1.929729329366315
  1

  7
WMF-ＭＳ 明朝0
100
AcDbText
  0
TEXT
  5
38186
330
214E1
100
AcDbEntity
 67
     1
  8
0
 62
     7
370
     0
100
AcDbText
 10
307.0302425824479
 20
-419.6791380445842
 30
0.0
 40
1.929729329366315
  1

  7
WMF-ＭＳ 明朝0
100
AcDbText
  0
TEXT
  5
38188
330
214E1
100
AcDbEntity
 67
     1
  8
0
 62
     7
370
     0
100
AcDbText
 10
307.0302425824479
 20
-423.8347432835661
 30
0.0
 40
1.929729329366315
  1

  7
WMF-ＭＳ 明朝0
100
AcDbText
  0
TEXT
  5
38189
330
214E1
100
AcDbEntity
 67
     1
  8
0
 62
     7
370
     0
100
AcDbText
 10
307.0302425824479
 20
-427.9903485225481
 30
0.0
 40
1.929729329366315
  1

  7
WMF-ＭＳ 明朝0
100
AcDbText
  0
TEXT
  5
38191
330
214E1
100
AcDbEntity
 67
     1
  8
0
 62
     7
370
     0
100
AcDbText
 10
289.8346346970055
 20
-407.2123223276385
 30
0.0
 40
1.929729329366315
  1

  7
WMF-ＭＳ 明朝0
100
AcDbText
  0
TEXT
  5
38192
330
214E1
100
AcDbEntity
 67
     1
  8
0
 62
     7
370
     0
100
AcDbText
 10
289.8346346970055
 20
-403.0567170886565
 30
0.0
 40
1.929729329366315
  1

  7
WMF-ＭＳ 明朝0
100
AcDbText
  0
TEXT
  5
38196
330
214E1
100
AcDbEntity
 67
     1
  8
0
 62
     7
370
     0
100
AcDbText
 10
289.8346346970055
 20
-415.5235328056023
 30
0.0
 40
1.929729329366315
  1

  7
WMF-ＭＳ 明朝0
100
AcDbText
  0
TEXT
  5
38198
330
214E1
100
AcDbEntity
 67
     1
  8
0
 62
     7
370
     0
100
AcDbText
 10
289.8346346970055
 20
-423.8347432835661
 30
0.0
 40
1.929729329366315
  1

  7
WMF-ＭＳ 明朝0
100
AcDbText
  0
TEXT
  5
38199
330
214E1
100
AcDbEntity
 67
     1
  8
0
 62
     7
370
     0
100
AcDbText
 10
276.0781483886516
 20
-398.9011118496747
 30
0.0
 40
1.929729329366315
  1

  7
WMF-ＭＳ 明朝0
100
AcDbText
  0
TEXT
  5
3819A
330
214E1
100
AcDbEntity
 67
     1
  8
0
 62
     7
370
     0
100
AcDbText
 10
276.0781483886516
 20
-407.2123223276385
 30
0.0
 40
1.929729329366315
  1

  7
WMF-ＭＳ 明朝0
100
AcDbText
  0
TEXT
  5
3819B
330
214E1
100
AcDbEntity
 67
     1
  8
0
 62
     7
370
     0
100
AcDbText
 10
276.0781483886516
 20
-403.0567170886565
 30
0.0
 40
1.929729329366315
  1

  7
WMF-ＭＳ 明朝0
100
AcDbText
  0
TEXT
  5
3819E
330
214E1
100
AcDbEntity
 67
     1
  8
0
 62
     7
370
     0
100
AcDbText
 10
276.0781483886516
 20
-415.5235328056023
 30
0.0
 40
1.929729329366315
  1

  7
WMF-ＭＳ 明朝0
100
AcDbText
  0
TEXT
  5
381A0
330
214E1
100
AcDbEntity
 67
     1
  8
0
 62
     7
370
     0
100
AcDbText
 10
276.0781483886516
 20
-423.8347432835661
 30
0.0
 40
1.929729329366315
  1

  7
WMF-ＭＳ 明朝0
100
AcDbText
  0
TEXT
  5
381A4
330
214E1
100
AcDbEntity
 67
     1
  8
0
 62
     7
370
     0
100
AcDbText
 10
262.3216620802977
 20
-423.8347432835661
 30
0.0
 40
1.929729329366315
  1

  7
WMF-ＭＳ 明朝0
100
AcDbText
  0
TEXT
  5
381AA
330
214E1
100
AcDbEntity
 67
     1
  8
0
 62
     7
370
     0
100
AcDbText
 10
262.3216620802977
 20
-407.2123223276385
 30
0.0
 40
1.929729329366315
  1

  7
WMF-ＭＳ 明朝0
100
AcDbText
  0
TEXT
  5
381AC
330
214E1
100
AcDbEntity
 67
     1
  8
0
 62
     7
370
     0
100
AcDbText
 10
262.3216620802977
 20
-415.5235328056023
 30
0.0
 40
1.929729329366315
  1

  7
WMF-ＭＳ 明朝0
100
AcDbText
  0
TEXT
  5
381B7
330
214E1
100
AcDbEntity
 67
     1
  8
0
 62
     7
370
     0
100
AcDbText
 10
252.0042973490323
 20
-452.9239799564396
 30
0.0
 40
1.929729329366315
  1

  7
WMF-ＭＳ 明朝0
100
AcDbText
  0
TEXT
  5
381BC
330
214E1
100
AcDbEntity
 67
     1
  8
0
 62
     7
370
     0
100
AcDbText
 10
252.0042973490323
 20
-407.2123223276385
 30
0.0
 40
1.929729329366315
  1

  7
WMF-ＭＳ 明朝0
100
AcDbText
  0
TEXT
  5
381C2
330
214E1
100
AcDbEntity
 67
     1
  8
0
 62
     7
370
     0
100
AcDbText
 10
252.0042973490323
 20
-398.9011118496747
 30
0.0
 40
1.929729329366315
  1

  7
WMF-ＭＳ 明朝0
100
AcDbText
  0
TEXT
  5
381C4
330
214E1
100
AcDbEntity
 67
     1
  8
0
 62
     7
370
     0
100
AcDbText
 10
241.6869326177668
 20
-407.2123223276385
 30
0.0
 40
1.929729329366315
  1

  7
WMF-ＭＳ 明朝0
100
AcDbText
  0
TEXT
  5
381C9
330
214E1
100
AcDbEntity
 67
     1
  8
0
 62
     7
370
     0
100
AcDbText
 10
241.6869326177668
 20
-398.9011118496747
 30
0.0
 40
1.929729329366315
  1

  7
WMF-ＭＳ 明朝0
100
AcDbText
  0
TEXT
  5
381CC
330
214E1
100
AcDbEntity
 67
     1
  8
0
 62
     7
370
     0
100
AcDbText
 10
241.6869326177668
 20
-452.9239799564396
 30
0.0
 40
1.929729329366315
  1

  7
WMF-ＭＳ 明朝0
100
AcDbText
  0
TEXT
  5
381D2
330
214E1
100
AcDbEntity
 67
     1
  8
0
 62
     7
370
     0
100
AcDbText
 10
262.3216620802977
 20
-457.0795851954215
 30
0.0
 40
1.929729329366315
  1

  7
WMF-ＭＳ 明朝0
100
AcDbText
  0
TEXT
  5
381D3
330
214E1
100
AcDbEntity
 67
     1
  8
0
 62
     7
370
     0
100
AcDbText
 10
276.0781483886516
 20
-457.0795851954215
 30
0.0
 40
1.929729329366315
  1

  7
WMF-ＭＳ 明朝0
100
AcDbText
  0
TEXT
  5
381D4
330
214E1
100
AcDbEntity
 67
     1
  8
0
 62
     7
370
     0
100
AcDbText
 10
289.8346346970055
 20
-457.0795851954215
 30
0.0
 40
1.929729329366315
  1

  7
WMF-ＭＳ 明朝0
100
AcDbText
  0
TEXT
  5
381D5
330
214E1
100
AcDbEntity
 67
     1
  8
0
 62
     7
370
     0
100
AcDbText
 10
307.0302425824479
 20
-457.0795851954215
 30
0.0
 40
1.929729329366315
  1

  7
WMF-ＭＳ 明朝0
100
AcDbText
  0
TEXT
  5
381D6
330
214E1
100
AcDbEntity
 67
     1
  8
0
 62
     7
370
     0
100
AcDbText
 10
241.6869326177668
 20
-457.0795851954215
 30
0.0
 40
1.929729329366315
  1

  7
WMF-ＭＳ 明朝0
100
AcDbText
  0
TEXT
  5
381D7
330
214E1
100
AcDbEntity
 67
     1
  8
0
 62
     7
370
     0
100
AcDbText
 10
252.0042973490323
 20
-457.0795851954215
 30
0.0
 40
1.929729329366315
  1

  7
WMF-ＭＳ 明朝0
100
AcDbText
  0
TEXT
  5
381D8
330
214E1
100
AcDbEntity
 67
     1
  8
0
 62
     7
370
     0
100
AcDbText
 10
320.7867288908019
 20
-457.0795851954215
 30
0.0
 40
1.929729329366315
  1

  7
WMF-ＭＳ 明朝0
100
AcDbText
  0
TEXT
  5
381DB
330
214E1
100
AcDbEntity
 67
     1
  8
0
 62
     7
370
     0
100
AcDbText
 10
289.8346346970055
 20
-398.9011118496747
 30
0.0
 40
1.929729329366315
  1

  7
WMF-ＭＳ 明朝0
100
AcDbText
  0
LWPOLYLINE
  5
453BA
330
214E1
100
AcDbEntity
 67
     1
  8
D-TTL
100
AcDbPolyline
 90
        4
 70
     1
 43
0.0
 10
40.0
 20
20.0
 10
821.0
 20
20.00000000000006
 10
821.0
 20
574.0
 10
40.0
 20
574.0
  0
LWPOLYLINE
  5
453BB
330
214E1
100
AcDbEntity
 67
     1
  8
D-TTL
100
AcDbPolyline
 90
        4
 70
     1
 43
0.0
 10
0.0
 20
0.0
 10
840.9999999999998
 20
0.0000000000000568
 10
841.0
 20
594.0
 10
0.0000000000001137
 20
594.0
  0
TEXT
  5
453C6
330
214E1
100
AcDbEntity
 67
     1
  8
D-TTL-TXT
100
AcDbText
 10
448.5505814592366
 20
554.0
 30
0.0
 40
7.0
  1
尺度 1:20
100
AcDbText
  0
TEXT
  5
453C7
330
214E1
100
AcDbEntity
 67
     1
  8
D-TTL-TXT
100
AcDbText
 10
202.9142857142858
 20
554.0
 30
0.0
 40
10.0
  1
SIMPLE-WALL  1,600×1,210×2,000
 72
     1
 11
319.9428571428572
 21
554.0
 31
0.0
100
AcDbText
  0
LINE
  5
45463
330
214E1
100
AcDbEntity
 67
     1
  8
D-MTR-FRAM
100
AcDbLine
 10
661.0
 20
552.0
 30
0.0
 11
811.0
 21
552.0
 31
0.0
  0
LINE
  5
45464
330
214E1
100
AcDbEntity
 67
     1
  8
D-MTR-FRAM
100
AcDbLine
 10
661.0
 20
542.0
 30
0.0
 11
811.0
 21
542.0
 31
0.0
  0
LINE
  5
45465
330
214E1
100
AcDbEntity
 67
     1
  8
D-MTR-FRAM
100
AcDbLine
 10
661.0
 20
531.9999142856254
 30
0.0
 11
811.0
 21
531.9999142856254
 31
0.0
  0
LINE
  5
45466
330
214E1
100
AcDbEntity
 67
     1
  8
D-MTR-FRAM
100
AcDbLine
 10
661.0
 20
564.0
 30
0.0
 11
811.0
 21
564.0
 31
0.0
  0
LINE
  5
45467
330
214E1
100
AcDbEntity
 67
     1
  8
D-MTR-FRAM
100
AcDbLine
 10
661.0
 20
564.0
 30
0.0
 11
661.0
 21
532.0
 31
0.0
  0
TEXT
  5
45468
330
214E1
100
AcDbEntity
 67
     1
  8
D-MTR-TXT
100
AcDbText
 10
715.1020199174807
 20
554.3061187549453
 30
0.0
 40
7.142864286017347
  1
設計条件
 72
     4
 11
736.0
 21
558.0
 31
0.0
100
AcDbText
  0
TEXT
  5
45469
330
214E1
100
AcDbEntity
 67
     1
  8
D-MTR-TXT
100
AcDbText
 10
683.8714139422364
 20
544.5285260998507
 30
0.0
 40
5.000005000212142
  1
設計荷重
 72
     4
 11
698.5
 21
546.9999571428127
 31
0.0
100
AcDbText
  0
TEXT
  5
4546A
330
214E1
100
AcDbEntity
 67
     1
  8
D-MTR-TXT
100
AcDbText
 10
680.2142674277956
 20
534.3999545427023
 30
0.0
 40
5.000005000212142
  1
内部摩擦角
 72
     4
 11
698.5
 21
536.9999571428127
 31
0.0
100
AcDbText
  0
LINE
  5
4546B
330
214E1
100
AcDbEntity
 67
     1
  8
D-MTR-FRAM
100
AcDbLine
 10
736.0
 20
551.9999142856254
 30
0.0
 11
736.0
 21
531.9999142856254
 31
0.0
  0
TEXT
  5
4546C
330
214E1
100
AcDbEntity
 67
     1
  8
D-MTR-TXT
100
AcDbText
 10
768.0142802283386
 20
534.5570975569947
 30
0.0
 40
5.000005000212142
  1
30ﾟ
 72
     4
 11
773.5
 21
536.9999571428127
 31
0.0
100
AcDbText
  0
TEXT
  5
4546D
330
214E1
100
AcDbEntity
 67
     1
  8
D-MTR-TXT
100
AcDbText
 10
753.385694170575
 20
544.6142404712828
 30
0.0
 40
5.000005000212142
  1
q = 10 kN/m
 72
     4
 11
773.5
 21
546.9999571428127
 31
0.0
100
AcDbText
  0
LINE
  5
4546E
330
214E1
100
AcDbEntity
 67
     1
  8
D-MTR-FRAM
100
AcDbLine
 10
811.0
 20
564.0
 30
0.0
 11
811.0
 21
532.0
 31
0.0
  0
TEXT
  5
4546F
330
214E1
100
AcDbEntity
 67
     1
  8
D-MTR-TXT
100
AcDbText
 10
794.2054403436586
 20
547.6923225363673
 30
0.0
 40
3.0
  1
2
 72
     4
 11
795.3025832008015
 21
549.1580368220816
 31
0.0
100
AcDbText
  0
LINE
  5
45487
330
214E1
100
AcDbEntity
 67
     1
  8
D-MTR-FRAM
100
AcDbLine
 10
811.0
 20
100.0000000000001
 30
0.0
 11
601.0
 21
100.0000000000001
 31
0.0
  0
LINE
  5
45488
330
214E1
100
AcDbEntity
 67
     1
  8
D-MTR-FRAM
100
AcDbLine
 10
811.0
 20
90.00000000000017
 30
0.0
 11
651.0
 21
90.00000000000017
 31
0.0
  0
LINE
  5
45489
330
214E1
100
AcDbEntity
 67
     1
  8
D-MTR-FRAM
100
AcDbLine
 10
811.0
 20
60.00000000000017
 30
0.0
 11
601.0
 21
60.00000000000017
 31
0.0
  0
LINE
  5
4548A
330
214E1
100
AcDbEntity
 67
     1
  8
D-MTR-FRAM
100
AcDbLine
 10
811.0
 20
70.00000000000017
 30
0.0
 11
651.0
 21
70.00000000000017
 31
0.0
  0
LINE
  5
4548B
330
214E1
100
AcDbEntity
 67
     1
  8
D-MTR-FRAM
100
AcDbLine
 10
811.0
 20
80.00000000000017
 30
0.0
 11
651.0
 21
80.00000000000017
 31
0.0
  0
LINE
  5
45493
330
214E1
100
AcDbEntity
 67
     1
  8
D-MTR-FRAM
100
AcDbLine
 10
811.0
 20
50.00000000000006
 30
0.0
 11
601.0
 21
50.00000000000006
 31
0.0
  0
LINE
  5
45497
330
214E1
100
AcDbEntity
 67
     1
  8
D-MTR-FRAM
100
AcDbLine
 10
576.0
 20
30.00000000000017
 30
0.0
 11
811.0
 21
30.00000000000006
 31
0.0
  0
LINE
  5
45498
330
214E1
100
AcDbEntity
 67
     1
  8
D-MTR-FRAM
100
AcDbLine
 10
576.0
 20
45.00000000000016
 30
0.0
 11
811.0
 21
45.00000000000006
 31
0.0
  0
TEXT
  5
45499
330
214E1
100
AcDbEntity
 67
     1
  8
D-MTR-TXT
100
AcDbText
 10
671.3714139422364
 20
52.57142614275427
 30
0.0
 40
5.000005000212142
  1
0.5523 m
 72
     4
 11
686.0
 21
55.00000000000017
 31
0.0
100
AcDbText
  0
LINE
  5
4549D
330
214E1
100
AcDbEntity
 67
     1
  8
D-MTR-FRAM
100
AcDbLine
 10
696.0
 20
100.0000000000001
 30
0.0
 11
696.0
 21
60.00000000000017
 31
0.0
  0
LINE
  5
4549E
330
214E1
100
AcDbEntity
 67
     1
  8
D-MTR-FRAM
100
AcDbLine
 10
601.0
 20
100.0000000000001
 30
0.0
 11
601.0
 21
50.00000000000006
 31
0.0
  0
LINE
  5
454A0
330
214E1
100
AcDbEntity
 67
     1
  8
D-MTR-FRAM
100
AcDbLine
 10
651.0
 20
100.0000000000001
 30
0.0
 11
651.0
 21
50.00000000000006
 31
0.0
  0
TEXT
  5
454A1
330
214E1
100
AcDbEntity
 67
     1
  8
D-MTR-TXT
100
AcDbText
 10
666.1857069711182
 20
92.49999749989409
 30
0.0
 40
5.000005000212142
  1
名称
 72
     1
 11
673.5
 21
95.00000000000017
 31
0.0
100
AcDbText
 73
     2
  0
TEXT
  5
454A2
330
214E1
100
AcDbEntity
 67
     1
  8
D-MTR-TXT
100
AcDbText
 10
604.0571209133547
 20
52.39999739988985
 30
0.0
 40
5.000005000212142
  1
コンクリート
 72
     4
 11
626.0
 21
55.00000000000017
 31
0.0
100
AcDbText
  0
LINE
  5
454A3
330
214E1
100
AcDbEntity
 67
     1
  8
D-MTR-FRAM
100
AcDbLine
 10
576.0
 20
45.00000000000016
 30
0.0
 11
576.0
 21
30.00000000000017
 31
0.0
  0
LINE
  5
454A4
330
214E1
100
AcDbEntity
 67
     1
  8
D-MTR-FRAM
100
AcDbLine
 10
596.0
 20
45.00000000000016
 30
0.0
 11
596.0
 21
30.00000000000017
 31
0.0
  0
TEXT
  5
454A5
330
214E1
100
AcDbEntity
 67
     1
  8
D-MTR-TXT
100
AcDbText
 10
578.6857069711182
 20
35.05714041418224
 30
0.0
 40
5.000005000212142
  1
図番
 72
     4
 11
586.0
 21
37.50000000000017
 31
0.0
100
AcDbText
  0
TEXT
  5
454A6
330
214E1
100
AcDbEntity
 67
     1
  8
D-MTR-TXT
100
AcDbText
 10
611.3714139422365
 20
77.41428312846188
 30
0.0
 40
5.000005000212142
  1
連結金具
 72
     4
 11
626.0
 21
80.00000000000017
 31
0.0
100
AcDbText
  0
TEXT
  5
454A7
330
214E1
100
AcDbEntity
 67
     1
  8
D-MTR-TXT
100
AcDbText
 10
612.2285476561344
 20
35.05714041418224
 30
0.0
 40
5.000005000212142
  1
SW1600-0001-S
 72
     4
 11
636.0000000000001
 21
37.50000000000017
 31
0.0
100
AcDbText
  0
LINE
  5
454A8
330
214E1
100
AcDbEntity
 67
     1
  8
D-MTR-FRAM
100
AcDbLine
 10
676.0
 20
45.00000000000016
 30
0.0
 11
676.0
 21
30.00000000000017
 31
0.0
  0
TEXT
  5
454A9
330
214E1
100
AcDbEntity
 67
     1
  8
D-MTR-TXT
100
AcDbText
 10
658.8714139422364
 20
82.49999749989409
 30
0.0
 40
5.000005000212142
  1
プレート
 72
     1
 11
673.5
 21
85.00000000000017
 31
0.0
100
AcDbText
 73
     2
  0
LINE
  5
454BF
330
214E1
100
AcDbEntity
 67
     1
  8
D-MTR-FRAM
100
AcDbLine
 10
781.0
 20
100.0000000000001
 30
0.0
 11
781.0000000000002
 21
60.00000000000017
 31
0.0
  0
LINE
  5
454C0
330
214E1
100
AcDbEntity
 67
     1
  8
D-MTR-FRAM
100
AcDbLine
 10
811.0
 20
100.0000000000001
 30
0.0
 11
811.0
 21
50.00000000000006
 31
0.0
  0
LINE
  5
454C2
330
214E1
100
AcDbEntity
 67
     1
  8
D-MTR-FRAM
100
AcDbLine
 10
720.9999999999999
 20
60.00000000000017
 30
0.0
 11
721.0
 21
50.00000000000006
 31
0.0
  0
TEXT
  5
454C6
330
214E1
100
AcDbEntity
 67
     1
  8
D-MTR-TXT
100
AcDbText
 10
701.1938762448425
 20
54.25510029584451
 30
0.0
 40
3.571432143008673
  1
3
 72
     4
 11
702.5
 21
56.00000000000017
 31
0.0
100
AcDbText
  0
TEXT
  5
454C7
330
214E1
100
AcDbEntity
 67
     1
  8
D-MTR-TXT
100
AcDbText
 10
753.1999871994569
 20
52.57142614275427
 30
0.0
 40
5.000005000212142
  1
1.381 t
 72
     4
 11
766.0
 21
55.00000000000017
 31
0.0
100
AcDbText
  0
LINE
  5
454C8
330
214E1
100
AcDbEntity
 67
     1
  8
D-MTR-FRAM
100
AcDbLine
 10
811.0
 20
45.00000000000006
 30
0.0
 11
811.0
 21
30.00000000000006
 31
0.0
  0
TEXT
  5
454E0
330
214E1
100
AcDbEntity
 67
     1
  8
D-MTR
100
AcDbText
 10
690.3265149381105
 20
103.4693892245523
 30
0.0
 40
7.142864286017347
  1
材料表
 72
     1
 11
706.0
 21
102.0000000000002
 31
0.0
100
AcDbText
 73
     1
  0
TEXT
  5
454E1
330
214E1
100
AcDbEntity
 67
     1
  8
D-MTR-TXT
100
AcDbText
 10
655.2142674277956
 20
72.49999749989409
 30
0.0
 40
5.000005000212142
  1
インサート
 72
     1
 11
673.5
 21
75.00000000000017
 31
0.0
100
AcDbText
 73
     2
  0
LINE
  5
454E2
330
214E1
100
AcDbEntity
 67
     1
  8
D-MTR-FRAM
100
AcDbLine
 10
746.0
 20
100.0000000000001
 30
0.0
 11
746.0
 21
60.00000000000017
 31
0.0
  0
TEXT
  5
454E3
330
214E1
100
AcDbEntity
 67
     1
  8
D-MTR-TXT
100
AcDbText
 10
710.0285604566773
 20
92.49999749989409
 30
0.0
 40
5.000005000212142
  1
呼び名
 72
     1
 11
721.0
 21
95.00000000000017
 31
0.0
100
AcDbText
 73
     2
  0
TEXT
  5
454E4
330
214E1
100
AcDbEntity
 67
     1
  8
D-MTR-TXT
100
AcDbText
 10
699.0571209133547
 20
82.49999749989409
 30
0.0
 40
5.000005000212142
  1
60×4.5×200
 72
     1
 11
721.0
 21
85.00000000000017
 31
0.0
100
AcDbText
 73
     2
  0
TEXT
  5
454E6
330
214E1
100
AcDbEntity
 67
     1
  8
D-MTR-TXT
100
AcDbText
 10
756.1857069711184
 20
92.49999749989409
 30
0.0
 40
5.000005000212142
  1
数量
 72
     1
 11
763.5000000000001
 21
95.00000000000017
 31
0.0
100
AcDbText
 73
     2
  0
TEXT
  5
454E7
330
214E1
100
AcDbEntity
 67
     1
  8
D-MTR-TXT
100
AcDbText
 10
758.0142802283387
 20
82.49999749989409
 30
0.0
 40
5.000005000212142
  1
2枚
 72
     1
 11
763.5000000000001
 21
85.00000000000017
 31
0.0
100
AcDbText
 73
     2
  0
TEXT
  5
454E8
330
214E1
100
AcDbEntity
 67
     1
  8
D-MTR-TXT
100
AcDbText
 10
758.0142802283387
 20
72.49999749989409
 30
0.0
 40
5.000005000212142
  1
4個
 72
     1
 11
763.5000000000001
 21
75.00000000000017
 31
0.0
100
AcDbText
 73
     2
  0
CIRCLE
  5
454E9
330
214E1
100
AcDbEntity
 67
     1
  8
D-STR-STR1
100
AcDbCircle
 10
792.5000000000001
 20
85.00000000000017
 30
0.0
 40
0.5
  0
CIRCLE
  5
454EA
330
214E1
100
AcDbEntity
 67
     1
  8
D-STR-STR1
100
AcDbCircle
 10
795.8785508980855
 20
74.95951696602867
 30
0.0
 40
0.75
  0
CIRCLE
  5
454EB
330
214E1
100
AcDbEntity
 67
     1
  8
D-STR-STR1
100
AcDbCircle
 10
799.5
 20
85.00000000000017
 30
0.0
 40
0.5
  0
LINE
  5
454EC
330
214E1
100
AcDbEntity
 67
     1
  8
D-STR-STR1
100
AcDbLine
 10
791.0000000000001
 20
87.00000000000017
 30
0.0
 11
801.0000000000001
 21
87.00000000000017
 31
0.0
  0
LINE
  5
454ED
330
214E1
100
AcDbEntity
 67
     1
  8
D-STR-STR1
100
AcDbLine
 10
791.0000000000001
 20
83.00000000000016
 30
0.0
 11
801.0000000000001
 21
83.00000000000016
 31
0.0
  0
LINE
  5
454EE
330
214E1
100
AcDbEntity
 67
     1
  8
D-STR-STR1
100
AcDbLine
 10
797.5023638980855
 20
75.89705146602864
 30
0.0
 11
795.8785628980855
 21
76.83455146602864
 31
0.0
  0
LINE
  5
454EF
330
214E1
100
AcDbEntity
 67
     1
  8
D-STR-STR1
100
AcDbLine
 10
797.5023533980856
 20
74.02201696602867
 30
0.0
 11
797.5023533980856
 21
75.89701696602867
 31
0.0
  0
LINE
  5
454F0
330
214E1
100
AcDbEntity
 67
     1
  8
D-STR-STR1
100
AcDbLine
 10
795.8785163980855
 20
73.08454546602866
 30
0.0
 11
797.5023188980855
 21
74.02204546602866
 31
0.0
  0
LINE
  5
454F1
330
214E1
100
AcDbEntity
 67
     1
  8
D-STR-STR1
100
AcDbLine
 10
794.2547603980855
 20
74.02205146602864
 30
0.0
 11
795.8785508980855
 21
73.08455746602868
 31
0.0
  0
LINE
  5
454F2
330
214E1
100
AcDbEntity
 67
     1
  8
D-STR-STR1
100
AcDbLine
 10
794.2547483980855
 20
75.89701696602867
 30
0.0
 11
794.2547483980855
 21
74.02201696602867
 31
0.0
  0
LINE
  5
454F3
330
214E1
100
AcDbEntity
 67
     1
  8
D-STR-STR1
100
AcDbLine
 10
795.8785163980855
 20
76.83456796602865
 30
0.0
 11
794.2547138980856
 21
75.89706796602865
 31
0.0
  0
LINE
  5
454F4
330
214E1
100
AcDbEntity
 67
     1
  8
D-STR-STR1
100
AcDbLine
 10
801.0000000000001
 20
87.00000000000017
 30
0.0
 11
801.0000000000001
 21
83.00000000000016
 31
0.0
  0
LINE
  5
454F5
330
214E1
100
AcDbEntity
 67
     1
  8
D-STR-STR1
100
AcDbLine
 10
791.0000000000001
 20
87.00000000000017
 30
0.0
 11
791.0000000000001
 21
83.00000000000016
 31
0.0
  0
VIEWPORT
  5
45C4A
330
214E1
100
AcDbEntity
 67
     1
  8
DEFPOINTS
100
AcDbViewport
 10
242.2941392467033
 20
348.0292774740468
 30
0.0
 40
348.9019548683256
 41
343.937013119169
 68
     2
 69
     2
 12
8307.425547980107
 22
11701.48533364786
 13
0.0
 23
0.0
 14
10.0
 24
10.0
 15
10.0
 25
10.0
 16
0.0
 26
0.0
 36
1.0
 17
0.0
 27
0.0
 37
0.0
 42
50.0
 43
0.0
 44
0.0
 45
6878.740262383381
 50
0.0
 51
0.0
 72
   100
 90
    32864
  1

281
     0
 71
     1
 74
     0
110
0.0
120
0.0
130
0.0
111
1.0
121
0.0
131
0.0
112
0.0
122
1.0
132
0.0
 79
     0
146
0.0
170
     0
 61
     5
348
487AB
292
     1
282
     1
141
0.0
142
0.0
 63
   250
421
  3355443
  0
VIEWPORT
  5
45C4C
330
214E1
100
AcDbEntity
 67
     1
  8
DEFPOINTS
100
AcDbViewport
 10
639.8667137113949
 20
331.3386044063246
 30
0.0
 40
288.3121502855561
 41
178.5293919764378
 68
     3
 69
     3
 12
14947.89415570123
 22
13347.67187229341
 13
0.0
 23
0.0
 14
10.0
 24
10.0
 15
10.0
 25
10.0
 16
0.0
 26
0.0
 36
1.0
 17
0.0
 27
0.0
 37
0.0
 42
50.0
 43
0.0
 44
0.0
 45
3570.587839528758
 50
0.0
 51
0.0
 72
   100
 90
    32864
  1

281
     0
 71
     1
 74
     0
110
0.0
120
0.0
130
0.0
111
1.0
121
0.0
131
0.0
112
0.0
122
1.0
132
0.0
 79
     0
146
0.0
170
     0
 61
     5
348
487AB
292
     1
282
     1
141
0.0
142
0.0
 63
   250
421
  3355443
  0
TEXT
  5
46C44
330
214E1
100
AcDbEntity
 67
     1
  8
D-MTR-TXT
100
AcDbText
 10
788.6857069711183
 20
92.49999749989409
 30
0.0
 40
5.000005000212142
  1
形状
 72
     1
 11
796.0
 21
95.00000000000017
 31
0.0
100
AcDbText
 73
     2
  0
TEXT
  5
48723
330
214E1
100
AcDbEntity
 67
     1
  8
D-MTR-TXT
100
AcDbText
 10
700.8856941705751
 20
72.49999749989409
 30
0.0
 40
5.000005000212142
  1
JLS-M12×50
 72
     1
 11
721.0
 21
75.00000000000017
 31
0.0
100
AcDbText
 73
     2
  0
TEXT
  5
48793
330
214E1
100
AcDbEntity
 67
     1
  8
D-MTR-TXT
100
AcDbText
 10
693.8485953370491
 20
34.54286168590715
 30
0.0
 40
5.000005000212142
  1
矢野コンクリート工業株式会社
 72
     4
 11
745.0486465392214
 21
37.14286428601746
 31
0.0
100
AcDbText
  0
ENDSEC
  0
SECTION
  2
OBJECTS
  0
DICTIONARY
  5
C
330
0
100
AcDbDictionary
281
     1
  3
ACAD_CIP_PREVIOUS_PRODUCT_INFO
350
487E1
  3
ACAD_COLOR
350
4798C
  3
ACAD_DETAILVIEWSTYLE
350
487D6
  3
ACAD_GROUP
350
D
  3
ACAD_LAYOUT
350
1A
  3
ACAD_MATERIAL
350
4798B
  3
ACAD_MLEADERSTYLE
350
487D2
  3
ACAD_MLINESTYLE
350
17
  3
ACAD_PLOTSETTINGS
350
19
  3
ACAD_PLOTSTYLENAME
350
7E80
  3
ACAD_SCALELIST
350
487C0
  3
ACAD_SECTIONVIEWSTYLE
350
487D4
  3
ACAD_TABLESTYLE
350
487BE
  3
ACAD_VISUALSTYLE
350
487A5
  3
AcadDim
350
478CB
  3
ACDB_RECOMPOSE_DATA
350
4880A
  3
AcDbVariableDictionary
350
7E86
  0
DICTIONARY
  5
1F315
330
2
100
AcDbDictionary
280
     1
281
     1
  3
ACAD_LAYERFILTERS
360
1F316
  3
ACAD_LAYERSTATES
360
21687
  0
DICTIONARY
  5
487E3
330
10
100
AcDbDictionary
280
     1
281
     1
  3
ADSK_XREC_LAYER_RECONCILED
360
487E4
  0
DICTIONARY
  5
487E5
330
AC
100
AcDbDictionary
280
     1
281
     1
  3
ADSK_XREC_LAYER_RECONCILED
360
487E6
  0
DICTIONARY
  5
487E7
330
D6
100
AcDbDictionary
280
     1
281
     1
  3
ADSK_XREC_LAYER_RECONCILED
360
487E8
  0
DICTIONARY
  5
487E9
330
6662
100
AcDbDictionary
280
     1
281
     1
  3
ADSK_XREC_LAYER_RECONCILED
360
487EA
  0
DICTIONARY
  5
487EB
330
8A66
100
AcDbDictionary
280
     1
281
     1
  3
ADSK_XREC_LAYER_RECONCILED
360
487EC
  0
DICTIONARY
  5
487ED
330
1408F
100
AcDbDictionary
280
     1
281
     1
  3
ADSK_XREC_LAYER_RECONCILED
360
487EE
  0
DICTIONARY
  5
487EF
330
1620E
100
AcDbDictionary
280
     1
281
     1
  3
ADSK_XREC_LAYER_RECONCILED
360
487F0
  0
DICTIONARY
  5
487F1
330
16210
100
AcDbDictionary
280
     1
281
     1
  3
ADSK_XREC_LAYER_RECONCILED
360
487F2
  0
DICTIONARY
  5
487F3
330
16212
100
AcDbDictionary
280
     1
281
     1
  3
ADSK_XREC_LAYER_RECONCILED
360
487F4
  0
DICTIONARY
  5
487F5
330
16213
100
AcDbDictionary
280
     1
281
     1
  3
ADSK_XREC_LAYER_RECONCILED
360
487F6
  0
DICTIONARY
  5
487F7
330
16216
100
AcDbDictionary
280
     1
281
     1
  3
ADSK_XREC_LAYER_RECONCILED
360
487F8
  0
DICTIONARY
  5
487F9
330
16217
100
AcDbDictionary
280
     1
281
     1
  3
ADSK_XREC_LAYER_RECONCILED
360
487FA
  0
DICTIONARY
  5
487FB
330
16218
100
AcDbDictionary
280
     1
281
     1
  3
ADSK_XREC_LAYER_RECONCILED
360
487FC
  0
DICTIONARY
  5
487FD
330
1F32E
100
AcDbDictionary
280
     1
281
     1
  3
ADSK_XREC_LAYER_RECONCILED
360
487FE
  0
DICTIONARY
  5
7BCB
330
1F
100
AcDbDictionary
280
     1
281
     1
  3
ACAD_LAYOUTSELFREF
360
7DA3
  0
DICTIONARY
  5
214F4
330
214E1
100
AcDbDictionary
280
     1
281
     1
  3
ACAD_LAYOUTSELFREF
360
214F5
  0
XRECORD
  5
487E1
102
{ACAD_REACTORS
330
C
102
}
330
C
100
AcDbXrecord
280
     1
300
ACD
300
2023
300

  0
DICTIONARY
  5
4798C
102
{ACAD_REACTORS
330
C
102
}
330
C
100
AcDbDictionary
281
     1
  0
DICTIONARY
  5
487D6
102
{ACAD_REACTORS
330
C
102
}
330
C
100
AcDbDictionary
281
     1
  3
Imperial24
350
487D7
  0
DICTIONARY
  5
D
102
{ACAD_REACTORS
330
C
102
}
330
C
100
AcDbDictionary
281
     1
  0
DICTIONARY
  5
1A
102
{ACAD_REACTORS
330
C
102
}
330
C
100
AcDbDictionary
281
     1
  3
H-1600
350
214F8
  3
Model
350
7E82
  0
DICTIONARY
  5
4798B
102
{ACAD_REACTORS
330
C
102
}
330
C
100
AcDbDictionary
281
     1
  3
ByBlock
350
4879D
  3
ByLayer
350
48795
  3
Global
350
48789
  0
DICTIONARY
  5
487D2
102
{ACAD_REACTORS
330
C
102
}
330
C
100
AcDbDictionary
281
     1
  3
Standard
350
487D3
  0
DICTIONARY
  5
17
102
{ACAD_REACTORS
330
C
102
}
330
C
100
AcDbDictionary
281
     1
  3
STANDARD
350
18
  0
DICTIONARY
  5
19
102
{ACAD_REACTORS
330
C
102
}
330
C
100
AcDbDictionary
281
     1
  0
ACDBDICTIONARYWDFLT
  5
7E80
102
{ACAD_REACTORS
330
C
102
}
330
C
100
AcDbDictionary
281
     1
  3
Normal
350
7E81
100
AcDbDictionaryWithDefault
340
7E81
  0
DICTIONARY
  5
487C0
102
{ACAD_REACTORS
330
C
102
}
330
C
100
AcDbDictionary
281
     1
  3
A0
350
487C1
  3
A1
350
487C2
  3
A2
350
487C3
  3
A3
350
487C4
  3
A4
350
487C5
  3
A5
350
487C6
  3
A6
350
487C7
  3
A7
350
487C8
  3
A8
350
487C9
  3
A9
350
487CA
  3
B0
350
487CB
  3
B1
350
487CC
  3
B2
350
487CD
  3
B3
350
487CE
  3
B4
350
487CF
  3
B5
350
487D0
  3
B6
350
487D1
  0
DICTIONARY
  5
487D4
102
{ACAD_REACTORS
330
C
102
}
330
C
100
AcDbDictionary
281
     1
  3
Imperial24
350
487D5
  0
DICTIONARY
  5
487BE
102
{ACAD_REACTORS
330
C
102
}
330
C
100
AcDbDictionary
281
     1
  3
Standard
350
487BF
  0
DICTIONARY
  5
487A5
102
{ACAD_REACTORS
330
C
102
}
330
C
100
AcDbDictionary
281
     1
  3
2dWireframe
350
487AB
  3
Basic
350
487AA
  3
Brighten
350
487B1
  3
ColorChange
350
487B5
  3
Conceptual
350
487AE
  3
Dim
350
487B0
  3
EdgeColorOff
350
487BD
  3
Facepattern
350
487B4
  3
Flat
350
487A6
  3
FlatWithEdges
350
487A7
  3
Gouraud
350
487A8
  3
GouraudWithEdges
350
487A9
  3
Hidden
350
487AD
  3
JitterOff
350
487BB
  3
Linepattern
350
487B3
  3
OverhangOff
350
487BC
  3
Realistic
350
487AF
  3
Shaded
350
487BA
  3
Shaded with edges
350
487B9
  3
Shades of Gray
350
487B6
  3
Sketchy
350
487B7
  3
Thicken
350
487B2
  3
Wireframe
350
487AC
  3
X-Ray
350
487B8
  0
XRECORD
  5
478CB
102
{ACAD_REACTORS
330
C
102
}
330
C
100
AcDbXrecord
280
     1
 90
   990106
  3

 60
     0
 61
     0
 62
     1
 63
     3
 64
     0
 65
     0
 66
     0
 67
     3
 68
     1
 69
     0
 70
     0
 71
     0
 72
     0
 40
0.0
170
     0
  0
XRECORD
  5
4880A
102
{ACAD_REACTORS
330
C
102
}
330
C
100
AcDbXrecord
280
     1
 90
        1
330
487BF
  0
DICTIONARY
  5
7E86
102
{ACAD_REACTORS
330
C
102
}
330
C
100
AcDbDictionary
281
     1
  3
CANNOSCALE
350
48804
  3
CMLEADERSTYLE
350
48800
  3
CTABLESTYLE
350
487FF
  3
CVIEWDETAILSTYLE
350
48801
  3
CVIEWSECTIONSTYLE
350
48802
  3
DIMASSOC
350
7E87
  3
LAYEREVAL
350
48806
  3
LAYERNOTIFY
350
48807
  3
LIGHTINGUNITS
350
48805
  3
MSLTSCALE
350
48803
  3
PROJECTNAME
350
48536
  3
SORTENTS
350
B6AF
  0
DICTIONARY
  5
1F316
102
{ACAD_REACTORS
330
1F315
102
}
330
1F315
100
AcDbDictionary
280
     1
281
     1
  3
$
360
2C770
  3
-100
360
2C771
  3
-50
360
2C772
  3
0
360
2C773
  3
00
360
2C774
  3
01
360
2C775
  3
05
360
2C776
  3
1
360
2C777
  3
1-1断面
360
383D0
  3
1-交差点処理図（最新1案）
360
383D1
  3
12
360
2C778
  3
19
360
2C779
  3
2
360
2C77A
  3
2-線形図1
360
383D2
  3
21
360
2C77B
  3
250
360
2C77C
  3
3
360
2C77D
  3
3-線形図2
360
383D3
  3
300
360
2C77E
  3
32
360
2C77F
  3
4
360
2C780
  3
5
360
2C781
  3
50
360
1FD5C
  3
6
360
2C782
  3
66-躯体図
360
2C783
  3
66躯体図
360
2C784
  3
7
360
2C785
  3
7-専用部北行
360
383D4
  3
8-ONﾗﾝﾌﾟ
360
383D5
  3
9
360
2C786
  3
9-OFFﾗﾝﾌﾟ
360
383D6
  3
a
360
2C787
  3
A-
360
2C788
  3
aa
360
2C789
  3
AB棟
360
2C78A
  3
AREA
360
2C78B
  3
BASE
360
2C78C
  3
beam
360
2C78D
  3
B北
360
383D7
  3
CALS
360
383D8
  3
cap-0
360
2C78E
  3
cc
360
2C78F
  3
CEL
360
2C790
  3
che
360
2C791
  3
CLG
360
2C792
  3
colu
360
2C793
  3
com
360
2C794
  3
CRG
360
2C795
  3
cyan
360
1FD5D
  3
C打計画図
360
2C796
  3
DIM
360
2C797
  3
D墓地排水
360
2C798
  3
ele
360
2C799
  3
E南
360
383D9
  3
F
360
2C79A
  3
face4
360
2C79B
  3
ff
360
2C79C
  3
fini
360
2C79D
  3
FUSE_00
360
2C79E
  3
GRID
360
2C79F
  3
hi
360
2C7A0
  3
hollywood
360
2C7A1
  3
HOTEL
360
2C7A2
  3
husezu
360
1FD5E
  3
HYOUKI
360
2C7A3
  3
I2
360
2C7A4
  3
i2cl
360
2C7A5
  3
i5
360
2C7A6
  3
i9
360
2C7A7
  3
j0
360
1FD5F
  3
j7
360
1FD60
  3
j8
360
1FD61
  3
j9
360
1FD62
  3
jiku-0
360
2C7A8
  3
k
360
2C7A9
  3
KEN
360
2C7AA
  3
LOCK
360
2C7AB
  3
note
360
2C7AC
  3
NOTPLOT
360
1FD63
  3
OFF
360
2C7AD
  3
ON
360
2C7AE
  3
q
360
2C7AF
  3
S
360
2C7B0
  3
SS
360
2C7B1
  3
TAKASA
360
2C7B2
  3
ten
360
2C7B3
  3
text
360
1FD64
  3
U01平面全体
360
2C7B4
  3
U02平面一般詳細
360
2C7B5
  3
U03平面部分詳細
360
2C7B6
  3
U04天井全体
360
2C7B7
  3
U05天井伏図詳細
360
2C7B8
  3
U06躯体見下全体
360
2C7B9
  3
U07躯体見下詳細
360
2C7BA
  3
U08躯体見上全体
360
2C7BB
  3
U09躯体見上詳細
360
2C7BC
  3
UNROCK
360
2C7BD
  3
usr
360
2C7BE
  3
White
360
21593
  3
X
360
2C7BF
  3
yellow
360
1FD65
  3
z
360
2C7C0
  3
×
360
1FD66
  3
その他
360
1F317
  3
タイトル
360
2C7C9
  3
フリーズ
360
2C7CA
  3
フリーズ解除
360
1FD67
  3
ペーパー空間
360
21597
  3
ラスター
360
1F318
  3
ランプ
360
383DA
  3
ロック解除
360
2C7CB
  3
一般
360
383DB
  3
不要
360
1FD6C
  3
中野
360
2C7EE
  3
人孔構造物
360
1F321
  3
低木植栽平面
360
2C7EF
  3
作図に必要な画層を表示
360
2159A
  3
作業
360
2C7E1
  3
使用中の画層
360
1FD6B
  3
側道
360
1F324
  3
元図面レイヤ
360
21598
  3
全帯
360
383E6
  3
全消去
360
383E5
  3
凡例
360
2C808
  3
副道
360
383EB
  3
割り付け平面図
360
2C7CE
  3
印刷不可
360
383DC
  3
印刷不可画層
360
383DD
  3
図枠・表題欄
360
1F322
  3
土壌改良
360
2C7F8
  3
土留板
360
2159F
  3
土留板取付詳細図
360
215A0
  3
地下埋設物
360
1F325
  3
型枠計画図
360
2C7D7
  3
基準値・数値
360
1F31A
  3
基礎
360
1F31B
  3
変更
360
1FD6D
  3
外部参照の非表示画層
360
383DF
  3
外部参照－建築
360
2C7CD
  3
天井インサート図
360
2C7F1
  3
天井伏図
360
2C7F4
  3
天井伏図詳細
360
2C7F5
  3
天井全体
360
2C7F2
  3
天井総合図
360
2C7F3
  3
寸法
360
2C7EA
  3
寸法ﾚｲﾔ調整
360
2C7EB
  3
専北
360
383E2
  3
専用
360
383E3
  3
山止根切計画図
360
2C7E2
  3
平面一般詳細
360
2C802
  3
平面全体
360
2C804
  3
平面図
360
215A3
  3
平面総合図
360
2C805
  3
平面詳細図
360
2C803
  3
平面部分詳細
360
2C806
  3
建築図
360
2C7DC
  3
建築接地図
360
2C7DD
  3
形状
360
2C7D8
  3
形状以外
360
2C7D9
  3
捨て線
360
1F320
  3
排水
360
2C7FA
  3
排水平面
360
2C7FB
  3
掘削線
360
1F31C
  3
擁壁平面図
360
2C809
  3
支柱取付部
360
2159B
  3
数量表
360
1F323
  3
文字
360
383EC
  3
断面
360
383E7
  3
断面図
360
2159E
  3
新規書き込み
360
2159C
  3
施設平面図
360
2C7E3
  3
旗
360
1FD68
  3
旗上
360
1FD69
  3
旗上げ
360
383E0
  3
本管
360
1F329
  3
本線
360
383ED
  3
杭頭詳細図
360
21599
  3
枠
360
1FD6E
  3
枠Or文字
360
1FD6F
  3
柱状図
360
1F326
  3
植栽
360
2C7E4
  3
植栽低木AB
360
2C7E7
  3
植栽低木CD
360
2C7E8
  3
植栽高木AB
360
2C7E5
  3
植栽高木CD
360
2C7E6
  3
構造物
360
1F31F
  3
横断
360
383DE
  3
機器
360
2C7D0
  3
正面図
360
2159D
  3
法線
360
1F328
  3
流出入管
360
1F32D
  3
潅水平面
360
2C7CF
  3
現況地盤線
360
1F31E
  3
現況平面図-
360
1FD6A
  3
用地境界
360
1F32B
  3
病院提出用非表示
360
2C800
  3
病院提出用非表示（反転）
360
2C801
  3
空調設備図
360
2C7D6
  3
立坑構造物
360
1F32C
  3
継手・副管
360
1F31D
  3
総合仮設図
360
2C7EC
  3
線形
360
383E4
  3
背面図
360
215A1
  3
芯関係
360
2C7E9
  3
薬注
360
1F32A
  3
衛生設備図
360
2C7CC
  3
表示
360
2C7FD
  3
表示2
360
2C7FE
  3
表示・非表示
360
2C7FF
  3
表示画層
360
383EA
  3
見下全体図
360
2C7DE
  3
計画
360
383E1
  3
計画平面
360
2C7DA
  3
計画平面図
360
2C7DB
  3
足場計画図
360
2C7ED
  3
躯体図
360
2C7D5
  3
躯体見上全体
360
2C7D4
  3
躯体見上詳細
360
2C7D3
  3
躯体見下全体
360
2C7D2
  3
躯体見下詳細
360
2C7D1
  3
道路中心線
360
1F327
  3
道路関係図
360
2C7F9
  3
配筋図
360
215A2
  3
配線
360
2C7FC
  3
鉄骨建方計画図
360
2C7F0
  3
開削部
360
1F319
  3
電気設備
360
2C7F6
  3
電気設備図
360
2C7F7
  3
非表示
360
383E8
  3
非表示画層
360
383E9
  3
高さ
360
2C7DF
  3
高木植栽平面
360
2C7E0
  3
鳳文字入力
360
2C807
  3
Ａ断面
360
21594
  3
ＡＢ棟
360
2C7C1
  3
Ｂ断面
360
21595
  3
Ｃ断面
360
21596
  3
ＣＤ棟
360
2C7C2
  3
Ｄ・墓地　施設平面
360
2C7C3
  3
Ｄ低木
360
2C7C7
  3
Ｄ墓地施設平面
360
2C7C8
  3
Ｄ施設平面
360
2C7C6
  3
Ｄ街区低木
360
2C7C4
  3
Ｄ高木植栽
360
2C7C5
  0
DICTIONARY
  5
21687
102
{ACAD_REACTORS
330
1F315
102
}
330
1F315
100
AcDbDictionary
281
     1
  0
XRECORD
  5
487E4
102
{ACAD_REACTORS
330
487E3
102
}
330
487E3
100
AcDbXrecord
280
     1
290
     1
  0
XRECORD
  5
487E6
102
{ACAD_REACTORS
330
487E5
102
}
330
487E5
100
AcDbXrecord
280
     1
290
     1
  0
XRECORD
  5
487E8
102
{ACAD_REACTORS
330
487E7
102
}
330
487E7
100
AcDbXrecord
280
     1
290
     1
  0
XRECORD
  5
487EA
102
{ACAD_REACTORS
330
487E9
102
}
330
487E9
100
AcDbXrecord
280
     1
290
     1
  0
XRECORD
  5
487EC
102
{ACAD_REACTORS
330
487EB
102
}
330
487EB
100
AcDbXrecord
280
     1
290
     1
  0
XRECORD
  5
487EE
102
{ACAD_REACTORS
330
487ED
102
}
330
487ED
100
AcDbXrecord
280
     1
290
     1
  0
XRECORD
  5
487F0
102
{ACAD_REACTORS
330
487EF
102
}
330
487EF
100
AcDbXrecord
280
     1
290
     1
  0
XRECORD
  5
487F2
102
{ACAD_REACTORS
330
487F1
102
}
330
487F1
100
AcDbXrecord
280
     1
290
     1
  0
XRECORD
  5
487F4
102
{ACAD_REACTORS
330
487F3
102
}
330
487F3
100
AcDbXrecord
280
     1
290
     1
  0
XRECORD
  5
487F6
102
{ACAD_REACTORS
330
487F5
102
}
330
487F5
100
AcDbXrecord
280
     1
290
     1
  0
XRECORD
  5
487F8
102
{ACAD_REACTORS
330
487F7
102
}
330
487F7
100
AcDbXrecord
280
     1
290
     1
  0
XRECORD
  5
487FA
102
{ACAD_REACTORS
330
487F9
102
}
330
487F9
100
AcDbXrecord
280
     1
290
     1
  0
XRECORD
  5
487FC
102
{ACAD_REACTORS
330
487FB
102
}
330
487FB
100
AcDbXrecord
280
     1
290
     1
  0
XRECORD
  5
487FE
102
{ACAD_REACTORS
330
487FD
102
}
330
487FD
100
AcDbXrecord
280
     1
290
     1
  0
XRECORD
  5
7DA3
102
{ACAD_REACTORS
330
7BCB
102
}
330
7BCB
100
AcDbXrecord
280
     1
340
1F
  0
XRECORD
  5
214F5
102
{ACAD_REACTORS
330
214F4
102
}
330
214F4
100
AcDbXrecord
280
     1
340
214E1
  0
ACDBDETAILVIEWSTYLE
  5
487D7
102
{ACAD_XDICTIONARY
360
4880D
102
}
102
{ACAD_REACTORS
330
487D6
102
}
330
487D6
100
AcDbModelDocViewStyle
 70
     0
  3
Imperial24
290
     0
100
AcDbDetailViewStyle
 70
     0
 71
     0
 90
        3
 71
     1
340
11
 62
   256
 40
0.24
340
0
 62
   256
 40
0.24
300

 40
0.36
280
     3
 71
     2
340
16
 90
       25
 62
   256
 71
     3
340
11
 62
   256
 40
0.24
 90
        1
 40
0.75
 90
        1
300
%<\AcVar ViewType \f "%tc1">% %<\AcVar ViewDetailId>%\PSCALE %<\AcVar ViewScale \f "%sn">%
 71
     4
340
16
 90
       25
 62
   256
340
16
 90
       25
 62
   256
280
     0
  0
LAYOUT
  5
214F8
102
{ACAD_REACTORS
330
1A
102
}
330
1A
100
AcDbPlotSettings
  1

  2
Canon LASER SHOT LBP-1910
  4
A3
  6

 40
5.873749732971191
 41
5.873747825622558
 42
5.873748779296875
 43
5.873748779296875
 44
296.9259948730469
 45
419.9466552734374
 46
-5.91
 47
-6.15
 48
0.0
 49
0.0
140
841.0
141
594.0
142
1.0
143
2.0
 70
   676
 72
     1
 73
     1
 74
     4
  7
CALS.ctb
 75
     0
147
0.5
 76
     1
 77
     2
 78
   300
148
0.0
149
0.0
100
AcDbLayout
  1
H-1600
 70
     1
 71
     1
 10
0.5525024414062507
 20
0.0725005340576175
 11
840.4458129882812
 21
593.9244902801513
 12
0.0
 22
0.0
 32
0.0
 14
0.0
 24
0.0
 34
0.0
 15
841.0
 25
594.0
 35
0.0
146
0.0
 13
0.0
 23
0.0
 33
0.0
 16
1.0
 26
0.0
 36
0.0
 17
0.0
 27
1.0
 37
0.0
 76
     0
330
214E1
331
214E2
  0
LAYOUT
  5
7E82
102
{ACAD_REACTORS
330
1A
102
}
330
1A
100
AcDbPlotSettings
  1

  2
RICOH IPSiO NX730N RPCS◎.pc3
  4
A4
  6

 40
5.873749732971191
 41
5.873747825622558
 42
5.873748779296875
 43
5.873748779296875
 44
209.9733276367187
 45
296.9259948730469
 46
0.0
 47
2.87
 48
7999.999999996275
 49
4000.000000000003
140
164199.9999999963
141
114799.9999999999
142
1.0
143
558.9584389148257
 70
 11964
 72
     1
 73
     1
 74
     4
  7
canon国土交通省.ctb
 75
     0
147
0.0017890417791015
 76
     2
 77
     2
 78
   300
148
-7999.999999996275
149
-4000.000000000003
100
AcDbLayout
  1
Model
 70
     1
 71
     0
 10
0.0
 20
0.0
 11
12.0
 21
9.0
 12
0.0
 22
0.0
 32
0.0
 14
0.0
 24
0.0
 34
0.0
 15
0.0
 25
0.0
 35
0.0
146
0.0
 13
0.0
 23
0.0
 33
0.0
 16
1.0
 26
0.0
 36
0.0
 17
0.0
 27
1.0
 37
0.0
 76
     0
330
1F
  0
MATERIAL
  5
4879D
102
{ACAD_XDICTIONARY
360
4879E
102
}
102
{ACAD_REACTORS
330
4798B
102
}
330
4798B
100
AcDbMaterial
  1
ByBlock
 72
     0
 43
0.0208333333333333
 43
0.0
 43
0.0
 43
0.0
 43
0.0
 43
0.0208333333333333
 43
0.0
 43
0.0
 43
0.0
 43
0.0
 43
1.0
 43
0.0
 43
0.0
 43
0.0
 43
0.0
 43
1.0
 77
     0
 47
0.0208333333333333
 47
0.0
 47
0.0
 47
0.0
 47
0.0
 47
0.0208333333333333
 47
0.0
 47
0.0
 47
0.0
 47
0.0
 47
1.0
 47
0.0
 47
0.0
 47
0.0
 47
0.0
 47
1.0
171
     0
 49
0.0208333333333333
 49
0.0
 49
0.0
 49
0.0
 49
0.0
 49
0.0208333333333333
 49
0.0
 49
0.0
 49
0.0
 49
0.0
 49
1.0
 49
0.0
 49
0.0
 49
0.0
 49
0.0
 49
1.0
175
     0
142
0.0208333333333333
142
0.0
142
0.0
142
0.0
142
0.0
142
0.0208333333333333
142
0.0
142
0.0
142
0.0
142
0.0
142
1.0
142
0.0
142
0.0
142
0.0
142
0.0
142
1.0
179
     0
144
0.0208333333333333
144
0.0
144
0.0
144
0.0
144
0.0
144
0.0208333333333333
144
0.0
144
0.0
144
0.0
144
0.0
144
1.0
144
0.0
144
0.0
144
0.0
144
0.0
144
1.0
147
0.0208333333333333
147
0.0
147
0.0
147
0.0
147
0.0
147
0.0208333333333333
147
0.0
147
0.0
147
0.0
147
0.0
147
1.0
147
0.0
147
0.0
147
0.0
147
0.0
147
1.0
  0
MATERIAL
  5
48795
102
{ACAD_XDICTIONARY
360
48796
102
}
102
{ACAD_REACTORS
330
4798B
102
}
330
4798B
100
AcDbMaterial
  1
ByLayer
 72
     0
 43
0.0208333333333333
 43
0.0
 43
0.0
 43
0.0
 43
0.0
 43
0.0208333333333333
 43
0.0
 43
0.0
 43
0.0
 43
0.0
 43
1.0
 43
0.0
 43
0.0
 43
0.0
 43
0.0
 43
1.0
 77
     0
 47
0.0208333333333333
 47
0.0
 47
0.0
 47
0.0
 47
0.0
 47
0.0208333333333333
 47
0.0
 47
0.0
 47
0.0
 47
0.0
 47
1.0
 47
0.0
 47
0.0
 47
0.0
 47
0.0
 47
1.0
171
     0
 49
0.0208333333333333
 49
0.0
 49
0.0
 49
0.0
 49
0.0
 49
0.0208333333333333
 49
0.0
 49
0.0
 49
0.0
 49
0.0
 49
1.0
 49
0.0
 49
0.0
 49
0.0
 49
0.0
 49
1.0
175
     0
142
0.0208333333333333
142
0.0
142
0.0
142
0.0
142
0.0
142
0.0208333333333333
142
0.0
142
0.0
142
0.0
142
0.0
142
1.0
142
0.0
142
0.0
142
0.0
142
0.0
142
1.0
179
     0
144
0.0208333333333333
144
0.0
144
0.0
144
0.0
144
0.0
144
0.0208333333333333
144
0.0
144
0.0
144
0.0
144
0.0
144
1.0
144
0.0
144
0.0
144
0.0
144
0.0
144
1.0
147
0.0208333333333333
147
0.0
147
0.0
147
0.0
147
0.0
147
0.0208333333333333
147
0.0
147
0.0
147
0.0
147
0.0
147
1.0
147
0.0
147
0.0
147
0.0
147
0.0
147
1.0
  0
MATERIAL
  5
48789
102
{ACAD_REACTORS
330
4798B
102
}
330
4798B
100
AcDbMaterial
  1
Global
 73
     1
 78
     1
172
     1
176
     1
270
     1
274
     1
 94
       63
  0
MLEADERSTYLE
  5
487D3
102
{ACAD_REACTORS
330
487D2
102
}
330
487D2
100
AcDbMLeaderStyle
179
     2
170
     2
171
     1
172
     0
 90
        2
 40
0.0
 41
0.0
173
     1
 91
-1056964608
340
14
 92
       -2
290
     1
 42
0.09
291
     1
 43
0.36
  3
Standard
 44
0.18
300

342
11
174
     1
178
     6
175
     1
176
     0
 93
-1056964608
 45
0.18
292
     0
297
     0
 46
0.18
 94
-1056964608
 47
1.0
 49
1.0
140
1.0
293
     1
141
0.0
294
     1
177
     0
142
1.0
295
     0
296
     0
143
0.125
271
     0
272
     9
273
     9
298
     1
  0
MLINESTYLE
  5
18
102
{ACAD_REACTORS
330
17
102
}
330
17
100
AcDbMlineStyle
  2
STANDARD
 70
     0
  3

 62
   256
 51
90.0
 52
90.0
 71
     2
 49
0.5
 62
   256
  6
BYLAYER
 49
-0.5
 62
   256
  6
BYLAYER
  0
ACDBPLACEHOLDER
  5
7E81
102
{ACAD_REACTORS
330
7E80
102
}
330
7E80
  0
SCALE
  5
487C1
102
{ACAD_REACTORS
330
487C0
102
}
330
487C0
100
AcDbScale
 70
     0
300
1:1
140
1.0
141
1.0
290
     1
  0
SCALE
  5
487C2
102
{ACAD_REACTORS
330
487C0
102
}
330
487C0
100
AcDbScale
 70
     0
300
1/128" = 1'-0"
140
0.0078125
141
12.0
290
     0
  0
SCALE
  5
487C3
102
{ACAD_REACTORS
330
487C0
102
}
330
487C0
100
AcDbScale
 70
     0
300
1/64" = 1'-0"
140
0.015625
141
12.0
290
     0
  0
SCALE
  5
487C4
102
{ACAD_REACTORS
330
487C0
102
}
330
487C0
100
AcDbScale
 70
     0
300
1/32" = 1'-0"
140
0.03125
141
12.0
290
     0
  0
SCALE
  5
487C5
102
{ACAD_REACTORS
330
487C0
102
}
330
487C0
100
AcDbScale
 70
     0
300
1/16" = 1'-0"
140
0.0625
141
12.0
290
     0
  0
SCALE
  5
487C6
102
{ACAD_REACTORS
330
487C0
102
}
330
487C0
100
AcDbScale
 70
     0
300
3/32" = 1'-0"
140
0.09375
141
12.0
290
     0
  0
SCALE
  5
487C7
102
{ACAD_REACTORS
330
487C0
102
}
330
487C0
100
AcDbScale
 70
     0
300
1/8" = 1'-0"
140
0.125
141
12.0
290
     0
  0
SCALE
  5
487C8
102
{ACAD_REACTORS
330
487C0
102
}
330
487C0
100
AcDbScale
 70
     0
300
3/16" = 1'-0"
140
0.1875
141
12.0
290
     0
  0
SCALE
  5
487C9
102
{ACAD_REACTORS
330
487C0
102
}
330
487C0
100
AcDbScale
 70
     0
300
1/4" = 1'-0"
140
0.25
141
12.0
290
     0
  0
SCALE
  5
487CA
102
{ACAD_REACTORS
330
487C0
102
}
330
487C0
100
AcDbScale
 70
     0
300
3/8" = 1'-0"
140
0.375
141
12.0
290
     0
  0
SCALE
  5
487CB
102
{ACAD_REACTORS
330
487C0
102
}
330
487C0
100
AcDbScale
 70
     0
300
1/2" = 1'-0"
140
0.5
141
12.0
290
     0
  0
SCALE
  5
487CC
102
{ACAD_REACTORS
330
487C0
102
}
330
487C0
100
AcDbScale
 70
     0
300
3/4" = 1'-0"
140
0.75
141
12.0
290
     0
  0
SCALE
  5
487CD
102
{ACAD_REACTORS
330
487C0
102
}
330
487C0
100
AcDbScale
 70
     0
300
1" = 1'-0"
140
1.0
141
12.0
290
     0
  0
SCALE
  5
487CE
102
{ACAD_REACTORS
330
487C0
102
}
330
487C0
100
AcDbScale
 70
     0
300
1-1/2" = 1'-0"
140
1.5
141
12.0
290
     0
  0
SCALE
  5
487CF
102
{ACAD_REACTORS
330
487C0
102
}
330
487C0
100
AcDbScale
 70
     0
300
3" = 1'-0"
140
3.0
141
12.0
290
     0
  0
SCALE
  5
487D0
102
{ACAD_REACTORS
330
487C0
102
}
330
487C0
100
AcDbScale
 70
     0
300
6" = 1'-0"
140
6.0
141
12.0
290
     0
  0
SCALE
  5
487D1
102
{ACAD_REACTORS
330
487C0
102
}
330
487C0
100
AcDbScale
 70
     0
300
1'-0" = 1'-0"
140
12.0
141
12.0
290
     0
  0
ACDBSECTIONVIEWSTYLE
  5
487D5
102
{ACAD_XDICTIONARY
360
4880B
102
}
102
{ACAD_REACTORS
330
487D4
102
}
330
487D4
100
AcDbModelDocViewStyle
 70
     0
  3
Imperial24
290
     0
100
AcDbSectionViewStyle
 70
     0
 71
     0
 90
       78
 71
     1
340
11
 62
   256
 40
0.24
340
0
340
0
 62
   256
 40
0.24
300
I, O, Q, S, X, Z
 40
0.48
 90
        3
 40
0.18
 90
        1
 71
     2
340
16
 90
       25
 62
   256
340
16
 90
       50
 62
   256
 40
0.24
 40
0.0
 40
0.24
 71
     3
340
11
 62
   256
 40
0.24
 90
        1
 40
0.75
 90
        1
300
%<\AcVar ViewType \f "%tc1">% %<\AcVar ViewSectionStartId>%-%<\AcVar ViewSectionEndId>%\PSCALE %<\AcVar ViewScale \f "%sn">%
 71
     4
 62
   256
 62
   257
300
ANSI31
 40
1.0
 90
        0
290
     0
290
     0
 90
        6
 40
0.0
 40
1.570796326794896
 40
0.2617993877991494
 40
1.308996938995747
 40
-0.2617993877991494
 40
1.832595714594046
  0
TABLESTYLE
  5
487BF
102
{ACAD_XDICTIONARY
360
48808
102
}
102
{ACAD_REACTORS
330
487BE
102
}
330
487BE
100
AcDbTableStyle
280
     0
  3
Standard
 70
     0
 71
     0
 40
0.06
 41
0.06
280
     0
281
     0
  7
STANDARD
140
0.18
170
     2
 62
     0
 63
     7
283
     0
 90
      512
 91
        0
  1

274
    -2
284
     1
 64
     0
275
    -2
285
     1
 65
     0
276
    -2
286
     1
 66
     0
277
    -2
287
     1
 67
     0
278
    -2
288
     1
 68
     0
279
    -2
289
     1
 69
     0
  7
STANDARD
140
0.25
170
     5
 62
     0
 63
     7
283
     0
 90
      512
 91
        0
  1

274
    -2
284
     1
 64
     0
275
    -2
285
     1
 65
     0
276
    -2
286
     1
 66
     0
277
    -2
287
     1
 67
     0
278
    -2
288
     1
 68
     0
279
    -2
289
     1
 69
     0
  7
STANDARD
140
0.18
170
     5
 62
     0
 63
     7
283
     0
 90
      512
 91
        0
  1

274
    -2
284
     1
 64
     0
275
    -2
285
     1
 65
     0
276
    -2
286
     1
 66
     0
277
    -2
287
     1
 67
     0
278
    -2
288
     1
 68
     0
279
    -2
289
     1
 69
     0
  0
VISUALSTYLE
  5
487AB
102
{ACAD_REACTORS
330
487A5
102
}
330
487A5
100
AcDbVisualStyle
  2
2dWireframe
 70
     4
177
     3
291
     0
 70
    58
 90
        0
176
     1
 90
        2
176
     1
 90
        0
176
     1
 90
        0
176
     1
 40
0.6
176
     1
 40
30.0
176
     1
 62
     7
420
 16777215
176
     1
 90
        1
176
     1
 90
        4
176
     1
 62
     7
176
     1
 62
   257
176
     1
 90
        1
176
     1
 90
        1
176
     1
 40
1.0
176
     1
 90
        0
176
     1
 62
   257
176
     1
 40
1.0
176
     1
 90
        1
176
     1
 90
        6
176
     1
 90
        2
176
     1
 62
     7
176
     1
 90
        5
176
     1
 90
        0
176
     1
 90
        0
176
     1
290
     0
176
     1
 90
        1
176
     1
 40
0.0
176
     1
 90
        0
176
     1
290
     1
176
     1
290
     1
176
     1
290
     0
176
     1
290
     0
176
     1
290
     0
176
     1
290
     0
176
     1
290
     0
176
     1
290
     0
176
     1
290
     0
176
     1
 90
       50
176
     1
 40
0.0
176
     1
 40
1.0
176
     1
 90
        0
176
     1
 62
    18
420
        0
176
     1
 90
       50
176
     1
 90
        3
176
     1
 62
     5
420
      255
176
     1
290
     0
176
     1
 90
       50
176
     1
 90
       50
176
     1
 90
       50
176
     1
290
     0
176
     1
 90
       50
176
     1
 62
   256
176
     0
 40
1.0
176
     0
 90
        2
176
     1
  1
strokes_ogs.tif
176
     1
290
     0
176
     1
 40
1.0
176
     1
 40
1.0
176
     1
1001
ACAD
1000
AcDbSavedByObjectVersion
1070
     0
  0
VISUALSTYLE
  5
487AA
102
{ACAD_REACTORS
330
487A5
102
}
330
487A5
100
AcDbVisualStyle
  2
Basic
 70
     7
177
     3
291
     1
 70
    58
 90
        1
176
     1
 90
        0
176
     1
 90
        1
176
     1
 90
        0
176
     1
 40
0.6
176
     1
 40
30.0
176
     1
 62
     7
420
 16777215
176
     1
 90
        0
176
     1
 90
        4
176
     1
 62
     7
176
     1
 62
   257
176
     1
 90
        1
176
     1
 90
        1
176
     1
 40
1.0
176
     1
 90
        8
176
     1
 62
     7
176
     1
 40
1.0
176
     1
 90
        1
176
     1
 90
        6
176
     1
 90
        2
176
     1
 62
     7
176
     1
 90
        5
176
     1
 90
        0
176
     1
 90
        0
176
     1
290
     0
176
     1
 90
        1
176
     1
 40
0.0
176
     1
 90
        0
176
     1
290
     0
176
     1
290
     1
176
     1
290
     1
176
     1
290
     0
176
     1
290
     0
176
     1
290
     0
176
     1
290
     0
176
     1
290
     0
176
     1
290
     0
176
     1
 90
       50
176
     1
 40
0.0
176
     1
 40
1.0
176
     1
 90
        0
176
     1
 62
    18
420
        0
176
     1
 90
       50
176
     1
 90
        3
176
     1
 62
     5
420
      255
176
     1
290
     0
176
     1
 90
       50
176
     1
 90
       50
176
     1
 90
       50
176
     1
290
     0
176
     1
 90
       50
176
     1
 62
   256
176
     0
 40
1.0
176
     0
 90
        2
176
     1
  1
strokes_ogs.tif
176
     1
290
     0
176
     1
 40
1.0
176
     1
 40
1.0
176
     1
1001
ACAD
1000
AcDbSavedByObjectVersion
1070
     0
  0
VISUALSTYLE
  5
487B1
102
{ACAD_REACTORS
330
487A5
102
}
330
487A5
100
AcDbVisualStyle
  2
Brighten
 70
    12
177
     3
291
     1
 70
    58
 90
        2
176
     1
 90
        2
176
     1
 90
        0
176
     1
 90
        0
176
     1
 40
0.6
176
     1
 40
30.0
176
     1
 62
     7
420
 16777215
176
     1
 90
        1
176
     1
 90
        4
176
     1
 62
     7
176
     1
 62
   257
176
     1
 90
        1
176
     1
 90
        1
176
     1
 40
1.0
176
     1
 90
        8
176
     1
 62
     7
176
     1
 40
1.0
176
     1
 90
        1
176
     1
 90
        6
176
     1
 90
        2
176
     1
 62
     7
176
     1
 90
        5
176
     1
 90
        0
176
     1
 90
        0
176
     1
290
     0
176
     1
 90
        1
176
     1
 40
50.0
176
     1
 90
        0
176
     1
290
     0
176
     1
290
     1
176
     1
290
     1
176
     1
290
     0
176
     1
290
     0
176
     1
290
     0
176
     1
290
     0
176
     1
290
     0
176
     1
290
     0
176
     1
 90
       50
176
     1
 40
0.0
176
     1
 40
1.0
176
     1
 90
        0
176
     1
 62
    18
420
        0
176
     1
 90
       50
176
     1
 90
        3
176
     1
 62
     5
420
      255
176
     1
290
     0
176
     1
 90
       50
176
     1
 90
       50
176
     1
 90
       50
176
     1
290
     0
176
     1
 90
       50
176
     1
 62
   256
176
     0
 40
1.0
176
     0
 90
        2
176
     1
  1
strokes_ogs.tif
176
     1
290
     0
176
     1
 40
1.0
176
     1
 40
1.0
176
     1
1001
ACAD
1000
AcDbSavedByObjectVersion
1070
     0
  0
VISUALSTYLE
  5
487B5
102
{ACAD_REACTORS
330
487A5
102
}
330
487A5
100
AcDbVisualStyle
  2
ColorChange
 70
    16
177
     3
291
     1
 70
    58
 90
        2
176
     1
 90
        2
176
     1
 90
        3
176
     1
 90
        0
176
     1
 40
0.6
176
     1
 40
30.0
176
     1
 62
     8
420
  8421504
176
     1
 90
        1
176
     1
 90
        4
176
     1
 62
     7
176
     1
 62
   257
176
     1
 90
        1
176
     1
 90
        1
176
     1
 40
1.0
176
     1
 90
        8
176
     1
 62
     8
420
  8421504
176
     1
 40
1.0
176
     1
 90
        1
176
     1
 90
        6
176
     1
 90
        2
176
     1
 62
     7
176
     1
 90
        5
176
     1
 90
        0
176
     1
 90
        0
176
     1
290
     0
176
     1
 90
        1
176
     1
 40
0.0
176
     1
 90
        0
176
     1
290
     0
176
     1
290
     1
176
     1
290
     1
176
     1
290
     0
176
     1
290
     0
176
     1
290
     0
176
     1
290
     0
176
     1
290
     0
176
     1
290
     0
176
     1
 90
       50
176
     1
 40
0.0
176
     1
 40
1.0
176
     1
 90
        0
176
     1
 62
    18
420
        0
176
     1
 90
       50
176
     1
 90
        3
176
     1
 62
     5
420
      255
176
     1
290
     0
176
     1
 90
       50
176
     1
 90
       50
176
     1
 90
       50
176
     1
290
     0
176
     1
 90
       50
176
     1
 62
   256
176
     0
 40
1.0
176
     0
 90
        2
176
     1
  1
strokes_ogs.tif
176
     1
290
     0
176
     1
 40
1.0
176
     1
 40
1.0
176
     1
1001
ACAD
1000
AcDbSavedByObjectVersion
1070
     0
  0
VISUALSTYLE
  5
487AE
102
{ACAD_REACTORS
330
487A5
102
}
330
487A5
100
AcDbVisualStyle
  2
Conceptual
 70
     9
177
     3
291
     0
 70
    58
 90
        3
176
     1
 90
        2
176
     1
 90
        0
176
     1
 90
        0
176
     1
 40
0.6
176
     1
 40
30.0
176
     1
 62
     7
420
 16777215
176
     1
 90
        2
176
     1
 90
        2
176
     1
 62
     7
176
     1
 62
   257
176
     1
 90
        1
176
     1
 90
        1
176
     1
 40
179.0
176
     1
 90
        8
176
     1
 62
     7
176
     1
 40
1.0
176
     1
 90
        1
176
     1
 90
        6
176
     1
 90
        2
176
     1
 62
     7
176
     1
 90
        3
176
     1
 90
        0
176
     1
 90
        0
176
     1
290
     0
176
     1
 90
        1
176
     1
 40
0.0
176
     1
 90
        0
176
     1
290
     0
176
     1
290
     1
176
     1
290
     1
176
     1
290
     0
176
     1
290
     0
176
     1
290
     0
176
     1
290
     0
176
     1
290
     0
176
     1
290
     0
176
     1
 90
       50
176
     1
 40
0.0
176
     1
 40
1.0
176
     1
 90
        0
176
     1
 62
    18
420
        0
176
     1
 90
       50
176
     1
 90
        3
176
     1
 62
     5
420
      255
176
     1
290
     0
176
     1
 90
       50
176
     1
 90
       50
176
     1
 90
       50
176
     1
290
     0
176
     1
 90
       50
176
     1
 62
   256
176
     0
 40
1.0
176
     0
 90
        2
176
     1
  1
strokes_ogs.tif
176
     1
290
     0
176
     1
 40
1.0
176
     1
 40
1.0
176
     1
1001
ACAD
1000
AcDbSavedByObjectVersion
1070
     0
  0
VISUALSTYLE
  5
487B0
102
{ACAD_REACTORS
330
487A5
102
}
330
487A5
100
AcDbVisualStyle
  2
Dim
 70
    11
177
     3
291
     1
 70
    58
 90
        2
176
     1
 90
        2
176
     1
 90
        0
176
     1
 90
        0
176
     1
 40
0.6
176
     1
 40
30.0
176
     1
 62
     7
420
 16777215
176
     1
 90
        1
176
     1
 90
        4
176
     1
 62
     7
176
     1
 62
   257
176
     1
 90
        1
176
     1
 90
        1
176
     1
 40
1.0
176
     1
 90
        8
176
     1
 62
     7
176
     1
 40
1.0
176
     1
 90
        1
176
     1
 90
        6
176
     1
 90
        2
176
     1
 62
     7
176
     1
 90
        5
176
     1
 90
        0
176
     1
 90
        0
176
     1
290
     0
176
     1
 90
        1
176
     1
 40
-50.0
176
     1
 90
        0
176
     1
290
     0
176
     1
290
     1
176
     1
290
     1
176
     1
290
     0
176
     1
290
     0
176
     1
290
     0
176
     1
290
     0
176
     1
290
     0
176
     1
290
     0
176
     1
 90
       50
176
     1
 40
0.0
176
     1
 40
1.0
176
     1
 90
        0
176
     1
 62
    18
420
        0
176
     1
 90
       50
176
     1
 90
        3
176
     1
 62
     5
420
      255
176
     1
290
     0
176
     1
 90
       50
176
     1
 90
       50
176
     1
 90
       50
176
     1
290
     0
176
     1
 90
       50
176
     1
 62
   256
176
     0
 40
1.0
176
     0
 90
        2
176
     1
  1
strokes_ogs.tif
176
     1
290
     0
176
     1
 40
1.0
176
     1
 40
1.0
176
     1
1001
ACAD
1000
AcDbSavedByObjectVersion
1070
     0
  0
VISUALSTYLE
  5
487BD
102
{ACAD_REACTORS
330
487A5
102
}
330
487A5
100
AcDbVisualStyle
  2
EdgeColorOff
 70
    22
177
     3
291
     1
 70
    58
 90
        2
176
     0
 90
        2
176
     0
 90
        0
176
     0
 90
        0
176
     0
 40
0.6
176
     0
 40
30.0
176
     0
 62
     7
420
 16777215
176
     0
 90
        1
176
     0
 90
        4
176
     0
 62
     7
176
     0
 62
   257
176
     0
 90
        1
176
     0
 90
        1
176
     0
 40
1.0
176
     0
 90
        8
176
     2
 62
     7
176
     0
 40
1.0
176
     0
 90
        1
176
     0
 90
        6
176
     0
 90
        2
176
     0
 62
     7
176
     0
 90
        5
176
     0
 90
        0
176
     0
 90
        0
176
     0
290
     0
176
     0
 90
        1
176
     0
 40
0.0
176
     0
 90
        0
176
     0
290
     0
176
     0
290
     1
176
     0
290
     1
176
     0
290
     0
176
     0
290
     0
176
     0
290
     0
176
     0
290
     0
176
     0
290
     0
176
     0
290
     0
176
     0
 90
       50
176
     0
 40
0.0
176
     0
 40
1.0
176
     0
 90
        0
176
     0
 62
    18
420
        0
176
     0
 90
       50
176
     0
 90
        3
176
     0
 62
     5
420
      255
176
     0
290
     0
176
     0
 90
       50
176
     0
 90
       50
176
     0
 90
       50
176
     0
290
     0
176
     0
 90
       50
176
     0
 62
   256
176
     0
 40
1.0
176
     0
 90
        2
176
     0
  1
strokes_ogs.tif
176
     0
290
     0
176
     0
 40
1.0
176
     0
 40
1.0
176
     0
1001
ACAD
1000
AcDbSavedByObjectVersion
1070
     0
  0
VISUALSTYLE
  5
487B4
102
{ACAD_REACTORS
330
487A5
102
}
330
487A5
100
AcDbVisualStyle
  2
Facepattern
 70
    15
177
     3
291
     1
 70
    58
 90
        2
176
     1
 90
        2
176
     1
 90
        0
176
     1
 90
        0
176
     1
 40
0.6
176
     1
 40
30.0
176
     1
 62
     7
420
 16777215
176
     1
 90
        1
176
     1
 90
        4
176
     1
 62
     7
176
     1
 62
   257
176
     1
 90
        1
176
     1
 90
        1
176
     1
 40
1.0
176
     1
 90
        8
176
     1
 62
     7
176
     1
 40
1.0
176
     1
 90
        1
176
     1
 90
        6
176
     1
 90
        2
176
     1
 62
     7
176
     1
 90
        5
176
     1
 90
        0
176
     1
 90
        0
176
     1
290
     0
176
     1
 90
        1
176
     1
 40
0.0
176
     1
 90
        0
176
     1
290
     0
176
     1
290
     1
176
     1
290
     1
176
     1
290
     0
176
     1
290
     0
176
     1
290
     0
176
     1
290
     0
176
     1
290
     0
176
     1
290
     0
176
     1
 90
       50
176
     1
 40
0.0
176
     1
 40
1.0
176
     1
 90
        0
176
     1
 62
    18
420
        0
176
     1
 90
       50
176
     1
 90
        3
176
     1
 62
     5
420
      255
176
     1
290
     0
176
     1
 90
       50
176
     1
 90
       50
176
     1
 90
       50
176
     1
290
     0
176
     1
 90
       50
176
     1
 62
   256
176
     0
 40
1.0
176
     0
 90
        2
176
     1
  1
strokes_ogs.tif
176
     1
290
     0
176
     1
 40
1.0
176
     1
 40
1.0
176
     1
1001
ACAD
1000
AcDbSavedByObjectVersion
1070
     0
  0
VISUALSTYLE
  5
487A6
102
{ACAD_REACTORS
330
487A5
102
}
330
487A5
100
AcDbVisualStyle
  2
Flat
 70
     0
177
     3
291
     1
 70
    58
 90
        2
176
     1
 90
        1
176
     1
 90
        1
176
     1
 90
        2
176
     1
 40
0.6
176
     1
 40
30.0
176
     1
 62
     7
420
 16777215
176
     1
 90
        0
176
     1
 90
        0
176
     1
 62
     7
176
     1
 62
   257
176
     1
 90
        1
176
     1
 90
        1
176
     1
 40
1.0
176
     1
 90
        8
176
     1
 62
     7
176
     1
 40
1.0
176
     1
 90
        1
176
     1
 90
        6
176
     1
 90
        2
176
     1
 62
     7
176
     1
 90
        5
176
     1
 90
        0
176
     1
 90
        0
176
     1
290
     0
176
     1
 90
       13
176
     1
 40
0.0
176
     1
 90
        0
176
     1
290
     0
176
     1
290
     1
176
     1
290
     1
176
     1
290
     0
176
     1
290
     0
176
     1
290
     0
176
     1
290
     0
176
     1
290
     0
176
     1
290
     0
176
     1
 90
       50
176
     1
 40
0.0
176
     1
 40
1.0
176
     1
 90
        0
176
     1
 62
    18
420
        0
176
     1
 90
       50
176
     1
 90
        3
176
     1
 62
     5
420
      255
176
     1
290
     0
176
     1
 90
       50
176
     1
 90
       50
176
     1
 90
       50
176
     1
290
     0
176
     1
 90
       50
176
     1
 62
   256
176
     0
 40
1.0
176
     0
 90
        2
176
     1
  1
strokes_ogs.tif
176
     1
290
     0
176
     1
 40
1.0
176
     1
 40
1.0
176
     1
1001
ACAD
1000
AcDbSavedByObjectVersion
1070
     0
  0
VISUALSTYLE
  5
487A7
102
{ACAD_REACTORS
330
487A5
102
}
330
487A5
100
AcDbVisualStyle
  2
FlatWithEdges
 70
     1
177
     3
291
     1
 70
    58
 90
        2
176
     1
 90
        1
176
     1
 90
        1
176
     1
 90
        2
176
     1
 40
0.6
176
     1
 40
30.0
176
     1
 62
     7
420
 16777215
176
     1
 90
        1
176
     1
 90
        0
176
     1
 62
     7
176
     1
 62
   257
176
     1
 90
        1
176
     1
 90
        1
176
     1
 40
1.0
176
     1
 90
        0
176
     1
 62
   257
176
     1
 40
1.0
176
     1
 90
        1
176
     1
 90
        6
176
     1
 90
        2
176
     1
 62
     7
176
     1
 90
        5
176
     1
 90
        0
176
     1
 90
        0
176
     1
290
     0
176
     1
 90
       13
176
     1
 40
0.0
176
     1
 90
        0
176
     1
290
     0
176
     1
290
     1
176
     1
290
     1
176
     1
290
     0
176
     1
290
     0
176
     1
290
     0
176
     1
290
     0
176
     1
290
     0
176
     1
290
     0
176
     1
 90
       50
176
     1
 40
0.0
176
     1
 40
1.0
176
     1
 90
        0
176
     1
 62
    18
420
        0
176
     1
 90
       50
176
     1
 90
        3
176
     1
 62
     5
420
      255
176
     1
290
     0
176
     1
 90
       50
176
     1
 90
       50
176
     1
 90
       50
176
     1
290
     0
176
     1
 90
       50
176
     1
 62
   256
176
     0
 40
1.0
176
     0
 90
        2
176
     1
  1
strokes_ogs.tif
176
     1
290
     0
176
     1
 40
1.0
176
     1
 40
1.0
176
     1
1001
ACAD
1000
AcDbSavedByObjectVersion
1070
     0
  0
VISUALSTYLE
  5
487A8
102
{ACAD_REACTORS
330
487A5
102
}
330
487A5
100
AcDbVisualStyle
  2
Gouraud
 70
     2
177
     3
291
     1
 70
    58
 90
        2
176
     1
 90
        2
176
     1
 90
        1
176
     1
 90
        2
176
     1
 40
0.6
176
     1
 40
30.0
176
     1
 62
     7
420
 16777215
176
     1
 90
        0
176
     1
 90
        0
176
     1
 62
     7
176
     1
 62
   257
176
     1
 90
        1
176
     1
 90
        1
176
     1
 40
1.0
176
     1
 90
        0
176
     1
 62
     7
176
     1
 40
1.0
176
     1
 90
        1
176
     1
 90
        6
176
     1
 90
        2
176
     1
 62
     7
176
     1
 90
        5
176
     1
 90
        0
176
     1
 90
        0
176
     1
290
     0
176
     1
 90
       13
176
     1
 40
0.0
176
     1
 90
        0
176
     1
290
     0
176
     1
290
     1
176
     1
290
     1
176
     1
290
     0
176
     1
290
     0
176
     1
290
     0
176
     1
290
     0
176
     1
290
     0
176
     1
290
     0
176
     1
 90
       50
176
     1
 40
0.0
176
     1
 40
1.0
176
     1
 90
        0
176
     1
 62
    18
420
        0
176
     1
 90
       50
176
     1
 90
        3
176
     1
 62
     5
420
      255
176
     1
290
     0
176
     1
 90
       50
176
     1
 90
       50
176
     1
 90
       50
176
     1
290
     0
176
     1
 90
       50
176
     1
 62
   256
176
     0
 40
1.0
176
     0
 90
        2
176
     1
  1
strokes_ogs.tif
176
     1
290
     0
176
     1
 40
1.0
176
     1
 40
1.0
176
     1
1001
ACAD
1000
AcDbSavedByObjectVersion
1070
     0
  0
VISUALSTYLE
  5
487A9
102
{ACAD_REACTORS
330
487A5
102
}
330
487A5
100
AcDbVisualStyle
  2
GouraudWithEdges
 70
     3
177
     3
291
     1
 70
    58
 90
        2
176
     1
 90
        2
176
     1
 90
        1
176
     1
 90
        2
176
     1
 40
0.6
176
     1
 40
30.0
176
     1
 62
     7
420
 16777215
176
     1
 90
        1
176
     1
 90
        0
176
     1
 62
     7
176
     1
 62
   257
176
     1
 90
        1
176
     1
 90
        1
176
     1
 40
1.0
176
     1
 90
        0
176
     1
 62
   257
176
     1
 40
1.0
176
     1
 90
        1
176
     1
 90
        6
176
     1
 90
        2
176
     1
 62
     7
176
     1
 90
        5
176
     1
 90
        0
176
     1
 90
        0
176
     1
290
     0
176
     1
 90
       13
176
     1
 40
0.0
176
     1
 90
        0
176
     1
290
     0
176
     1
290
     1
176
     1
290
     1
176
     1
290
     0
176
     1
290
     0
176
     1
290
     0
176
     1
290
     0
176
     1
290
     0
176
     1
290
     0
176
     1
 90
       50
176
     1
 40
0.0
176
     1
 40
1.0
176
     1
 90
        0
176
     1
 62
    18
420
        0
176
     1
 90
       50
176
     1
 90
        3
176
     1
 62
     5
420
      255
176
     1
290
     0
176
     1
 90
       50
176
     1
 90
       50
176
     1
 90
       50
176
     1
290
     0
176
     1
 90
       50
176
     1
 62
   256
176
     0
 40
1.0
176
     0
 90
        2
176
     1
  1
strokes_ogs.tif
176
     1
290
     0
176
     1
 40
1.0
176
     1
 40
1.0
176
     1
1001
ACAD
1000
AcDbSavedByObjectVersion
1070
     0
  0
VISUALSTYLE
  5
487AD
102
{ACAD_REACTORS
330
487A5
102
}
330
487A5
100
AcDbVisualStyle
  2
Hidden
 70
     6
177
     3
291
     0
 70
    58
 90
        1
176
     1
 90
        2
176
     1
 90
        2
176
     1
 90
        0
176
     1
 40
0.6
176
     1
 40
30.0
176
     1
 62
     7
420
 16777215
176
     1
 90
        2
176
     1
 90
        2
176
     1
 62
     7
176
     1
 62
   257
176
     1
 90
        2
176
     1
 90
        1
176
     1
 40
40.0
176
     1
 90
        0
176
     1
 62
   257
176
     1
 40
1.0
176
     1
 90
        1
176
     1
 90
        6
176
     1
 90
        2
176
     1
 62
     7
176
     1
 90
        3
176
     1
 90
        0
176
     1
 90
        0
176
     1
290
     0
176
     1
 90
        1
176
     1
 40
0.0
176
     1
 90
        0
176
     1
290
     0
176
     1
290
     1
176
     1
290
     1
176
     1
290
     0
176
     1
290
     0
176
     1
290
     0
176
     1
290
     0
176
     1
290
     0
176
     1
290
     0
176
     1
 90
       50
176
     1
 40
0.0
176
     1
 40
1.0
176
     1
 90
        0
176
     1
 62
    18
420
        0
176
     1
 90
       50
176
     1
 90
        3
176
     1
 62
     5
420
      255
176
     1
290
     0
176
     1
 90
       50
176
     1
 90
       50
176
     1
 90
       50
176
     1
290
     0
176
     1
 90
       50
176
     1
 62
   256
176
     0
 40
1.0
176
     0
 90
        2
176
     1
  1
strokes_ogs.tif
176
     1
290
     0
176
     1
 40
1.0
176
     1
 40
1.0
176
     1
1001
ACAD
1000
AcDbSavedByObjectVersion
1070
     0
  0
VISUALSTYLE
  5
487BB
102
{ACAD_REACTORS
330
487A5
102
}
330
487A5
100
AcDbVisualStyle
  2
JitterOff
 70
    20
177
     3
291
     1
 70
    58
 90
        2
176
     0
 90
        2
176
     0
 90
        0
176
     0
 90
        0
176
     0
 40
0.6
176
     0
 40
30.0
176
     0
 62
     7
420
 16777215
176
     0
 90
        1
176
     0
 90
        4
176
     0
 62
     7
176
     0
 62
   257
176
     0
 90
        1
176
     0
 90
        1
176
     0
 40
1.0
176
     0
 90
       10
176
     2
 62
     7
176
     0
 40
1.0
176
     0
 90
        1
176
     0
 90
        6
176
     0
 90
        2
176
     0
 62
     7
176
     0
 90
        5
176
     0
 90
        0
176
     0
 90
        0
176
     0
290
     0
176
     0
 90
        1
176
     0
 40
0.0
176
     0
 90
        0
176
     0
290
     0
176
     0
290
     1
176
     0
290
     1
176
     0
290
     0
176
     0
290
     0
176
     0
290
     0
176
     0
290
     0
176
     0
290
     0
176
     0
290
     0
176
     0
 90
       50
176
     0
 40
0.0
176
     0
 40
1.0
176
     0
 90
        0
176
     0
 62
    18
420
        0
176
     0
 90
       50
176
     0
 90
        3
176
     0
 62
     5
420
      255
176
     0
290
     0
176
     0
 90
       50
176
     0
 90
       50
176
     0
 90
       50
176
     0
290
     0
176
     0
 90
       50
176
     0
 62
   256
176
     0
 40
1.0
176
     0
 90
        2
176
     0
  1
strokes_ogs.tif
176
     0
290
     0
176
     0
 40
1.0
176
     0
 40
1.0
176
     0
1001
ACAD
1000
AcDbSavedByObjectVersion
1070
     0
  0
VISUALSTYLE
  5
487B3
102
{ACAD_REACTORS
330
487A5
102
}
330
487A5
100
AcDbVisualStyle
  2
Linepattern
 70
    14
177
     3
291
     1
 70
    58
 90
        2
176
     1
 90
        2
176
     1
 90
        0
176
     1
 90
        0
176
     1
 40
0.6
176
     1
 40
30.0
176
     1
 62
     7
420
 16777215
176
     1
 90
        1
176
     1
 90
        4
176
     1
 62
     7
176
     1
 62
   257
176
     1
 90
        7
176
     1
 90
        7
176
     1
 40
1.0
176
     1
 90
        8
176
     1
 62
     7
176
     1
 40
1.0
176
     1
 90
        1
176
     1
 90
        6
176
     1
 90
        2
176
     1
 62
     7
176
     1
 90
        5
176
     1
 90
        0
176
     1
 90
        0
176
     1
290
     0
176
     1
 90
        1
176
     1
 40
0.0
176
     1
 90
        0
176
     1
290
     0
176
     1
290
     1
176
     1
290
     1
176
     1
290
     0
176
     1
290
     0
176
     1
290
     0
176
     1
290
     0
176
     1
290
     0
176
     1
290
     0
176
     1
 90
       50
176
     1
 40
0.0
176
     1
 40
1.0
176
     1
 90
        0
176
     1
 62
    18
420
        0
176
     1
 90
       50
176
     1
 90
        3
176
     1
 62
     5
420
      255
176
     1
290
     0
176
     1
 90
       50
176
     1
 90
       50
176
     1
 90
       50
176
     1
290
     0
176
     1
 90
       50
176
     1
 62
   256
176
     0
 40
1.0
176
     0
 90
        2
176
     1
  1
strokes_ogs.tif
176
     1
290
     0
176
     1
 40
1.0
176
     1
 40
1.0
176
     1
1001
ACAD
1000
AcDbSavedByObjectVersion
1070
     0
  0
VISUALSTYLE
  5
487BC
102
{ACAD_REACTORS
330
487A5
102
}
330
487A5
100
AcDbVisualStyle
  2
OverhangOff
 70
    21
177
     3
291
     1
 70
    58
 90
        2
176
     0
 90
        2
176
     0
 90
        0
176
     0
 90
        0
176
     0
 40
0.6
176
     0
 40
30.0
176
     0
 62
     7
420
 16777215
176
     0
 90
        1
176
     0
 90
        4
176
     0
 62
     7
176
     0
 62
   257
176
     0
 90
        1
176
     0
 90
        1
176
     0
 40
1.0
176
     0
 90
        9
176
     2
 62
     7
176
     0
 40
1.0
176
     0
 90
        1
176
     0
 90
        6
176
     0
 90
        2
176
     0
 62
     7
176
     0
 90
        5
176
     0
 90
        0
176
     0
 90
        0
176
     0
290
     0
176
     0
 90
        1
176
     0
 40
0.0
176
     0
 90
        0
176
     0
290
     0
176
     0
290
     1
176
     0
290
     1
176
     0
290
     0
176
     0
290
     0
176
     0
290
     0
176
     0
290
     0
176
     0
290
     0
176
     0
290
     0
176
     0
 90
       50
176
     0
 40
0.0
176
     0
 40
1.0
176
     0
 90
        0
176
     0
 62
    18
420
        0
176
     0
 90
       50
176
     0
 90
        3
176
     0
 62
     5
420
      255
176
     0
290
     0
176
     0
 90
       50
176
     0
 90
       50
176
     0
 90
       50
176
     0
290
     0
176
     0
 90
       50
176
     0
 62
   256
176
     0
 40
1.0
176
     0
 90
        2
176
     0
  1
strokes_ogs.tif
176
     0
290
     0
176
     0
 40
1.0
176
     0
 40
1.0
176
     0
1001
ACAD
1000
AcDbSavedByObjectVersion
1070
     0
  0
VISUALSTYLE
  5
487AF
102
{ACAD_REACTORS
330
487A5
102
}
330
487A5
100
AcDbVisualStyle
  2
Realistic
 70
     8
177
     3
291
     0
 70
    58
 90
        2
176
     1
 90
        3
176
     1
 90
        0
176
     1
 90
        2
176
     1
 40
0.6
176
     1
 40
30.0
176
     1
 62
     7
420
 16777215
176
     1
 90
        0
176
     1
 90
        0
176
     1
 62
     7
176
     1
 62
   257
176
     1
 90
        1
176
     1
 90
        1
176
     1
 40
1.0
176
     1
 90
        8
176
     1
 62
   257
176
     1
 40
1.0
176
     1
 90
        1
176
     1
 90
        6
176
     1
 90
        2
176
     1
 62
     7
176
     1
 90
        3
176
     1
 90
        0
176
     1
 90
        0
176
     1
290
     0
176
     1
 90
       13
176
     1
 40
0.0
176
     1
 90
        0
176
     1
290
     0
176
     1
290
     1
176
     1
290
     1
176
     1
290
     0
176
     1
290
     0
176
     1
290
     0
176
     1
290
     0
176
     1
290
     0
176
     1
290
     0
176
     1
 90
       50
176
     1
 40
0.0
176
     1
 40
1.0
176
     1
 90
        0
176
     1
 62
    18
420
        0
176
     1
 90
       50
176
     1
 90
        3
176
     1
 62
     5
420
      255
176
     1
290
     0
176
     1
 90
       50
176
     1
 90
       50
176
     1
 90
       50
176
     1
290
     0
176
     1
 90
       50
176
     1
 62
   256
176
     0
 40
1.0
176
     0
 90
        2
176
     1
  1
strokes_ogs.tif
176
     1
290
     0
176
     1
 40
1.0
176
     1
 40
1.0
176
     1
1001
ACAD
1000
AcDbSavedByObjectVersion
1070
     0
  0
VISUALSTYLE
  5
487BA
102
{ACAD_REACTORS
330
487A5
102
}
330
487A5
100
AcDbVisualStyle
  2
Shaded
 70
    27
177
     3
291
     0
 70
    58
 90
        2
176
     1
 90
        2
176
     1
 90
        1
176
     1
 90
        2
176
     1
 40
0.6
176
     1
 40
30.0
176
     1
 62
     7
420
 16777215
176
     1
 90
        0
176
     1
 90
        4
176
     1
 62
     7
176
     1
 62
   257
176
     1
 90
        1
176
     1
 90
        1
176
     1
 40
1.0
176
     1
 90
        8
176
     1
 62
   257
176
     1
 40
1.0
176
     1
 90
        1
176
     1
 90
        6
176
     1
 90
        2
176
     1
 62
     8
420
  7895160
176
     1
 90
        3
176
     1
 90
        0
176
     1
 90
        0
176
     1
290
     0
176
     1
 90
        5
176
     1
 40
0.0
176
     1
 90
        0
176
     1
290
     0
176
     1
290
     1
176
     1
290
     1
176
     1
290
     0
176
     1
290
     0
176
     1
290
     0
176
     1
290
     0
176
     1
290
     0
176
     1
290
     0
176
     1
 90
       50
176
     1
 40
0.0
176
     1
 40
1.0
176
     1
 90
        0
176
     1
 62
    18
420
        0
176
     1
 90
       50
176
     1
 90
        3
176
     1
 62
     5
420
      255
176
     1
290
     0
176
     1
 90
       50
176
     1
 90
       50
176
     1
 90
       50
176
     1
290
     0
176
     1
 90
       50
176
     1
 62
   256
176
     0
 40
1.0
176
     0
 90
        2
176
     1
  1
strokes_ogs.tif
176
     1
290
     0
176
     1
 40
1.0
176
     1
 40
1.0
176
     1
1001
ACAD
1000
AcDbSavedByObjectVersion
1070
     0
  0
VISUALSTYLE
  5
487B9
102
{ACAD_REACTORS
330
487A5
102
}
330
487A5
100
AcDbVisualStyle
  2
Shaded with edges
 70
    26
177
     3
291
     0
 70
    58
 90
        2
176
     1
 90
        2
176
     1
 90
        1
176
     1
 90
        2
176
     1
 40
0.6
176
     1
 40
30.0
176
     1
 62
     7
420
 16777215
176
     1
 90
        1
176
     1
 90
        2
176
     1
 62
     7
176
     1
 62
   257
176
     1
 90
        2
176
     1
 90
        1
176
     1
 40
1.0
176
     1
 90
        8
176
     1
 62
   257
176
     1
 40
1.0
176
     1
 90
        1
176
     1
 90
        6
176
     1
 90
        2
176
     1
 62
     7
176
     1
 90
        3
176
     1
 90
        0
176
     1
 90
        0
176
     1
290
     0
176
     1
 90
        5
176
     1
 40
0.0
176
     1
 90
        0
176
     1
290
     0
176
     1
290
     1
176
     1
290
     1
176
     1
290
     0
176
     1
290
     0
176
     1
290
     0
176
     1
290
     0
176
     1
290
     0
176
     1
290
     0
176
     1
 90
       50
176
     1
 40
0.0
176
     1
 40
1.0
176
     1
 90
        0
176
     1
 62
    18
420
        0
176
     1
 90
       50
176
     1
 90
        3
176
     1
 62
     5
420
      255
176
     1
290
     0
176
     1
 90
       50
176
     1
 90
       50
176
     1
 90
       50
176
     1
290
     0
176
     1
 90
       50
176
     1
 62
   256
176
     0
 40
1.0
176
     0
 90
        2
176
     1
  1
strokes_ogs.tif
176
     1
290
     0
176
     1
 40
1.0
176
     1
 40
1.0
176
     1
1001
ACAD
1000
AcDbSavedByObjectVersion
1070
     0
  0
VISUALSTYLE
  5
487B6
102
{ACAD_REACTORS
330
487A5
102
}
330
487A5
100
AcDbVisualStyle
  2
Shades of Gray
 70
    23
177
     3
291
     0
 70
    58
 90
        2
176
     1
 90
        2
176
     1
 90
        3
176
     1
 90
        0
176
     1
 40
0.6
176
     1
 40
30.0
176
     1
 62
     7
420
 16777215
176
     1
 90
        2
176
     1
 90
        2
176
     1
 62
     7
176
     1
 62
     7
176
     1
 90
        1
176
     1
 90
        1
176
     1
 40
40.0
176
     1
 90
        8
176
     1
 62
     7
176
     1
 40
1.0
176
     1
 90
        1
176
     1
 90
        6
176
     1
 90
        2
176
     1
 62
     7
176
     1
 90
        3
176
     1
 90
        0
176
     1
 90
        0
176
     1
290
     0
176
     1
 90
        1
176
     1
 40
0.0
176
     1
 90
        0
176
     1
290
     0
176
     1
290
     1
176
     1
290
     1
176
     1
290
     0
176
     1
290
     0
176
     1
290
     0
176
     1
290
     0
176
     1
290
     0
176
     1
290
     0
176
     1
 90
       50
176
     1
 40
0.0
176
     1
 40
1.0
176
     1
 90
        0
176
     1
 62
    18
420
        0
176
     1
 90
       50
176
     1
 90
        3
176
     1
 62
     5
420
      255
176
     1
290
     0
176
     1
 90
       50
176
     1
 90
       50
176
     1
 90
       50
176
     1
290
     0
176
     1
 90
       50
176
     1
 62
   256
176
     0
 40
1.0
176
     0
 90
        2
176
     1
  1
strokes_ogs.tif
176
     1
290
     0
176
     1
 40
1.0
176
     1
 40
1.0
176
     1
1001
ACAD
1000
AcDbSavedByObjectVersion
1070
     0
  0
VISUALSTYLE
  5
487B7
102
{ACAD_REACTORS
330
487A5
102
}
330
487A5
100
AcDbVisualStyle
  2
Sketchy
 70
    24
177
     3
291
     0
 70
    58
 90
        1
176
     1
 90
        2
176
     1
 90
        2
176
     1
 90
        0
176
     1
 40
0.6
176
     1
 40
30.0
176
     1
 62
     7
420
 16777215
176
     1
 90
        2
176
     1
 90
        2
176
     1
 62
     7
176
     1
 62
     7
176
     1
 90
        1
176
     1
 90
        1
176
     1
 40
40.0
176
     1
 90
       11
176
     1
 62
     7
176
     1
 40
1.0
176
     1
 90
        1
176
     1
 90
        6
176
     1
 90
        2
176
     1
 62
     7
176
     1
 90
        6
176
     1
 90
        0
176
     1
 90
        0
176
     1
290
     0
176
     1
 90
        1
176
     1
 40
0.0
176
     1
 90
        0
176
     1
290
     0
176
     1
290
     1
176
     1
290
     1
176
     1
290
     0
176
     1
290
     0
176
     1
290
     0
176
     1
290
     0
176
     1
290
     0
176
     1
290
     0
176
     1
 90
       50
176
     1
 40
0.0
176
     1
 40
1.0
176
     1
 90
        0
176
     1
 62
    18
420
        0
176
     1
 90
       50
176
     1
 90
        3
176
     1
 62
     5
420
      255
176
     1
290
     0
176
     1
 90
       50
176
     1
 90
       50
176
     1
 90
       50
176
     1
290
     0
176
     1
 90
       50
176
     1
 62
   256
176
     0
 40
1.0
176
     0
 90
        2
176
     1
  1
strokes_ogs.tif
176
     1
290
     0
176
     1
 40
1.0
176
     1
 40
1.0
176
     1
1001
ACAD
1000
AcDbSavedByObjectVersion
1070
     0
  0
VISUALSTYLE
  5
487B2
102
{ACAD_REACTORS
330
487A5
102
}
330
487A5
100
AcDbVisualStyle
  2
Thicken
 70
    13
177
     3
291
     1
 70
    58
 90
        2
176
     1
 90
        2
176
     1
 90
        0
176
     1
 90
        0
176
     1
 40
0.6
176
     1
 40
30.0
176
     1
 62
     7
420
 16777215
176
     1
 90
        1
176
     1
 90
        4
176
     1
 62
     7
176
     1
 62
   257
176
     1
 90
        1
176
     1
 90
        1
176
     1
 40
1.0
176
     1
 90
       12
176
     1
 62
     7
176
     1
 40
1.0
176
     1
 90
        1
176
     1
 90
        6
176
     1
 90
        2
176
     1
 62
     7
176
     1
 90
        5
176
     1
 90
        0
176
     1
 90
        0
176
     1
290
     0
176
     1
 90
        1
176
     1
 40
0.0
176
     1
 90
        0
176
     1
290
     0
176
     1
290
     1
176
     1
290
     1
176
     1
290
     0
176
     1
290
     0
176
     1
290
     0
176
     1
290
     0
176
     1
290
     0
176
     1
290
     0
176
     1
 90
       50
176
     1
 40
0.0
176
     1
 40
1.0
176
     1
 90
        0
176
     1
 62
    18
420
        0
176
     1
 90
       50
176
     1
 90
        3
176
     1
 62
     5
420
      255
176
     1
290
     0
176
     1
 90
       50
176
     1
 90
       50
176
     1
 90
       50
176
     1
290
     0
176
     1
 90
       50
176
     1
 62
   256
176
     0
 40
1.0
176
     0
 90
        2
176
     1
  1
strokes_ogs.tif
176
     1
290
     0
176
     1
 40
1.0
176
     1
 40
1.0
176
     1
1001
ACAD
1000
AcDbSavedByObjectVersion
1070
     0
  0
VISUALSTYLE
  5
487AC
102
{ACAD_REACTORS
330
487A5
102
}
330
487A5
100
AcDbVisualStyle
  2
Wireframe
 70
     5
177
     3
291
     0
 70
    58
 90
        0
176
     1
 90
        2
176
     1
 90
        0
176
     1
 90
        0
176
     1
 40
0.6
176
     1
 40
30.0
176
     1
 62
     7
420
 16777215
176
     1
 90
        1
176
     1
 90
        4
176
     1
 62
     7
176
     1
 62
   257
176
     1
 90
        1
176
     1
 90
        1
176
     1
 40
1.0
176
     1
 90
        0
176
     1
 62
   257
176
     1
 40
1.0
176
     1
 90
        1
176
     1
 90
        6
176
     1
 90
        2
176
     1
 62
     7
176
     1
 90
        3
176
     1
 90
        0
176
     1
 90
        0
176
     1
290
     0
176
     1
 90
        1
176
     1
 40
0.0
176
     1
 90
        0
176
     1
290
     0
176
     1
290
     1
176
     1
290
     1
176
     1
290
     0
176
     1
290
     0
176
     1
290
     0
176
     1
290
     0
176
     1
290
     0
176
     1
290
     0
176
     1
 90
       50
176
     1
 40
0.0
176
     1
 40
1.0
176
     1
 90
        0
176
     1
 62
    18
420
        0
176
     1
 90
       50
176
     1
 90
        3
176
     1
 62
     5
420
      255
176
     1
290
     0
176
     1
 90
       50
176
     1
 90
       50
176
     1
 90
       50
176
     1
290
     0
176
     1
 90
       50
176
     1
 62
   256
176
     0
 40
1.0
176
     0
 90
        2
176
     1
  1
strokes_ogs.tif
176
     1
290
     0
176
     1
 40
1.0
176
     1
 40
1.0
176
     1
1001
ACAD
1000
AcDbSavedByObjectVersion
1070
     0
  0
VISUALSTYLE
  5
487B8
102
{ACAD_REACTORS
330
487A5
102
}
330
487A5
100
AcDbVisualStyle
  2
X-Ray
 70
    25
177
     3
291
     0
 70
    58
 90
        2
176
     1
 90
        2
176
     1
 90
        1
176
     1
 90
        1
176
     1
 40
0.5
176
     1
 40
30.0
176
     1
 62
     7
420
 16777215
176
     1
 90
        1
176
     1
 90
        0
176
     1
 62
     7
176
     1
 62
   257
176
     1
 90
        1
176
     1
 90
        1
176
     1
 40
1.0
176
     1
 90
        8
176
     1
 62
     7
176
     1
 40
1.0
176
     1
 90
        1
176
     1
 90
        6
176
     1
 90
        2
176
     1
 62
     7
176
     1
 90
        3
176
     1
 90
        0
176
     1
 90
        0
176
     1
290
     0
176
     1
 90
       13
176
     1
 40
0.0
176
     1
 90
        0
176
     1
290
     0
176
     1
290
     1
176
     1
290
     1
176
     1
290
     0
176
     1
290
     0
176
     1
290
     0
176
     1
290
     0
176
     1
290
     0
176
     1
290
     0
176
     1
 90
       50
176
     1
 40
0.0
176
     1
 40
1.0
176
     1
 90
        0
176
     1
 62
    18
420
        0
176
     1
 90
       50
176
     1
 90
        3
176
     1
 62
     5
420
      255
176
     1
290
     0
176
     1
 90
       50
176
     1
 90
       50
176
     1
 90
       50
176
     1
290
     0
176
     1
 90
       50
176
     1
 62
   256
176
     0
 40
1.0
176
     0
 90
        2
176
     1
  1
strokes_ogs.tif
176
     1
290
     0
176
     1
 40
1.0
176
     1
 40
1.0
176
     1
1001
ACAD
1000
AcDbSavedByObjectVersion
1070
     0
  0
DICTIONARYVAR
  5
48804
102
{ACAD_REACTORS
330
7E86
102
}
330
7E86
100
DictionaryVariables
280
     0
  1
1:1
  0
DICTIONARYVAR
  5
48800
102
{ACAD_REACTORS
330
7E86
102
}
330
7E86
100
DictionaryVariables
280
     0
  1
STANDARD
  0
DICTIONARYVAR
  5
487FF
102
{ACAD_REACTORS
330
7E86
102
}
330
7E86
100
DictionaryVariables
280
     0
  1
STANDARD
  0
DICTIONARYVAR
  5
48801
102
{ACAD_REACTORS
330
7E86
102
}
330
7E86
100
DictionaryVariables
280
     0
  1
Imperial24
  0
DICTIONARYVAR
  5
48802
102
{ACAD_REACTORS
330
7E86
102
}
330
7E86
100
DictionaryVariables
280
     0
  1
Imperial24
  0
DICTIONARYVAR
  5
7E87
102
{ACAD_REACTORS
330
7E86
102
}
330
7E86
100
DictionaryVariables
280
     0
  1
1
  0
DICTIONARYVAR
  5
48806
102
{ACAD_REACTORS
330
7E86
102
}
330
7E86
100
DictionaryVariables
280
     0
  1
1
  0
DICTIONARYVAR
  5
48807
102
{ACAD_REACTORS
330
7E86
102
}
330
7E86
100
DictionaryVariables
280
     0
  1
15
  0
DICTIONARYVAR
  5
48805
102
{ACAD_REACTORS
330
7E86
102
}
330
7E86
100
DictionaryVariables
280
     0
  1
0
  0
DICTIONARYVAR
  5
48803
102
{ACAD_REACTORS
330
7E86
102
}
330
7E86
100
DictionaryVariables
280
     0
  1
0
  0
DICTIONARYVAR
  5
48536
102
{ACAD_REACTORS
330
7E86
102
}
330
7E86
100
DictionaryVariables
280
     0
  1

  0
DICTIONARYVAR
  5
B6AF
102
{ACAD_REACTORS
330
7E86
102
}
330
7E86
100
DictionaryVariables
280
     0
  1
112
  0
XRECORD
  5
2C770
102
{ACAD_REACTORS
330
1F316
102
}
330
1F316
100
AcDbXrecord
280
     1
  1
$
  1
*$0$*
  1
*
  1
*
 70
     0
  1
*
  1
*
  0
XRECORD
  5
2C771
102
{ACAD_REACTORS
330
1F316
102
}
330
1F316
100
AcDbXrecord
280
     1
  1
-100
  1
*100*
  1
*
  1
*
 70
     0
  1
*
  1
*
  0
XRECORD
  5
2C772
102
{ACAD_REACTORS
330
1F316
102
}
330
1F316
100
AcDbXrecord
280
     1
  1
-50
  1
*50*
  1
*
  1
*
 70
     0
  1
*
  1
*
  0
XRECORD
  5
2C773
102
{ACAD_REACTORS
330
1F316
102
}
330
1F316
100
AcDbXrecord
280
     1
  1
0
  1
0*
  1
*
  1
*
 70
     0
  1
*
  1
*
  0
XRECORD
  5
2C774
102
{ACAD_REACTORS
330
1F316
102
}
330
1F316
100
AcDbXrecord
280
     1
  1
00
  1
*
  1
*
  1
*
 70
     0
  1
*
  1
*
  0
XRECORD
  5
2C775
102
{ACAD_REACTORS
330
1F316
102
}
330
1F316
100
AcDbXrecord
280
     1
  1
01
  1
*
  1
*
  1
*
 70
     0
  1
*
  1
*
  0
XRECORD
  5
2C776
102
{ACAD_REACTORS
330
1F316
102
}
330
1F316
100
AcDbXrecord
280
     1
  1
05
  1
*05*
  1
*
  1
*
 70
     0
  1
*
  1
*
  0
XRECORD
  5
2C777
102
{ACAD_REACTORS
330
1F316
102
}
330
1F316
100
AcDbXrecord
280
     1
  1
1
  1
*
  1
1
  1
*
 70
     0
  1
*
  1
*
  0
XRECORD
  5
383D0
102
{ACAD_REACTORS
330
1F316
102
}
330
1F316
100
AcDbXrecord
280
     1
  1
1-1断面
  1
*断面
  1
*
  1
*
 70
     0
  1
*
  1
*
  0
XRECORD
  5
383D1
102
{ACAD_REACTORS
330
1F316
102
}
330
1F316
100
AcDbXrecord
280
     1
  1
1-交差点処理図（最新1案）
  1
*交差点処理図（最新1案）*
  1
*
  1
*
 70
     0
  1
*
  1
*
  0
XRECORD
  5
2C778
102
{ACAD_REACTORS
330
1F316
102
}
330
1F316
100
AcDbXrecord
280
     1
  1
12
  1
*
  1
*12
  1
*
 70
     0
  1
*
  1
*
  0
XRECORD
  5
2C779
102
{ACAD_REACTORS
330
1F316
102
}
330
1F316
100
AcDbXrecord
280
     1
  1
19
  1
*19*
  1
*
  1
*
 70
     0
  1
*
  1
*
  0
XRECORD
  5
2C77A
102
{ACAD_REACTORS
330
1F316
102
}
330
1F316
100
AcDbXrecord
280
     1
  1
2
  1
*
  1
2
  1
*
 70
     0
  1
*
  1
*
  0
XRECORD
  5
383D2
102
{ACAD_REACTORS
330
1F316
102
}
330
1F316
100
AcDbXrecord
280
     1
  1
2-線形図1
  1
*線形図1*
  1
*
  1
*
 70
     0
  1
*
  1
*
  0
XRECORD
  5
2C77B
102
{ACAD_REACTORS
330
1F316
102
}
330
1F316
100
AcDbXrecord
280
     1
  1
21
  1
*
  1
21
  1
*
 70
     0
  1
*
  1
*
  0
XRECORD
  5
2C77C
102
{ACAD_REACTORS
330
1F316
102
}
330
1F316
100
AcDbXrecord
280
     1
  1
250
  1
*250*
  1
*
  1
*
 70
     0
  1
*
  1
*
  0
XRECORD
  5
2C77D
102
{ACAD_REACTORS
330
1F316
102
}
330
1F316
100
AcDbXrecord
280
     1
  1
3
  1
*
  1
3
  1
*
 70
     0
  1
*
  1
*
  0
XRECORD
  5
383D3
102
{ACAD_REACTORS
330
1F316
102
}
330
1F316
100
AcDbXrecord
280
     1
  1
3-線形図2
  1
*線形図2*
  1
*
  1
*
 70
     0
  1
*
  1
*
  0
XRECORD
  5
2C77E
102
{ACAD_REACTORS
330
1F316
102
}
330
1F316
100
AcDbXrecord
280
     1
  1
300
  1
*300*
  1
*
  1
*
 70
     0
  1
*
  1
*
  0
XRECORD
  5
2C77F
102
{ACAD_REACTORS
330
1F316
102
}
330
1F316
100
AcDbXrecord
280
     1
  1
32
  1
*
  1
32
  1
*
 70
     0
  1
*
  1
*
  0
XRECORD
  5
2C780
102
{ACAD_REACTORS
330
1F316
102
}
330
1F316
100
AcDbXrecord
280
     1
  1
4
  1
*
  1
4
  1
*
 70
     0
  1
*
  1
*
  0
XRECORD
  5
2C781
102
{ACAD_REACTORS
330
1F316
102
}
330
1F316
100
AcDbXrecord
280
     1
  1
5
  1
*
  1
5
  1
*
 70
     0
  1
*
  1
*
  0
XRECORD
  5
1FD5C
102
{ACAD_REACTORS
330
1F316
102
}
330
1F316
100
AcDbXrecord
280
     1
  1
50
  1
*-50
  1
*
  1
*
 70
     0
  1
*
  1
*
  0
XRECORD
  5
2C782
102
{ACAD_REACTORS
330
1F316
102
}
330
1F316
100
AcDbXrecord
280
     1
  1
6
  1
*
  1
6
  1
*
 70
     0
  1
*
  1
*
  0
XRECORD
  5
2C783
102
{ACAD_REACTORS
330
1F316
102
}
330
1F316
100
AcDbXrecord
280
     1
  1
66-躯体図
  1
0,Defpoints,HOJO,雲マーク,000*,010*,020*,1*,400*,470*,520*,570*,08*
  1
*
  1
*
 70
     0
  1
*
  1
*
  0
XRECORD
  5
2C784
102
{ACAD_REACTORS
330
1F316
102
}
330
1F316
100
AcDbXrecord
280
     1
  1
66躯体図
  1
0,Defpoints,HOJO,雲マーク,000*,010*,020*,1*,400*,470*,520*,570*,08*,6*
  1
*
  1
*
 70
     0
  1
*
  1
*
  0
XRECORD
  5
2C785
102
{ACAD_REACTORS
330
1F316
102
}
330
1F316
100
AcDbXrecord
280
     1
  1
7
  1
*
  1
7
  1
*
 70
     0
  1
*
  1
*
  0
XRECORD
  5
383D4
102
{ACAD_REACTORS
330
1F316
102
}
330
1F316
100
AcDbXrecord
280
     1
  1
7-専用部北行
  1
80*,90*,A0*,B0*,
  1
*
  1
*
 70
     0
  1
*
  1
*
  0
XRECORD
  5
383D5
102
{ACAD_REACTORS
330
1F316
102
}
330
1F316
100
AcDbXrecord
280
     1
  1
8-ONﾗﾝﾌﾟ
  1
70*,90*,A0*,B0*,
  1
*
  1
*
 70
     0
  1
*
  1
*
  0
XRECORD
  5
2C786
102
{ACAD_REACTORS
330
1F316
102
}
330
1F316
100
AcDbXrecord
280
     1
  1
9
  1
*
  1
9
  1
*
 70
     0
  1
*
  1
*
  0
XRECORD
  5
383D6
102
{ACAD_REACTORS
330
1F316
102
}
330
1F316
100
AcDbXrecord
280
     1
  1
9-OFFﾗﾝﾌﾟ
  1
70*,80*,A0*B0*,
  1
*
  1
*
 70
     0
  1
*
  1
*
  0
XRECORD
  5
2C787
102
{ACAD_REACTORS
330
1F316
102
}
330
1F316
100
AcDbXrecord
280
     1
  1
a
  1
a-*
  1
*
  1
*
 70
     0
  1
*
  1
*
  0
XRECORD
  5
2C788
102
{ACAD_REACTORS
330
1F316
102
}
330
1F316
100
AcDbXrecord
280
     1
  1
A-
  1
A-*
  1
*
  1
*
 70
     0
  1
*
  1
*
  0
XRECORD
  5
2C789
102
{ACAD_REACTORS
330
1F316
102
}
330
1F316
100
AcDbXrecord
280
     1
  1
aa
  1
*aa*
  1
*
  1
*
 70
     0
  1
*
  1
*
  0
XRECORD
  5
2C78A
102
{ACAD_REACTORS
330
1F316
102
}
330
1F316
100
AcDbXrecord
280
     1
  1
AB棟
  1
ＡＢ棟*
  1
*
  1
*
 70
     0
  1
*
  1
*
  0
XRECORD
  5
2C78B
102
{ACAD_REACTORS
330
1F316
102
}
330
1F316
100
AcDbXrecord
280
     1
  1
AREA
  1
*AREA*
  1
*
  1
*
 70
     0
  1
*
  1
*
  0
XRECORD
  5
2C78C
102
{ACAD_REACTORS
330
1F316
102
}
330
1F316
100
AcDbXrecord
280
     1
  1
BASE
  1
*I4BASE
  1
*
  1
*
 70
     0
  1
*
  1
*
  0
XRECORD
  5
2C78D
102
{ACAD_REACTORS
330
1F316
102
}
330
1F316
100
AcDbXrecord
280
     1
  1
beam
  1
*beam*
  1
*
  1
*
 70
     0
  1
*
  1
*
  0
XRECORD
  5
383D7
102
{ACAD_REACTORS
330
1F316
102
}
330
1F316
100
AcDbXrecord
280
     1
  1
B北
  1
*B北*
  1
*
  1
*
 70
     0
  1
*
  1
*
  0
XRECORD
  5
383D8
102
{ACAD_REACTORS
330
1F316
102
}
330
1F316
100
AcDbXrecord
280
     1
  1
CALS
  1
*
  1
*
  1
*
 70
     1
  1
*
  1
*
  0
XRECORD
  5
2C78E
102
{ACAD_REACTORS
330
1F316
102
}
330
1F316
100
AcDbXrecord
280
     1
  1
cap-0
  1
*
  1
*
  1
*
 70
     0
  1
*
  1
*
  0
XRECORD
  5
2C78F
102
{ACAD_REACTORS
330
1F316
102
}
330
1F316
100
AcDbXrecord
280
     1
  1
cc
  1
*
  1
*
  1
*
 70
     0
  1
*
  1
*
  0
XRECORD
  5
2C790
102
{ACAD_REACTORS
330
1F316
102
}
330
1F316
100
AcDbXrecord
280
     1
  1
CEL
  1
*
  1
*
  1
*
 70
     0
  1
*
  1
*
  0
XRECORD
  5
2C791
102
{ACAD_REACTORS
330
1F316
102
}
330
1F316
100
AcDbXrecord
280
     1
  1
che
  1
che*
  1
*
  1
*
 70
     0
  1
*
  1
*
  0
XRECORD
  5
2C792
102
{ACAD_REACTORS
330
1F316
102
}
330
1F316
100
AcDbXrecord
280
     1
  1
CLG
  1
*CLG*
  1
*
  1
*
 70
     0
  1
*
  1
*
  0
XRECORD
  5
2C793
102
{ACAD_REACTORS
330
1F316
102
}
330
1F316
100
AcDbXrecord
280
     1
  1
colu
  1
*colu*
  1
*
  1
*
 70
     0
  1
*
  1
*
  0
XRECORD
  5
2C794
102
{ACAD_REACTORS
330
1F316
102
}
330
1F316
100
AcDbXrecord
280
     1
  1
com
  1
com*
  1
*
  1
*
 70
     0
  1
*
  1
*
  0
XRECORD
  5
2C795
102
{ACAD_REACTORS
330
1F316
102
}
330
1F316
100
AcDbXrecord
280
     1
  1
CRG
  1
tca-6f|*CRG*
  1
*
  1
*
 70
     0
  1
*
  1
*
  0
XRECORD
  5
1FD5D
102
{ACAD_REACTORS
330
1F316
102
}
330
1F316
100
AcDbXrecord
280
     1
  1
cyan
  1
*
  1
cyan
  1
*
 70
     0
  1
*
  1
*
  0
XRECORD
  5
2C796
102
{ACAD_REACTORS
330
1F316
102
}
330
1F316
100
AcDbXrecord
280
     1
  1
C打計画図
  1
001*,002*,003*,004*,005*,007*,012*,015*,016*,017*,018*,019*,020*,021*,049*,050*,051*,052*,053*,054*,055*,056*,057*,058*,059*,060*,061*,062*,063*,064*,065*,066*,067*,068*,069*,070*,071*,072*,073*,074*,075*
  1
*
  1
*
 70
     0
  1
*
  1
*
  0
XRECORD
  5
2C797
102
{ACAD_REACTORS
330
1F316
102
}
330
1F316
100
AcDbXrecord
280
     1
  1
DIM
  1
*DIM*
  1
*
  1
*
 70
     0
  1
*
  1
*
  0
XRECORD
  5
2C798
102
{ACAD_REACTORS
330
1F316
102
}
330
1F316
100
AcDbXrecord
280
     1
  1
D墓地排水
  1
*は*
  1
*
  1
*
 70
     0
  1
*
  1
*
  0
XRECORD
  5
2C799
102
{ACAD_REACTORS
330
1F316
102
}
330
1F316
100
AcDbXrecord
280
     1
  1
ele
  1
ele*
  1
*
  1
*
 70
     0
  1
*
  1
*
  0
XRECORD
  5
383D9
102
{ACAD_REACTORS
330
1F316
102
}
330
1F316
100
AcDbXrecord
280
     1
  1
E南
  1
*E*南*
  1
*
  1
*
 70
     0
  1
*
  1
*
  0
XRECORD
  5
2C79A
102
{ACAD_REACTORS
330
1F316
102
}
330
1F316
100
AcDbXrecord
280
     1
  1
F
  1
*
  1
*
  1
*
 70
    12
  1
*
  1
*
  0
XRECORD
  5
2C79B
102
{ACAD_REACTORS
330
1F316
102
}
330
1F316
100
AcDbXrecord
280
     1
  1
face4
  1
*face4*
  1
*
  1
*
 70
     0
  1
*
  1
*
  0
XRECORD
  5
2C79C
102
{ACAD_REACTORS
330
1F316
102
}
330
1F316
100
AcDbXrecord
280
     1
  1
ff
  1
*
  1
*
  1
*
 70
    12
  1
*
  1
*
  0
XRECORD
  5
2C79D
102
{ACAD_REACTORS
330
1F316
102
}
330
1F316
100
AcDbXrecord
280
     1
  1
fini
  1
*fini*
  1
*
  1
*
 70
     0
  1
*
  1
*
  0
XRECORD
  5
2C79E
102
{ACAD_REACTORS
330
1F316
102
}
330
1F316
100
AcDbXrecord
280
     1
  1
FUSE_00
  1
*
  1
*
  1
*
 70
     0
  1
*
  1
*
  0
XRECORD
  5
2C79F
102
{ACAD_REACTORS
330
1F316
102
}
330
1F316
100
AcDbXrecord
280
     1
  1
GRID
  1
G*
  1
*
  1
*
 70
     0
  1
*
  1
*
  0
XRECORD
  5
2C7A0
102
{ACAD_REACTORS
330
1F316
102
}
330
1F316
100
AcDbXrecord
280
     1
  1
hi
  1
*
  1
9
  1
*
 70
     0
  1
*
  1
*
  0
XRECORD
  5
2C7A1
102
{ACAD_REACTORS
330
1F316
102
}
330
1F316
100
AcDbXrecord
280
     1
  1
hollywood
  1
*
  1
*
  1
*
 70
    12
  1
*
  1
*
  0
XRECORD
  5
2C7A2
102
{ACAD_REACTORS
330
1F316
102
}
330
1F316
100
AcDbXrecord
280
     1
  1
HOTEL
  1
*HOT*
  1
*
  1
*
 70
     0
  1
*
  1
*
  0
XRECORD
  5
1FD5E
102
{ACAD_REACTORS
330
1F316
102
}
330
1F316
100
AcDbXrecord
280
     1
  1
husezu
  1
50*
  1
*
  1
*
 70
     0
  1
*
  1
*
  0
XRECORD
  5
2C7A3
102
{ACAD_REACTORS
330
1F316
102
}
330
1F316
100
AcDbXrecord
280
     1
  1
HYOUKI
  1
*
  1
*
  1
*
 70
     0
  1
*
  1
*
  0
XRECORD
  5
2C7A4
102
{ACAD_REACTORS
330
1F316
102
}
330
1F316
100
AcDbXrecord
280
     1
  1
I2
  1
*I2CL*
  1
*
  1
*
 70
     0
  1
*
  1
*
  0
XRECORD
  5
2C7A5
102
{ACAD_REACTORS
330
1F316
102
}
330
1F316
100
AcDbXrecord
280
     1
  1
i2cl
  1
*i2c?*
  1
*
  1
*
 70
     0
  1
*
  1
*
  0
XRECORD
  5
2C7A6
102
{ACAD_REACTORS
330
1F316
102
}
330
1F316
100
AcDbXrecord
280
     1
  1
i5
  1
*i5*
  1
*
  1
*
 70
     0
  1
*
  1
*
  0
XRECORD
  5
2C7A7
102
{ACAD_REACTORS
330
1F316
102
}
330
1F316
100
AcDbXrecord
280
     1
  1
i9
  1
*i9*
  1
*
  1
*
 70
     0
  1
*
  1
*
  0
XRECORD
  5
1FD5F
102
{ACAD_REACTORS
330
1F316
102
}
330
1F316
100
AcDbXrecord
280
     1
  1
j0
  1
*j0*
  1
*
  1
*
 70
     0
  1
*
  1
*
  0
XRECORD
  5
1FD60
102
{ACAD_REACTORS
330
1F316
102
}
330
1F316
100
AcDbXrecord
280
     1
  1
j7
  1
*j7*
  1
*
  1
*
 70
     0
  1
*
  1
*
  0
XRECORD
  5
1FD61
102
{ACAD_REACTORS
330
1F316
102
}
330
1F316
100
AcDbXrecord
280
     1
  1
j8
  1
*j8*
  1
*
  1
*
 70
     0
  1
*
  1
*
  0
XRECORD
  5
1FD62
102
{ACAD_REACTORS
330
1F316
102
}
330
1F316
100
AcDbXrecord
280
     1
  1
j9
  1
*j9*
  1
*
  1
*
 70
     0
  1
*
  1
*
  0
XRECORD
  5
2C7A8
102
{ACAD_REACTORS
330
1F316
102
}
330
1F316
100
AcDbXrecord
280
     1
  1
jiku-0
  1
*
  1
*
  1
*
 70
     0
  1
*
  1
*
  0
XRECORD
  5
2C7A9
102
{ACAD_REACTORS
330
1F316
102
}
330
1F316
100
AcDbXrecord
280
     1
  1
k
  1
*
  1
8
  1
*
 70
     0
  1
*
  1
*
  0
XRECORD
  5
2C7AA
102
{ACAD_REACTORS
330
1F316
102
}
330
1F316
100
AcDbXrecord
280
     1
  1
KEN
  1
*
  1
8
  1
*
 70
     0
  1
*
  1
*
  0
XRECORD
  5
2C7AB
102
{ACAD_REACTORS
330
1F316
102
}
330
1F316
100
AcDbXrecord
280
     1
  1
LOCK
  1
*
  1
*
  1
*
 70
   256
  1
*
  1
*
  0
XRECORD
  5
2C7AC
102
{ACAD_REACTORS
330
1F316
102
}
330
1F316
100
AcDbXrecord
280
     1
  1
note
  1
tca-6f|*note*
  1
*
  1
*
 70
     0
  1
*
  1
*
  0
XRECORD
  5
1FD63
102
{ACAD_REACTORS
330
1F316
102
}
330
1F316
100
AcDbXrecord
280
     1
  1
NOTPLOT
  1
*
  1
*
  1
*
 70
  3072
  1
*
  1
*
  0
XRECORD
  5
2C7AD
102
{ACAD_REACTORS
330
1F316
102
}
330
1F316
100
AcDbXrecord
280
     1
  1
OFF
  1
*
  1
*
  1
*
 70
     3
  1
*
  1
*
  0
XRECORD
  5
2C7AE
102
{ACAD_REACTORS
330
1F316
102
}
330
1F316
100
AcDbXrecord
280
     1
  1
ON
  1
*
  1
*
  1
*
 70
     1
  1
*
  1
*
  0
XRECORD
  5
2C7AF
102
{ACAD_REACTORS
330
1F316
102
}
330
1F316
100
AcDbXrecord
280
     1
  1
q
  1
*
  1
*
  1
*
 70
     4
  1
*
  1
*
  0
XRECORD
  5
2C7B0
102
{ACAD_REACTORS
330
1F316
102
}
330
1F316
100
AcDbXrecord
280
     1
  1
S
  1
S-*
  1
*
  1
*
 70
     0
  1
*
  1
*
  0
XRECORD
  5
2C7B1
102
{ACAD_REACTORS
330
1F316
102
}
330
1F316
100
AcDbXrecord
280
     1
  1
SS
  1
*SS*
  1
*
  1
*
 70
     0
  1
*
  1
*
  0
XRECORD
  5
2C7B2
102
{ACAD_REACTORS
330
1F316
102
}
330
1F316
100
AcDbXrecord
280
     1
  1
TAKASA
  1
*
  1
2
  1
*
 70
     0
  1
*
  1
*
  0
XRECORD
  5
2C7B3
102
{ACAD_REACTORS
330
1F316
102
}
330
1F316
100
AcDbXrecord
280
     1
  1
ten
  1
*ten*
  1
*
  1
*
 70
     0
  1
*
  1
*
  0
XRECORD
  5
1FD64
102
{ACAD_REACTORS
330
1F316
102
}
330
1F316
100
AcDbXrecord
280
     1
  1
text
  1
*TEXT*(
  1
*
  1
*
 70
     0
  1
*
  1
*
  0
XRECORD
  5
2C7B4
102
{ACAD_REACTORS
330
1F316
102
}
330
1F316
100
AcDbXrecord
280
     1
  1
U01平面全体
  1
000*,001*,002*,010*,011*,012*,013*,014*,015*,017*,019*,021*,022*,023*,024*,025*,032*,033*,034*,038*,039*,040*,041*,048*,050*,051*,053*,061*,062*,064*,081*,084*,096*,113*,120*,160*,161*,162*,163*,165*,180*,181*,182*,183*,185*,192*,193*,194*,195*,196*,198*,202*,205*,212*,253*,254*,255
  1
*
  1
*
 70
     0
  1
*
  1
*
  0
XRECORD
  5
2C7B5
102
{ACAD_REACTORS
330
1F316
102
}
330
1F316
100
AcDbXrecord
280
     1
  1
U02平面一般詳細
  1
000*,001*,002*,006*,007*,010*,011*,012*,013*,014*,015*,016*,017*,018*,019*,020*,021*,022*,023*,024*,025*,032*,033*,034*,038*,039*,040*,041*,048*,050*,051*,053*,059*,060*,061*,062*,065*,067*,068*,071*,072*,082*,087*,088*,090*,102*,103*,104*,108*,115*,120*,127*,128*,129*,130*,131*,132*,133*,134*,136*,137*,138*,160*,161*,162*,163*,165*,167*,169*,171*,180*,181*,182*,183*,185*,187*,189*,191*,192*,193*,194*,195*,196*,198*,199*,201*,202*,204*,205*,207*,208*,210*,212*,225*,226*,240*,241*,251*,252*,253*,254*,255*,copy*,elv*,jimu*,kai*,rouka*,wc*,yuwa*,rokka*,rau*,mr*,eps*,tategu*
  1
*
  1
*
 70
     0
  1
*
  1
*
  0
XRECORD
  5
2C7B6
102
{ACAD_REACTORS
330
1F316
102
}
330
1F316
100
AcDbXrecord
280
     1
  1
U03平面部分詳細
  1
000*,001*,002*,006*,007*,010*,011*,012*,013*,014*,015*,016*,017*,018*,019*,020*,021*,022*,023*,024*,025*,032*,033*,034*,038*,039*,040*,041*,048*,050*,051*,053*,059*,060*,061*,062*,066*,080*,095*,120*,127*,128*,129*,130*,131*,132*,133*,134*,136*,137*,138*,160*,161*,162*,163*,165*,180*,181*,182*,183*,185*,187*,189*,191*,192*,193*,194*,195*,196*,198*,199*,202*,204*,205*,207*,208*,210*,212*,240*,241*,251*,252*,253*,254*,255*
  1
*
  1
*
 70
     0
  1
*
  1
*
  0
XRECORD
  5
2C7B7
102
{ACAD_REACTORS
330
1F316
102
}
330
1F316
100
AcDbXrecord
280
     1
  1
U04天井全体
  1
000*,001*,002*,006*,008*,010*,011*,012*,013*,014*,015*,016*,017*,019*,021*,023*,024*,025*,026*,032*,038*,039*,045*,046*,048*,050*,051*,053*,064*,065*,068*,081*,086*,122*,140*,141*,142*,143*,160*,161*,162*,163*,180*,181*,182*,183*,192*,193*,194*,195*,202*,205*,214*,218*,222*,253*,254*,255
  1
*
  1
*
 70
     0
  1
*
  1
*
  0
XRECORD
  5
2C7B8
102
{ACAD_REACTORS
330
1F316
102
}
330
1F316
100
AcDbXrecord
280
     1
  1
U05天井伏図詳細
  1
000*,001*,002*,006*,008*,010*,011*,012*,013*,014*,015*,017*,018*,019*,020*,021*,023*,024*,025*,026*,032*,038*,039*,045*,046*,048*,050*,051*,053*,065*,068*,071*,078*,082*,087*,092*,117*,122*,127*,128*,129*,130*,132*,133*,134*,140*,141*,142*,143*,160*,161*,162*,163*,173*,175*,177*,180*,181*,182*,183*,192*,193*,194*,195*,199*,201*,202*,205*,208*,214*,216*,218*,220*,222*,240*,251*,252*,253*,254*,255*,copy*,elv*,jimu*,kai*,rouka*,wc*,yuwa*,rokka*,rau*,mr*,eps*
  1
*
  1
*
 70
     0
  1
*
  1
*
  0
XRECORD
  5
2C7B9
102
{ACAD_REACTORS
330
1F316
102
}
330
1F316
100
AcDbXrecord
280
     1
  1
U06躯体見下全体
  1
000*,001*,002*,003*,005*,010*,011*,012*,025*,028*,029*,030*,031*,032*,033*,034*,035*,036*,037*,042*,047*,048*,049*,051*,052*,064*,083*,097*,098*,099*,100*,112*,119*,160*,165*,180*,185*,192*,196*,197*,202*,205*,211*,253*,254*,255*
  1
*
  1
*
 70
     0
  1
*
  1
*
  0
XRECORD
  5
2C7BA
102
{ACAD_REACTORS
330
1F316
102
}
330
1F316
100
AcDbXrecord
280
     1
  1
U07躯体見下詳細
  1
000*,001*,002*,003*,005*,010*,011*,012*,025*,028*,029*,030*,031*,032*,033*,034*,035*,036*,037*,042*,047*,048*,049*,051*,052*,065*,067*,068*,069*,070*,073*,074*,075*,076*,087*,088*,089*,103*,104*,105*,106*,107*,108*,114*,119*,124*,125*,128*,129*,131*,160*,164*,165*,166*,168*,170*,180*,184*,185*,186*,188*,190*,192*,196*,197*,199*,200*,202*,203*,205*,206*,208*,209*,211*,241*,242*,243*,245*,246*,251*,252*,253*,254*,255*,s-list*
  1
*
  1
*
 70
     0
  1
*
  1
*
  0
XRECORD
  5
2C7BB
102
{ACAD_REACTORS
330
1F316
102
}
330
1F316
100
AcDbXrecord
280
     1
  1
U08躯体見上全体
  1
000*,001*,002*,004*,010*,011*,012*,025*,032*,035*,043*,044*,047*,048*,049*,051*,052*,064*,085*,116*,121*,160*,180*,192*,202*,205*,213*,217*,221*,253*,254*,255*
  1
*
  1
*
 70
     0
  1
*
  1
*
  0
XRECORD
  5
2C7BC
102
{ACAD_REACTORS
330
1F316
102
}
330
1F316
100
AcDbXrecord
280
     1
  1
U09躯体見上詳細
  1
000*,001*,002*,004*,010*,011*,012*,025*,032*,035*,042*,043*,044*,047*,048*,049*,051*,052*,065*,068*,069*,076*,077*,087*,091*,103*,104*,116*,121*,124*,126*,128*,129*,131*,160*,164*,172*,174*,176*,180*,192*,199*,200*,202*,205*,208*,213*,215*,217*,219*,221*,244*,247*,248*,251*,252*,253*,254*,255*
  1
*
  1
*
 70
     0
  1
*
  1
*
  0
XRECORD
  5
2C7BD
102
{ACAD_REACTORS
330
1F316
102
}
330
1F316
100
AcDbXrecord
280
     1
  1
UNROCK
  1
*
  1
*
  1
*
 70
   768
  1
*
  1
*
  0
XRECORD
  5
2C7BE
102
{ACAD_REACTORS
330
1F316
102
}
330
1F316
100
AcDbXrecord
280
     1
  1
usr
  1
usr*
  1
*
  1
*
 70
     0
  1
*
  1
*
  0
XRECORD
  5
21593
102
{ACAD_REACTORS
330
1F316
102
}
330
1F316
100
AcDbXrecord
280
     1
  1
White
  1
*
  1
*White
  1
*
 70
     0
  1
*
  1
*
  0
XRECORD
  5
2C7BF
102
{ACAD_REACTORS
330
1F316
102
}
330
1F316
100
AcDbXrecord
280
     1
  1
X
  1
*$*$*
  1
*
  1
*
 70
     0
  1
*
  1
*
  0
XRECORD
  5
1FD65
102
{ACAD_REACTORS
330
1F316
102
}
330
1F316
100
AcDbXrecord
280
     1
  1
yellow
  1
*
  1
yellow
  1
*
 70
     0
  1
*
  1
*
  0
XRECORD
  5
2C7C0
102
{ACAD_REACTORS
330
1F316
102
}
330
1F316
100
AcDbXrecord
280
     1
  1
z
  1
z*
  1
*
  1
*
 70
     0
  1
*
  1
*
  0
XRECORD
  5
1FD66
102
{ACAD_REACTORS
330
1F316
102
}
330
1F316
100
AcDbXrecord
280
     1
  1
×
  1
×*
  1
*
  1
*
 70
     4
  1
*
  1
*
  0
XRECORD
  5
1F317
102
{ACAD_REACTORS
330
1F316
102
}
330
1F316
100
AcDbXrecord
280
     1
  1
その他
  1
*OTRS*
  1
*
  1
*
 70
     0
  1
*
  1
*
  0
XRECORD
  5
2C7C9
102
{ACAD_REACTORS
330
1F316
102
}
330
1F316
100
AcDbXrecord
280
     1
  1
タイトル
  1
*タイトル
  1
*
  1
*
 70
     0
  1
*
  1
*
  0
XRECORD
  5
2C7CA
102
{ACAD_REACTORS
330
1F316
102
}
330
1F316
100
AcDbXrecord
280
     1
  1
フリーズ
  1
*z
  1
*
  1
*
 70
     0
  1
*
  1
*
  0
XRECORD
  5
1FD67
102
{ACAD_REACTORS
330
1F316
102
}
330
1F316
100
AcDbXrecord
280
     1
  1
フリーズ解除
  1
*
  1
*
  1
*
 70
    12
  1
*
  1
*
  0
XRECORD
  5
21597
102
{ACAD_REACTORS
330
1F316
102
}
330
1F316
100
AcDbXrecord
280
     1
  1
ペーパー空間
  1
DSTD_FRAME*
  1
*
  1
*
 70
     0
  1
*
  1
*
  0
XRECORD
  5
1F318
102
{ACAD_REACTORS
330
1F316
102
}
330
1F316
100
AcDbXrecord
280
     1
  1
ラスター
  1
*RSTR*
  1
*
  1
*
 70
     0
  1
*
  1
*
  0
XRECORD
  5
383DA
102
{ACAD_REACTORS
330
1F316
102
}
330
1F316
100
AcDbXrecord
280
     1
  1
ランプ
  1
*ランプ*
  1
*
  1
*
 70
     0
  1
*
  1
*
  0
XRECORD
  5
2C7CB
102
{ACAD_REACTORS
330
1F316
102
}
330
1F316
100
AcDbXrecord
280
     1
  1
ロック解除
  1
*
  1
*
  1
*
 70
   768
  1
*
  1
*
  0
XRECORD
  5
383DB
102
{ACAD_REACTORS
330
1F316
102
}
330
1F316
100
AcDbXrecord
280
     1
  1
一般
  1
*般*
  1
*
  1
*
 70
     0
  1
*
  1
*
  0
XRECORD
  5
1FD6C
102
{ACAD_REACTORS
330
1F316
102
}
330
1F316
100
AcDbXrecord
280
     1
  1
不要
  1
4*
  1
*
  1
*
 70
  3335
  1
*
  1
*
  0
XRECORD
  5
2C7EE
102
{ACAD_REACTORS
330
1F316
102
}
330
1F316
100
AcDbXrecord
280
     1
  1
中野
  1
中野*
  1
*
  1
*
 70
     0
  1
*
  1
*
  0
XRECORD
  5
1F321
102
{ACAD_REACTORS
330
1F316
102
}
330
1F316
100
AcDbXrecord
280
     1
  1
人孔構造物
  1
*STRC*
  1
*
  1
*
 70
     0
  1
*
  1
*
  0
XRECORD
  5
2C7EF
102
{ACAD_REACTORS
330
1F316
102
}
330
1F316
100
AcDbXrecord
280
     1
  1
低木植栽平面
  1
*て*
  1
*
  1
*
 70
     0
  1
*
  1
*
  0
XRECORD
  5
2159A
102
{ACAD_REACTORS
330
1F316
102
}
330
1F316
100
AcDbXrecord
280
     1
  1
作図に必要な画層を表示
  1
*
  1
*
  1
*
 70
    12
  1
*
  1
*
  0
XRECORD
  5
2C7E1
102
{ACAD_REACTORS
330
1F316
102
}
330
1F316
100
AcDbXrecord
280
     1
  1
作業
  1
100-*,地区*,
  1
*
  1
*
 70
     1
  1
*
  1
*
  0
XRECORD
  5
1FD6B
102
{ACAD_REACTORS
330
1F316
102
}
330
1F316
100
AcDbXrecord
280
     1
  1
使用中の画層
  1
*
  1
*
  1
*
 70
    12
  1
*
  1
*
  0
XRECORD
  5
1F324
102
{ACAD_REACTORS
330
1F316
102
}
330
1F316
100
AcDbXrecord
280
     1
  1
側道
  1
*FRRD*
  1
*
  1
*
 70
     0
  1
*
  1
*
  0
XRECORD
  5
21598
102
{ACAD_REACTORS
330
1F316
102
}
330
1F316
100
AcDbXrecord
280
     1
  1
元図面レイヤ
  1
*
  1
*
  1
*
 70
   256
  1
*
  1
*
  0
XRECORD
  5
383E6
102
{ACAD_REACTORS
330
1F316
102
}
330
1F316
100
AcDbXrecord
280
     1
  1
全帯
  1
*帯*
  1
*
  1
*
 70
     0
  1
*
  1
*
  0
XRECORD
  5
383E5
102
{ACAD_REACTORS
330
1F316
102
}
330
1F316
100
AcDbXrecord
280
     1
  1
全消去
  1
*
  1
*
  1
*
 70
     3
  1
*
  1
*
  0
XRECORD
  5
2C808
102
{ACAD_REACTORS
330
1F316
102
}
330
1F316
100
AcDbXrecord
280
     1
  1
凡例
  1
*凡例
  1
*
  1
*
 70
     0
  1
*
  1
*
  0
XRECORD
  5
383EB
102
{ACAD_REACTORS
330
1F316
102
}
330
1F316
100
AcDbXrecord
280
     1
  1
副道
  1
*副*
  1
*
  1
*
 70
     0
  1
*
  1
*
  0
XRECORD
  5
2C7CE
102
{ACAD_REACTORS
330
1F316
102
}
330
1F316
100
AcDbXrecord
280
     1
  1
割り付け平面図
  1
*わ*
  1
*
  1
*
 70
     0
  1
*
  1
*
  0
XRECORD
  5
383DC
102
{ACAD_REACTORS
330
1F316
102
}
330
1F316
100
AcDbXrecord
280
     1
  1
印刷不可
  1
*
  1
*
  1
*
 70
  3072
  1
*
  1
*
  0
XRECORD
  5
383DD
102
{ACAD_REACTORS
330
1F316
102
}
330
1F316
100
AcDbXrecord
280
     1
  1
印刷不可画層
  1
*
  1
*
  1
*
 70
  3072
  1
*
  1
*
  0
XRECORD
  5
1F322
102
{ACAD_REACTORS
330
1F316
102
}
330
1F316
100
AcDbXrecord
280
     1
  1
図枠・表題欄
  1
*OTHR*
  1
*
  1
*
 70
     0
  1
*
  1
*
  0
XRECORD
  5
2C7F8
102
{ACAD_REACTORS
330
1F316
102
}
330
1F316
100
AcDbXrecord
280
     1
  1
土壌改良
  1
*ど*
  1
*
  1
*
 70
     0
  1
*
  1
*
  0
XRECORD
  5
2159F
102
{ACAD_REACTORS
330
1F316
102
}
330
1F316
100
AcDbXrecord
280
     1
  1
土留板
  1
*_CONC
  1
*
  1
*
 70
     0
  1
*
  1
*
  0
XRECORD
  5
215A0
102
{ACAD_REACTORS
330
1F316
102
}
330
1F316
100
AcDbXrecord
280
     1
  1
土留板取付詳細図
  1
DSTD_CONC*
  1
*
  1
*
 70
     0
  1
*
  1
*
  0
XRECORD
  5
1F325
102
{ACAD_REACTORS
330
1F316
102
}
330
1F316
100
AcDbXrecord
280
     1
  1
地下埋設物
  1
*LAY*
  1
*
  1
*
 70
     0
  1
*
  1
*
  0
XRECORD
  5
2C7D7
102
{ACAD_REACTORS
330
1F316
102
}
330
1F316
100
AcDbXrecord
280
     1
  1
型枠計画図
  1
001*,002*,003*,004*,005*,006*,007*,010*,012*,050*,051*,055*,056*,057*,058*,059*,060*,061*,062*,063*,064*,065*,066*,067*,068*,069*,070*,071*,072*,073*,074*,075*
  1
*
  1
*
 70
     0
  1
*
  1
*
  0
XRECORD
  5
1F31A
102
{ACAD_REACTORS
330
1F316
102
}
330
1F316
100
AcDbXrecord
280
     1
  1
基準値・数値
  1
*DL*
  1
*
  1
*
 70
     0
  1
*
  1
*
  0
XRECORD
  5
1F31B
102
{ACAD_REACTORS
330
1F316
102
}
330
1F316
100
AcDbXrecord
280
     1
  1
基礎
  1
*BASC*
  1
*
  1
*
 70
     0
  1
*
  1
*
  0
XRECORD
  5
1FD6D
102
{ACAD_REACTORS
330
1F316
102
}
330
1F316
100
AcDbXrecord
280
     1
  1
変更
  1
*
  1
*
  1
*
 70
   781
  1
*
  1
*
  0
XRECORD
  5
383DF
102
{ACAD_REACTORS
330
1F316
102
}
330
1F316
100
AcDbXrecord
280
     1
  1
外部参照の非表示画層
  1
*
  1
*
  1
*
 70
     0
  1
*
  1
*
  0
XRECORD
  5
2C7CD
102
{ACAD_REACTORS
330
1F316
102
}
330
1F316
100
AcDbXrecord
280
     1
  1
外部参照－建築
  1
A*
  1
9
  1
*
 70
     0
  1
*
  1
*
  0
XRECORD
  5
2C7F1
102
{ACAD_REACTORS
330
1F316
102
}
330
1F316
100
AcDbXrecord
280
     1
  1
天井インサート図
  1
001*,002*,004*,010*,022*,023*,024*,025*,026*,027*,028*,029*,037*,042*
  1
*
  1
*
 70
     0
  1
*
  1
*
  0
XRECORD
  5
2C7F4
102
{ACAD_REACTORS
330
1F316
102
}
330
1F316
100
AcDbXrecord
280
     1
  1
天井伏図
  1
001*,002*,004*,010*,022*,023*,024*,025*,026*,027*,028*,029*,033*,039*,044*
  1
*
  1
*
 70
     0
  1
*
  1
*
  0
XRECORD
  5
2C7F5
102
{ACAD_REACTORS
330
1F316
102
}
330
1F316
100
AcDbXrecord
280
     1
  1
天井伏図詳細
  1
000*,001*,002*,006*,008*,010*,011*,012*,013*,014*,015*,017*,018*,019*,020*,021*,023*,024*,025*,026*,032*,038*,039*,045*,046*,048*,050*,051*,053*,065*,068*,071*,078*,082*,087*,092*,117*,122*,127*,128*,129*,130*,132*,133*,134*,140*,141*,142*,143*,160*,161*,162*,163*,173*,175*,177*,180*,181*,182*,183*,192*,193*,194*,195*,199*,201*,202*,205*,208*,214*,216*,218*,220*,222*,240*,251*,252*,253*,254*,255*,copy*,elv*,jimu*,kai*,rouka*,wc*,yuwa*,rokka*,rau*,mr*,eps*
  1
*
  1
*
 70
     0
  1
*
  1
*
  0
XRECORD
  5
2C7F2
102
{ACAD_REACTORS
330
1F316
102
}
330
1F316
100
AcDbXrecord
280
     1
  1
天井全体
  1
000*,001*,002*,006*,008*,010*,011*,012*,013*,014*,015*,016*,017*,019*,021*,023*,024*,025*,026*,032*,038*,039*,045*,046*,048*,050*,051*,053*,064*,065*,068*,081*,086*,122*,140*,141*,142*,143*,160*,161*,162*,163*,180*,181*,182*,183*,192*,193*,194*,195*,202*,205*,214*,218*,222*,253*,254*,255
  1
*
  1
*
 70
     0
  1
*
  1
*
  0
XRECORD
  5
2C7F3
102
{ACAD_REACTORS
330
1F316
102
}
330
1F316
100
AcDbXrecord
280
     1
  1
天井総合図
  1
001*,002*,004*,005*,007*,010*,022*,023*,024*,025*,026*,027*,028*,029*,030*,031*,033*,035*,036*,037*,039*,041*,042*,044*,046*,047*
  1
*
  1
*
 70
     0
  1
*
  1
*
  0
XRECORD
  5
2C7EA
102
{ACAD_REACTORS
330
1F316
102
}
330
1F316
100
AcDbXrecord
280
     1
  1
寸法
  1
*寸法
  1
*
  1
*
 70
     0
  1
*
  1
*
  0
XRECORD
  5
2C7EB
102
{ACAD_REACTORS
330
1F316
102
}
330
1F316
100
AcDbXrecord
280
     1
  1
寸法ﾚｲﾔ調整
  1
001*,002*,010*,065*,068*,071*,077*
  1
*
  1
*
 70
     0
  1
*
  1
*
  0
XRECORD
  5
383E2
102
{ACAD_REACTORS
330
1F316
102
}
330
1F316
100
AcDbXrecord
280
     1
  1
専北
  1
*専北*
  1
*
  1
*
 70
     0
  1
*
  1
*
  0
XRECORD
  5
383E3
102
{ACAD_REACTORS
330
1F316
102
}
330
1F316
100
AcDbXrecord
280
     1
  1
専用
  1
*専*
  1
*
  1
*
 70
     0
  1
*
  1
*
  0
XRECORD
  5
2C7E2
102
{ACAD_REACTORS
330
1F316
102
}
330
1F316
100
AcDbXrecord
280
     1
  1
山止根切計画図
  1
001*,002*,003*,004*,005*,007*,012*,049*,050*,051*,052*,053*,054*,055*,056*,057*,058*,059*,060*,061*,062*,064*,065*,066*,067*,068*,069*,070*,071*,072*,073*,074*,075*
  1
*
  1
*
 70
     0
  1
*
  1
*
  0
XRECORD
  5
2C802
102
{ACAD_REACTORS
330
1F316
102
}
330
1F316
100
AcDbXrecord
280
     1
  1
平面一般詳細
  1
000*,001*,002*,006*,007*,010*,011*,012*,013*,014*,015*,016*,017*,018*,019*,020*,021*,022*,023*,024*,025*,032*,033*,034*,038*,039*,040*,041*,048*,050*,051*,053*,059*,060*,061*,062*,065*,067*,068*,071*,072*,082*,087*,088*,090*,102*,103*,108*,115*,120*,127*,128*,129*,130*,131*,132*,133*,134*,136*,137*,138*,160*,161*,162*,163*,165*,167*,169*,171*,180*,181*,182*,183*,185*,187*,189*,191*,192*,193*,194*,195*,196*,198*,199*,201*,202*,204*,205*,207*,208*,210*,212*,240*,241*,251*,252*,253*,254*,255*
  1
*
  1
*
 70
     0
  1
*
  1
*
  0
XRECORD
  5
2C804
102
{ACAD_REACTORS
330
1F316
102
}
330
1F316
100
AcDbXrecord
280
     1
  1
平面全体
  1
000*,001*,002*,006*,010*,011*,012*,013*,014*,015*,017*,019*,021*,022*,023*,024*,025*,032*,033*,034*,038*,039*,040*,041*,048*,050*,051*,053*,061*,062*,064*,081*,084*,096*,113*,120*,160*,161*,162*,163*,165*,180*,181*,182*,183*,185*,192*,193*,194*,195*,196*,198*,202*,205*,212*,253*,254*,255
  1
*
  1
*
 70
     0
  1
*
  1
*
  0
XRECORD
  5
215A3
102
{ACAD_REACTORS
330
1F316
102
}
330
1F316
100
AcDbXrecord
280
     1
  1
平面図
  1
DSTD_PLN*
  1
*
  1
*
 70
     0
  1
*
  1
*
  0
XRECORD
  5
2C805
102
{ACAD_REACTORS
330
1F316
102
}
330
1F316
100
AcDbXrecord
280
     1
  1
平面総合図
  1
001*,002*,004*,010*,013*,014*,015*,016*,017*,018*,019*,020*,021*,030*,031*,034*,040*,045*
  1
*
  1
*
 70
     0
  1
*
  1
*
  0
XRECORD
  5
2C803
102
{ACAD_REACTORS
330
1F316
102
}
330
1F316
100
AcDbXrecord
280
     1
  1
平面詳細図
  1
001*,002*,004*,007*,010*,013*,014*,015*,016*,017*,018*,019*,020*,021*,030*,034*,040*,045*
  1
*
  1
*
 70
     0
  1
*
  1
*
  0
XRECORD
  5
2C806
102
{ACAD_REACTORS
330
1F316
102
}
330
1F316
100
AcDbXrecord
280
     1
  1
平面部分詳細
  1
000*,001*,002*,006*,007*,010*,011*,012*,013*,014*,015*,016*,017*,018*,019*,020*,021*,022*,023*,024*,025*,032*,033*,034*,038*,039*,040*,041*,048*,050*,051*,053*,059*,060*,061*,062*,066*,080*,095*,120*,127*,128*,129*,130*,131*,132*,133*,134*,136*,137*,138*,160*,161*,162*,163*,165*,180*,181*,182*,183*,185*,187*,189*,191*,192*,193*,194*,195*,196*,198*,199*,202*,204*,205*,207*,208*,210*,212*,240*,241*,251*,252*,253*,254*,255*
  1
*
  1
*
 70
     0
  1
*
  1
*
  0
XRECORD
  5
2C7DC
102
{ACAD_REACTORS
330
1F316
102
}
330
1F316
100
AcDbXrecord
280
     1
  1
建築図
  1
*
  1
9
  1
*
 70
     0
  1
*
  1
*
  0
XRECORD
  5
2C7DD
102
{ACAD_REACTORS
330
1F316
102
}
330
1F316
100
AcDbXrecord
280
     1
  1
建築接地図
  1
A01*
  1
*
  1
*
 70
     0
  1
*
  1
*
  0
XRECORD
  5
2C7D8
102
{ACAD_REACTORS
330
1F316
102
}
330
1F316
100
AcDbXrecord
280
     1
  1
形状
  1
pen1,pen3,pen4,up,dia,low
  1
*
  1
*
 70
     0
  1
*
  1
*
  0
XRECORD
  5
2C7D9
102
{ACAD_REACTORS
330
1F316
102
}
330
1F316
100
AcDbXrecord
280
     1
  1
形状以外
  1
dim,cen,text,sakuzu1,sakuzu2,siten,defpoints,0
  1
*
  1
*
 70
     0
  1
*
  1
*
  0
XRECORD
  5
1F320
102
{ACAD_REACTORS
330
1F316
102
}
330
1F316
100
AcDbXrecord
280
     1
  1
捨て線
  1
*WORK*
  1
*
  1
*
 70
     0
  1
*
  1
*
  0
XRECORD
  5
2C7FA
102
{ACAD_REACTORS
330
1F316
102
}
330
1F316
100
AcDbXrecord
280
     1
  1
排水
  1
*は*
  1
*
  1
*
 70
     0
  1
*
  1
*
  0
XRECORD
  5
2C7FB
102
{ACAD_REACTORS
330
1F316
102
}
330
1F316
100
AcDbXrecord
280
     1
  1
排水平面
  1
*は*
  1
*
  1
*
 70
     0
  1
*
  1
*
  0
XRECORD
  5
1F31C
102
{ACAD_REACTORS
330
1F316
102
}
330
1F316
100
AcDbXrecord
280
     1
  1
掘削線
  1
*EXC*
  1
*
  1
*
 70
     0
  1
*
  1
*
  0
XRECORD
  5
2C809
102
{ACAD_REACTORS
330
1F316
102
}
330
1F316
100
AcDbXrecord
280
     1
  1
擁壁平面図
  1
*よ*
  1
*
  1
*
 70
     0
  1
*
  1
*
  0
XRECORD
  5
2159B
102
{ACAD_REACTORS
330
1F316
102
}
330
1F316
100
AcDbXrecord
280
     1
  1
支柱取付部
  1
DSTD_COLMN-DET*
  1
*
  1
*
 70
     0
  1
*
  1
*
  0
XRECORD
  5
1F323
102
{ACAD_REACTORS
330
1F316
102
}
330
1F316
100
AcDbXrecord
280
     1
  1
数量表
  1
*TABL*
  1
*
  1
*
 70
     0
  1
*
  1
*
  0
XRECORD
  5
383EC
102
{ACAD_REACTORS
330
1F316
102
}
330
1F316
100
AcDbXrecord
280
     1
  1
文字
  1
*字
  1
*
  1
*
 70
     0
  1
*
  1
*
  0
XRECORD
  5
383E7
102
{ACAD_REACTORS
330
1F316
102
}
330
1F316
100
AcDbXrecord
280
     1
  1
断面
  1
*断面*
  1
*
  1
*
 70
     0
  1
*
  1
*
  0
XRECORD
  5
2159E
102
{ACAD_REACTORS
330
1F316
102
}
330
1F316
100
AcDbXrecord
280
     1
  1
断面図
  1
DSTD_SECT*
  1
*
  1
*
 70
     0
  1
*
  1
*
  0
XRECORD
  5
2159C
102
{ACAD_REACTORS
330
1F316
102
}
330
1F316
100
AcDbXrecord
280
     1
  1
新規書き込み
  1
*
  1
*
  1
*
 70
   768
  1
*
  1
*
  0
XRECORD
  5
2C7E3
102
{ACAD_REACTORS
330
1F316
102
}
330
1F316
100
AcDbXrecord
280
     1
  1
施設平面図
  1
*し*
  1
*
  1
*
 70
     0
  1
*
  1
*
  0
XRECORD
  5
1FD68
102
{ACAD_REACTORS
330
1F316
102
}
330
1F316
100
AcDbXrecord
280
     1
  1
旗
  1
占用物件平面図|*旗*
  1
*
  1
*
 70
     0
  1
*
  1
*
  0
XRECORD
  5
1FD69
102
{ACAD_REACTORS
330
1F316
102
}
330
1F316
100
AcDbXrecord
280
     1
  1
旗上
  1
*旗上*
  1
*
  1
*
 70
    12
  1
*
  1
*
  0
XRECORD
  5
383E0
102
{ACAD_REACTORS
330
1F316
102
}
330
1F316
100
AcDbXrecord
280
     1
  1
旗上げ
  1
旗上げ
  1
*
  1
*
 70
     0
  1
*
  1
*
  0
XRECORD
  5
1F329
102
{ACAD_REACTORS
330
1F316
102
}
330
1F316
100
AcDbXrecord
280
     1
  1
本管
  1
*PIPE*
  1
*
  1
*
 70
     0
  1
*
  1
*
  0
XRECORD
  5
383ED
102
{ACAD_REACTORS
330
1F316
102
}
330
1F316
100
AcDbXrecord
280
     1
  1
本線
  1
*
  1
*
  1
*
 70
     0
  1
*
  1
*
  0
XRECORD
  5
21599
102
{ACAD_REACTORS
330
1F316
102
}
330
1F316
100
AcDbXrecord
280
     1
  1
杭頭詳細図
  1
DSTD_PILE*
  1
*
  1
*
 70
     0
  1
*
  1
*
  0
XRECORD
  5
1FD6E
102
{ACAD_REACTORS
330
1F316
102
}
330
1F316
100
AcDbXrecord
280
     1
  1
枠
  1
*枠*
  1
*
  1
*
 70
     0
  1
*
  1
*
  0
XRECORD
  5
1FD6F
102
{ACAD_REACTORS
330
1F316
102
}
330
1F316
100
AcDbXrecord
280
     1
  1
枠Or文字
  1
*枠*,*文字*
  1
*
  1
*
 70
     0
  1
*
  1
*
  0
XRECORD
  5
1F326
102
{ACAD_REACTORS
330
1F316
102
}
330
1F316
100
AcDbXrecord
280
     1
  1
柱状図
  1
*BOUL*
  1
*
  1
*
 70
     0
  1
*
  1
*
  0
XRECORD
  5
2C7E4
102
{ACAD_REACTORS
330
1F316
102
}
330
1F316
100
AcDbXrecord
280
     1
  1
植栽
  1
*木*
  1
*
  1
*
 70
     0
  1
*
  1
*
  0
XRECORD
  5
2C7E7
102
{ACAD_REACTORS
330
1F316
102
}
330
1F316
100
AcDbXrecord
280
     1
  1
植栽低木AB
  1
*γ*
  1
*
  1
*
 70
     0
  1
*
  1
*
  0
XRECORD
  5
2C7E8
102
{ACAD_REACTORS
330
1F316
102
}
330
1F316
100
AcDbXrecord
280
     1
  1
植栽低木CD
  1
*Θ*
  1
*
  1
*
 70
     0
  1
*
  1
*
  0
XRECORD
  5
2C7E5
102
{ACAD_REACTORS
330
1F316
102
}
330
1F316
100
AcDbXrecord
280
     1
  1
植栽高木AB
  1
*α*
  1
*
  1
*
 70
     0
  1
*
  1
*
  0
XRECORD
  5
2C7E6
102
{ACAD_REACTORS
330
1F316
102
}
330
1F316
100
AcDbXrecord
280
     1
  1
植栽高木CD
  1
*β*
  1
*
  1
*
 70
     0
  1
*
  1
*
  0
XRECORD
  5
1F31F
102
{ACAD_REACTORS
330
1F316
102
}
330
1F316
100
AcDbXrecord
280
     1
  1
構造物
  1
*STRC*
  1
*
  1
*
 70
     0
  1
*
  1
*
  0
XRECORD
  5
383DE
102
{ACAD_REACTORS
330
1F316
102
}
330
1F316
100
AcDbXrecord
280
     1
  1
横断
  1
横断*
  1
*
  1
*
 70
     0
  1
*
  1
*
  0
XRECORD
  5
2C7D0
102
{ACAD_REACTORS
330
1F316
102
}
330
1F316
100
AcDbXrecord
280
     1
  1
機器
  1
*機器
  1
*
  1
*
 70
     0
  1
*
  1
*
  0
XRECORD
  5
2159D
102
{ACAD_REACTORS
330
1F316
102
}
330
1F316
100
AcDbXrecord
280
     1
  1
正面図
  1
DSTD_FRONT*
  1
*
  1
*
 70
     0
  1
*
  1
*
  0
XRECORD
  5
1F328
102
{ACAD_REACTORS
330
1F316
102
}
330
1F316
100
AcDbXrecord
280
     1
  1
法線
  1
*SLPE*
  1
*
  1
*
 70
     0
  1
*
  1
*
  0
XRECORD
  5
1F32D
102
{ACAD_REACTORS
330
1F316
102
}
330
1F316
100
AcDbXrecord
280
     1
  1
流出入管
  1
*PIPE*
  1
*
  1
*
 70
     0
  1
*
  1
*
  0
XRECORD
  5
2C7CF
102
{ACAD_REACTORS
330
1F316
102
}
330
1F316
100
AcDbXrecord
280
     1
  1
潅水平面
  1
*か*
  1
*
  1
*
 70
     0
  1
*
  1
*
  0
XRECORD
  5
1F31E
102
{ACAD_REACTORS
330
1F316
102
}
330
1F316
100
AcDbXrecord
280
     1
  1
現況地盤線
  1
*EXST*
  1
*
  1
*
 70
     0
  1
*
  1
*
  0
XRECORD
  5
1FD6A
102
{ACAD_REACTORS
330
1F316
102
}
330
1F316
100
AcDbXrecord
280
     1
  1
現況平面図-
  1
現況平面図-*
  1
*
  1
*
 70
     0
  1
*
  1
*
  0
XRECORD
  5
1F32B
102
{ACAD_REACTORS
330
1F316
102
}
330
1F316
100
AcDbXrecord
280
     1
  1
用地境界
  1
*ROW*
  1
*
  1
*
 70
     0
  1
*
  1
*
  0
XRECORD
  5
2C800
102
{ACAD_REACTORS
330
1F316
102
}
330
1F316
100
AcDbXrecord
280
     1
  1
病院提出用非表示
  1
52,53,54,56,58,61,62,67,68,70,71,191
  1
*
  1
*
 70
     0
  1
*
  1
*
  0
XRECORD
  5
2C801
102
{ACAD_REACTORS
330
1F316
102
}
330
1F316
100
AcDbXrecord
280
     1
  1
病院提出用非表示（反転）
  1
52,53,54,56,58,61,62,67,68,70,71,191
  1
*
  1
*
 70
     0
  1
*
  1
*
  0
XRECORD
  5
2C7D6
102
{ACAD_REACTORS
330
1F316
102
}
330
1F316
100
AcDbXrecord
280
     1
  1
空調設備図
  1
001*,002*,004*,005*,007*,010*,033*,034*,035*,036*,037*,038*
  1
*
  1
*
 70
     0
  1
*
  1
*
  0
XRECORD
  5
1F32C
102
{ACAD_REACTORS
330
1F316
102
}
330
1F316
100
AcDbXrecord
280
     1
  1
立坑構造物
  1
*STRC*
  1
*
  1
*
 70
     0
  1
*
  1
*
  0
XRECORD
  5
1F31D
102
{ACAD_REACTORS
330
1F316
102
}
330
1F316
100
AcDbXrecord
280
     1
  1
継手・副管
  1
*JOIN*
  1
*
  1
*
 70
     0
  1
*
  1
*
  0
XRECORD
  5
2C7EC
102
{ACAD_REACTORS
330
1F316
102
}
330
1F316
100
AcDbXrecord
280
     1
  1
総合仮設図
  1
001*,002*,003*,004*,005*,007*,012*,015*,016*,017*,018*,019*,020*,021*,049*,050*,051*,052*,053*,054*,055*,056*,057*,058*,059*,060*,061*,062*,063*,064*,065*,066*,067*,068*,069*,070*,071*,072*,073*,074*,075*
  1
*
  1
*
 70
     0
  1
*
  1
*
  0
XRECORD
  5
383E4
102
{ACAD_REACTORS
330
1F316
102
}
330
1F316
100
AcDbXrecord
280
     1
  1
線形
  1
*線形*
  1
*
  1
*
 70
     0
  1
*
  1
*
  0
XRECORD
  5
215A1
102
{ACAD_REACTORS
330
1F316
102
}
330
1F316
100
AcDbXrecord
280
     1
  1
背面図
  1
DSTD_BACK*
  1
*
  1
*
 70
     0
  1
*
  1
*
  0
XRECORD
  5
2C7E9
102
{ACAD_REACTORS
330
1F316
102
}
330
1F316
100
AcDbXrecord
280
     1
  1
芯関係
  1
001*,002*,032*
  1
*
  1
*
 70
     0
  1
*
  1
*
  0
XRECORD
  5
1F32A
102
{ACAD_REACTORS
330
1F316
102
}
330
1F316
100
AcDbXrecord
280
     1
  1
薬注
  1
*CGS*
  1
*
  1
*
 70
     0
  1
*
  1
*
  0
XRECORD
  5
2C7CC
102
{ACAD_REACTORS
330
1F316
102
}
330
1F316
100
AcDbXrecord
280
     1
  1
衛生設備図
  1
001*,002*,004*,005*,007*,010*,039*,040*,041*,042*,043*
  1
*
  1
*
 70
     0
  1
*
  1
*
  0
XRECORD
  5
2C7FD
102
{ACAD_REACTORS
330
1F316
102
}
330
1F316
100
AcDbXrecord
280
     1
  1
表示
  1
*
  1
*
  1
*
 70
     1
  1
*
  1
*
  0
XRECORD
  5
2C7FE
102
{ACAD_REACTORS
330
1F316
102
}
330
1F316
100
AcDbXrecord
280
     1
  1
表示2
  1
*
  1
*
  1
*
 70
   257
  1
*
  1
*
  0
XRECORD
  5
2C7FF
102
{ACAD_REACTORS
330
1F316
102
}
330
1F316
100
AcDbXrecord
280
     1
  1
表示・非表示
  1
*
  1
*
  1
*
 70
     1
  1
*
  1
*
  0
XRECORD
  5
383EA
102
{ACAD_REACTORS
330
1F316
102
}
330
1F316
100
AcDbXrecord
280
     1
  1
表示画層
  1
*
  1
*
  1
*
 70
     1
  1
*
  1
*
  0
XRECORD
  5
2C7DE
102
{ACAD_REACTORS
330
1F316
102
}
330
1F316
100
AcDbXrecord
280
     1
  1
見下全体図
  1
000*,001*,002*,003*,005*,010*,011*,012*,025*,028*,029*,030*,031*,032*,033*,034*,035*,036*,037*,042*,047*,048*,049*,051*,052*,064*,083*,097*,098*,099*,100*,112*,119*,160*,165*,180*,185*,192*,196*,197*,202*,205*,211*,253*,254*,255*
  1
*
  1
*
 70
     0
  1
*
  1
*
  0
XRECORD
  5
383E1
102
{ACAD_REACTORS
330
1F316
102
}
330
1F316
100
AcDbXrecord
280
     1
  1
計画
  1
計画*
  1
*
  1
*
 70
     0
  1
*
  1
*
  0
XRECORD
  5
2C7DA
102
{ACAD_REACTORS
330
1F316
102
}
330
1F316
100
AcDbXrecord
280
     1
  1
計画平面
  1
*け*
  1
*
  1
*
 70
     0
  1
*
  1
*
  0
XRECORD
  5
2C7DB
102
{ACAD_REACTORS
330
1F316
102
}
330
1F316
100
AcDbXrecord
280
     1
  1
計画平面図
  1
*け*
  1
*
  1
*
 70
     0
  1
*
  1
*
  0
XRECORD
  5
2C7ED
102
{ACAD_REACTORS
330
1F316
102
}
330
1F316
100
AcDbXrecord
280
     1
  1
足場計画図
  1
001*,002*,003*,004*,005*,007*,012*,015*,049*,050*,051*,055*,056*,057*,058*,059*,060*,061*,062*,064*,065*,066*,067*,068*,069*,070*,071*,072*,073*,074*,075*
  1
*
  1
*
 70
     0
  1
*
  1
*
  0
XRECORD
  5
2C7D5
102
{ACAD_REACTORS
330
1F316
102
}
330
1F316
100
AcDbXrecord
280
     1
  1
躯体図
  1
001*,002*,003*,004*,005*,006*,007*,008*,009*,010*,011*,012*,027*
  1
*
  1
*
 70
     0
  1
*
  1
*
  0
XRECORD
  5
2C7D4
102
{ACAD_REACTORS
330
1F316
102
}
330
1F316
100
AcDbXrecord
280
     1
  1
躯体見上全体
  1
000*,001*,002*,004*,010*,011*,012*,025*,032*,035*,043*,044*,047*,048*,049*,051*,052*,064*,085*,116*,121*,160*,180*,192*,202*,205*,213*,217*,221*,253*,254*,255*
  1
*
  1
*
 70
     0
  1
*
  1
*
  0
XRECORD
  5
2C7D3
102
{ACAD_REACTORS
330
1F316
102
}
330
1F316
100
AcDbXrecord
280
     1
  1
躯体見上詳細
  1
000*,001*,002*,004*,010*,011*,012*,025*,032*,035*,042*,043*,044*,047*,048*,049*,051*,052*,065*,068*,069*,076*,077*,087*,091*,103*,104*,116*,121*,124*,126*,128*,129*,131*,160*,164*,172*,174*,176*,180*,192*,199*,200*,202*,205*,208*,213*,215*,217*,219*,221*,244*,247*,248*,251*,252*,253*,254*,255*
  1
*
  1
*
 70
     0
  1
*
  1
*
  0
XRECORD
  5
2C7D2
102
{ACAD_REACTORS
330
1F316
102
}
330
1F316
100
AcDbXrecord
280
     1
  1
躯体見下全体
  1
000*,001*,002*,003*,005*,010*,011*,012*,025*,028*,029*,030*,031*,032*,033*,034*,035*,036*,037*,042*,047*,048*,049*,051*,052*,064*,083*,097*,098*,099*,100*,112*,119*,160*,165*,180*,185*,192*,196*,197*,202*,205*,211*,253*,254*,255*
  1
*
  1
*
 70
     0
  1
*
  1
*
  0
XRECORD
  5
2C7D1
102
{ACAD_REACTORS
330
1F316
102
}
330
1F316
100
AcDbXrecord
280
     1
  1
躯体見下詳細
  1
000*,001*,002*,003*,005*,010*,011*,012*,025*,028*,029*,030*,031*,032*,033*,034*,035*,036*,037*,042*,047*,048*,049*,051*,052*,065*,067*,068*,069*,070*,073*,074*,075*,076*,087*,088*,089*,103*,104*,105*,106*,107*,108*,114*,119*,124*,125*,128*,129*,131*,160*,164*,165*,166*,168*,170*,180*,184*,185*,186*,188*,190*,192*,196*,197*,199*,200*,202*,203*,205*,206*,208*,209*,211*,242*,243*,245*,246*,251*,252*,253*,254*,255*
  1
*
  1
*
 70
     0
  1
*
  1
*
  0
XRECORD
  5
1F327
102
{ACAD_REACTORS
330
1F316
102
}
330
1F316
100
AcDbXrecord
280
     1
  1
道路中心線
  1
*D-CNTR
  1
*
  1
*
 70
     0
  1
*
  1
*
  0
XRECORD
  5
2C7F9
102
{ACAD_REACTORS
330
1F316
102
}
330
1F316
100
AcDbXrecord
280
     1
  1
道路関係図
  1
001*,002*,003*,004*,007*,012*,015*,016*,017*,018*,019*,020*,021*,049*,050*,051*,052*,053*,054*,055*,056*,057*,058*,059*,060*,061*,062*,063*,064*,065*,066*,067*,068*,069*,070*,071*,072*,073*,074*,075*
  1
*
  1
*
 70
     0
  1
*
  1
*
  0
XRECORD
  5
215A2
102
{ACAD_REACTORS
330
1F316
102
}
330
1F316
100
AcDbXrecord
280
     1
  1
配筋図
  1
DSTD_STEEL*
  1
*
  1
*
 70
     0
  1
*
  1
*
  0
XRECORD
  5
2C7FC
102
{ACAD_REACTORS
330
1F316
102
}
330
1F316
100
AcDbXrecord
280
     1
  1
配線
  1
*配線
  1
*
  1
*
 70
     0
  1
*
  1
*
  0
XRECORD
  5
2C7F0
102
{ACAD_REACTORS
330
1F316
102
}
330
1F316
100
AcDbXrecord
280
     1
  1
鉄骨建方計画図
  1
001*,002*,003*,004*,005*,007*,012*,013*,049*,050*,051*,052*,053*,054*,055*,056*,057*,058*,059*,060*,061*,062*,063*,064*,065*,066*,067*,068*,069*,070*,071*,072*,073*,074*,075*
  1
*
  1
*
 70
     0
  1
*
  1
*
  0
XRECORD
  5
1F319
102
{ACAD_REACTORS
330
1F316
102
}
330
1F316
100
AcDbXrecord
280
     1
  1
開削部
  1
*EXCA*
  1
*
  1
*
 70
     0
  1
*
  1
*
  0
XRECORD
  5
2C7F6
102
{ACAD_REACTORS
330
1F316
102
}
330
1F316
100
AcDbXrecord
280
     1
  1
電気設備
  1
U*
  1
*
  1
*
 70
     0
  1
*
  1
*
  0
XRECORD
  5
2C7F7
102
{ACAD_REACTORS
330
1F316
102
}
330
1F316
100
AcDbXrecord
280
     1
  1
電気設備図
  1
001*,002*,004*,005*,007*,010*,030*,031*,044*,045*,046*,047*,048*
  1
*
  1
*
 70
     0
  1
*
  1
*
  0
XRECORD
  5
383E8
102
{ACAD_REACTORS
330
1F316
102
}
330
1F316
100
AcDbXrecord
280
     1
  1
非表示
  1
z*
  1
*
  1
*
 70
     0
  1
*
  1
*
  0
XRECORD
  5
383E9
102
{ACAD_REACTORS
330
1F316
102
}
330
1F316
100
AcDbXrecord
280
     1
  1
非表示画層
  1
*
  1
*
  1
*
 70
     3
  1
*
  1
*
  0
XRECORD
  5
2C7DF
102
{ACAD_REACTORS
330
1F316
102
}
330
1F316
100
AcDbXrecord
280
     1
  1
高さ
  1
204-TEXT,東西道路*
  1
*
  1
*
 70
     0
  1
*
  1
*
  0
XRECORD
  5
2C7E0
102
{ACAD_REACTORS
330
1F316
102
}
330
1F316
100
AcDbXrecord
280
     1
  1
高木植栽平面
  1
*こ*
  1
*
  1
*
 70
     0
  1
*
  1
*
  0
XRECORD
  5
2C807
102
{ACAD_REACTORS
330
1F316
102
}
330
1F316
100
AcDbXrecord
280
     1
  1
鳳文字入力
  1
*
  1
*
  1
*
 70
     0
  1
*
  1
*
  0
XRECORD
  5
21594
102
{ACAD_REACTORS
330
1F316
102
}
330
1F316
100
AcDbXrecord
280
     1
  1
Ａ断面
  1
DSTD_SECT-A*
  1
*
  1
*
 70
     0
  1
*
  1
*
  0
XRECORD
  5
2C7C1
102
{ACAD_REACTORS
330
1F316
102
}
330
1F316
100
AcDbXrecord
280
     1
  1
ＡＢ棟
  1
ＡＢ棟*
  1
*
  1
*
 70
     0
  1
*
  1
*
  0
XRECORD
  5
21595
102
{ACAD_REACTORS
330
1F316
102
}
330
1F316
100
AcDbXrecord
280
     1
  1
Ｂ断面
  1
DSTD_SECT-B*
  1
*
  1
*
 70
     0
  1
*
  1
*
  0
XRECORD
  5
21596
102
{ACAD_REACTORS
330
1F316
102
}
330
1F316
100
AcDbXrecord
280
     1
  1
Ｃ断面
  1
DSTD_SECT-C*
  1
*
  1
*
 70
     0
  1
*
  1
*
  0
XRECORD
  5
2C7C2
102
{ACAD_REACTORS
330
1F316
102
}
330
1F316
100
AcDbXrecord
280
     1
  1
ＣＤ棟
  1
T15-*
  1
*
  1
*
 70
     0
  1
*
  1
*
  0
XRECORD
  5
2C7C3
102
{ACAD_REACTORS
330
1F316
102
}
330
1F316
100
AcDbXrecord
280
     1
  1
Ｄ・墓地　施設平面
  1
*も*
  1
*
  1
*
 70
     0
  1
*
  1
*
  0
XRECORD
  5
2C7C7
102
{ACAD_REACTORS
330
1F316
102
}
330
1F316
100
AcDbXrecord
280
     1
  1
Ｄ低木
  1
*て*
  1
*
  1
*
 70
     0
  1
*
  1
*
  0
XRECORD
  5
2C7C8
102
{ACAD_REACTORS
330
1F316
102
}
330
1F316
100
AcDbXrecord
280
     1
  1
Ｄ墓地施設平面
  1
*も*
  1
*
  1
*
 70
     0
  1
*
  1
*
  0
XRECORD
  5
2C7C6
102
{ACAD_REACTORS
330
1F316
102
}
330
1F316
100
AcDbXrecord
280
     1
  1
Ｄ施設平面
  1
*し*
  1
*
  1
*
 70
     0
  1
*
  1
*
  0
XRECORD
  5
2C7C4
102
{ACAD_REACTORS
330
1F316
102
}
330
1F316
100
AcDbXrecord
280
     1
  1
Ｄ街区低木
  1
*て*
  1
*
  1
*
 70
     0
  1
*
  1
*
  0
XRECORD
  5
2C7C5
102
{ACAD_REACTORS
330
1F316
102
}
330
1F316
100
AcDbXrecord
280
     1
  1
Ｄ高木植栽
  1
*こ*
  1
*
  1
*
 70
     0
  1
*
  1
*
  0
DICTIONARY
  5
4880D
330
487D7
100
AcDbDictionary
280
     1
281
     1
  3
ACAD_XREC_ROUNDTRIP
360
4880E
  0
DICTIONARY
  5
4879E
330
4879D
100
AcDbDictionary
280
     1
281
     1
  3
BUMPTILE
360
487A0
  3
DIFFUSETILE
360
4879F
  3
OPACITYTILE
360
487A3
  3
REFLECTIONTILE
360
487A2
  3
REFRACTIONTILE
360
487A4
  3
SPECULARTILE
360
487A1
  0
DICTIONARY
  5
48796
330
48795
100
AcDbDictionary
280
     1
281
     1
  3
BUMPTILE
360
48798
  3
DIFFUSETILE
360
48797
  3
OPACITYTILE
360
4879B
  3
REFLECTIONTILE
360
4879A
  3
REFRACTIONTILE
360
4879C
  3
SPECULARTILE
360
48799
  0
DICTIONARY
  5
4880B
330
487D5
100
AcDbDictionary
280
     1
281
     1
  3
ACAD_XREC_ROUNDTRIP
360
4880C
  0
DICTIONARY
  5
48808
330
487BF
100
AcDbDictionary
280
     1
281
     1
  3
ACAD_ROUNDTRIP_2008_TABLESTYLE_CELLSTYLEMAP
360
48809
  0
XRECORD
  5
4880E
102
{ACAD_REACTORS
330
4880D
102
}
330
4880D
100
AcDbXrecord
280
     1
102
DISPLAYNAME
  1
Imperial24
102
FLAGS
 90
        0
  0
XRECORD
  5
487A0
102
{ACAD_REACTORS
330
4879E
102
}
330
4879E
100
AcDbXrecord
280
     1
270
     1
271
     1
  0
XRECORD
  5
4879F
102
{ACAD_REACTORS
330
4879E
102
}
330
4879E
100
AcDbXrecord
280
     1
270
     1
271
     1
  0
XRECORD
  5
487A3
102
{ACAD_REACTORS
330
4879E
102
}
330
4879E
100
AcDbXrecord
280
     1
270
     1
271
     1
  0
XRECORD
  5
487A2
102
{ACAD_REACTORS
330
4879E
102
}
330
4879E
100
AcDbXrecord
280
     1
270
     1
271
     1
  0
XRECORD
  5
487A4
102
{ACAD_REACTORS
330
4879E
102
}
330
4879E
100
AcDbXrecord
280
     1
270
     1
271
     1
  0
XRECORD
  5
487A1
102
{ACAD_REACTORS
330
4879E
102
}
330
4879E
100
AcDbXrecord
280
     1
270
     1
271
     1
  0
XRECORD
  5
48798
102
{ACAD_REACTORS
330
48796
102
}
330
48796
100
AcDbXrecord
280
     1
270
     1
271
     1
  0
XRECORD
  5
48797
102
{ACAD_REACTORS
330
48796
102
}
330
48796
100
AcDbXrecord
280
     1
270
     1
271
     1
  0
XRECORD
  5
4879B
102
{ACAD_REACTORS
330
48796
102
}
330
48796
100
AcDbXrecord
280
     1
270
     1
271
     1
  0
XRECORD
  5
4879A
102
{ACAD_REACTORS
330
48796
102
}
330
48796
100
AcDbXrecord
280
     1
270
     1
271
     1
  0
XRECORD
  5
4879C
102
{ACAD_REACTORS
330
48796
102
}
330
48796
100
AcDbXrecord
280
     1
270
     1
271
     1
  0
XRECORD
  5
48799
102
{ACAD_REACTORS
330
48796
102
}
330
48796
100
AcDbXrecord
280
     1
270
     1
271
     1
  0
XRECORD
  5
4880C
102
{ACAD_REACTORS
330
4880B
102
}
330
4880B
100
AcDbXrecord
280
     1
102
DISPLAYNAME
  1
Imperial24
102
FLAGS
 90
        0
  0
CELLSTYLEMAP
  5
48809
102
{ACAD_REACTORS
330
48808
102
}
330
48808
100
AcDbCellStyleMap
 90
        3
300
CELLSTYLE
  1
TABLEFORMAT_BEGIN
 90
        5
170
     1
 91
        0
 92
    32768
 62
   257
 93
        1
300
CONTENTFORMAT
  1
CONTENTFORMAT_BEGIN
 90
        0
 91
        0
 92
      512
 93
        0
300

 40
0.0
140
1.0
 94
        5
 62
     0
340
11
144
0.25
309
CONTENTFORMAT_END
171
     0
 94
        0
309
TABLEFORMAT_END
  1
CELLSTYLE_BEGIN
 90
        1
 91
        1
300
_TITLE
309
CELLSTYLE_END
300
CELLSTYLE
  1
TABLEFORMAT_BEGIN
 90
        5
170
     1
 91
        0
 92
        0
 62
   257
 93
        1
300
CONTENTFORMAT
  1
CONTENTFORMAT_BEGIN
 90
        0
 91
        0
 92
      512
 93
        0
300

 40
0.0
140
1.0
 94
        5
 62
     0
340
11
144
0.18
309
CONTENTFORMAT_END
171
     0
 94
        0
309
TABLEFORMAT_END
  1
CELLSTYLE_BEGIN
 90
        2
 91
        1
300
_HEADER
309
CELLSTYLE_END
300
CELLSTYLE
  1
TABLEFORMAT_BEGIN
 90
        5
170
     1
 91
        0
 92
        0
 62
   257
 93
        1
300
CONTENTFORMAT
  1
CONTENTFORMAT_BEGIN
 90
        0
 91
        0
 92
      512
 93
        0
300

 40
0.0
140
1.0
 94
        2
 62
     0
340
11
144
0.18
309
CONTENTFORMAT_END
171
     0
 94
        0
309
TABLEFORMAT_END
  1
CELLSTYLE_BEGIN
 90
        3
 91
        2
300
_DATA
309
CELLSTYLE_END
  0
ENDSEC
  0
EOF
