  0
SECTION
  2
HEADER
  9
$ACADVER
  1
AC1027
  9
$ACADMAINTVER
 70
   125
  9
$DWGCODEPAGE
  3
ANSI_932
  9
$TITLE
  1
D-設計　尺度１：１用テンプレート（単位：mm）
  9
$SUBJECT
  1
CAD製図基準テンプレート
  9
$AUTHOR
  1
Japan,Autodesk
  9
$LASTSAVEDBY
  1
yano27
  9
$REQUIREDVERSIONS
160
                 0
  9
$INSBASE
 10
0.0
 20
0.0
 30
0.0
  9
$EXTMIN
 10
0.0
 20
11880.0
 30
0.0
  9
$EXTMAX
 10
16820.0
 20
23760.0
 30
0.0
  9
$LIMMIN
 10
0.0
 20
0.0
  9
$LIMMAX
 10
841.0
 20
594.0
  9
$ORTHOMODE
 70
     0
  9
$REGENMODE
 70
     1
  9
$FILLMODE
 70
     1
  9
$QTEXTMODE
 70
     0
  9
$MIRRTEXT
 70
     0
  9
$LTSCALE
 40
1.0
  9
$ATTMODE
 70
     1
  9
$TEXTSIZE
 40
3.5
  9
$TRACEWID
 40
1.0
  9
$TEXTSTYLE
  7
Standard
  9
$CLAYER
  8
0
  9
$CELTYPE
  6
ByLayer
  9
$CECOLOR
 62
   256
  9
$CELTSCALE
 40
1.0
  9
$DISPSILH
 70
     0
  9
$DIMSCALE
 40
20.0
  9
$DIMASZ
 40
2.0
  9
$DIMEXO
 40
0.625
  9
$DIMDLI
 40
3.75
  9
$DIMRND
 40
0.0
  9
$DIMDLE
 40
0.0
  9
$DIMEXE
 40
1.25
  9
$DIMTP
 40
0.0
  9
$DIMTM
 40
0.0
  9
$DIMTXT
 40
3.5
  9
$DIMCEN
 40
2.5
  9
$DIMTSZ
 40
0.0
  9
$DIMTOL
 70
     0
  9
$DIMLIM
 70
     0
  9
$DIMTIH
 70
     0
  9
$DIMTOH
 70
     0
  9
$DIMSE1
 70
     0
  9
$DIMSE2
 70
     0
  9
$DIMTAD
 70
     1
  9
$DIMZIN
 70
     1
  9
$DIMBLK
  1
OPEN
  9
$DIMASO
 70
     1
  9
$DIMSHO
 70
     1
  9
$DIMPOST
  1

  9
$DIMAPOST
  1

  9
$DIMALT
 70
     0
  9
$DIMALTD
 70
     3
  9
$DIMALTF
 40
0.03937007874016
  9
$DIMLFAC
 40
1.0
  9
$DIMTOFL
 70
     1
  9
$DIMTVP
 40
0.0
  9
$DIMTIX
 70
     1
  9
$DIMSOXD
 70
     0
  9
$DIMSAH
 70
     0
  9
$DIMBLK1
  1

  9
$DIMBLK2
  1

  9
$DIMSTYLE
  2
SXF-20
  9
$DIMCLRD
 70
     0
  9
$DIMCLRE
 70
     0
  9
$DIMCLRT
 70
     0
  9
$DIMTFAC
 40
1.0
  9
$DIMGAP
 40
0.625
  9
$DIMJUST
 70
     0
  9
$DIMSD1
 70
     0
  9
$DIMSD2
 70
     0
  9
$DIMTOLJ
 70
     0
  9
$DIMTZIN
 70
     8
  9
$DIMALTZ
 70
     0
  9
$DIMALTTZ
 70
     0
  9
$DIMUPT
 70
     0
  9
$DIMDEC
 70
     0
  9
$DIMTDEC
 70
     0
  9
$DIMALTU
 70
     2
  9
$DIMALTTD
 70
     3
  9
$DIMTXSTY
  7
Standard
  9
$DIMAUNIT
 70
     1
  9
$DIMADEC
 70
     4
  9
$DIMALTRND
 40
0.0
  9
$DIMAZIN
 70
     0
  9
$DIMDSEP
 70
    46
  9
$DIMATFIT
 70
     3
  9
$DIMFRAC
 70
     0
  9
$DIMLDRBLK
  1
OPEN
  9
$DIMLUNIT
 70
     2
  9
$DIMLWD
 70
    13
  9
$DIMLWE
 70
    13
  9
$DIMTMOVE
 70
     2
  9
$DIMFXL
 40
1.0
  9
$DIMFXLON
 70
     0
  9
$DIMJOGANG
 40
0.7853981633974483
  9
$DIMTFILL
 70
     0
  9
$DIMTFILLCLR
 70
     0
  9
$DIMARCSYM
 70
     0
  9
$DIMLTYPE
  6

  9
$DIMLTEX1
  6

  9
$DIMLTEX2
  6

  9
$DIMTXTDIRECTION
 70
     0
  9
$LUNITS
 70
     2
  9
$LUPREC
 70
     4
  9
$SKETCHINC
 40
1.0
  9
$FILLETRAD
 40
0.0
  9
$AUNITS
 70
     0
  9
$AUPREC
 70
     0
  9
$MENU
  1
.
  9
$ELEVATION
 40
0.0
  9
$PELEVATION
 40
0.0
  9
$THICKNESS
 40
0.0
  9
$LIMCHECK
 70
     0
  9
$CHAMFERA
 40
150.0
  9
$CHAMFERB
 40
150.0
  9
$CHAMFERC
 40
0.0
  9
$CHAMFERD
 40
0.0
  9
$SKPOLY
 70
     0
  9
$TDCREATE
 40
2453251.491932871
  9
$TDUCREATE
 40
2453251.116933588
  9
$TDUPDATE
 40
2459920.781932871
  9
$TDUUPDATE
 40
2459920.406932870
  9
$TDINDWG
 40
0.6352828356
  9
$TDUSRTIMER
 40
0.6352828356
  9
$USRTIMER
 70
     1
  9
$ANGBASE
 50
0.0
  9
$ANGDIR
 70
     0
  9
$PDMODE
 70
     0
  9
$PDSIZE
 40
0.0
  9
$PLINEWID
 40
0.0
  9
$SPLFRAME
 70
     0
  9
$SPLINETYPE
 70
     6
  9
$SPLINESEGS
 70
     8
  9
$HANDSEED
  5
62C20
  9
$SURFTAB1
 70
     6
  9
$SURFTAB2
 70
     6
  9
$SURFTYPE
 70
     6
  9
$SURFU
 70
     6
  9
$SURFV
 70
     6
  9
$UCSBASE
  2

  9
$UCSNAME
  2

  9
$UCSORG
 10
0.0
 20
0.0
 30
0.0
  9
$UCSXDIR
 10
1.0
 20
0.0
 30
0.0
  9
$UCSYDIR
 10
0.0
 20
1.0
 30
0.0
  9
$UCSORTHOREF
  2

  9
$UCSORTHOVIEW
 70
     0
  9
$UCSORGTOP
 10
0.0
 20
0.0
 30
0.0
  9
$UCSORGBOTTOM
 10
0.0
 20
0.0
 30
0.0
  9
$UCSORGLEFT
 10
0.0
 20
0.0
 30
0.0
  9
$UCSORGRIGHT
 10
0.0
 20
0.0
 30
0.0
  9
$UCSORGFRONT
 10
0.0
 20
0.0
 30
0.0
  9
$UCSORGBACK
 10
0.0
 20
0.0
 30
0.0
  9
$PUCSBASE
  2

  9
$PUCSNAME
  2

  9
$PUCSORG
 10
0.0
 20
0.0
 30
0.0
  9
$PUCSXDIR
 10
1.0
 20
0.0
 30
0.0
  9
$PUCSYDIR
 10
0.0
 20
1.0
 30
0.0
  9
$PUCSORTHOREF
  2

  9
$PUCSORTHOVIEW
 70
     0
  9
$PUCSORGTOP
 10
0.0
 20
0.0
 30
0.0
  9
$PUCSORGBOTTOM
 10
0.0
 20
0.0
 30
0.0
  9
$PUCSORGLEFT
 10
0.0
 20
0.0
 30
0.0
  9
$PUCSORGRIGHT
 10
0.0
 20
0.0
 30
0.0
  9
$PUCSORGFRONT
 10
0.0
 20
0.0
 30
0.0
  9
$PUCSORGBACK
 10
0.0
 20
0.0
 30
0.0
  9
$USERI1
 70
     0
  9
$USERI2
 70
     0
  9
$USERI3
 70
     0
  9
$USERI4
 70
     0
  9
$USERI5
 70
     0
  9
$USERR1
 40
0.0
  9
$USERR2
 40
0.0
  9
$USERR3
 40
0.0
  9
$USERR4
 40
0.0
  9
$USERR5
 40
0.0
  9
$WORLDVIEW
 70
     1
  9
$SHADEDGE
 70
     3
  9
$SHADEDIF
 70
    70
  9
$TILEMODE
 70
     1
  9
$MAXACTVP
 70
    64
  9
$PINSBASE
 10
0.0
 20
0.0
 30
0.0
  9
$PLIMCHECK
 70
     0
  9
$PEXTMIN
 10
-0.0269107364158572
 20
-0.0181260584133725
 30
-0.0015258207003583
  9
$PEXTMAX
 10
841.0256672794085
 20
594.0181288244414
 30
0.0000000349246037
  9
$PLIMMIN
 10
-0.0012473732247784
 20
0.0299966691688409
  9
$PLIMMAX
 10
840.9927101463065
 20
593.9666421769813
  9
$UNITMODE
 70
     0
  9
$VISRETAIN
 70
     1
  9
$PLINEGEN
 70
     0
  9
$PSLTSCALE
 70
     1
  9
$TREEDEPTH
 70
  3020
  9
$CMLSTYLE
  2
Standard
  9
$CMLJUST
 70
     0
  9
$CMLSCALE
 40
20.0
  9
$PROXYGRAPHICS
 70
     1
  9
$MEASUREMENT
 70
     1
  9
$CELWEIGHT
370
    -1
  9
$ENDCAPS
280
     0
  9
$JOINSTYLE
280
     0
  9
$LWDISPLAY
290
     0
  9
$INSUNITS
 70
     4
  9
$HYPERLINKBASE
  1

  9
$STYLESHEET
  1
CALS.ctb
  9
$XEDIT
290
     1
  9
$CEPSNTYPE
380
     0
  9
$PSTYLEMODE
290
     1
  9
$FINGERPRINTGUID
  2
{FDEAD578-A652-11D2-9A35-0060089B3A3F}
  9
$VERSIONGUID
  2
{73A3580A-5967-457B-8B48-835E3A258BFD}
  9
$EXTNAMES
290
     1
  9
$PSVPSCALE
 40
0.0
  9
$OLESTARTUP
290
     0
  9
$SORTENTS
280
   127
  9
$INDEXCTL
280
     0
  9
$HIDETEXT
280
     1
  9
$XCLIPFRAME
280
     2
  9
$HALOGAP
280
     0
  9
$OBSCOLOR
 70
   257
  9
$OBSLTYPE
280
     0
  9
$INTERSECTIONDISPLAY
280
     0
  9
$INTERSECTIONCOLOR
 70
   257
  9
$DIMASSOC
280
     2
  9
$PROJECTNAME
  1

  9
$CAMERADISPLAY
290
     0
  9
$LENSLENGTH
 40
50.0
  9
$CAMERAHEIGHT
 40
0.0
  9
$STEPSPERSEC
 40
2.0
  9
$STEPSIZE
 40
6.0
  9
$3DDWFPREC
 40
2.0
  9
$PSOLWIDTH
 40
0.25
  9
$PSOLHEIGHT
 40
4.0
  9
$LOFTANG1
 40
1.570796326794896
  9
$LOFTANG2
 40
1.570796326794896
  9
$LOFTMAG1
 40
0.0
  9
$LOFTMAG2
 40
0.0
  9
$LOFTPARAM
 70
     7
  9
$LOFTNORMALS
280
     1
  9
$LATITUDE
 40
37.795
  9
$LONGITUDE
 40
-122.394
  9
$NORTHDIRECTION
 40
0.0
  9
$TIMEZONE
 70
 -8000
  9
$LIGHTGLYPHDISPLAY
280
     1
  9
$TILEMODELIGHTSYNCH
280
     1
  9
$CMATERIAL
347
62BAB
  9
$SOLIDHIST
280
     0
  9
$SHOWHIST
280
     1
  9
$DWFFRAME
280
     2
  9
$DGNFRAME
280
     0
  9
$REALWORLDSCALE
290
     1
  9
$INTERFERECOLOR
 62
     1
  9
$INTERFEREOBJVS
345
62BCD
  9
$INTERFEREVPVS
346
62BCA
  9
$CSHADOW
280
     0
  9
$SHADOWPLANELOCATION
 40
0.0
  0
ENDSEC
  0
SECTION
  2
CLASSES
  0
CLASS
  1
ACDBDICTIONARYWDFLT
  2
AcDbDictionaryWithDefault
  3
ObjectDBX Classes
 90
        0
 91
        1
280
     0
281
     0
  0
CLASS
  1
DICTIONARYVAR
  2
AcDbDictionaryVar
  3
ObjectDBX Classes
 90
        0
 91
       13
280
     0
281
     0
  0
CLASS
  1
WIPEOUT
  2
AcDbWipeout
  3
WipeOut|Product Desc: Object Enabler for WipeOut entity | Company: Autodesk, Inc. | WEB Address: www.autodesk.com
 90
     2175
 91
        0
280
     0
281
     1
  0
CLASS
  1
SORTENTSTABLE
  2
AcDbSortentsTable
  3
ObjectDBX Classes
 90
        0
 91
        0
280
     0
281
     0
  0
CLASS
  1
WIPEOUTVARIABLES
  2
AcDbWipeoutVariables
  3
"WipeOut|Product Desc:     WipeOut Dbx Application|Company:          Autodesk, Inc.|WEB Address:      www.autodesk.com"
 90
        0
 91
        1
280
     0
281
     0
  0
CLASS
  1
DIMASSOC
  2
AcDbDimAssoc
  3
"AcDbDimAssoc|Product Desc:     AcDim ARX App For Dimension|Company:          Autodesk, Inc.|WEB Address:      www.autodesk.com"
 90
        0
 91
        0
280
     0
281
     0
  0
CLASS
  1
MATERIAL
  2
AcDbMaterial
  3
ObjectDBX Classes
 90
     1153
 91
        3
280
     0
281
     0
  0
CLASS
  1
VISUALSTYLE
  2
AcDbVisualStyle
  3
ObjectDBX Classes
 90
     4095
 91
       24
280
     0
281
     0
  0
CLASS
  1
TABLESTYLE
  2
AcDbTableStyle
  3
ObjectDBX Classes
 90
     4095
 91
        1
280
     0
281
     0
  0
CLASS
  1
SCALE
  2
AcDbScale
  3
ObjectDBX Classes
 90
     1153
 91
       17
280
     0
281
     0
  0
CLASS
  1
MLEADERSTYLE
  2
AcDbMLeaderStyle
  3
ACDB_MLEADERSTYLE_CLASS
 90
     4095
 91
        1
280
     0
281
     0
  0
CLASS
  1
ACDBSECTIONVIEWSTYLE
  2
AcDbSectionViewStyle
  3
ObjectDBX Classes
 90
     1025
 91
        1
280
     0
281
     0
  0
CLASS
  1
ACDBDETAILVIEWSTYLE
  2
AcDbDetailViewStyle
  3
ObjectDBX Classes
 90
     1025
 91
        1
280
     0
281
     0
  0
CLASS
  1
CELLSTYLEMAP
  2
AcDbCellStyleMap
  3
ObjectDBX Classes
 90
     1152
 91
        1
280
     0
281
     0
  0
ENDSEC
  0
SECTION
  2
TABLES
  0
TABLE
  2
VPORT
  5
8
330
0
100
AcDbSymbolTable
 70
     1
1001
ACAD
1000
DbSaveVer
1071
      278
  0
VPORT
  5
62B91
330
8
100
AcDbSymbolTableRecord
100
AcDbViewportTableRecord
  2
*Active
 70
     0
 10
0.0
 20
0.0
 11
1.0
 21
1.0
 12
8410.000039162117
 22
18491.60689017477
 13
0.0
 23
0.0
 14
10.0
 24
10.0
 15
10.0
 25
10.0
 16
0.0
 26
0.0
 36
1.0
 17
0.0
 27
0.0
 37
0.0
 40
12352.7433862481
 41
1.716778523489932
 42
50.0
 43
0.0
 44
0.0
 50
0.0
 51
0.0
 71
     0
 72
  1000
 73
     1
 74
     3
 75
     0
 76
     1
 77
     0
 78
     0
281
     0
 65
     1
110
0.0
120
0.0
130
0.0
111
1.0
121
0.0
131
0.0
112
0.0
122
1.0
132
0.0
 79
     0
146
0.0
348
62BC9
 60
     3
 61
     5
292
     1
282
     1
141
0.0
142
0.0
 63
   250
421
  3355443
1001
ACAD_NAV_VCDISPLAY
1070
     3
  0
ENDTAB
  0
TABLE
  2
LTYPE
  5
5
330
0
100
AcDbSymbolTable
 70
     3
  0
LTYPE
  5
14
330
5
100
AcDbSymbolTableRecord
100
AcDbLinetypeTableRecord
  2
ByBlock
 70
     0
  3

 72
    65
 73
     0
 40
0.0
  0
LTYPE
  5
15
330
5
100
AcDbSymbolTableRecord
100
AcDbLinetypeTableRecord
  2
ByLayer
 70
     0
  3

 72
    65
 73
     0
 40
0.0
  0
LTYPE
  5
16
330
5
100
AcDbSymbolTableRecord
100
AcDbLinetypeTableRecord
  2
Continuous
 70
     0
  3
Solid line
 72
    65
 73
     0
 40
0.0
  0
LTYPE
  5
95
330
5
100
AcDbSymbolTableRecord
100
AcDbLinetypeTableRecord
  2
SXF_一点鎖線
 70
     0
  3
08 chain ---- - --- - --- - ---
 72
    65
 73
     4
 40
18.5
 49
12.0
 74
     0
 49
-1.5
 74
     0
 49
3.5
 74
     0
 49
-1.5
 74
     0
  0
LTYPE
  5
54872
330
5
100
AcDbSymbolTableRecord
100
AcDbLinetypeTableRecord
  2
SXF_破線
 70
     0
  3
02 dashed -- -- -- -- -- --
 72
    65
 73
     2
 40
7.5
 49
6.0
 74
     0
 49
-1.5
 74
     0
  0
ENDTAB
  0
TABLE
  2
LAYER
  5
2
102
{ACAD_XDICTIONARY
360
68D
102
}
330
0
100
AcDbSymbolTable
 70
    11
  0
LAYER
  5
10
102
{ACAD_XDICTIONARY
360
62BFB
102
}
330
2
100
AcDbSymbolTableRecord
100
AcDbLayerTableRecord
  2
0
 70
     0
 62
     7
  6
Continuous
370
    -3
390
F
347
62BBB
348
0
  0
LAYER
  5
B5
330
2
100
AcDbSymbolTableRecord
100
AcDbLayerTableRecord
  2
DEFPOINTS
 70
     0
 62
     7
  6
Continuous
290
     0
370
    -3
390
F
347
62BBB
348
0
  0
LAYER
  5
1F5
102
{ACAD_XDICTIONARY
360
62BFD
102
}
330
2
100
AcDbSymbolTableRecord
100
AcDbLayerTableRecord
  2
D-TTL
 70
     0
 62
     2
  6
Continuous
370
   140
390
F
347
62BBB
348
0
  0
LAYER
  5
1F8
102
{ACAD_XDICTIONARY
360
62BFF
102
}
330
2
100
AcDbSymbolTableRecord
100
AcDbLayerTableRecord
  2
D-TTL-TXT
 70
     0
 62
     7
  6
Continuous
370
    13
390
F
347
62BBB
348
0
  0
LAYER
  5
69D
102
{ACAD_XDICTIONARY
360
62C01
102
}
330
2
100
AcDbSymbolTableRecord
100
AcDbLayerTableRecord
  2
D-BGD
 70
     0
 62
     7
  6
Continuous
370
    13
390
F
347
62BBB
348
0
  0
LAYER
  5
6A1
102
{ACAD_XDICTIONARY
360
62C03
102
}
330
2
100
AcDbSymbolTableRecord
100
AcDbLayerTableRecord
  2
D-BMK
 70
     0
 62
     2
  6
SXF_一点鎖線
370
    13
390
F
347
62BBB
348
0
  0
LAYER
  5
6A4
102
{ACAD_XDICTIONARY
360
62C05
102
}
330
2
100
AcDbSymbolTableRecord
100
AcDbLayerTableRecord
  2
D-MTR-FRAM
 70
     0
 62
     7
  6
Continuous
370
    13
390
F
347
62BBB
348
0
  0
LAYER
  5
6A5
102
{ACAD_XDICTIONARY
360
62C07
102
}
330
2
100
AcDbSymbolTableRecord
100
AcDbLayerTableRecord
  2
D-MTR-TXT
 70
     0
 62
     7
  6
Continuous
370
    13
390
F
347
62BBB
348
0
  0
LAYER
  5
6A6
102
{ACAD_XDICTIONARY
360
62C09
102
}
330
2
100
AcDbSymbolTableRecord
100
AcDbLayerTableRecord
  2
D-STR
 70
     0
 62
     1
  6
Continuous
370
    25
390
F
347
62BBB
348
0
  0
LAYER
  5
6A7
102
{ACAD_XDICTIONARY
360
62C0B
102
}
330
2
100
AcDbSymbolTableRecord
100
AcDbLayerTableRecord
  2
D-STR-DIM
 70
     0
 62
     7
  6
Continuous
370
    13
390
F
347
62BBB
348
0
  0
LAYER
  5
6A8
102
{ACAD_XDICTIONARY
360
62C0D
102
}
330
2
100
AcDbSymbolTableRecord
100
AcDbLayerTableRecord
  2
D-STR-HTXT
 70
     0
 62
     7
  6
Continuous
370
    13
390
F
347
62BBB
348
0
  0
ENDTAB
  0
TABLE
  2
STYLE
  5
3
330
0
100
AcDbSymbolTable
 70
     1
  0
STYLE
  5
11
330
3
100
AcDbSymbolTableRecord
100
AcDbTextStyleTableRecord
  2
Standard
 70
     0
 40
0.0
 41
1.0
 50
0.0
 71
     0
 42
3.5
  3
MS Gothic.ttf
  4

1001
ACAD
1000
MS Gothic
1071
    32817
  0
ENDTAB
  0
TABLE
  2
VIEW
  5
6
330
0
100
AcDbSymbolTable
 70
     0
  0
ENDTAB
  0
TABLE
  2
UCS
  5
7
330
0
100
AcDbSymbolTable
 70
     0
  0
ENDTAB
  0
TABLE
  2
APPID
  5
9
330
0
100
AcDbSymbolTable
 70
     8
  0
APPID
  5
12
330
9
100
AcDbSymbolTableRecord
100
AcDbRegAppTableRecord
  2
ACAD
 70
     0
  0
APPID
  5
89
330
9
100
AcDbSymbolTableRecord
100
AcDbRegAppTableRecord
  2
DCO15
 70
     0
  0
APPID
  5
8B
330
9
100
AcDbSymbolTableRecord
100
AcDbRegAppTableRecord
  2
ADE
 70
     0
  0
APPID
  5
AD
330
9
100
AcDbSymbolTableRecord
100
AcDbRegAppTableRecord
  2
KKE_SXF_XDATA
 70
     0
  0
APPID
  5
B6
330
9
100
AcDbSymbolTableRecord
100
AcDbRegAppTableRecord
  2
CDSET
 70
     0
  0
APPID
  5
B7
330
9
100
AcDbSymbolTableRecord
100
AcDbRegAppTableRecord
  2
KKE_SXF_DIMDIST_XDATA
 70
     0
  0
APPID
  5
217
330
9
100
AcDbSymbolTableRecord
100
AcDbRegAppTableRecord
  2
JASPER
 70
     0
  0
APPID
  5
62C18
330
9
100
AcDbSymbolTableRecord
100
AcDbRegAppTableRecord
  2
ACAD_NAV_VCDISPLAY
 70
     0
  0
ENDTAB
  0
TABLE
  2
DIMSTYLE
  5
A
330
0
100
AcDbSymbolTable
 70
     2
100
AcDbDimStyleTable
 71
     2
340
624
340
135E
  0
DIMSTYLE
105
624
102
{ACAD_REACTORS
330
5CA17
330
5CA18
330
5CA21
330
5CA39
330
5CA3A
330
5CA44
330
5CA5C
330
5CA5D
330
5CA67
330
5CDD2
330
5CDD3
330
5CDD4
330
5CDE3
330
5CDE4
330
5CDF0
330
5CDF1
330
5CDF2
330
5CDF3
330
5CE01
330
5CE02
330
5CE03
330
5CE04
330
5CE52
330
5CE53
330
5CE54
330
5CE63
330
5CE64
330
5CE70
330
5CE71
330
5CE72
330
5CE73
330
5CE81
330
5CE82
330
5CE83
330
5CE84
330
5CED6
330
5CED7
330
5CED8
330
5CEE7
330
5CEE8
330
5CEF4
330
5CEF5
330
5CEF6
330
5CEF7
330
5CF05
330
5CF06
330
5CF07
330
5CF08
102
}
330
A
100
AcDbSymbolTableRecord
100
AcDbDimStyleTableRecord
  2
SXF-20
 70
     0
 40
20.0
 41
2.0
 42
0.625
 43
3.75
 44
1.25
 73
     0
 74
     0
 77
     1
 78
     1
140
3.5
141
2.5
143
0.03937007874016
147
0.625
171
     3
172
     1
174
     1
179
     4
271
     0
272
     0
274
     3
275
     1
279
     2
283
     0
284
     8
340
11
341
618
342
618
371
    13
372
    13
  0
DIMSTYLE
105
135E
330
A
100
AcDbSymbolTableRecord
100
AcDbDimStyleTableRecord
  2
Standard
 70
     0
340
11
  0
ENDTAB
  0
TABLE
  2
BLOCK_RECORD
  5
1
330
0
100
AcDbSymbolTable
 70
    49
  0
BLOCK_RECORD
  5
1F
330
1
100
AcDbSymbolTableRecord
100
AcDbBlockTableRecord
  2
*Model_Space
340
22
 70
     0
280
     1
281
     0
  0
BLOCK_RECORD
  5
62AF3
330
1
100
AcDbSymbolTableRecord
100
AcDbBlockTableRecord
  2
*Paper_Space
340
62AF8
 70
     0
280
     1
281
     0
  0
BLOCK_RECORD
  5
618
330
1
100
AcDbSymbolTableRecord
100
AcDbBlockTableRecord
  2
_OPEN
340
0
310
2800000020000000200000000100080000000000000400000000000000000000000000000000000000000000000080000080000000808000800000008000800080800000C0C0C000C0DCC000F0CAA6000020400000206000002080000020A0000020C0000020E00000400000004020000040400000406000004080000040A0
310
000040C0000040E00000600000006020000060400000606000006080000060A0000060C0000060E00000800000008020000080400000806000008080000080A0000080C0000080E00000A0000000A0200000A0400000A0600000A0800000A0A00000A0C00000A0E00000C0000000C0200000C0400000C0600000C0800000C0
310
A00000C0C00000C0E00000E0000000E0200000E0400000E0600000E0800000E0A00000E0C00000E0E00040000000400020004000400040006000400080004000A0004000C0004000E00040200000402020004020400040206000402080004020A0004020C0004020E000404000004040200040404000404060004040800040
310
40A0004040C0004040E00040600000406020004060400040606000406080004060A0004060C0004060E00040800000408020004080400040806000408080004080A0004080C0004080E00040A0000040A0200040A0400040A0600040A0800040A0A00040A0C00040A0E00040C0000040C0200040C0400040C0600040C08000
310
40C0A00040C0C00040C0E00040E0000040E0200040E0400040E0600040E0800040E0A00040E0C00040E0E00080000000800020008000400080006000800080008000A0008000C0008000E00080200000802020008020400080206000802080008020A0008020C0008020E00080400000804020008040400080406000804080
310
008040A0008040C0008040E00080600000806020008060400080606000806080008060A0008060C0008060E00080800000808020008080400080806000808080008080A0008080C0008080E00080A0000080A0200080A0400080A0600080A0800080A0A00080A0C00080A0E00080C0000080C0200080C0400080C0600080C0
310
800080C0A00080C0C00080C0E00080E0000080E0200080E0400080E0600080E0800080E0A00080E0C00080E0E000C0000000C0002000C0004000C0006000C0008000C000A000C000C000C000E000C0200000C0202000C0204000C0206000C0208000C020A000C020C000C020E000C0400000C0402000C0404000C0406000C0
310
408000C040A000C040C000C040E000C0600000C0602000C0604000C0606000C0608000C060A000C060C000C060E000C0800000C0802000C0804000C0806000C0808000C080A000C080C000C080E000C0A00000C0A02000C0A04000C0A06000C0A08000C0A0A000C0A0C000C0A0E000C0C00000C0C02000C0C04000C0C06000
310
C0C08000C0C0A000F0FBFF00A4A0A000808080000000FF0000FF000000FFFF00FF000000FF00FF00FFFF0000FFFFFF0000000000000000000000000000000000000000000000000000000000000000000000000000000000000000000000000000000000000000000000000000000000000000000000000000000000000000
310
00000000000000000000000000000000000000000000000000000000000000000000000000000000000000000000000000000000000000000000000000000000000000000000000000000000000000000000000000000000000000000000000000000000000000000000000000000000000000000000000000000000000000
310
00000000000000000000000000000000000000000000000000000000000000000000000000000000000000000000000000000000000000000000000000000000000000000000000000000000000000000000000000000000000000000000000000000000000000000000000000000000000000000000000000000000000000
310
0000000000000000000000000000000000000000FFFFFF0000000000000000000000000000000000000000000000000000000000000000FFFFFFFFFFFF0000000000000000000000000000000000000000000000000000000000000000FFFFFFFFFFFF00000000000000000000000000000000000000000000000000000000
310
00000000FFFFFFFFFFFF0000000000000000000000000000000000000000000000000000000000000000FFFFFFFFFFFF0000000000FFFFFFFFFFFFFFFFFFFFFFFFFFFFFFFFFFFFFFFFFFFFFFFFFFFFFFFFFFFF000000000000000000000000000000000000000000FFFFFFFFFFFFFF00000000000000000000000000000000
310
00FFFFFFFFFFFFFFFF0000000000000000000000000000000000FFFFFFFFFFFFFF000000000000000000000000000000000000000000FFFFFFFF000000000000000000000000000000000000000000000000000000000000000000000000000000000000000000000000000000000000000000000000000000000000000000
310
00000000000000000000000000000000000000000000000000000000000000000000000000000000000000000000000000000000000000000000000000000000000000000000000000000000000000000000000000000000000000000000000000000000000000000000000000000000000000000000000000000000000000
310
00000000000000000000000000000000000000000000000000000000000000000000000000000000000000000000000000000000000000000000000000000000000000000000000000000000000000000000000000000000000000000000000000000000000000000000000000000000000000000000000000000000000000
310
0000000000000000000000000000000000000000000000000000000000000000000000000000000000000000000000000000000000000000
102
{BLKREFS
331
6162C
331
6162D
331
61637
331
61638
331
61642
331
61643
331
6164D
331
6164E
331
61658
331
61659
331
61661
331
61662
331
6166C
331
6166D
331
61675
331
61676
331
6167E
331
6167F
331
61687
331
61688
331
61690
331
61691
331
6169B
331
6169C
331
616A6
331
616A7
331
616B1
331
616B2
331
616BC
331
616BD
331
616C5
331
616C6
331
616CE
331
616CF
331
61A28
331
61A30
331
61A31
331
61A39
331
61A3A
331
61A42
331
61A43
331
61A4B
331
61A4C
331
61A54
331
61A55
331
61A5D
331
61A5E
331
616D9
331
616DA
331
616E2
331
616E3
331
616ED
331
616EE
331
616F6
331
616F7
331
616FF
331
61700
331
61708
331
61709
331
61711
331
61712
331
6171C
331
6171D
331
61727
331
61728
331
61732
331
61733
331
6173D
331
6173E
331
61746
331
61747
331
6174F
331
61750
331
6175A
331
6175B
331
61763
331
61764
331
6176E
331
6176F
331
61777
331
61778
331
61780
331
61781
331
61789
331
6178A
331
61792
331
61793
331
6179D
331
6179E
331
617A8
331
617A9
331
61A15
331
61A16
331
61A1E
331
61A1F
331
61A27
102
}
 70
     0
280
     1
281
     0
  0
BLOCK_RECORD
  5
5D7EC
330
1
100
AcDbSymbolTableRecord
100
AcDbBlockTableRecord
  2
*D1
340
0
 70
     0
280
     1
281
     0
  0
BLOCK_RECORD
  5
5D7F8
330
1
100
AcDbSymbolTableRecord
100
AcDbBlockTableRecord
  2
*D2
340
0
 70
     0
280
     1
281
     0
  0
BLOCK_RECORD
  5
5D804
330
1
100
AcDbSymbolTableRecord
100
AcDbBlockTableRecord
  2
*D3
340
0
 70
     0
280
     1
281
     0
  0
BLOCK_RECORD
  5
5D810
330
1
100
AcDbSymbolTableRecord
100
AcDbBlockTableRecord
  2
*D4
340
0
 70
     0
280
     1
281
     0
  0
BLOCK_RECORD
  5
5D81C
330
1
100
AcDbSymbolTableRecord
100
AcDbBlockTableRecord
  2
*D5
340
0
 70
     0
280
     1
281
     0
  0
BLOCK_RECORD
  5
5D828
330
1
100
AcDbSymbolTableRecord
100
AcDbBlockTableRecord
  2
*D6
340
0
 70
     0
280
     1
281
     0
  0
BLOCK_RECORD
  5
5D834
330
1
100
AcDbSymbolTableRecord
100
AcDbBlockTableRecord
  2
*D7
340
0
 70
     0
280
     1
281
     0
  0
BLOCK_RECORD
  5
5D840
330
1
100
AcDbSymbolTableRecord
100
AcDbBlockTableRecord
  2
*D8
340
0
 70
     0
280
     1
281
     0
  0
BLOCK_RECORD
  5
5D84C
330
1
100
AcDbSymbolTableRecord
100
AcDbBlockTableRecord
  2
*D9
340
0
 70
     0
280
     1
281
     0
  0
BLOCK_RECORD
  5
5DB7C
330
1
100
AcDbSymbolTableRecord
100
AcDbBlockTableRecord
  2
*D10
340
0
 70
     0
280
     1
281
     0
  0
BLOCK_RECORD
  5
5DB8A
330
1
100
AcDbSymbolTableRecord
100
AcDbBlockTableRecord
  2
*D11
340
0
 70
     0
280
     1
281
     0
  0
BLOCK_RECORD
  5
5DB98
330
1
100
AcDbSymbolTableRecord
100
AcDbBlockTableRecord
  2
*D12
340
0
 70
     0
280
     1
281
     0
  0
BLOCK_RECORD
  5
5DBA4
330
1
100
AcDbSymbolTableRecord
100
AcDbBlockTableRecord
  2
*D13
340
0
 70
     0
280
     1
281
     0
  0
BLOCK_RECORD
  5
5DBB0
330
1
100
AcDbSymbolTableRecord
100
AcDbBlockTableRecord
  2
*D14
340
0
 70
     0
280
     1
281
     0
  0
BLOCK_RECORD
  5
5DBBC
330
1
100
AcDbSymbolTableRecord
100
AcDbBlockTableRecord
  2
*D15
340
0
 70
     0
280
     1
281
     0
  0
BLOCK_RECORD
  5
5DBC8
330
1
100
AcDbSymbolTableRecord
100
AcDbBlockTableRecord
  2
*D16
340
0
 70
     0
280
     1
281
     0
  0
BLOCK_RECORD
  5
5DBD6
330
1
100
AcDbSymbolTableRecord
100
AcDbBlockTableRecord
  2
*D17
340
0
 70
     0
280
     1
281
     0
  0
BLOCK_RECORD
  5
5DBE2
330
1
100
AcDbSymbolTableRecord
100
AcDbBlockTableRecord
  2
*D18
340
0
 70
     0
280
     1
281
     0
  0
BLOCK_RECORD
  5
5DBF0
330
1
100
AcDbSymbolTableRecord
100
AcDbBlockTableRecord
  2
*D19
340
0
 70
     0
280
     1
281
     0
  0
BLOCK_RECORD
  5
5DBFC
330
1
100
AcDbSymbolTableRecord
100
AcDbBlockTableRecord
  2
*D20
340
0
 70
     0
280
     1
281
     0
  0
BLOCK_RECORD
  5
5DC08
330
1
100
AcDbSymbolTableRecord
100
AcDbBlockTableRecord
  2
*D21
340
0
 70
     0
280
     1
281
     0
  0
BLOCK_RECORD
  5
5DC16
330
1
100
AcDbSymbolTableRecord
100
AcDbBlockTableRecord
  2
*D22
340
0
 70
     0
280
     1
281
     0
  0
BLOCK_RECORD
  5
5DC24
330
1
100
AcDbSymbolTableRecord
100
AcDbBlockTableRecord
  2
*D23
340
0
 70
     0
280
     1
281
     0
  0
BLOCK_RECORD
  5
5DC32
330
1
100
AcDbSymbolTableRecord
100
AcDbBlockTableRecord
  2
*D24
340
0
 70
     0
280
     1
281
     0
  0
BLOCK_RECORD
  5
5DC40
330
1
100
AcDbSymbolTableRecord
100
AcDbBlockTableRecord
  2
*D25
340
0
 70
     0
280
     1
281
     0
  0
BLOCK_RECORD
  5
5DC4C
330
1
100
AcDbSymbolTableRecord
100
AcDbBlockTableRecord
  2
*D26
340
0
 70
     0
280
     1
281
     0
  0
BLOCK_RECORD
  5
5DC58
330
1
100
AcDbSymbolTableRecord
100
AcDbBlockTableRecord
  2
*D27
340
0
 70
     0
280
     1
281
     0
  0
BLOCK_RECORD
  5
5DC64
330
1
100
AcDbSymbolTableRecord
100
AcDbBlockTableRecord
  2
*D28
340
0
 70
     0
280
     1
281
     0
  0
BLOCK_RECORD
  5
5DC70
330
1
100
AcDbSymbolTableRecord
100
AcDbBlockTableRecord
  2
*D29
340
0
 70
     0
280
     1
281
     0
  0
BLOCK_RECORD
  5
5DC7E
330
1
100
AcDbSymbolTableRecord
100
AcDbBlockTableRecord
  2
*D30
340
0
 70
     0
280
     1
281
     0
  0
BLOCK_RECORD
  5
5DC8A
330
1
100
AcDbSymbolTableRecord
100
AcDbBlockTableRecord
  2
*D31
340
0
 70
     0
280
     1
281
     0
  0
BLOCK_RECORD
  5
5DC98
330
1
100
AcDbSymbolTableRecord
100
AcDbBlockTableRecord
  2
*D32
340
0
 70
     0
280
     1
281
     0
  0
BLOCK_RECORD
  5
5DCA4
330
1
100
AcDbSymbolTableRecord
100
AcDbBlockTableRecord
  2
*D33
340
0
 70
     0
280
     1
281
     0
  0
BLOCK_RECORD
  5
5DCB0
330
1
100
AcDbSymbolTableRecord
100
AcDbBlockTableRecord
  2
*D34
340
0
 70
     0
280
     1
281
     0
  0
BLOCK_RECORD
  5
5DCBE
330
1
100
AcDbSymbolTableRecord
100
AcDbBlockTableRecord
  2
*D35
340
0
 70
     0
280
     1
281
     0
  0
BLOCK_RECORD
  5
5DCCC
330
1
100
AcDbSymbolTableRecord
100
AcDbBlockTableRecord
  2
*D36
340
0
 70
     0
280
     1
281
     0
  0
BLOCK_RECORD
  5
5DCDA
330
1
100
AcDbSymbolTableRecord
100
AcDbBlockTableRecord
  2
*D37
340
0
 70
     0
280
     1
281
     0
  0
BLOCK_RECORD
  5
5DCE8
330
1
100
AcDbSymbolTableRecord
100
AcDbBlockTableRecord
  2
*D38
340
0
 70
     0
280
     1
281
     0
  0
BLOCK_RECORD
  5
5DCF4
330
1
100
AcDbSymbolTableRecord
100
AcDbBlockTableRecord
  2
*D39
340
0
 70
     0
280
     1
281
     0
  0
BLOCK_RECORD
  5
5DD00
330
1
100
AcDbSymbolTableRecord
100
AcDbBlockTableRecord
  2
*D40
340
0
 70
     0
280
     1
281
     0
  0
BLOCK_RECORD
  5
5DD0C
330
1
100
AcDbSymbolTableRecord
100
AcDbBlockTableRecord
  2
*D41
340
0
 70
     0
280
     1
281
     0
  0
BLOCK_RECORD
  5
5DD18
330
1
100
AcDbSymbolTableRecord
100
AcDbBlockTableRecord
  2
*D42
340
0
 70
     0
280
     1
281
     0
  0
BLOCK_RECORD
  5
5DD26
330
1
100
AcDbSymbolTableRecord
100
AcDbBlockTableRecord
  2
*D43
340
0
 70
     0
280
     1
281
     0
  0
BLOCK_RECORD
  5
5DD32
330
1
100
AcDbSymbolTableRecord
100
AcDbBlockTableRecord
  2
*D44
340
0
 70
     0
280
     1
281
     0
  0
BLOCK_RECORD
  5
5DD40
330
1
100
AcDbSymbolTableRecord
100
AcDbBlockTableRecord
  2
*D45
340
0
 70
     0
280
     1
281
     0
  0
BLOCK_RECORD
  5
5DD4E
330
1
100
AcDbSymbolTableRecord
100
AcDbBlockTableRecord
  2
*D46
340
0
 70
     0
280
     1
281
     0
  0
BLOCK_RECORD
  5
5DD5C
330
1
100
AcDbSymbolTableRecord
100
AcDbBlockTableRecord
  2
*D47
340
0
 70
     0
280
     1
281
     0
  0
BLOCK_RECORD
  5
5DD6A
330
1
100
AcDbSymbolTableRecord
100
AcDbBlockTableRecord
  2
*D48
340
0
 70
     0
280
     1
281
     0
  0
ENDTAB
  0
ENDSEC
  0
SECTION
  2
BLOCKS
  0
BLOCK
  5
20
330
1F
100
AcDbEntity
  8
0
100
AcDbBlockBegin
  2
*Model_Space
 70
     0
 10
0.0
 20
0.0
 30
0.0
  3
*Model_Space
  1

  0
ENDBLK
  5
21
330
1F
100
AcDbEntity
  8
0
100
AcDbBlockEnd
  0
BLOCK
  5
62AF4
330
62AF3
100
AcDbEntity
 67
     1
  8
0
100
AcDbBlockBegin
  2
*Paper_Space
 70
     0
 10
0.0
 20
0.0
 30
0.0
  3
*Paper_Space
  1

  0
ENDBLK
  5
62AF7
330
62AF3
100
AcDbEntity
 67
     1
  8
0
100
AcDbBlockEnd
  0
BLOCK
  5
619
330
618
100
AcDbEntity
  8
0
100
AcDbBlockBegin
  2
_OPEN
 70
     0
 10
0.0
 20
0.0
 30
0.0
  3
_OPEN
  1

  0
LINE
  5
61A
330
618
100
AcDbEntity
  8
0
  6
ByBlock
 62
     0
100
AcDbLine
 10
-1.0
 20
0.1666666666666666
 30
0.0
 11
0.0
 21
0.0
 31
0.0
  0
LINE
  5
61B
330
618
100
AcDbEntity
  8
0
  6
ByBlock
 62
     0
100
AcDbLine
 10
-1.0
 20
-0.1666666666666666
 30
0.0
 11
0.0
 21
0.0
 31
0.0
  0
LINE
  5
61C
330
618
100
AcDbEntity
  8
0
  6
ByBlock
 62
     0
100
AcDbLine
 10
0.0
 20
0.0
 30
0.0
 11
-1.0
 21
0.0
 31
0.0
  0
ENDBLK
  5
61D
330
618
100
AcDbEntity
  8
0
100
AcDbBlockEnd
  0
BLOCK
  5
5D7F6
330
5D7EC
100
AcDbEntity
  8
0
100
AcDbBlockBegin
  2
*D1
 70
     1
 10
0.0
 20
0.0
 30
0.0
  3
*D1
  1

  0
LINE
  5
61A5A
330
5D7EC
100
AcDbEntity
  8
D-STR-DIM
 62
     0
440
 16777216
370
    13
100
AcDbLine
 10
12645.0
 20
20934.00000000015
 30
0.0
 11
12645.0
 21
21246.50000000023
 31
0.0
  0
LINE
  5
61A5B
330
5D7EC
100
AcDbEntity
  8
D-STR-DIM
 62
     0
440
 16777216
370
    13
100
AcDbLine
 10
13045.0
 20
20634.00000000015
 30
0.0
 11
13045.0
 21
21246.50000000023
 31
0.0
  0
LINE
  5
61A5C
330
5D7EC
100
AcDbEntity
  8
D-STR-DIM
 62
     0
440
 16777216
370
    13
100
AcDbLine
 10
12685.0
 20
21221.50000000023
 30
0.0
 11
13005.0
 21
21221.50000000023
 31
0.0
  0
INSERT
  5
61A5D
330
5D7EC
100
AcDbEntity
  8
D-STR-DIM
 62
     0
440
 16777216
370
    13
100
AcDbBlockReference
  2
_OPEN
 10
12645.0
 20
21221.50000000023
 30
0.0
 41
40.0
 42
40.0
 43
40.0
 50
180.0
  0
INSERT
  5
61A5E
330
5D7EC
100
AcDbEntity
  8
D-STR-DIM
 62
     0
440
 16777216
370
    13
100
AcDbBlockReference
  2
_OPEN
 10
13045.0
 20
21221.50000000023
 30
0.0
 41
40.0
 42
40.0
 43
40.0
  0
MTEXT
  5
61A5F
330
5D7EC
100
AcDbEntity
  8
D-STR-DIM
 62
     0
440
 16777216
100
AcDbMText
 10
12845.0
 20
21269.00000000023
 30
0.0
 40
70.0
 41
0.0
 46
0.0
 71
     5
 72
     1
  1
400
 73
     1
 44
1.0
  0
POINT
  5
61A60
330
5D7EC
100
AcDbEntity
  8
DEFPOINTS
 62
     0
440
 16777216
100
AcDbPoint
 10
12645.0
 20
20921.50000000015
 30
0.0
  0
POINT
  5
61A61
330
5D7EC
100
AcDbEntity
  8
DEFPOINTS
 62
     0
440
 16777216
100
AcDbPoint
 10
13045.0
 20
20621.50000000015
 30
0.0
  0
POINT
  5
61A62
330
5D7EC
100
AcDbEntity
  8
DEFPOINTS
 62
     0
440
 16777216
100
AcDbPoint
 10
13045.0
 20
21221.50000000023
 30
0.0
  0
ENDBLK
  5
5D7F7
330
5D7EC
100
AcDbEntity
  8
0
100
AcDbBlockEnd
  0
BLOCK
  5
5D802
330
5D7F8
100
AcDbEntity
  8
0
100
AcDbBlockBegin
  2
*D2
 70
     1
 10
0.0
 20
0.0
 30
0.0
  3
*D2
  1

  0
LINE
  5
61A51
330
5D7F8
100
AcDbEntity
  8
D-STR-DIM
 62
     0
440
 16777216
370
    13
100
AcDbLine
 10
12657.5
 20
20921.50000000015
 30
0.0
 11
13370.00000000012
 21
20921.50000000015
 31
0.0
  0
LINE
  5
61A52
330
5D7F8
100
AcDbEntity
  8
D-STR-DIM
 62
     0
440
 16777216
370
    13
100
AcDbLine
 10
13057.5
 20
20621.50000000015
 30
0.0
 11
13370.00000000012
 21
20621.50000000015
 31
0.0
  0
LINE
  5
61A53
330
5D7F8
100
AcDbEntity
  8
D-STR-DIM
 62
     0
440
 16777216
370
    13
100
AcDbLine
 10
13345.00000000012
 20
20881.50000000015
 30
0.0
 11
13345.00000000012
 21
20661.50000000015
 31
0.0
  0
INSERT
  5
61A54
330
5D7F8
100
AcDbEntity
  8
D-STR-DIM
 62
     0
440
 16777216
370
    13
100
AcDbBlockReference
  2
_OPEN
 10
13345.00000000012
 20
20921.50000000015
 30
0.0
 41
40.0
 42
40.0
 43
40.0
 50
90.0
  0
INSERT
  5
61A55
330
5D7F8
100
AcDbEntity
  8
D-STR-DIM
 62
     0
440
 16777216
370
    13
100
AcDbBlockReference
  2
_OPEN
 10
13345.00000000012
 20
20621.50000000015
 30
0.0
 41
40.0
 42
40.0
 43
40.0
 50
270.0
  0
MTEXT
  5
61A56
330
5D7F8
100
AcDbEntity
  8
D-STR-DIM
 62
     0
440
 16777216
100
AcDbMText
 10
13297.50000000012
 20
20771.50000000016
 30
0.0
 40
70.0
 41
0.0
 46
0.0
 71
     5
 72
     1
  1
300
 11
0.0000000000000001
 21
1.0
 31
0.0
 73
     1
 44
1.0
  0
POINT
  5
61A57
330
5D7F8
100
AcDbEntity
  8
DEFPOINTS
 62
     0
440
 16777216
100
AcDbPoint
 10
12645.0
 20
20921.50000000015
 30
0.0
  0
POINT
  5
61A58
330
5D7F8
100
AcDbEntity
  8
DEFPOINTS
 62
     0
440
 16777216
100
AcDbPoint
 10
13045.0
 20
20621.50000000015
 30
0.0
  0
POINT
  5
61A59
330
5D7F8
100
AcDbEntity
  8
DEFPOINTS
 62
     0
440
 16777216
100
AcDbPoint
 10
13345.00000000012
 20
20621.50000000015
 30
0.0
  0
ENDBLK
  5
5D803
330
5D7F8
100
AcDbEntity
  8
0
100
AcDbBlockEnd
  0
BLOCK
  5
5D80E
330
5D804
100
AcDbEntity
  8
0
100
AcDbBlockBegin
  2
*D3
 70
     1
 10
0.0
 20
0.0
 30
0.0
  3
*D3
  1

  0
LINE
  5
61A48
330
5D804
100
AcDbEntity
  8
D-STR-DIM
 62
     0
440
 16777216
370
    13
100
AcDbLine
 10
13057.5
 20
20621.50000000015
 30
0.0
 11
13370.00000000007
 21
20621.50000000015
 31
0.0
  0
LINE
  5
61A49
330
5D804
100
AcDbEntity
  8
D-STR-DIM
 62
     0
440
 16777216
370
    13
100
AcDbLine
 10
13057.5
 20
19121.50000000015
 30
0.0
 11
13370.00000000007
 21
19121.50000000015
 31
0.0
  0
LINE
  5
61A4A
330
5D804
100
AcDbEntity
  8
D-STR-DIM
 62
     0
440
 16777216
370
    13
100
AcDbLine
 10
13345.00000000007
 20
20581.50000000015
 30
0.0
 11
13345.00000000007
 21
19161.50000000015
 31
0.0
  0
INSERT
  5
61A4B
330
5D804
100
AcDbEntity
  8
D-STR-DIM
 62
     0
440
 16777216
370
    13
100
AcDbBlockReference
  2
_OPEN
 10
13345.00000000007
 20
20621.50000000015
 30
0.0
 41
40.0
 42
40.0
 43
40.0
 50
90.0
  0
INSERT
  5
61A4C
330
5D804
100
AcDbEntity
  8
D-STR-DIM
 62
     0
440
 16777216
370
    13
100
AcDbBlockReference
  2
_OPEN
 10
13345.00000000007
 20
19121.50000000015
 30
0.0
 41
40.0
 42
40.0
 43
40.0
 50
270.0
  0
MTEXT
  5
61A4D
330
5D804
100
AcDbEntity
  8
D-STR-DIM
 62
     0
440
 16777216
100
AcDbMText
 10
13297.50000000007
 20
19871.50000000015
 30
0.0
 40
70.0
 41
0.0
 46
0.0
 71
     5
 72
     1
  1
1500
 11
0.0000000000000001
 21
1.0
 31
0.0
 73
     1
 44
1.0
  0
POINT
  5
61A4E
330
5D804
100
AcDbEntity
  8
DEFPOINTS
 62
     0
440
 16777216
100
AcDbPoint
 10
13045.0
 20
20621.50000000015
 30
0.0
  0
POINT
  5
61A4F
330
5D804
100
AcDbEntity
  8
DEFPOINTS
 62
     0
440
 16777216
100
AcDbPoint
 10
13045.0
 20
19121.50000000015
 30
0.0
  0
POINT
  5
61A50
330
5D804
100
AcDbEntity
  8
DEFPOINTS
 62
     0
440
 16777216
100
AcDbPoint
 10
13345.00000000007
 20
19121.50000000015
 30
0.0
  0
ENDBLK
  5
5D80F
330
5D804
100
AcDbEntity
  8
0
100
AcDbBlockEnd
  0
BLOCK
  5
5D81A
330
5D810
100
AcDbEntity
  8
0
100
AcDbBlockBegin
  2
*D4
 70
     1
 10
0.0
 20
0.0
 30
0.0
  3
*D4
  1

  0
LINE
  5
61A3F
330
5D810
100
AcDbEntity
  8
D-STR-DIM
 62
     0
440
 16777216
370
    13
100
AcDbLine
 10
7717.5
 20
20921.50000000015
 30
0.0
 11
8430.000000000116
 21
20921.50000000015
 31
0.0
  0
LINE
  5
61A40
330
5D810
100
AcDbEntity
  8
D-STR-DIM
 62
     0
440
 16777216
370
    13
100
AcDbLine
 10
8117.499999999999
 20
20621.50000000015
 30
0.0
 11
8430.000000000116
 21
20621.50000000015
 31
0.0
  0
LINE
  5
61A41
330
5D810
100
AcDbEntity
  8
D-STR-DIM
 62
     0
440
 16777216
370
    13
100
AcDbLine
 10
8405.000000000116
 20
20881.50000000015
 30
0.0
 11
8405.000000000116
 21
20661.50000000015
 31
0.0
  0
INSERT
  5
61A42
330
5D810
100
AcDbEntity
  8
D-STR-DIM
 62
     0
440
 16777216
370
    13
100
AcDbBlockReference
  2
_OPEN
 10
8405.000000000116
 20
20921.50000000015
 30
0.0
 41
40.0
 42
40.0
 43
40.0
 50
90.0
  0
INSERT
  5
61A43
330
5D810
100
AcDbEntity
  8
D-STR-DIM
 62
     0
440
 16777216
370
    13
100
AcDbBlockReference
  2
_OPEN
 10
8405.000000000116
 20
20621.50000000015
 30
0.0
 41
40.0
 42
40.0
 43
40.0
 50
270.0
  0
MTEXT
  5
61A44
330
5D810
100
AcDbEntity
  8
D-STR-DIM
 62
     0
440
 16777216
100
AcDbMText
 10
8357.500000000113
 20
20771.50000000016
 30
0.0
 40
70.0
 41
0.0
 46
0.0
 71
     5
 72
     1
  1
300
 11
0.0000000000000001
 21
1.0
 31
0.0
 73
     1
 44
1.0
  0
POINT
  5
61A45
330
5D810
100
AcDbEntity
  8
DEFPOINTS
 62
     0
440
 16777216
100
AcDbPoint
 10
7705.0
 20
20921.50000000015
 30
0.0
  0
POINT
  5
61A46
330
5D810
100
AcDbEntity
  8
DEFPOINTS
 62
     0
440
 16777216
100
AcDbPoint
 10
8105.0
 20
20621.50000000015
 30
0.0
  0
POINT
  5
61A47
330
5D810
100
AcDbEntity
  8
DEFPOINTS
 62
     0
440
 16777216
100
AcDbPoint
 10
8405.000000000116
 20
20621.50000000015
 30
0.0
  0
ENDBLK
  5
5D81B
330
5D810
100
AcDbEntity
  8
0
100
AcDbBlockEnd
  0
BLOCK
  5
5D826
330
5D81C
100
AcDbEntity
  8
0
100
AcDbBlockBegin
  2
*D5
 70
     1
 10
0.0
 20
0.0
 30
0.0
  3
*D5
  1

  0
LINE
  5
61A36
330
5D81C
100
AcDbEntity
  8
D-STR-DIM
 62
     0
440
 16777216
370
    13
100
AcDbLine
 10
7705.0
 20
20934.00000000015
 30
0.0
 11
7705.0
 21
21246.50000000023
 31
0.0
  0
LINE
  5
61A37
330
5D81C
100
AcDbEntity
  8
D-STR-DIM
 62
     0
440
 16777216
370
    13
100
AcDbLine
 10
8105.0
 20
20634.00000000015
 30
0.0
 11
8105.0
 21
21246.50000000023
 31
0.0
  0
LINE
  5
61A38
330
5D81C
100
AcDbEntity
  8
D-STR-DIM
 62
     0
440
 16777216
370
    13
100
AcDbLine
 10
7745.0
 20
21221.50000000023
 30
0.0
 11
8065.0
 21
21221.50000000023
 31
0.0
  0
INSERT
  5
61A39
330
5D81C
100
AcDbEntity
  8
D-STR-DIM
 62
     0
440
 16777216
370
    13
100
AcDbBlockReference
  2
_OPEN
 10
7705.0
 20
21221.50000000023
 30
0.0
 41
40.0
 42
40.0
 43
40.0
 50
180.0
  0
INSERT
  5
61A3A
330
5D81C
100
AcDbEntity
  8
D-STR-DIM
 62
     0
440
 16777216
370
    13
100
AcDbBlockReference
  2
_OPEN
 10
8105.0
 20
21221.50000000023
 30
0.0
 41
40.0
 42
40.0
 43
40.0
  0
MTEXT
  5
61A3B
330
5D81C
100
AcDbEntity
  8
D-STR-DIM
 62
     0
440
 16777216
100
AcDbMText
 10
7905.0
 20
21269.00000000023
 30
0.0
 40
70.0
 41
0.0
 46
0.0
 71
     5
 72
     1
  1
400
 73
     1
 44
1.0
  0
POINT
  5
61A3C
330
5D81C
100
AcDbEntity
  8
DEFPOINTS
 62
     0
440
 16777216
100
AcDbPoint
 10
7705.0
 20
20921.50000000015
 30
0.0
  0
POINT
  5
61A3D
330
5D81C
100
AcDbEntity
  8
DEFPOINTS
 62
     0
440
 16777216
100
AcDbPoint
 10
8105.0
 20
20621.50000000015
 30
0.0
  0
POINT
  5
61A3E
330
5D81C
100
AcDbEntity
  8
DEFPOINTS
 62
     0
440
 16777216
100
AcDbPoint
 10
8105.0
 20
21221.50000000023
 30
0.0
  0
ENDBLK
  5
5D827
330
5D81C
100
AcDbEntity
  8
0
100
AcDbBlockEnd
  0
BLOCK
  5
5D832
330
5D828
100
AcDbEntity
  8
0
100
AcDbBlockBegin
  2
*D6
 70
     1
 10
0.0
 20
0.0
 30
0.0
  3
*D6
  1

  0
LINE
  5
61A2D
330
5D828
100
AcDbEntity
  8
D-STR-DIM
 62
     0
440
 16777216
370
    13
100
AcDbLine
 10
8117.499999999999
 20
20621.50000000015
 30
0.0
 11
8430.000000000061
 21
20621.50000000015
 31
0.0
  0
LINE
  5
61A2E
330
5D828
100
AcDbEntity
  8
D-STR-DIM
 62
     0
440
 16777216
370
    13
100
AcDbLine
 10
8117.499999999999
 20
19321.50000000015
 30
0.0
 11
8430.000000000058
 21
19321.50000000015
 31
0.0
  0
LINE
  5
61A2F
330
5D828
100
AcDbEntity
  8
D-STR-DIM
 62
     0
440
 16777216
370
    13
100
AcDbLine
 10
8405.000000000061
 20
20581.50000000015
 30
0.0
 11
8405.000000000057
 21
19361.50000000015
 31
0.0
  0
INSERT
  5
61A30
330
5D828
100
AcDbEntity
  8
D-STR-DIM
 62
     0
440
 16777216
370
    13
100
AcDbBlockReference
  2
_OPEN
 10
8405.000000000061
 20
20621.50000000015
 30
0.0
 41
40.0
 42
40.0
 43
40.0
 50
90.0
  0
INSERT
  5
61A31
330
5D828
100
AcDbEntity
  8
D-STR-DIM
 62
     0
440
 16777216
370
    13
100
AcDbBlockReference
  2
_OPEN
 10
8405.000000000057
 20
19321.50000000015
 30
0.0
 41
40.0
 42
40.0
 43
40.0
 50
270.0
  0
MTEXT
  5
61A32
330
5D828
100
AcDbEntity
  8
D-STR-DIM
 62
     0
440
 16777216
100
AcDbMText
 10
8357.500000000056
 20
19971.50000000015
 30
0.0
 40
70.0
 41
0.0
 46
0.0
 71
     5
 72
     1
  1
1300
 11
0.0000000000000001
 21
1.0
 31
0.0
 73
     1
 44
1.0
  0
POINT
  5
61A33
330
5D828
100
AcDbEntity
  8
DEFPOINTS
 62
     0
440
 16777216
100
AcDbPoint
 10
8105.0
 20
20621.50000000015
 30
0.0
  0
POINT
  5
61A34
330
5D828
100
AcDbEntity
  8
DEFPOINTS
 62
     0
440
 16777216
100
AcDbPoint
 10
8105.0
 20
19321.50000000015
 30
0.0
  0
POINT
  5
61A35
330
5D828
100
AcDbEntity
  8
DEFPOINTS
 62
     0
440
 16777216
100
AcDbPoint
 10
8405.000000000057
 20
19321.50000000015
 30
0.0
  0
ENDBLK
  5
5D833
330
5D828
100
AcDbEntity
  8
0
100
AcDbBlockEnd
  0
BLOCK
  5
5D83E
330
5D834
100
AcDbEntity
  8
0
100
AcDbBlockBegin
  2
*D7
 70
     1
 10
0.0
 20
0.0
 30
0.0
  3
*D7
  1

  0
LINE
  5
61A24
330
5D834
100
AcDbEntity
  8
D-STR-DIM
 62
     0
440
 16777216
370
    13
100
AcDbLine
 10
2735.0
 20
20934.00000000015
 30
0.0
 11
2735.0
 21
21246.50000000023
 31
0.0
  0
LINE
  5
61A25
330
5D834
100
AcDbEntity
  8
D-STR-DIM
 62
     0
440
 16777216
370
    13
100
AcDbLine
 10
3135.0
 20
20634.00000000015
 30
0.0
 11
3135.0
 21
21246.50000000023
 31
0.0
  0
LINE
  5
61A26
330
5D834
100
AcDbEntity
  8
D-STR-DIM
 62
     0
440
 16777216
370
    13
100
AcDbLine
 10
2775.0
 20
21221.50000000023
 30
0.0
 11
3095.0
 21
21221.50000000023
 31
0.0
  0
INSERT
  5
61A27
330
5D834
100
AcDbEntity
  8
D-STR-DIM
 62
     0
440
 16777216
370
    13
100
AcDbBlockReference
  2
_OPEN
 10
2735.0
 20
21221.50000000023
 30
0.0
 41
40.0
 42
40.0
 43
40.0
 50
180.0
  0
INSERT
  5
61A28
330
5D834
100
AcDbEntity
  8
D-STR-DIM
 62
     0
440
 16777216
370
    13
100
AcDbBlockReference
  2
_OPEN
 10
3135.0
 20
21221.50000000023
 30
0.0
 41
40.0
 42
40.0
 43
40.0
  0
MTEXT
  5
61A29
330
5D834
100
AcDbEntity
  8
D-STR-DIM
 62
     0
440
 16777216
100
AcDbMText
 10
2935.0
 20
21269.00000000023
 30
0.0
 40
70.0
 41
0.0
 46
0.0
 71
     5
 72
     1
  1
400
 73
     1
 44
1.0
  0
POINT
  5
61A2A
330
5D834
100
AcDbEntity
  8
DEFPOINTS
 62
     0
440
 16777216
100
AcDbPoint
 10
2735.0
 20
20921.50000000015
 30
0.0
  0
POINT
  5
61A2B
330
5D834
100
AcDbEntity
  8
DEFPOINTS
 62
     0
440
 16777216
100
AcDbPoint
 10
3135.0
 20
20621.50000000015
 30
0.0
  0
POINT
  5
61A2C
330
5D834
100
AcDbEntity
  8
DEFPOINTS
 62
     0
440
 16777216
100
AcDbPoint
 10
3135.0
 20
21221.50000000023
 30
0.0
  0
ENDBLK
  5
5D83F
330
5D834
100
AcDbEntity
  8
0
100
AcDbBlockEnd
  0
BLOCK
  5
5D84A
330
5D840
100
AcDbEntity
  8
0
100
AcDbBlockBegin
  2
*D8
 70
     1
 10
0.0
 20
0.0
 30
0.0
  3
*D8
  1

  0
LINE
  5
61A1B
330
5D840
100
AcDbEntity
  8
D-STR-DIM
 62
     0
440
 16777216
370
    13
100
AcDbLine
 10
2747.5
 20
20921.50000000015
 30
0.0
 11
3460.000000000117
 21
20921.50000000015
 31
0.0
  0
LINE
  5
61A1C
330
5D840
100
AcDbEntity
  8
D-STR-DIM
 62
     0
440
 16777216
370
    13
100
AcDbLine
 10
3147.5
 20
20621.50000000015
 30
0.0
 11
3460.000000000117
 21
20621.50000000015
 31
0.0
  0
LINE
  5
61A1D
330
5D840
100
AcDbEntity
  8
D-STR-DIM
 62
     0
440
 16777216
370
    13
100
AcDbLine
 10
3435.000000000117
 20
20881.50000000015
 30
0.0
 11
3435.000000000117
 21
20661.50000000015
 31
0.0
  0
INSERT
  5
61A1E
330
5D840
100
AcDbEntity
  8
D-STR-DIM
 62
     0
440
 16777216
370
    13
100
AcDbBlockReference
  2
_OPEN
 10
3435.000000000117
 20
20921.50000000015
 30
0.0
 41
40.0
 42
40.0
 43
40.0
 50
90.0
  0
INSERT
  5
61A1F
330
5D840
100
AcDbEntity
  8
D-STR-DIM
 62
     0
440
 16777216
370
    13
100
AcDbBlockReference
  2
_OPEN
 10
3435.000000000117
 20
20621.50000000015
 30
0.0
 41
40.0
 42
40.0
 43
40.0
 50
270.0
  0
MTEXT
  5
61A20
330
5D840
100
AcDbEntity
  8
D-STR-DIM
 62
     0
440
 16777216
100
AcDbMText
 10
3387.500000000113
 20
20771.50000000016
 30
0.0
 40
70.0
 41
0.0
 46
0.0
 71
     5
 72
     1
  1
300
 11
0.0000000000000001
 21
1.0
 31
0.0
 73
     1
 44
1.0
  0
POINT
  5
61A21
330
5D840
100
AcDbEntity
  8
DEFPOINTS
 62
     0
440
 16777216
100
AcDbPoint
 10
2735.0
 20
20921.50000000015
 30
0.0
  0
POINT
  5
61A22
330
5D840
100
AcDbEntity
  8
DEFPOINTS
 62
     0
440
 16777216
100
AcDbPoint
 10
3135.0
 20
20621.50000000015
 30
0.0
  0
POINT
  5
61A23
330
5D840
100
AcDbEntity
  8
DEFPOINTS
 62
     0
440
 16777216
100
AcDbPoint
 10
3435.000000000117
 20
20621.50000000015
 30
0.0
  0
ENDBLK
  5
5D84B
330
5D840
100
AcDbEntity
  8
0
100
AcDbBlockEnd
  0
BLOCK
  5
5D856
330
5D84C
100
AcDbEntity
  8
0
100
AcDbBlockBegin
  2
*D9
 70
     1
 10
0.0
 20
0.0
 30
0.0
  3
*D9
  1

  0
LINE
  5
61A12
330
5D84C
100
AcDbEntity
  8
D-STR-DIM
 62
     0
440
 16777216
370
    13
100
AcDbLine
 10
3147.5
 20
20621.50000000015
 30
0.0
 11
3460.000000000051
 21
20621.50000000015
 31
0.0
  0
LINE
  5
61A13
330
5D84C
100
AcDbEntity
  8
D-STR-DIM
 62
     0
440
 16777216
370
    13
100
AcDbLine
 10
3147.5
 20
19421.50000000015
 30
0.0
 11
3460.000000000051
 21
19421.50000000015
 31
0.0
  0
LINE
  5
61A14
330
5D84C
100
AcDbEntity
  8
D-STR-DIM
 62
     0
440
 16777216
370
    13
100
AcDbLine
 10
3435.000000000052
 20
20581.50000000015
 30
0.0
 11
3435.000000000052
 21
19461.50000000015
 31
0.0
  0
INSERT
  5
61A15
330
5D84C
100
AcDbEntity
  8
D-STR-DIM
 62
     0
440
 16777216
370
    13
100
AcDbBlockReference
  2
_OPEN
 10
3435.000000000052
 20
20621.50000000015
 30
0.0
 41
40.0
 42
40.0
 43
40.0
 50
90.0
  0
INSERT
  5
61A16
330
5D84C
100
AcDbEntity
  8
D-STR-DIM
 62
     0
440
 16777216
370
    13
100
AcDbBlockReference
  2
_OPEN
 10
3435.000000000052
 20
19421.50000000015
 30
0.0
 41
40.0
 42
40.0
 43
40.0
 50
270.0
  0
MTEXT
  5
61A17
330
5D84C
100
AcDbEntity
  8
D-STR-DIM
 62
     0
440
 16777216
100
AcDbMText
 10
3387.500000000049
 20
20021.50000000015
 30
0.0
 40
70.0
 41
0.0
 46
0.0
 71
     5
 72
     1
  1
1200
 11
0.0000000000000001
 21
1.0
 31
0.0
 73
     1
 44
1.0
  0
POINT
  5
61A18
330
5D84C
100
AcDbEntity
  8
DEFPOINTS
 62
     0
440
 16777216
100
AcDbPoint
 10
3135.0
 20
20621.50000000015
 30
0.0
  0
POINT
  5
61A19
330
5D84C
100
AcDbEntity
  8
DEFPOINTS
 62
     0
440
 16777216
100
AcDbPoint
 10
3135.0
 20
19421.50000000015
 30
0.0
  0
POINT
  5
61A1A
330
5D84C
100
AcDbEntity
  8
DEFPOINTS
 62
     0
440
 16777216
100
AcDbPoint
 10
3435.000000000052
 20
19421.50000000015
 30
0.0
  0
ENDBLK
  5
5D857
330
5D84C
100
AcDbEntity
  8
0
100
AcDbBlockEnd
  0
BLOCK
  5
5DB88
330
5DB7C
100
AcDbEntity
  8
0
100
AcDbBlockBegin
  2
*D10
 70
     1
 10
0.0
 20
0.0
 30
0.0
  3
*D10
  1

  0
LINE
  5
617A3
330
5DB7C
100
AcDbEntity
  8
D-STR-DIM
 62
     0
440
 16777216
370
    13
100
AcDbLine
 10
12522.5
 20
18421.50000000015
 30
0.0
 11
11790.0
 21
18421.50000000015
 31
0.0
  0
LINE
  5
617A4
330
5DB7C
100
AcDbEntity
  8
D-STR-DIM
 62
     0
440
 16777216
370
    13
100
AcDbLine
 10
12422.5
 20
18401.50000000015
 30
0.0
 11
11790.0
 21
18401.50000000015
 31
0.0
  0
LINE
  5
617A5
330
5DB7C
100
AcDbEntity
  8
D-STR-DIM
 62
     0
440
 16777216
370
    13
100
AcDbLine
 10
11815.0
 20
18461.50000000015
 30
0.0
 11
11815.0
 21
18501.50000000015
 31
0.0
  0
LINE
  5
617A6
330
5DB7C
100
AcDbEntity
  8
D-STR-DIM
 62
     0
440
 16777216
370
    13
100
AcDbLine
 10
11815.0
 20
18361.50000000015
 30
0.0
 11
11815.0
 21
18321.50000000015
 31
0.0
  0
LINE
  5
617A7
330
5DB7C
100
AcDbEntity
  8
D-STR-DIM
 62
     0
440
 16777216
370
    13
100
AcDbLine
 10
11815.0
 20
18421.50000000015
 30
0.0
 11
11815.0
 21
18401.50000000015
 31
0.0
  0
INSERT
  5
617A8
330
5DB7C
100
AcDbEntity
  8
D-STR-DIM
 62
     0
440
 16777216
370
    13
100
AcDbBlockReference
  2
_OPEN
 10
11815.0
 20
18421.50000000015
 30
0.0
 41
40.0
 42
40.0
 43
40.0
 50
270.0
  0
INSERT
  5
617A9
330
5DB7C
100
AcDbEntity
  8
D-STR-DIM
 62
     0
440
 16777216
370
    13
100
AcDbBlockReference
  2
_OPEN
 10
11815.0
 20
18401.50000000015
 30
0.0
 41
40.0
 42
40.0
 43
40.0
 50
90.0
  0
MTEXT
  5
617AA
330
5DB7C
100
AcDbEntity
  8
D-STR-DIM
 62
     0
440
 16777216
100
AcDbMText
 10
11767.5
 20
18411.50000000016
 30
0.0
 40
70.0
 41
0.0
 46
0.0
 71
     5
 72
     1
  1
20
 11
0.0000000000000001
 21
1.0
 31
0.0
 73
     1
 44
1.0
  0
POINT
  5
617AB
330
5DB7C
100
AcDbEntity
  8
DEFPOINTS
 62
     0
440
 16777216
100
AcDbPoint
 10
12535.0
 20
18421.50000000015
 30
0.0
  0
POINT
  5
617AC
330
5DB7C
100
AcDbEntity
  8
DEFPOINTS
 62
     0
440
 16777216
100
AcDbPoint
 10
12435.0
 20
18401.50000000015
 30
0.0
  0
POINT
  5
617AD
330
5DB7C
100
AcDbEntity
  8
DEFPOINTS
 62
     0
440
 16777216
100
AcDbPoint
 10
11815.0
 20
18401.50000000015
 30
0.0
  0
ENDBLK
  5
5DB89
330
5DB7C
100
AcDbEntity
  8
0
100
AcDbBlockEnd
  0
BLOCK
  5
5DB96
330
5DB8A
100
AcDbEntity
  8
0
100
AcDbBlockBegin
  2
*D11
 70
     1
 10
0.0
 20
0.0
 30
0.0
  3
*D11
  1

  0
LINE
  5
61798
330
5DB8A
100
AcDbEntity
  8
D-STR-DIM
 62
     0
440
 16777216
370
    13
100
AcDbLine
 10
12422.5
 20
18401.50000000015
 30
0.0
 11
11789.99999999988
 21
18401.50000000015
 31
0.0
  0
LINE
  5
61799
330
5DB8A
100
AcDbEntity
  8
D-STR-DIM
 62
     0
440
 16777216
370
    13
100
AcDbLine
 10
12422.5
 20
18301.50000000015
 30
0.0
 11
11789.99999999988
 21
18301.50000000015
 31
0.0
  0
LINE
  5
6179A
330
5DB8A
100
AcDbEntity
  8
D-STR-DIM
 62
     0
440
 16777216
370
    13
100
AcDbLine
 10
11814.99999999988
 20
18441.50000000015
 30
0.0
 11
11814.99999999988
 21
18481.50000000015
 31
0.0
  0
LINE
  5
6179B
330
5DB8A
100
AcDbEntity
  8
D-STR-DIM
 62
     0
440
 16777216
370
    13
100
AcDbLine
 10
11814.99999999988
 20
18261.50000000015
 30
0.0
 11
11814.99999999988
 21
18221.50000000015
 31
0.0
  0
LINE
  5
6179C
330
5DB8A
100
AcDbEntity
  8
D-STR-DIM
 62
     0
440
 16777216
370
    13
100
AcDbLine
 10
11814.99999999988
 20
18401.50000000015
 30
0.0
 11
11814.99999999988
 21
18301.50000000015
 31
0.0
  0
INSERT
  5
6179D
330
5DB8A
100
AcDbEntity
  8
D-STR-DIM
 62
     0
440
 16777216
370
    13
100
AcDbBlockReference
  2
_OPEN
 10
11814.99999999988
 20
18401.50000000015
 30
0.0
 41
40.0
 42
40.0
 43
40.0
 50
270.0
  0
INSERT
  5
6179E
330
5DB8A
100
AcDbEntity
  8
D-STR-DIM
 62
     0
440
 16777216
370
    13
100
AcDbBlockReference
  2
_OPEN
 10
11814.99999999988
 20
18301.50000000015
 30
0.0
 41
40.0
 42
40.0
 43
40.0
 50
90.0
  0
MTEXT
  5
6179F
330
5DB8A
100
AcDbEntity
  8
D-STR-DIM
 62
     0
440
 16777216
100
AcDbMText
 10
11884.99999999988
 20
18351.50000000016
 30
0.0
 40
70.0
 41
0.0
 46
0.0
 71
     5
 72
     1
  1
100
 11
0.0000000000000001
 21
1.0
 31
0.0
 73
     1
 44
1.0
  0
POINT
  5
617A0
330
5DB8A
100
AcDbEntity
  8
DEFPOINTS
 62
     0
440
 16777216
100
AcDbPoint
 10
12435.0
 20
18401.50000000015
 30
0.0
  0
POINT
  5
617A1
330
5DB8A
100
AcDbEntity
  8
DEFPOINTS
 62
     0
440
 16777216
100
AcDbPoint
 10
12435.0
 20
18301.50000000015
 30
0.0
  0
POINT
  5
617A2
330
5DB8A
100
AcDbEntity
  8
DEFPOINTS
 62
     0
440
 16777216
100
AcDbPoint
 10
11814.99999999988
 20
18301.50000000015
 30
0.0
  0
ENDBLK
  5
5DB97
330
5DB8A
100
AcDbEntity
  8
0
100
AcDbBlockEnd
  0
BLOCK
  5
5DBA2
330
5DB98
100
AcDbEntity
  8
0
100
AcDbBlockBegin
  2
*D12
 70
     1
 10
0.0
 20
0.0
 30
0.0
  3
*D12
  1

  0
LINE
  5
6178F
330
5DB98
100
AcDbEntity
  8
D-STR-DIM
 62
     0
440
 16777216
370
    13
100
AcDbLine
 10
12422.5
 20
18301.50000000015
 30
0.0
 11
11790.0
 21
18301.50000000015
 31
0.0
  0
LINE
  5
61790
330
5DB98
100
AcDbEntity
  8
D-STR-DIM
 62
     0
440
 16777216
370
    13
100
AcDbLine
 10
12422.5
 20
18101.50000000015
 30
0.0
 11
11790.0
 21
18101.50000000015
 31
0.0
  0
LINE
  5
61791
330
5DB98
100
AcDbEntity
  8
D-STR-DIM
 62
     0
440
 16777216
370
    13
100
AcDbLine
 10
11815.0
 20
18261.50000000015
 30
0.0
 11
11815.0
 21
18141.50000000015
 31
0.0
  0
INSERT
  5
61792
330
5DB98
100
AcDbEntity
  8
D-STR-DIM
 62
     0
440
 16777216
370
    13
100
AcDbBlockReference
  2
_OPEN
 10
11815.0
 20
18301.50000000015
 30
0.0
 41
40.0
 42
40.0
 43
40.0
 50
90.0
  0
INSERT
  5
61793
330
5DB98
100
AcDbEntity
  8
D-STR-DIM
 62
     0
440
 16777216
370
    13
100
AcDbBlockReference
  2
_OPEN
 10
11815.0
 20
18101.50000000015
 30
0.0
 41
40.0
 42
40.0
 43
40.0
 50
270.0
  0
MTEXT
  5
61794
330
5DB98
100
AcDbEntity
  8
D-STR-DIM
 62
     0
440
 16777216
100
AcDbMText
 10
11767.5
 20
18201.50000000015
 30
0.0
 40
70.0
 41
0.0
 46
0.0
 71
     5
 72
     1
  1
200
 11
0.0000000000000001
 21
1.0
 31
0.0
 73
     1
 44
1.0
  0
POINT
  5
61795
330
5DB98
100
AcDbEntity
  8
DEFPOINTS
 62
     0
440
 16777216
100
AcDbPoint
 10
12435.0
 20
18301.50000000015
 30
0.0
  0
POINT
  5
61796
330
5DB98
100
AcDbEntity
  8
DEFPOINTS
 62
     0
440
 16777216
100
AcDbPoint
 10
12435.0
 20
18101.50000000015
 30
0.0
  0
POINT
  5
61797
330
5DB98
100
AcDbEntity
  8
DEFPOINTS
 62
     0
440
 16777216
100
AcDbPoint
 10
11815.0
 20
18101.50000000015
 30
0.0
  0
ENDBLK
  5
5DBA3
330
5DB98
100
AcDbEntity
  8
0
100
AcDbBlockEnd
  0
BLOCK
  5
5DBAE
330
5DBA4
100
AcDbEntity
  8
0
100
AcDbBlockBegin
  2
*D13
 70
     1
 10
0.0
 20
0.0
 30
0.0
  3
*D13
  1

  0
LINE
  5
61786
330
5DBA4
100
AcDbEntity
  8
D-STR-DIM
 62
     0
440
 16777216
370
    13
100
AcDbLine
 10
12522.5
 20
18421.50000000015
 30
0.0
 11
11789.99999999993
 21
18421.50000000015
 31
0.0
  0
LINE
  5
61787
330
5DBA4
100
AcDbEntity
  8
D-STR-DIM
 62
     0
440
 16777216
370
    13
100
AcDbLine
 10
12522.5
 20
20921.50000000015
 30
0.0
 11
11789.99999999993
 21
20921.50000000015
 31
0.0
  0
LINE
  5
61788
330
5DBA4
100
AcDbEntity
  8
D-STR-DIM
 62
     0
440
 16777216
370
    13
100
AcDbLine
 10
11814.99999999993
 20
18461.50000000015
 30
0.0
 11
11814.99999999993
 21
20881.50000000015
 31
0.0
  0
INSERT
  5
61789
330
5DBA4
100
AcDbEntity
  8
D-STR-DIM
 62
     0
440
 16777216
370
    13
100
AcDbBlockReference
  2
_OPEN
 10
11814.99999999993
 20
18421.50000000015
 30
0.0
 41
40.0
 42
40.0
 43
40.0
 50
270.0
  0
INSERT
  5
6178A
330
5DBA4
100
AcDbEntity
  8
D-STR-DIM
 62
     0
440
 16777216
370
    13
100
AcDbBlockReference
  2
_OPEN
 10
11814.99999999993
 20
20921.50000000015
 30
0.0
 41
40.0
 42
40.0
 43
40.0
 50
90.0
  0
MTEXT
  5
6178B
330
5DBA4
100
AcDbEntity
  8
D-STR-DIM
 62
     0
440
 16777216
100
AcDbMText
 10
11767.49999999993
 20
19671.50000000015
 30
0.0
 40
70.0
 41
0.0
 46
0.0
 71
     5
 72
     1
  1
2500
 11
0.0000000000000001
 21
1.0
 31
0.0
 73
     1
 44
1.0
  0
POINT
  5
6178C
330
5DBA4
100
AcDbEntity
  8
DEFPOINTS
 62
     0
440
 16777216
100
AcDbPoint
 10
12535.0
 20
18421.50000000015
 30
0.0
  0
POINT
  5
6178D
330
5DBA4
100
AcDbEntity
  8
DEFPOINTS
 62
     0
440
 16777216
100
AcDbPoint
 10
12535.0
 20
20921.50000000015
 30
0.0
  0
POINT
  5
6178E
330
5DBA4
100
AcDbEntity
  8
DEFPOINTS
 62
     0
440
 16777216
100
AcDbPoint
 10
11814.99999999993
 20
20921.50000000015
 30
0.0
  0
ENDBLK
  5
5DBAF
330
5DBA4
100
AcDbEntity
  8
0
100
AcDbBlockEnd
  0
BLOCK
  5
5DBBA
330
5DBB0
100
AcDbEntity
  8
0
100
AcDbBlockBegin
  2
*D14
 70
     1
 10
0.0
 20
0.0
 30
0.0
  3
*D14
  1

  0
LINE
  5
6177D
330
5DBB0
100
AcDbEntity
  8
D-STR-DIM
 62
     0
440
 16777216
370
    13
100
AcDbLine
 10
12522.5
 20
18421.50000000015
 30
0.0
 11
11989.99999999994
 21
18421.50000000015
 31
0.0
  0
LINE
  5
6177E
330
5DBB0
100
AcDbEntity
  8
D-STR-DIM
 62
     0
440
 16777216
370
    13
100
AcDbLine
 10
12502.5
 20
19221.50000000015
 30
0.0
 11
11989.99999999994
 21
19221.50000000015
 31
0.0
  0
LINE
  5
6177F
330
5DBB0
100
AcDbEntity
  8
D-STR-DIM
 62
     0
440
 16777216
370
    13
100
AcDbLine
 10
12014.99999999994
 20
18461.50000000015
 30
0.0
 11
12014.99999999994
 21
19181.50000000015
 31
0.0
  0
INSERT
  5
61780
330
5DBB0
100
AcDbEntity
  8
D-STR-DIM
 62
     0
440
 16777216
370
    13
100
AcDbBlockReference
  2
_OPEN
 10
12014.99999999994
 20
18421.50000000015
 30
0.0
 41
40.0
 42
40.0
 43
40.0
 50
270.0
  0
INSERT
  5
61781
330
5DBB0
100
AcDbEntity
  8
D-STR-DIM
 62
     0
440
 16777216
370
    13
100
AcDbBlockReference
  2
_OPEN
 10
12014.99999999994
 20
19221.50000000015
 30
0.0
 41
40.0
 42
40.0
 43
40.0
 50
90.0
  0
MTEXT
  5
61782
330
5DBB0
100
AcDbEntity
  8
D-STR-DIM
 62
     0
440
 16777216
100
AcDbMText
 10
11967.49999999994
 20
18821.50000000016
 30
0.0
 40
70.0
 41
0.0
 46
0.0
 71
     5
 72
     1
  1
800
 11
0.0000000000000001
 21
1.0
 31
0.0
 73
     1
 44
1.0
  0
POINT
  5
61783
330
5DBB0
100
AcDbEntity
  8
DEFPOINTS
 62
     0
440
 16777216
100
AcDbPoint
 10
12535.0
 20
18421.50000000015
 30
0.0
  0
POINT
  5
61784
330
5DBB0
100
AcDbEntity
  8
DEFPOINTS
 62
     0
440
 16777216
100
AcDbPoint
 10
12515.0
 20
19221.50000000015
 30
0.0
  0
POINT
  5
61785
330
5DBB0
100
AcDbEntity
  8
DEFPOINTS
 62
     0
440
 16777216
100
AcDbPoint
 10
12014.99999999994
 20
19221.50000000015
 30
0.0
  0
ENDBLK
  5
5DBBB
330
5DBB0
100
AcDbEntity
  8
0
100
AcDbBlockEnd
  0
BLOCK
  5
5DBC6
330
5DBBC
100
AcDbEntity
  8
0
100
AcDbBlockBegin
  2
*D15
 70
     1
 10
0.0
 20
0.0
 30
0.0
  3
*D15
  1

  0
LINE
  5
61774
330
5DBBC
100
AcDbEntity
  8
D-STR-DIM
 62
     0
440
 16777216
370
    13
100
AcDbLine
 10
12435.0
 20
18089.00000000015
 30
0.0
 11
12435.0
 21
17376.50000000001
 31
0.0
  0
LINE
  5
61775
330
5DBBC
100
AcDbEntity
  8
D-STR-DIM
 62
     0
440
 16777216
370
    13
100
AcDbLine
 10
14385.0
 20
18089.00000000015
 30
0.0
 11
14385.0
 21
17376.50000000001
 31
0.0
  0
LINE
  5
61776
330
5DBBC
100
AcDbEntity
  8
D-STR-DIM
 62
     0
440
 16777216
370
    13
100
AcDbLine
 10
12475.0
 20
17401.50000000001
 30
0.0
 11
14345.0
 21
17401.50000000001
 31
0.0
  0
INSERT
  5
61777
330
5DBBC
100
AcDbEntity
  8
D-STR-DIM
 62
     0
440
 16777216
370
    13
100
AcDbBlockReference
  2
_OPEN
 10
12435.0
 20
17401.50000000001
 30
0.0
 41
40.0
 42
40.0
 43
40.0
 50
180.0
  0
INSERT
  5
61778
330
5DBBC
100
AcDbEntity
  8
D-STR-DIM
 62
     0
440
 16777216
370
    13
100
AcDbBlockReference
  2
_OPEN
 10
14385.0
 20
17401.50000000001
 30
0.0
 41
40.0
 42
40.0
 43
40.0
  0
MTEXT
  5
61779
330
5DBBC
100
AcDbEntity
  8
D-STR-DIM
 62
     0
440
 16777216
100
AcDbMText
 10
13410.0
 20
17449.00000000001
 30
0.0
 40
70.0
 41
0.0
 46
0.0
 71
     5
 72
     1
  1
1950
 73
     1
 44
1.0
  0
POINT
  5
6177A
330
5DBBC
100
AcDbEntity
  8
DEFPOINTS
 62
     0
440
 16777216
100
AcDbPoint
 10
12435.0
 20
18101.50000000015
 30
0.0
  0
POINT
  5
6177B
330
5DBBC
100
AcDbEntity
  8
DEFPOINTS
 62
     0
440
 16777216
100
AcDbPoint
 10
14385.0
 20
18101.50000000015
 30
0.0
  0
POINT
  5
6177C
330
5DBBC
100
AcDbEntity
  8
DEFPOINTS
 62
     0
440
 16777216
100
AcDbPoint
 10
14385.0
 20
17401.50000000001
 30
0.0
  0
ENDBLK
  5
5DBC7
330
5DBBC
100
AcDbEntity
  8
0
100
AcDbBlockEnd
  0
BLOCK
  5
5DBD4
330
5DBC8
100
AcDbEntity
  8
0
100
AcDbBlockBegin
  2
*D16
 70
     1
 10
0.0
 20
0.0
 30
0.0
  3
*D16
  1

  0
LINE
  5
61769
330
5DBC8
100
AcDbEntity
  8
D-STR-DIM
 62
     0
440
 16777216
370
    13
100
AcDbLine
 10
14285.0
 20
18089.00000000015
 30
0.0
 11
14285.0
 21
17576.49999999999
 31
0.0
  0
LINE
  5
6176A
330
5DBC8
100
AcDbEntity
  8
D-STR-DIM
 62
     0
440
 16777216
370
    13
100
AcDbLine
 10
14385.0
 20
18089.00000000015
 30
0.0
 11
14385.0
 21
17576.49999999999
 31
0.0
  0
LINE
  5
6176B
330
5DBC8
100
AcDbEntity
  8
D-STR-DIM
 62
     0
440
 16777216
370
    13
100
AcDbLine
 10
14245.0
 20
17601.49999999999
 30
0.0
 11
14205.0
 21
17601.49999999999
 31
0.0
  0
LINE
  5
6176C
330
5DBC8
100
AcDbEntity
  8
D-STR-DIM
 62
     0
440
 16777216
370
    13
100
AcDbLine
 10
14425.0
 20
17601.49999999999
 30
0.0
 11
14465.0
 21
17601.49999999999
 31
0.0
  0
LINE
  5
6176D
330
5DBC8
100
AcDbEntity
  8
D-STR-DIM
 62
     0
440
 16777216
370
    13
100
AcDbLine
 10
14285.0
 20
17601.49999999999
 30
0.0
 11
14385.0
 21
17601.49999999999
 31
0.0
  0
INSERT
  5
6176E
330
5DBC8
100
AcDbEntity
  8
D-STR-DIM
 62
     0
440
 16777216
370
    13
100
AcDbBlockReference
  2
_OPEN
 10
14285.0
 20
17601.49999999999
 30
0.0
 41
40.0
 42
40.0
 43
40.0
  0
INSERT
  5
6176F
330
5DBC8
100
AcDbEntity
  8
D-STR-DIM
 62
     0
440
 16777216
370
    13
100
AcDbBlockReference
  2
_OPEN
 10
14385.0
 20
17601.49999999999
 30
0.0
 41
40.0
 42
40.0
 43
40.0
 50
180.0
  0
MTEXT
  5
61770
330
5DBC8
100
AcDbEntity
  8
D-STR-DIM
 62
     0
440
 16777216
100
AcDbMText
 10
14335.0
 20
17648.99999999999
 30
0.0
 40
70.0
 41
0.0
 46
0.0
 71
     5
 72
     1
  1
100
 73
     1
 44
1.0
  0
POINT
  5
61771
330
5DBC8
100
AcDbEntity
  8
DEFPOINTS
 62
     0
440
 16777216
100
AcDbPoint
 10
14285.0
 20
18101.50000000015
 30
0.0
  0
POINT
  5
61772
330
5DBC8
100
AcDbEntity
  8
DEFPOINTS
 62
     0
440
 16777216
100
AcDbPoint
 10
14385.0
 20
18101.50000000015
 30
0.0
  0
POINT
  5
61773
330
5DBC8
100
AcDbEntity
  8
DEFPOINTS
 62
     0
440
 16777216
100
AcDbPoint
 10
14385.0
 20
17601.49999999999
 30
0.0
  0
ENDBLK
  5
5DBD5
330
5DBC8
100
AcDbEntity
  8
0
100
AcDbBlockEnd
  0
BLOCK
  5
5DBE0
330
5DBD6
100
AcDbEntity
  8
0
100
AcDbBlockBegin
  2
*D17
 70
     1
 10
0.0
 20
0.0
 30
0.0
  3
*D17
  1

  0
LINE
  5
61760
330
5DBD6
100
AcDbEntity
  8
D-STR-DIM
 62
     0
440
 16777216
370
    13
100
AcDbLine
 10
12535.0
 20
18089.00000000015
 30
0.0
 11
12535.0
 21
17576.49999999999
 31
0.0
  0
LINE
  5
61761
330
5DBD6
100
AcDbEntity
  8
D-STR-DIM
 62
     0
440
 16777216
370
    13
100
AcDbLine
 10
14285.0
 20
18089.00000000015
 30
0.0
 11
14285.0
 21
17576.49999999999
 31
0.0
  0
LINE
  5
61762
330
5DBD6
100
AcDbEntity
  8
D-STR-DIM
 62
     0
440
 16777216
370
    13
100
AcDbLine
 10
12575.0
 20
17601.49999999999
 30
0.0
 11
14245.0
 21
17601.49999999999
 31
0.0
  0
INSERT
  5
61763
330
5DBD6
100
AcDbEntity
  8
D-STR-DIM
 62
     0
440
 16777216
370
    13
100
AcDbBlockReference
  2
_OPEN
 10
12535.0
 20
17601.49999999999
 30
0.0
 41
40.0
 42
40.0
 43
40.0
 50
180.0
  0
INSERT
  5
61764
330
5DBD6
100
AcDbEntity
  8
D-STR-DIM
 62
     0
440
 16777216
370
    13
100
AcDbBlockReference
  2
_OPEN
 10
14285.0
 20
17601.49999999999
 30
0.0
 41
40.0
 42
40.0
 43
40.0
  0
MTEXT
  5
61765
330
5DBD6
100
AcDbEntity
  8
D-STR-DIM
 62
     0
440
 16777216
100
AcDbMText
 10
13410.0
 20
17648.99999999999
 30
0.0
 40
70.0
 41
0.0
 46
0.0
 71
     5
 72
     1
  1
1750
 73
     1
 44
1.0
  0
POINT
  5
61766
330
5DBD6
100
AcDbEntity
  8
DEFPOINTS
 62
     0
440
 16777216
100
AcDbPoint
 10
12535.0
 20
18101.50000000015
 30
0.0
  0
POINT
  5
61767
330
5DBD6
100
AcDbEntity
  8
DEFPOINTS
 62
     0
440
 16777216
100
AcDbPoint
 10
14285.0
 20
18101.50000000015
 30
0.0
  0
POINT
  5
61768
330
5DBD6
100
AcDbEntity
  8
DEFPOINTS
 62
     0
440
 16777216
100
AcDbPoint
 10
14285.0
 20
17601.49999999999
 30
0.0
  0
ENDBLK
  5
5DBE1
330
5DBD6
100
AcDbEntity
  8
0
100
AcDbBlockEnd
  0
BLOCK
  5
5DBEE
330
5DBE2
100
AcDbEntity
  8
0
100
AcDbBlockBegin
  2
*D18
 70
     1
 10
0.0
 20
0.0
 30
0.0
  3
*D18
  1

  0
LINE
  5
61755
330
5DBE2
100
AcDbEntity
  8
D-STR-DIM
 62
     0
440
 16777216
370
    13
100
AcDbLine
 10
12435.0
 20
18089.00000000015
 30
0.0
 11
12435.0
 21
17576.49999999999
 31
0.0
  0
LINE
  5
61756
330
5DBE2
100
AcDbEntity
  8
D-STR-DIM
 62
     0
440
 16777216
370
    13
100
AcDbLine
 10
12535.0
 20
18089.00000000015
 30
0.0
 11
12535.0
 21
17576.49999999999
 31
0.0
  0
LINE
  5
61757
330
5DBE2
100
AcDbEntity
  8
D-STR-DIM
 62
     0
440
 16777216
370
    13
100
AcDbLine
 10
12395.0
 20
17601.49999999999
 30
0.0
 11
12355.0
 21
17601.49999999999
 31
0.0
  0
LINE
  5
61758
330
5DBE2
100
AcDbEntity
  8
D-STR-DIM
 62
     0
440
 16777216
370
    13
100
AcDbLine
 10
12575.0
 20
17601.49999999999
 30
0.0
 11
12615.0
 21
17601.49999999999
 31
0.0
  0
LINE
  5
61759
330
5DBE2
100
AcDbEntity
  8
D-STR-DIM
 62
     0
440
 16777216
370
    13
100
AcDbLine
 10
12435.0
 20
17601.49999999999
 30
0.0
 11
12535.0
 21
17601.49999999999
 31
0.0
  0
INSERT
  5
6175A
330
5DBE2
100
AcDbEntity
  8
D-STR-DIM
 62
     0
440
 16777216
370
    13
100
AcDbBlockReference
  2
_OPEN
 10
12435.0
 20
17601.49999999999
 30
0.0
 41
40.0
 42
40.0
 43
40.0
  0
INSERT
  5
6175B
330
5DBE2
100
AcDbEntity
  8
D-STR-DIM
 62
     0
440
 16777216
370
    13
100
AcDbBlockReference
  2
_OPEN
 10
12535.0
 20
17601.49999999999
 30
0.0
 41
40.0
 42
40.0
 43
40.0
 50
180.0
  0
MTEXT
  5
6175C
330
5DBE2
100
AcDbEntity
  8
D-STR-DIM
 62
     0
440
 16777216
100
AcDbMText
 10
12485.0
 20
17648.99999999999
 30
0.0
 40
70.0
 41
0.0
 46
0.0
 71
     5
 72
     1
  1
100
 73
     1
 44
1.0
  0
POINT
  5
6175D
330
5DBE2
100
AcDbEntity
  8
DEFPOINTS
 62
     0
440
 16777216
100
AcDbPoint
 10
12435.0
 20
18101.50000000015
 30
0.0
  0
POINT
  5
6175E
330
5DBE2
100
AcDbEntity
  8
DEFPOINTS
 62
     0
440
 16777216
100
AcDbPoint
 10
12535.0
 20
18101.50000000015
 30
0.0
  0
POINT
  5
6175F
330
5DBE2
100
AcDbEntity
  8
DEFPOINTS
 62
     0
440
 16777216
100
AcDbPoint
 10
12535.0
 20
17601.49999999999
 30
0.0
  0
ENDBLK
  5
5DBEF
330
5DBE2
100
AcDbEntity
  8
0
100
AcDbBlockEnd
  0
BLOCK
  5
5DBFA
330
5DBF0
100
AcDbEntity
  8
0
100
AcDbBlockBegin
  2
*D19
 70
     1
 10
0.0
 20
0.0
 30
0.0
  3
*D19
  1

  0
LINE
  5
6174C
330
5DBF0
100
AcDbEntity
  8
D-STR-DIM
 62
     0
440
 16777216
370
    13
100
AcDbLine
 10
12535.0
 20
18089.00000000015
 30
0.0
 11
12535.0
 21
17776.49999999998
 31
0.0
  0
LINE
  5
6174D
330
5DBF0
100
AcDbEntity
  8
D-STR-DIM
 62
     0
440
 16777216
370
    13
100
AcDbLine
 10
12720.0
 20
18089.00000000015
 30
0.0
 11
12720.0
 21
17776.49999999998
 31
0.0
  0
LINE
  5
6174E
330
5DBF0
100
AcDbEntity
  8
D-STR-DIM
 62
     0
440
 16777216
370
    13
100
AcDbLine
 10
12575.0
 20
17801.49999999998
 30
0.0
 11
12680.0
 21
17801.49999999998
 31
0.0
  0
INSERT
  5
6174F
330
5DBF0
100
AcDbEntity
  8
D-STR-DIM
 62
     0
440
 16777216
370
    13
100
AcDbBlockReference
  2
_OPEN
 10
12535.0
 20
17801.49999999998
 30
0.0
 41
40.0
 42
40.0
 43
40.0
 50
180.0
  0
INSERT
  5
61750
330
5DBF0
100
AcDbEntity
  8
D-STR-DIM
 62
     0
440
 16777216
370
    13
100
AcDbBlockReference
  2
_OPEN
 10
12720.0
 20
17801.49999999998
 30
0.0
 41
40.0
 42
40.0
 43
40.0
  0
MTEXT
  5
61751
330
5DBF0
100
AcDbEntity
  8
D-STR-DIM
 62
     0
440
 16777216
100
AcDbMText
 10
12627.5
 20
17848.99999999998
 30
0.0
 40
70.0
 41
0.0
 46
0.0
 71
     5
 72
     1
  1
185
 73
     1
 44
1.0
  0
POINT
  5
61752
330
5DBF0
100
AcDbEntity
  8
DEFPOINTS
 62
     0
440
 16777216
100
AcDbPoint
 10
12535.0
 20
18101.50000000015
 30
0.0
  0
POINT
  5
61753
330
5DBF0
100
AcDbEntity
  8
DEFPOINTS
 62
     0
440
 16777216
100
AcDbPoint
 10
12720.0
 20
18101.50000000015
 30
0.0
  0
POINT
  5
61754
330
5DBF0
100
AcDbEntity
  8
DEFPOINTS
 62
     0
440
 16777216
100
AcDbPoint
 10
12720.0
 20
17801.49999999998
 30
0.0
  0
ENDBLK
  5
5DBFB
330
5DBF0
100
AcDbEntity
  8
0
100
AcDbBlockEnd
  0
BLOCK
  5
5DC06
330
5DBFC
100
AcDbEntity
  8
0
100
AcDbBlockBegin
  2
*D20
 70
     1
 10
0.0
 20
0.0
 30
0.0
  3
*D20
  1

  0
LINE
  5
61743
330
5DBFC
100
AcDbEntity
  8
D-STR-DIM
 62
     0
440
 16777216
370
    13
100
AcDbLine
 10
12522.5
 20
18421.50000000015
 30
0.0
 11
12210.0
 21
18421.50000000015
 31
0.0
  0
LINE
  5
61744
330
5DBFC
100
AcDbEntity
  8
D-STR-DIM
 62
     0
440
 16777216
370
    13
100
AcDbLine
 10
12522.5
 20
18606.50000000015
 30
0.0
 11
12210.0
 21
18606.50000000015
 31
0.0
  0
LINE
  5
61745
330
5DBFC
100
AcDbEntity
  8
D-STR-DIM
 62
     0
440
 16777216
370
    13
100
AcDbLine
 10
12235.0
 20
18461.50000000015
 30
0.0
 11
12235.0
 21
18566.50000000015
 31
0.0
  0
INSERT
  5
61746
330
5DBFC
100
AcDbEntity
  8
D-STR-DIM
 62
     0
440
 16777216
370
    13
100
AcDbBlockReference
  2
_OPEN
 10
12235.0
 20
18421.50000000015
 30
0.0
 41
40.0
 42
40.0
 43
40.0
 50
270.0
  0
INSERT
  5
61747
330
5DBFC
100
AcDbEntity
  8
D-STR-DIM
 62
     0
440
 16777216
370
    13
100
AcDbBlockReference
  2
_OPEN
 10
12235.0
 20
18606.50000000015
 30
0.0
 41
40.0
 42
40.0
 43
40.0
 50
90.0
  0
MTEXT
  5
61748
330
5DBFC
100
AcDbEntity
  8
D-STR-DIM
 62
     0
440
 16777216
100
AcDbMText
 10
12187.5
 20
18514.00000000015
 30
0.0
 40
70.0
 41
0.0
 46
0.0
 71
     5
 72
     1
  1
185
 11
0.0000000000000001
 21
1.0
 31
0.0
 73
     1
 44
1.0
  0
POINT
  5
61749
330
5DBFC
100
AcDbEntity
  8
DEFPOINTS
 62
     0
440
 16777216
100
AcDbPoint
 10
12535.0
 20
18421.50000000015
 30
0.0
  0
POINT
  5
6174A
330
5DBFC
100
AcDbEntity
  8
DEFPOINTS
 62
     0
440
 16777216
100
AcDbPoint
 10
12535.0
 20
18606.50000000015
 30
0.0
  0
POINT
  5
6174B
330
5DBFC
100
AcDbEntity
  8
DEFPOINTS
 62
     0
440
 16777216
100
AcDbPoint
 10
12235.0
 20
18606.50000000015
 30
0.0
  0
ENDBLK
  5
5DC07
330
5DBFC
100
AcDbEntity
  8
0
100
AcDbBlockEnd
  0
BLOCK
  5
5DC14
330
5DC08
100
AcDbEntity
  8
0
100
AcDbBlockBegin
  2
*D21
 70
     1
 10
0.0
 20
0.0
 30
0.0
  3
*D21
  1

  0
LINE
  5
61738
330
5DC08
100
AcDbEntity
  8
D-STR-DIM
 62
     0
440
 16777216
370
    13
100
AcDbLine
 10
14297.5
 20
18421.50000000015
 30
0.0
 11
14609.99999999947
 21
18421.50000000015
 31
0.0
  0
LINE
  5
61739
330
5DC08
100
AcDbEntity
  8
D-STR-DIM
 62
     0
440
 16777216
370
    13
100
AcDbLine
 10
14297.5
 20
18531.50000000015
 30
0.0
 11
14609.99999999947
 21
18531.50000000015
 31
0.0
  0
LINE
  5
6173A
330
5DC08
100
AcDbEntity
  8
D-STR-DIM
 62
     0
440
 16777216
370
    13
100
AcDbLine
 10
14584.99999999947
 20
18381.50000000015
 30
0.0
 11
14584.99999999947
 21
18341.50000000015
 31
0.0
  0
LINE
  5
6173B
330
5DC08
100
AcDbEntity
  8
D-STR-DIM
 62
     0
440
 16777216
370
    13
100
AcDbLine
 10
14584.99999999947
 20
18571.50000000015
 30
0.0
 11
14584.99999999947
 21
18611.50000000015
 31
0.0
  0
LINE
  5
6173C
330
5DC08
100
AcDbEntity
  8
D-STR-DIM
 62
     0
440
 16777216
370
    13
100
AcDbLine
 10
14584.99999999947
 20
18421.50000000015
 30
0.0
 11
14584.99999999947
 21
18531.50000000015
 31
0.0
  0
INSERT
  5
6173D
330
5DC08
100
AcDbEntity
  8
D-STR-DIM
 62
     0
440
 16777216
370
    13
100
AcDbBlockReference
  2
_OPEN
 10
14584.99999999947
 20
18421.50000000015
 30
0.0
 41
40.0
 42
40.0
 43
40.0
 50
90.0
  0
INSERT
  5
6173E
330
5DC08
100
AcDbEntity
  8
D-STR-DIM
 62
     0
440
 16777216
370
    13
100
AcDbBlockReference
  2
_OPEN
 10
14584.99999999947
 20
18531.50000000015
 30
0.0
 41
40.0
 42
40.0
 43
40.0
 50
270.0
  0
MTEXT
  5
6173F
330
5DC08
100
AcDbEntity
  8
D-STR-DIM
 62
     0
440
 16777216
100
AcDbMText
 10
14537.49999999947
 20
18476.50000000015
 30
0.0
 40
70.0
 41
0.0
 46
0.0
 71
     5
 72
     1
  1
110
 11
0.0000000000000001
 21
1.0
 31
0.0
 73
     1
 44
1.0
  0
POINT
  5
61740
330
5DC08
100
AcDbEntity
  8
DEFPOINTS
 62
     0
440
 16777216
100
AcDbPoint
 10
14285.0
 20
18421.50000000015
 30
0.0
  0
POINT
  5
61741
330
5DC08
100
AcDbEntity
  8
DEFPOINTS
 62
     0
440
 16777216
100
AcDbPoint
 10
14285.0
 20
18531.50000000015
 30
0.0
  0
POINT
  5
61742
330
5DC08
100
AcDbEntity
  8
DEFPOINTS
 62
     0
440
 16777216
100
AcDbPoint
 10
14584.99999999947
 20
18531.50000000015
 30
0.0
  0
ENDBLK
  5
5DC15
330
5DC08
100
AcDbEntity
  8
0
100
AcDbBlockEnd
  0
BLOCK
  5
5DC22
330
5DC16
100
AcDbEntity
  8
0
100
AcDbBlockBegin
  2
*D22
 70
     1
 10
0.0
 20
0.0
 30
0.0
  3
*D22
  1

  0
LINE
  5
6172D
330
5DC16
100
AcDbEntity
  8
D-STR-DIM
 62
     0
440
 16777216
370
    13
100
AcDbLine
 10
12535.0
 20
20934.00000000015
 30
0.0
 11
12535.0
 21
21246.50000000023
 31
0.0
  0
LINE
  5
6172E
330
5DC16
100
AcDbEntity
  8
D-STR-DIM
 62
     0
440
 16777216
370
    13
100
AcDbLine
 10
12645.0
 20
20934.00000000015
 30
0.0
 11
12645.0
 21
21246.50000000023
 31
0.0
  0
LINE
  5
6172F
330
5DC16
100
AcDbEntity
  8
D-STR-DIM
 62
     0
440
 16777216
370
    13
100
AcDbLine
 10
12495.0
 20
21221.50000000023
 30
0.0
 11
12455.0
 21
21221.50000000023
 31
0.0
  0
LINE
  5
61730
330
5DC16
100
AcDbEntity
  8
D-STR-DIM
 62
     0
440
 16777216
370
    13
100
AcDbLine
 10
12685.0
 20
21221.50000000023
 30
0.0
 11
12725.0
 21
21221.50000000023
 31
0.0
  0
LINE
  5
61731
330
5DC16
100
AcDbEntity
  8
D-STR-DIM
 62
     0
440
 16777216
370
    13
100
AcDbLine
 10
12535.0
 20
21221.50000000023
 30
0.0
 11
12645.0
 21
21221.50000000023
 31
0.0
  0
INSERT
  5
61732
330
5DC16
100
AcDbEntity
  8
D-STR-DIM
 62
     0
440
 16777216
370
    13
100
AcDbBlockReference
  2
_OPEN
 10
12535.0
 20
21221.50000000023
 30
0.0
 41
40.0
 42
40.0
 43
40.0
  0
INSERT
  5
61733
330
5DC16
100
AcDbEntity
  8
D-STR-DIM
 62
     0
440
 16777216
370
    13
100
AcDbBlockReference
  2
_OPEN
 10
12645.0
 20
21221.50000000023
 30
0.0
 41
40.0
 42
40.0
 43
40.0
 50
180.0
  0
MTEXT
  5
61734
330
5DC16
100
AcDbEntity
  8
D-STR-DIM
 62
     0
440
 16777216
100
AcDbMText
 10
12590.0
 20
21269.00000000023
 30
0.0
 40
70.0
 41
0.0
 46
0.0
 71
     5
 72
     1
  1
110
 73
     1
 44
1.0
  0
POINT
  5
61735
330
5DC16
100
AcDbEntity
  8
DEFPOINTS
 62
     0
440
 16777216
100
AcDbPoint
 10
12535.0
 20
20921.50000000015
 30
0.0
  0
POINT
  5
61736
330
5DC16
100
AcDbEntity
  8
DEFPOINTS
 62
     0
440
 16777216
100
AcDbPoint
 10
12645.0
 20
20921.50000000015
 30
0.0
  0
POINT
  5
61737
330
5DC16
100
AcDbEntity
  8
DEFPOINTS
 62
     0
440
 16777216
100
AcDbPoint
 10
12645.0
 20
21221.50000000023
 30
0.0
  0
ENDBLK
  5
5DC23
330
5DC16
100
AcDbEntity
  8
0
100
AcDbBlockEnd
  0
BLOCK
  5
5DC30
330
5DC24
100
AcDbEntity
  8
0
100
AcDbBlockBegin
  2
*D23
 70
     1
 10
0.0
 20
0.0
 30
0.0
  3
*D23
  1

  0
LINE
  5
61722
330
5DC24
100
AcDbEntity
  8
D-STR-DIM
 62
     0
440
 16777216
370
    13
100
AcDbLine
 10
7582.5
 20
18621.50000000015
 30
0.0
 11
6849.999999999825
 21
18621.50000000015
 31
0.0
  0
LINE
  5
61723
330
5DC24
100
AcDbEntity
  8
D-STR-DIM
 62
     0
440
 16777216
370
    13
100
AcDbLine
 10
7482.5
 20
18601.50000000015
 30
0.0
 11
6849.999999999825
 21
18601.50000000015
 31
0.0
  0
LINE
  5
61724
330
5DC24
100
AcDbEntity
  8
D-STR-DIM
 62
     0
440
 16777216
370
    13
100
AcDbLine
 10
6874.999999999825
 20
18661.50000000015
 30
0.0
 11
6874.999999999825
 21
18701.50000000015
 31
0.0
  0
LINE
  5
61725
330
5DC24
100
AcDbEntity
  8
D-STR-DIM
 62
     0
440
 16777216
370
    13
100
AcDbLine
 10
6874.999999999825
 20
18561.50000000015
 30
0.0
 11
6874.999999999825
 21
18521.50000000015
 31
0.0
  0
LINE
  5
61726
330
5DC24
100
AcDbEntity
  8
D-STR-DIM
 62
     0
440
 16777216
370
    13
100
AcDbLine
 10
6874.999999999825
 20
18621.50000000015
 30
0.0
 11
6874.999999999825
 21
18601.50000000015
 31
0.0
  0
INSERT
  5
61727
330
5DC24
100
AcDbEntity
  8
D-STR-DIM
 62
     0
440
 16777216
370
    13
100
AcDbBlockReference
  2
_OPEN
 10
6874.999999999825
 20
18621.50000000015
 30
0.0
 41
40.0
 42
40.0
 43
40.0
 50
270.0
  0
INSERT
  5
61728
330
5DC24
100
AcDbEntity
  8
D-STR-DIM
 62
     0
440
 16777216
370
    13
100
AcDbBlockReference
  2
_OPEN
 10
6874.999999999825
 20
18601.50000000015
 30
0.0
 41
40.0
 42
40.0
 43
40.0
 50
90.0
  0
MTEXT
  5
61729
330
5DC24
100
AcDbEntity
  8
D-STR-DIM
 62
     0
440
 16777216
100
AcDbMText
 10
6827.499999999822
 20
18611.50000000015
 30
0.0
 40
70.0
 41
0.0
 46
0.0
 71
     5
 72
     1
  1
20
 11
0.0000000000000001
 21
1.0
 31
0.0
 73
     1
 44
1.0
  0
POINT
  5
6172A
330
5DC24
100
AcDbEntity
  8
DEFPOINTS
 62
     0
440
 16777216
100
AcDbPoint
 10
7595.0
 20
18621.50000000015
 30
0.0
  0
POINT
  5
6172B
330
5DC24
100
AcDbEntity
  8
DEFPOINTS
 62
     0
440
 16777216
100
AcDbPoint
 10
7495.0
 20
18601.50000000015
 30
0.0
  0
POINT
  5
6172C
330
5DC24
100
AcDbEntity
  8
DEFPOINTS
 62
     0
440
 16777216
100
AcDbPoint
 10
6874.999999999825
 20
18601.50000000015
 30
0.0
  0
ENDBLK
  5
5DC31
330
5DC24
100
AcDbEntity
  8
0
100
AcDbBlockEnd
  0
BLOCK
  5
5DC3E
330
5DC32
100
AcDbEntity
  8
0
100
AcDbBlockBegin
  2
*D24
 70
     1
 10
0.0
 20
0.0
 30
0.0
  3
*D24
  1

  0
LINE
  5
61717
330
5DC32
100
AcDbEntity
  8
D-STR-DIM
 62
     0
440
 16777216
370
    13
100
AcDbLine
 10
7482.5
 20
18601.50000000015
 30
0.0
 11
6850.0
 21
18601.50000000015
 31
0.0
  0
LINE
  5
61718
330
5DC32
100
AcDbEntity
  8
D-STR-DIM
 62
     0
440
 16777216
370
    13
100
AcDbLine
 10
7482.5
 20
18501.50000000015
 30
0.0
 11
6850.0
 21
18501.50000000015
 31
0.0
  0
LINE
  5
61719
330
5DC32
100
AcDbEntity
  8
D-STR-DIM
 62
     0
440
 16777216
370
    13
100
AcDbLine
 10
6875.0
 20
18641.50000000015
 30
0.0
 11
6875.0
 21
18681.50000000015
 31
0.0
  0
LINE
  5
6171A
330
5DC32
100
AcDbEntity
  8
D-STR-DIM
 62
     0
440
 16777216
370
    13
100
AcDbLine
 10
6875.0
 20
18461.50000000015
 30
0.0
 11
6874.999999999999
 21
18421.50000000015
 31
0.0
  0
LINE
  5
6171B
330
5DC32
100
AcDbEntity
  8
D-STR-DIM
 62
     0
440
 16777216
370
    13
100
AcDbLine
 10
6875.0
 20
18601.50000000015
 30
0.0
 11
6875.0
 21
18501.50000000015
 31
0.0
  0
INSERT
  5
6171C
330
5DC32
100
AcDbEntity
  8
D-STR-DIM
 62
     0
440
 16777216
370
    13
100
AcDbBlockReference
  2
_OPEN
 10
6875.0
 20
18601.50000000015
 30
0.0
 41
40.0
 42
40.0
 43
40.0
 50
270.0
  0
INSERT
  5
6171D
330
5DC32
100
AcDbEntity
  8
D-STR-DIM
 62
     0
440
 16777216
370
    13
100
AcDbBlockReference
  2
_OPEN
 10
6875.0
 20
18501.50000000015
 30
0.0
 41
40.0
 42
40.0
 43
40.0
 50
90.0
  0
MTEXT
  5
6171E
330
5DC32
100
AcDbEntity
  8
D-STR-DIM
 62
     0
440
 16777216
100
AcDbMText
 10
6944.999999999996
 20
18551.50000000015
 30
0.0
 40
70.0
 41
0.0
 46
0.0
 71
     5
 72
     1
  1
100
 11
0.0000000000000001
 21
1.0
 31
0.0
 73
     1
 44
1.0
  0
POINT
  5
6171F
330
5DC32
100
AcDbEntity
  8
DEFPOINTS
 62
     0
440
 16777216
100
AcDbPoint
 10
7495.0
 20
18601.50000000015
 30
0.0
  0
POINT
  5
61720
330
5DC32
100
AcDbEntity
  8
DEFPOINTS
 62
     0
440
 16777216
100
AcDbPoint
 10
7495.0
 20
18501.50000000015
 30
0.0
  0
POINT
  5
61721
330
5DC32
100
AcDbEntity
  8
DEFPOINTS
 62
     0
440
 16777216
100
AcDbPoint
 10
6875.0
 20
18501.50000000015
 30
0.0
  0
ENDBLK
  5
5DC3F
330
5DC32
100
AcDbEntity
  8
0
100
AcDbBlockEnd
  0
BLOCK
  5
5DC4A
330
5DC40
100
AcDbEntity
  8
0
100
AcDbBlockBegin
  2
*D25
 70
     1
 10
0.0
 20
0.0
 30
0.0
  3
*D25
  1

  0
LINE
  5
6170E
330
5DC40
100
AcDbEntity
  8
D-STR-DIM
 62
     0
440
 16777216
370
    13
100
AcDbLine
 10
7482.5
 20
18501.50000000015
 30
0.0
 11
6849.999999999972
 21
18501.50000000015
 31
0.0
  0
LINE
  5
6170F
330
5DC40
100
AcDbEntity
  8
D-STR-DIM
 62
     0
440
 16777216
370
    13
100
AcDbLine
 10
7482.5
 20
18301.50000000015
 30
0.0
 11
6849.999999999972
 21
18301.50000000015
 31
0.0
  0
LINE
  5
61710
330
5DC40
100
AcDbEntity
  8
D-STR-DIM
 62
     0
440
 16777216
370
    13
100
AcDbLine
 10
6874.999999999971
 20
18461.50000000015
 30
0.0
 11
6874.999999999971
 21
18341.50000000015
 31
0.0
  0
INSERT
  5
61711
330
5DC40
100
AcDbEntity
  8
D-STR-DIM
 62
     0
440
 16777216
370
    13
100
AcDbBlockReference
  2
_OPEN
 10
6874.999999999971
 20
18501.50000000015
 30
0.0
 41
40.0
 42
40.0
 43
40.0
 50
90.0
  0
INSERT
  5
61712
330
5DC40
100
AcDbEntity
  8
D-STR-DIM
 62
     0
440
 16777216
370
    13
100
AcDbBlockReference
  2
_OPEN
 10
6874.999999999971
 20
18301.50000000015
 30
0.0
 41
40.0
 42
40.0
 43
40.0
 50
270.0
  0
MTEXT
  5
61713
330
5DC40
100
AcDbEntity
  8
D-STR-DIM
 62
     0
440
 16777216
100
AcDbMText
 10
6827.499999999968
 20
18401.50000000015
 30
0.0
 40
70.0
 41
0.0
 46
0.0
 71
     5
 72
     1
  1
200
 11
0.0000000000000001
 21
1.0
 31
0.0
 73
     1
 44
1.0
  0
POINT
  5
61714
330
5DC40
100
AcDbEntity
  8
DEFPOINTS
 62
     0
440
 16777216
100
AcDbPoint
 10
7495.0
 20
18501.50000000015
 30
0.0
  0
POINT
  5
61715
330
5DC40
100
AcDbEntity
  8
DEFPOINTS
 62
     0
440
 16777216
100
AcDbPoint
 10
7495.0
 20
18301.50000000015
 30
0.0
  0
POINT
  5
61716
330
5DC40
100
AcDbEntity
  8
DEFPOINTS
 62
     0
440
 16777216
100
AcDbPoint
 10
6874.999999999971
 20
18301.50000000015
 30
0.0
  0
ENDBLK
  5
5DC4B
330
5DC40
100
AcDbEntity
  8
0
100
AcDbBlockEnd
  0
BLOCK
  5
5DC56
330
5DC4C
100
AcDbEntity
  8
0
100
AcDbBlockBegin
  2
*D26
 70
     1
 10
0.0
 20
0.0
 30
0.0
  3
*D26
  1

  0
LINE
  5
61705
330
5DC4C
100
AcDbEntity
  8
D-STR-DIM
 62
     0
440
 16777216
370
    13
100
AcDbLine
 10
7582.5
 20
18621.50000000015
 30
0.0
 11
6849.999999999934
 21
18621.50000000015
 31
0.0
  0
LINE
  5
61706
330
5DC4C
100
AcDbEntity
  8
D-STR-DIM
 62
     0
440
 16777216
370
    13
100
AcDbLine
 10
7582.5
 20
20921.50000000015
 30
0.0
 11
6849.999999999934
 21
20921.50000000015
 31
0.0
  0
LINE
  5
61707
330
5DC4C
100
AcDbEntity
  8
D-STR-DIM
 62
     0
440
 16777216
370
    13
100
AcDbLine
 10
6874.999999999935
 20
18661.50000000015
 30
0.0
 11
6874.999999999935
 21
20881.50000000015
 31
0.0
  0
INSERT
  5
61708
330
5DC4C
100
AcDbEntity
  8
D-STR-DIM
 62
     0
440
 16777216
370
    13
100
AcDbBlockReference
  2
_OPEN
 10
6874.999999999935
 20
18621.50000000015
 30
0.0
 41
40.0
 42
40.0
 43
40.0
 50
270.0
  0
INSERT
  5
61709
330
5DC4C
100
AcDbEntity
  8
D-STR-DIM
 62
     0
440
 16777216
370
    13
100
AcDbBlockReference
  2
_OPEN
 10
6874.999999999935
 20
20921.50000000015
 30
0.0
 41
40.0
 42
40.0
 43
40.0
 50
90.0
  0
MTEXT
  5
6170A
330
5DC4C
100
AcDbEntity
  8
D-STR-DIM
 62
     0
440
 16777216
100
AcDbMText
 10
6827.499999999931
 20
19771.50000000015
 30
0.0
 40
70.0
 41
0.0
 46
0.0
 71
     5
 72
     1
  1
2300
 11
0.0000000000000001
 21
1.0
 31
0.0
 73
     1
 44
1.0
  0
POINT
  5
6170B
330
5DC4C
100
AcDbEntity
  8
DEFPOINTS
 62
     0
440
 16777216
100
AcDbPoint
 10
7595.0
 20
18621.50000000015
 30
0.0
  0
POINT
  5
6170C
330
5DC4C
100
AcDbEntity
  8
DEFPOINTS
 62
     0
440
 16777216
100
AcDbPoint
 10
7595.0
 20
20921.50000000015
 30
0.0
  0
POINT
  5
6170D
330
5DC4C
100
AcDbEntity
  8
DEFPOINTS
 62
     0
440
 16777216
100
AcDbPoint
 10
6874.999999999935
 20
20921.50000000015
 30
0.0
  0
ENDBLK
  5
5DC57
330
5DC4C
100
AcDbEntity
  8
0
100
AcDbBlockEnd
  0
BLOCK
  5
5DC62
330
5DC58
100
AcDbEntity
  8
0
100
AcDbBlockBegin
  2
*D27
 70
     1
 10
0.0
 20
0.0
 30
0.0
  3
*D27
  1

  0
LINE
  5
616FC
330
5DC58
100
AcDbEntity
  8
D-STR-DIM
 62
     0
440
 16777216
370
    13
100
AcDbLine
 10
7582.5
 20
18621.50000000015
 30
0.0
 11
7049.999999999949
 21
18621.50000000015
 31
0.0
  0
LINE
  5
616FD
330
5DC58
100
AcDbEntity
  8
D-STR-DIM
 62
     0
440
 16777216
370
    13
100
AcDbLine
 10
7562.5
 20
19421.50000000015
 30
0.0
 11
7049.999999999949
 21
19421.50000000015
 31
0.0
  0
LINE
  5
616FE
330
5DC58
100
AcDbEntity
  8
D-STR-DIM
 62
     0
440
 16777216
370
    13
100
AcDbLine
 10
7074.999999999949
 20
18661.50000000015
 30
0.0
 11
7074.999999999949
 21
19381.50000000015
 31
0.0
  0
INSERT
  5
616FF
330
5DC58
100
AcDbEntity
  8
D-STR-DIM
 62
     0
440
 16777216
370
    13
100
AcDbBlockReference
  2
_OPEN
 10
7074.999999999949
 20
18621.50000000015
 30
0.0
 41
40.0
 42
40.0
 43
40.0
 50
270.0
  0
INSERT
  5
61700
330
5DC58
100
AcDbEntity
  8
D-STR-DIM
 62
     0
440
 16777216
370
    13
100
AcDbBlockReference
  2
_OPEN
 10
7074.999999999949
 20
19421.50000000015
 30
0.0
 41
40.0
 42
40.0
 43
40.0
 50
90.0
  0
MTEXT
  5
61701
330
5DC58
100
AcDbEntity
  8
D-STR-DIM
 62
     0
440
 16777216
100
AcDbMText
 10
7027.499999999945
 20
19021.50000000015
 30
0.0
 40
70.0
 41
0.0
 46
0.0
 71
     5
 72
     1
  1
800
 11
0.0000000000000001
 21
1.0
 31
0.0
 73
     1
 44
1.0
  0
POINT
  5
61702
330
5DC58
100
AcDbEntity
  8
DEFPOINTS
 62
     0
440
 16777216
100
AcDbPoint
 10
7595.0
 20
18621.50000000015
 30
0.0
  0
POINT
  5
61703
330
5DC58
100
AcDbEntity
  8
DEFPOINTS
 62
     0
440
 16777216
100
AcDbPoint
 10
7575.0
 20
19421.50000000015
 30
0.0
  0
POINT
  5
61704
330
5DC58
100
AcDbEntity
  8
DEFPOINTS
 62
     0
440
 16777216
100
AcDbPoint
 10
7074.999999999949
 20
19421.50000000015
 30
0.0
  0
ENDBLK
  5
5DC63
330
5DC58
100
AcDbEntity
  8
0
100
AcDbBlockEnd
  0
BLOCK
  5
5DC6E
330
5DC64
100
AcDbEntity
  8
0
100
AcDbBlockBegin
  2
*D28
 70
     1
 10
0.0
 20
0.0
 30
0.0
  3
*D28
  1

  0
LINE
  5
616F3
330
5DC64
100
AcDbEntity
  8
D-STR-DIM
 62
     0
440
 16777216
370
    13
100
AcDbLine
 10
7495.0
 20
18289.00000000015
 30
0.0
 11
7495.0
 21
17576.50000000001
 31
0.0
  0
LINE
  5
616F4
330
5DC64
100
AcDbEntity
  8
D-STR-DIM
 62
     0
440
 16777216
370
    13
100
AcDbLine
 10
9325.0
 20
18289.00000000015
 30
0.0
 11
9325.0
 21
17576.50000000001
 31
0.0
  0
LINE
  5
616F5
330
5DC64
100
AcDbEntity
  8
D-STR-DIM
 62
     0
440
 16777216
370
    13
100
AcDbLine
 10
7535.0
 20
17601.50000000001
 30
0.0
 11
9285.0
 21
17601.50000000001
 31
0.0
  0
INSERT
  5
616F6
330
5DC64
100
AcDbEntity
  8
D-STR-DIM
 62
     0
440
 16777216
370
    13
100
AcDbBlockReference
  2
_OPEN
 10
7495.0
 20
17601.50000000001
 30
0.0
 41
40.0
 42
40.0
 43
40.0
 50
180.0
  0
INSERT
  5
616F7
330
5DC64
100
AcDbEntity
  8
D-STR-DIM
 62
     0
440
 16777216
370
    13
100
AcDbBlockReference
  2
_OPEN
 10
9325.0
 20
17601.50000000001
 30
0.0
 41
40.0
 42
40.0
 43
40.0
  0
MTEXT
  5
616F8
330
5DC64
100
AcDbEntity
  8
D-STR-DIM
 62
     0
440
 16777216
100
AcDbMText
 10
8410.0
 20
17649.00000000001
 30
0.0
 40
70.0
 41
0.0
 46
0.0
 71
     5
 72
     1
  1
1830
 73
     1
 44
1.0
  0
POINT
  5
616F9
330
5DC64
100
AcDbEntity
  8
DEFPOINTS
 62
     0
440
 16777216
100
AcDbPoint
 10
7495.0
 20
18301.50000000015
 30
0.0
  0
POINT
  5
616FA
330
5DC64
100
AcDbEntity
  8
DEFPOINTS
 62
     0
440
 16777216
100
AcDbPoint
 10
9325.0
 20
18301.50000000015
 30
0.0
  0
POINT
  5
616FB
330
5DC64
100
AcDbEntity
  8
DEFPOINTS
 62
     0
440
 16777216
100
AcDbPoint
 10
9325.0
 20
17601.50000000001
 30
0.0
  0
ENDBLK
  5
5DC6F
330
5DC64
100
AcDbEntity
  8
0
100
AcDbBlockEnd
  0
BLOCK
  5
5DC7C
330
5DC70
100
AcDbEntity
  8
0
100
AcDbBlockBegin
  2
*D29
 70
     1
 10
0.0
 20
0.0
 30
0.0
  3
*D29
  1

  0
LINE
  5
616E8
330
5DC70
100
AcDbEntity
  8
D-STR-DIM
 62
     0
440
 16777216
370
    13
100
AcDbLine
 10
9225.0
 20
18289.00000000015
 30
0.0
 11
9225.0
 21
17776.49999999999
 31
0.0
  0
LINE
  5
616E9
330
5DC70
100
AcDbEntity
  8
D-STR-DIM
 62
     0
440
 16777216
370
    13
100
AcDbLine
 10
9325.0
 20
18289.00000000015
 30
0.0
 11
9325.0
 21
17776.49999999999
 31
0.0
  0
LINE
  5
616EA
330
5DC70
100
AcDbEntity
  8
D-STR-DIM
 62
     0
440
 16777216
370
    13
100
AcDbLine
 10
9185.0
 20
17801.49999999999
 30
0.0
 11
9145.0
 21
17801.49999999999
 31
0.0
  0
LINE
  5
616EB
330
5DC70
100
AcDbEntity
  8
D-STR-DIM
 62
     0
440
 16777216
370
    13
100
AcDbLine
 10
9365.0
 20
17801.49999999999
 30
0.0
 11
9405.0
 21
17801.49999999999
 31
0.0
  0
LINE
  5
616EC
330
5DC70
100
AcDbEntity
  8
D-STR-DIM
 62
     0
440
 16777216
370
    13
100
AcDbLine
 10
9225.0
 20
17801.49999999999
 30
0.0
 11
9325.0
 21
17801.49999999999
 31
0.0
  0
INSERT
  5
616ED
330
5DC70
100
AcDbEntity
  8
D-STR-DIM
 62
     0
440
 16777216
370
    13
100
AcDbBlockReference
  2
_OPEN
 10
9225.0
 20
17801.49999999999
 30
0.0
 41
40.0
 42
40.0
 43
40.0
  0
INSERT
  5
616EE
330
5DC70
100
AcDbEntity
  8
D-STR-DIM
 62
     0
440
 16777216
370
    13
100
AcDbBlockReference
  2
_OPEN
 10
9325.0
 20
17801.49999999999
 30
0.0
 41
40.0
 42
40.0
 43
40.0
 50
180.0
  0
MTEXT
  5
616EF
330
5DC70
100
AcDbEntity
  8
D-STR-DIM
 62
     0
440
 16777216
100
AcDbMText
 10
9275.0
 20
17848.99999999999
 30
0.0
 40
70.0
 41
0.0
 46
0.0
 71
     5
 72
     1
  1
100
 73
     1
 44
1.0
  0
POINT
  5
616F0
330
5DC70
100
AcDbEntity
  8
DEFPOINTS
 62
     0
440
 16777216
100
AcDbPoint
 10
9225.0
 20
18301.50000000015
 30
0.0
  0
POINT
  5
616F1
330
5DC70
100
AcDbEntity
  8
DEFPOINTS
 62
     0
440
 16777216
100
AcDbPoint
 10
9325.0
 20
18301.50000000015
 30
0.0
  0
POINT
  5
616F2
330
5DC70
100
AcDbEntity
  8
DEFPOINTS
 62
     0
440
 16777216
100
AcDbPoint
 10
9325.0
 20
17801.49999999999
 30
0.0
  0
ENDBLK
  5
5DC7D
330
5DC70
100
AcDbEntity
  8
0
100
AcDbBlockEnd
  0
BLOCK
  5
5DC88
330
5DC7E
100
AcDbEntity
  8
0
100
AcDbBlockBegin
  2
*D30
 70
     1
 10
0.0
 20
0.0
 30
0.0
  3
*D30
  1

  0
LINE
  5
616DF
330
5DC7E
100
AcDbEntity
  8
D-STR-DIM
 62
     0
440
 16777216
370
    13
100
AcDbLine
 10
7595.0
 20
18289.00000000015
 30
0.0
 11
7595.0
 21
17776.49999999999
 31
0.0
  0
LINE
  5
616E0
330
5DC7E
100
AcDbEntity
  8
D-STR-DIM
 62
     0
440
 16777216
370
    13
100
AcDbLine
 10
9225.0
 20
18289.00000000015
 30
0.0
 11
9225.0
 21
17776.49999999999
 31
0.0
  0
LINE
  5
616E1
330
5DC7E
100
AcDbEntity
  8
D-STR-DIM
 62
     0
440
 16777216
370
    13
100
AcDbLine
 10
7635.0
 20
17801.49999999999
 30
0.0
 11
9185.0
 21
17801.49999999999
 31
0.0
  0
INSERT
  5
616E2
330
5DC7E
100
AcDbEntity
  8
D-STR-DIM
 62
     0
440
 16777216
370
    13
100
AcDbBlockReference
  2
_OPEN
 10
7595.0
 20
17801.49999999999
 30
0.0
 41
40.0
 42
40.0
 43
40.0
 50
180.0
  0
INSERT
  5
616E3
330
5DC7E
100
AcDbEntity
  8
D-STR-DIM
 62
     0
440
 16777216
370
    13
100
AcDbBlockReference
  2
_OPEN
 10
9225.0
 20
17801.49999999999
 30
0.0
 41
40.0
 42
40.0
 43
40.0
  0
MTEXT
  5
616E4
330
5DC7E
100
AcDbEntity
  8
D-STR-DIM
 62
     0
440
 16777216
100
AcDbMText
 10
8410.0
 20
17848.99999999999
 30
0.0
 40
70.0
 41
0.0
 46
0.0
 71
     5
 72
     1
  1
1630
 73
     1
 44
1.0
  0
POINT
  5
616E5
330
5DC7E
100
AcDbEntity
  8
DEFPOINTS
 62
     0
440
 16777216
100
AcDbPoint
 10
7595.0
 20
18301.50000000015
 30
0.0
  0
POINT
  5
616E6
330
5DC7E
100
AcDbEntity
  8
DEFPOINTS
 62
     0
440
 16777216
100
AcDbPoint
 10
9225.0
 20
18301.50000000015
 30
0.0
  0
POINT
  5
616E7
330
5DC7E
100
AcDbEntity
  8
DEFPOINTS
 62
     0
440
 16777216
100
AcDbPoint
 10
9225.0
 20
17801.49999999999
 30
0.0
  0
ENDBLK
  5
5DC89
330
5DC7E
100
AcDbEntity
  8
0
100
AcDbBlockEnd
  0
BLOCK
  5
5DC96
330
5DC8A
100
AcDbEntity
  8
0
100
AcDbBlockBegin
  2
*D31
 70
     1
 10
0.0
 20
0.0
 30
0.0
  3
*D31
  1

  0
LINE
  5
616D4
330
5DC8A
100
AcDbEntity
  8
D-STR-DIM
 62
     0
440
 16777216
370
    13
100
AcDbLine
 10
7495.0
 20
18289.00000000015
 30
0.0
 11
7495.0
 21
17776.49999999999
 31
0.0
  0
LINE
  5
616D5
330
5DC8A
100
AcDbEntity
  8
D-STR-DIM
 62
     0
440
 16777216
370
    13
100
AcDbLine
 10
7595.0
 20
18289.00000000015
 30
0.0
 11
7595.0
 21
17776.49999999999
 31
0.0
  0
LINE
  5
616D6
330
5DC8A
100
AcDbEntity
  8
D-STR-DIM
 62
     0
440
 16777216
370
    13
100
AcDbLine
 10
7455.0
 20
17801.49999999999
 30
0.0
 11
7415.0
 21
17801.49999999999
 31
0.0
  0
LINE
  5
616D7
330
5DC8A
100
AcDbEntity
  8
D-STR-DIM
 62
     0
440
 16777216
370
    13
100
AcDbLine
 10
7635.0
 20
17801.49999999999
 30
0.0
 11
7675.0
 21
17801.49999999999
 31
0.0
  0
LINE
  5
616D8
330
5DC8A
100
AcDbEntity
  8
D-STR-DIM
 62
     0
440
 16777216
370
    13
100
AcDbLine
 10
7495.0
 20
17801.49999999999
 30
0.0
 11
7595.0
 21
17801.49999999999
 31
0.0
  0
INSERT
  5
616D9
330
5DC8A
100
AcDbEntity
  8
D-STR-DIM
 62
     0
440
 16777216
370
    13
100
AcDbBlockReference
  2
_OPEN
 10
7495.0
 20
17801.49999999999
 30
0.0
 41
40.0
 42
40.0
 43
40.0
  0
INSERT
  5
616DA
330
5DC8A
100
AcDbEntity
  8
D-STR-DIM
 62
     0
440
 16777216
370
    13
100
AcDbBlockReference
  2
_OPEN
 10
7595.0
 20
17801.49999999999
 30
0.0
 41
40.0
 42
40.0
 43
40.0
 50
180.0
  0
MTEXT
  5
616DB
330
5DC8A
100
AcDbEntity
  8
D-STR-DIM
 62
     0
440
 16777216
100
AcDbMText
 10
7545.0
 20
17848.99999999999
 30
0.0
 40
70.0
 41
0.0
 46
0.0
 71
     5
 72
     1
  1
100
 73
     1
 44
1.0
  0
POINT
  5
616DC
330
5DC8A
100
AcDbEntity
  8
DEFPOINTS
 62
     0
440
 16777216
100
AcDbPoint
 10
7495.0
 20
18301.50000000015
 30
0.0
  0
POINT
  5
616DD
330
5DC8A
100
AcDbEntity
  8
DEFPOINTS
 62
     0
440
 16777216
100
AcDbPoint
 10
7595.0
 20
18301.50000000015
 30
0.0
  0
POINT
  5
616DE
330
5DC8A
100
AcDbEntity
  8
DEFPOINTS
 62
     0
440
 16777216
100
AcDbPoint
 10
7595.0
 20
17801.49999999999
 30
0.0
  0
ENDBLK
  5
5DC97
330
5DC8A
100
AcDbEntity
  8
0
100
AcDbBlockEnd
  0
BLOCK
  5
5DCA2
330
5DC98
100
AcDbEntity
  8
0
100
AcDbBlockBegin
  2
*D32
 70
     1
 10
0.0
 20
0.0
 30
0.0
  3
*D32
  1

  0
LINE
  5
616CB
330
5DC98
100
AcDbEntity
  8
D-STR-DIM
 62
     0
440
 16777216
370
    13
100
AcDbLine
 10
7595.0
 20
18289.00000000015
 30
0.0
 11
7595.0
 21
17976.49999999996
 31
0.0
  0
LINE
  5
616CC
330
5DC98
100
AcDbEntity
  8
D-STR-DIM
 62
     0
440
 16777216
370
    13
100
AcDbLine
 10
7760.0
 20
18289.00000000015
 30
0.0
 11
7760.0
 21
17976.49999999996
 31
0.0
  0
LINE
  5
616CD
330
5DC98
100
AcDbEntity
  8
D-STR-DIM
 62
     0
440
 16777216
370
    13
100
AcDbLine
 10
7635.0
 20
18001.49999999996
 30
0.0
 11
7720.0
 21
18001.49999999996
 31
0.0
  0
INSERT
  5
616CE
330
5DC98
100
AcDbEntity
  8
D-STR-DIM
 62
     0
440
 16777216
370
    13
100
AcDbBlockReference
  2
_OPEN
 10
7595.0
 20
18001.49999999996
 30
0.0
 41
40.0
 42
40.0
 43
40.0
 50
180.0
  0
INSERT
  5
616CF
330
5DC98
100
AcDbEntity
  8
D-STR-DIM
 62
     0
440
 16777216
370
    13
100
AcDbBlockReference
  2
_OPEN
 10
7760.0
 20
18001.49999999996
 30
0.0
 41
40.0
 42
40.0
 43
40.0
  0
MTEXT
  5
616D0
330
5DC98
100
AcDbEntity
  8
D-STR-DIM
 62
     0
440
 16777216
100
AcDbMText
 10
7677.500000000001
 20
18048.99999999996
 30
0.0
 40
70.0
 41
0.0
 46
0.0
 71
     5
 72
     1
  1
165
 73
     1
 44
1.0
  0
POINT
  5
616D1
330
5DC98
100
AcDbEntity
  8
DEFPOINTS
 62
     0
440
 16777216
100
AcDbPoint
 10
7595.0
 20
18301.50000000015
 30
0.0
  0
POINT
  5
616D2
330
5DC98
100
AcDbEntity
  8
DEFPOINTS
 62
     0
440
 16777216
100
AcDbPoint
 10
7760.0
 20
18301.50000000015
 30
0.0
  0
POINT
  5
616D3
330
5DC98
100
AcDbEntity
  8
DEFPOINTS
 62
     0
440
 16777216
100
AcDbPoint
 10
7760.0
 20
18001.49999999996
 30
0.0
  0
ENDBLK
  5
5DCA3
330
5DC98
100
AcDbEntity
  8
0
100
AcDbBlockEnd
  0
BLOCK
  5
5DCAE
330
5DCA4
100
AcDbEntity
  8
0
100
AcDbBlockBegin
  2
*D33
 70
     1
 10
0.0
 20
0.0
 30
0.0
  3
*D33
  1

  0
LINE
  5
616C2
330
5DCA4
100
AcDbEntity
  8
D-STR-DIM
 62
     0
440
 16777216
370
    13
100
AcDbLine
 10
7582.5
 20
18621.50000000015
 30
0.0
 11
7270.000000000028
 21
18621.50000000015
 31
0.0
  0
LINE
  5
616C3
330
5DCA4
100
AcDbEntity
  8
D-STR-DIM
 62
     0
440
 16777216
370
    13
100
AcDbLine
 10
7582.5
 20
18786.50000000015
 30
0.0
 11
7270.000000000028
 21
18786.50000000015
 31
0.0
  0
LINE
  5
616C4
330
5DCA4
100
AcDbEntity
  8
D-STR-DIM
 62
     0
440
 16777216
370
    13
100
AcDbLine
 10
7295.000000000029
 20
18661.50000000015
 30
0.0
 11
7295.000000000029
 21
18746.50000000015
 31
0.0
  0
INSERT
  5
616C5
330
5DCA4
100
AcDbEntity
  8
D-STR-DIM
 62
     0
440
 16777216
370
    13
100
AcDbBlockReference
  2
_OPEN
 10
7295.000000000029
 20
18621.50000000015
 30
0.0
 41
40.0
 42
40.0
 43
40.0
 50
270.0
  0
INSERT
  5
616C6
330
5DCA4
100
AcDbEntity
  8
D-STR-DIM
 62
     0
440
 16777216
370
    13
100
AcDbBlockReference
  2
_OPEN
 10
7295.000000000029
 20
18786.50000000015
 30
0.0
 41
40.0
 42
40.0
 43
40.0
 50
90.0
  0
MTEXT
  5
616C7
330
5DCA4
100
AcDbEntity
  8
D-STR-DIM
 62
     0
440
 16777216
100
AcDbMText
 10
7247.500000000025
 20
18704.00000000015
 30
0.0
 40
70.0
 41
0.0
 46
0.0
 71
     5
 72
     1
  1
165
 11
0.0000000000000001
 21
1.0
 31
0.0
 73
     1
 44
1.0
  0
POINT
  5
616C8
330
5DCA4
100
AcDbEntity
  8
DEFPOINTS
 62
     0
440
 16777216
100
AcDbPoint
 10
7595.0
 20
18621.50000000015
 30
0.0
  0
POINT
  5
616C9
330
5DCA4
100
AcDbEntity
  8
DEFPOINTS
 62
     0
440
 16777216
100
AcDbPoint
 10
7595.0
 20
18786.50000000015
 30
0.0
  0
POINT
  5
616CA
330
5DCA4
100
AcDbEntity
  8
DEFPOINTS
 62
     0
440
 16777216
100
AcDbPoint
 10
7295.000000000029
 20
18786.50000000015
 30
0.0
  0
ENDBLK
  5
5DCAF
330
5DCA4
100
AcDbEntity
  8
0
100
AcDbBlockEnd
  0
BLOCK
  5
5DCBC
330
5DCB0
100
AcDbEntity
  8
0
100
AcDbBlockBegin
  2
*D34
 70
     1
 10
0.0
 20
0.0
 30
0.0
  3
*D34
  1

  0
LINE
  5
616B7
330
5DCB0
100
AcDbEntity
  8
D-STR-DIM
 62
     0
440
 16777216
370
    13
100
AcDbLine
 10
9237.5
 20
18621.50000000015
 30
0.0
 11
9549.999999999533
 21
18621.50000000015
 31
0.0
  0
LINE
  5
616B8
330
5DCB0
100
AcDbEntity
  8
D-STR-DIM
 62
     0
440
 16777216
370
    13
100
AcDbLine
 10
9237.5
 20
18731.50000000015
 30
0.0
 11
9549.999999999533
 21
18731.50000000015
 31
0.0
  0
LINE
  5
616B9
330
5DCB0
100
AcDbEntity
  8
D-STR-DIM
 62
     0
440
 16777216
370
    13
100
AcDbLine
 10
9524.999999999534
 20
18581.50000000015
 30
0.0
 11
9524.999999999534
 21
18541.50000000015
 31
0.0
  0
LINE
  5
616BA
330
5DCB0
100
AcDbEntity
  8
D-STR-DIM
 62
     0
440
 16777216
370
    13
100
AcDbLine
 10
9524.999999999534
 20
18771.50000000015
 30
0.0
 11
9524.999999999534
 21
18811.50000000015
 31
0.0
  0
LINE
  5
616BB
330
5DCB0
100
AcDbEntity
  8
D-STR-DIM
 62
     0
440
 16777216
370
    13
100
AcDbLine
 10
9524.999999999534
 20
18621.50000000015
 30
0.0
 11
9524.999999999534
 21
18731.50000000015
 31
0.0
  0
INSERT
  5
616BC
330
5DCB0
100
AcDbEntity
  8
D-STR-DIM
 62
     0
440
 16777216
370
    13
100
AcDbBlockReference
  2
_OPEN
 10
9524.999999999534
 20
18621.50000000015
 30
0.0
 41
40.0
 42
40.0
 43
40.0
 50
90.0
  0
INSERT
  5
616BD
330
5DCB0
100
AcDbEntity
  8
D-STR-DIM
 62
     0
440
 16777216
370
    13
100
AcDbBlockReference
  2
_OPEN
 10
9524.999999999534
 20
18731.50000000015
 30
0.0
 41
40.0
 42
40.0
 43
40.0
 50
270.0
  0
MTEXT
  5
616BE
330
5DCB0
100
AcDbEntity
  8
D-STR-DIM
 62
     0
440
 16777216
100
AcDbMText
 10
9477.499999999533
 20
18676.50000000016
 30
0.0
 40
70.0
 41
0.0
 46
0.0
 71
     5
 72
     1
  1
110
 11
0.0000000000000001
 21
1.0
 31
0.0
 73
     1
 44
1.0
  0
POINT
  5
616BF
330
5DCB0
100
AcDbEntity
  8
DEFPOINTS
 62
     0
440
 16777216
100
AcDbPoint
 10
9225.0
 20
18621.50000000015
 30
0.0
  0
POINT
  5
616C0
330
5DCB0
100
AcDbEntity
  8
DEFPOINTS
 62
     0
440
 16777216
100
AcDbPoint
 10
9225.0
 20
18731.50000000015
 30
0.0
  0
POINT
  5
616C1
330
5DCB0
100
AcDbEntity
  8
DEFPOINTS
 62
     0
440
 16777216
100
AcDbPoint
 10
9524.999999999534
 20
18731.50000000015
 30
0.0
  0
ENDBLK
  5
5DCBD
330
5DCB0
100
AcDbEntity
  8
0
100
AcDbBlockEnd
  0
BLOCK
  5
5DCCA
330
5DCBE
100
AcDbEntity
  8
0
100
AcDbBlockBegin
  2
*D35
 70
     1
 10
0.0
 20
0.0
 30
0.0
  3
*D35
  1

  0
LINE
  5
616AC
330
5DCBE
100
AcDbEntity
  8
D-STR-DIM
 62
     0
440
 16777216
370
    13
100
AcDbLine
 10
7595.0
 20
20934.00000000015
 30
0.0
 11
7595.0
 21
21246.50000000023
 31
0.0
  0
LINE
  5
616AD
330
5DCBE
100
AcDbEntity
  8
D-STR-DIM
 62
     0
440
 16777216
370
    13
100
AcDbLine
 10
7705.0
 20
20934.00000000015
 30
0.0
 11
7705.0
 21
21246.50000000023
 31
0.0
  0
LINE
  5
616AE
330
5DCBE
100
AcDbEntity
  8
D-STR-DIM
 62
     0
440
 16777216
370
    13
100
AcDbLine
 10
7555.0
 20
21221.50000000023
 30
0.0
 11
7515.0
 21
21221.50000000023
 31
0.0
  0
LINE
  5
616AF
330
5DCBE
100
AcDbEntity
  8
D-STR-DIM
 62
     0
440
 16777216
370
    13
100
AcDbLine
 10
7745.0
 20
21221.50000000023
 30
0.0
 11
7785.0
 21
21221.50000000023
 31
0.0
  0
LINE
  5
616B0
330
5DCBE
100
AcDbEntity
  8
D-STR-DIM
 62
     0
440
 16777216
370
    13
100
AcDbLine
 10
7595.0
 20
21221.50000000023
 30
0.0
 11
7705.0
 21
21221.50000000023
 31
0.0
  0
INSERT
  5
616B1
330
5DCBE
100
AcDbEntity
  8
D-STR-DIM
 62
     0
440
 16777216
370
    13
100
AcDbBlockReference
  2
_OPEN
 10
7595.0
 20
21221.50000000023
 30
0.0
 41
40.0
 42
40.0
 43
40.0
  0
INSERT
  5
616B2
330
5DCBE
100
AcDbEntity
  8
D-STR-DIM
 62
     0
440
 16777216
370
    13
100
AcDbBlockReference
  2
_OPEN
 10
7705.0
 20
21221.50000000023
 30
0.0
 41
40.0
 42
40.0
 43
40.0
 50
180.0
  0
MTEXT
  5
616B3
330
5DCBE
100
AcDbEntity
  8
D-STR-DIM
 62
     0
440
 16777216
100
AcDbMText
 10
7650.0
 20
21269.00000000023
 30
0.0
 40
70.0
 41
0.0
 46
0.0
 71
     5
 72
     1
  1
110
 73
     1
 44
1.0
  0
POINT
  5
616B4
330
5DCBE
100
AcDbEntity
  8
DEFPOINTS
 62
     0
440
 16777216
100
AcDbPoint
 10
7595.0
 20
20921.50000000015
 30
0.0
  0
POINT
  5
616B5
330
5DCBE
100
AcDbEntity
  8
DEFPOINTS
 62
     0
440
 16777216
100
AcDbPoint
 10
7705.0
 20
20921.50000000015
 30
0.0
  0
POINT
  5
616B6
330
5DCBE
100
AcDbEntity
  8
DEFPOINTS
 62
     0
440
 16777216
100
AcDbPoint
 10
7705.0
 20
21221.50000000023
 30
0.0
  0
ENDBLK
  5
5DCCB
330
5DCBE
100
AcDbEntity
  8
0
100
AcDbBlockEnd
  0
BLOCK
  5
5DCD8
330
5DCCC
100
AcDbEntity
  8
0
100
AcDbBlockBegin
  2
*D36
 70
     1
 10
0.0
 20
0.0
 30
0.0
  3
*D36
  1

  0
LINE
  5
616A1
330
5DCCC
100
AcDbEntity
  8
D-STR-DIM
 62
     0
440
 16777216
370
    13
100
AcDbLine
 10
2612.5
 20
18721.50000000015
 30
0.0
 11
1879.999999999971
 21
18721.50000000015
 31
0.0
  0
LINE
  5
616A2
330
5DCCC
100
AcDbEntity
  8
D-STR-DIM
 62
     0
440
 16777216
370
    13
100
AcDbLine
 10
2512.5
 20
18701.50000000015
 30
0.0
 11
1879.999999999971
 21
18701.50000000015
 31
0.0
  0
LINE
  5
616A3
330
5DCCC
100
AcDbEntity
  8
D-STR-DIM
 62
     0
440
 16777216
370
    13
100
AcDbLine
 10
1904.999999999971
 20
18761.50000000015
 30
0.0
 11
1904.999999999971
 21
18801.50000000015
 31
0.0
  0
LINE
  5
616A4
330
5DCCC
100
AcDbEntity
  8
D-STR-DIM
 62
     0
440
 16777216
370
    13
100
AcDbLine
 10
1904.999999999971
 20
18661.50000000015
 30
0.0
 11
1904.999999999971
 21
18621.50000000015
 31
0.0
  0
LINE
  5
616A5
330
5DCCC
100
AcDbEntity
  8
D-STR-DIM
 62
     0
440
 16777216
370
    13
100
AcDbLine
 10
1904.999999999971
 20
18721.50000000015
 30
0.0
 11
1904.999999999971
 21
18701.50000000015
 31
0.0
  0
INSERT
  5
616A6
330
5DCCC
100
AcDbEntity
  8
D-STR-DIM
 62
     0
440
 16777216
370
    13
100
AcDbBlockReference
  2
_OPEN
 10
1904.999999999971
 20
18721.50000000015
 30
0.0
 41
40.0
 42
40.0
 43
40.0
 50
270.0
  0
INSERT
  5
616A7
330
5DCCC
100
AcDbEntity
  8
D-STR-DIM
 62
     0
440
 16777216
370
    13
100
AcDbBlockReference
  2
_OPEN
 10
1904.999999999971
 20
18701.50000000015
 30
0.0
 41
40.0
 42
40.0
 43
40.0
 50
90.0
  0
MTEXT
  5
616A8
330
5DCCC
100
AcDbEntity
  8
D-STR-DIM
 62
     0
440
 16777216
100
AcDbMText
 10
1857.499999999968
 20
18711.50000000015
 30
0.0
 40
70.0
 41
0.0
 46
0.0
 71
     5
 72
     1
  1
20
 11
0.0000000000000001
 21
1.0
 31
0.0
 73
     1
 44
1.0
  0
POINT
  5
616A9
330
5DCCC
100
AcDbEntity
  8
DEFPOINTS
 62
     0
440
 16777216
100
AcDbPoint
 10
2625.0
 20
18721.50000000015
 30
0.0
  0
POINT
  5
616AA
330
5DCCC
100
AcDbEntity
  8
DEFPOINTS
 62
     0
440
 16777216
100
AcDbPoint
 10
2525.0
 20
18701.50000000015
 30
0.0
  0
POINT
  5
616AB
330
5DCCC
100
AcDbEntity
  8
DEFPOINTS
 62
     0
440
 16777216
100
AcDbPoint
 10
1904.999999999971
 20
18701.50000000015
 30
0.0
  0
ENDBLK
  5
5DCD9
330
5DCCC
100
AcDbEntity
  8
0
100
AcDbBlockEnd
  0
BLOCK
  5
5DCE6
330
5DCDA
100
AcDbEntity
  8
0
100
AcDbBlockBegin
  2
*D37
 70
     1
 10
0.0
 20
0.0
 30
0.0
  3
*D37
  1

  0
LINE
  5
61696
330
5DCDA
100
AcDbEntity
  8
D-STR-DIM
 62
     0
440
 16777216
370
    13
100
AcDbLine
 10
2512.5
 20
18701.50000000015
 30
0.0
 11
1879.999999999971
 21
18701.50000000015
 31
0.0
  0
LINE
  5
61697
330
5DCDA
100
AcDbEntity
  8
D-STR-DIM
 62
     0
440
 16777216
370
    13
100
AcDbLine
 10
2512.5
 20
18601.50000000015
 30
0.0
 11
1879.999999999971
 21
18601.50000000015
 31
0.0
  0
LINE
  5
61698
330
5DCDA
100
AcDbEntity
  8
D-STR-DIM
 62
     0
440
 16777216
370
    13
100
AcDbLine
 10
1904.999999999971
 20
18741.50000000015
 30
0.0
 11
1904.999999999971
 21
18781.50000000015
 31
0.0
  0
LINE
  5
61699
330
5DCDA
100
AcDbEntity
  8
D-STR-DIM
 62
     0
440
 16777216
370
    13
100
AcDbLine
 10
1904.999999999971
 20
18561.50000000015
 30
0.0
 11
1904.999999999971
 21
18521.50000000015
 31
0.0
  0
LINE
  5
6169A
330
5DCDA
100
AcDbEntity
  8
D-STR-DIM
 62
     0
440
 16777216
370
    13
100
AcDbLine
 10
1904.999999999971
 20
18701.50000000015
 30
0.0
 11
1904.999999999971
 21
18601.50000000015
 31
0.0
  0
INSERT
  5
6169B
330
5DCDA
100
AcDbEntity
  8
D-STR-DIM
 62
     0
440
 16777216
370
    13
100
AcDbBlockReference
  2
_OPEN
 10
1904.999999999971
 20
18701.50000000015
 30
0.0
 41
40.0
 42
40.0
 43
40.0
 50
270.0
  0
INSERT
  5
6169C
330
5DCDA
100
AcDbEntity
  8
D-STR-DIM
 62
     0
440
 16777216
370
    13
100
AcDbBlockReference
  2
_OPEN
 10
1904.999999999971
 20
18601.50000000015
 30
0.0
 41
40.0
 42
40.0
 43
40.0
 50
90.0
  0
MTEXT
  5
6169D
330
5DCDA
100
AcDbEntity
  8
D-STR-DIM
 62
     0
440
 16777216
100
AcDbMText
 10
1974.999999999968
 20
18651.50000000015
 30
0.0
 40
70.0
 41
0.0
 46
0.0
 71
     5
 72
     1
  1
100
 11
0.0000000000000001
 21
1.0
 31
0.0
 73
     1
 44
1.0
  0
POINT
  5
6169E
330
5DCDA
100
AcDbEntity
  8
DEFPOINTS
 62
     0
440
 16777216
100
AcDbPoint
 10
2525.0
 20
18701.50000000015
 30
0.0
  0
POINT
  5
6169F
330
5DCDA
100
AcDbEntity
  8
DEFPOINTS
 62
     0
440
 16777216
100
AcDbPoint
 10
2525.0
 20
18601.50000000015
 30
0.0
  0
POINT
  5
616A0
330
5DCDA
100
AcDbEntity
  8
DEFPOINTS
 62
     0
440
 16777216
100
AcDbPoint
 10
1904.999999999971
 20
18601.50000000015
 30
0.0
  0
ENDBLK
  5
5DCE7
330
5DCDA
100
AcDbEntity
  8
0
100
AcDbBlockEnd
  0
BLOCK
  5
5DCF2
330
5DCE8
100
AcDbEntity
  8
0
100
AcDbBlockBegin
  2
*D38
 70
     1
 10
0.0
 20
0.0
 30
0.0
  3
*D38
  1

  0
LINE
  5
6168D
330
5DCE8
100
AcDbEntity
  8
D-STR-DIM
 62
     0
440
 16777216
370
    13
100
AcDbLine
 10
2512.5
 20
18601.50000000015
 30
0.0
 11
1879.999999999971
 21
18601.50000000015
 31
0.0
  0
LINE
  5
6168E
330
5DCE8
100
AcDbEntity
  8
D-STR-DIM
 62
     0
440
 16777216
370
    13
100
AcDbLine
 10
2512.5
 20
18401.50000000015
 30
0.0
 11
1879.999999999971
 21
18401.50000000015
 31
0.0
  0
LINE
  5
6168F
330
5DCE8
100
AcDbEntity
  8
D-STR-DIM
 62
     0
440
 16777216
370
    13
100
AcDbLine
 10
1904.999999999971
 20
18561.50000000015
 30
0.0
 11
1904.999999999971
 21
18441.50000000015
 31
0.0
  0
INSERT
  5
61690
330
5DCE8
100
AcDbEntity
  8
D-STR-DIM
 62
     0
440
 16777216
370
    13
100
AcDbBlockReference
  2
_OPEN
 10
1904.999999999971
 20
18601.50000000015
 30
0.0
 41
40.0
 42
40.0
 43
40.0
 50
90.0
  0
INSERT
  5
61691
330
5DCE8
100
AcDbEntity
  8
D-STR-DIM
 62
     0
440
 16777216
370
    13
100
AcDbBlockReference
  2
_OPEN
 10
1904.999999999971
 20
18401.50000000015
 30
0.0
 41
40.0
 42
40.0
 43
40.0
 50
270.0
  0
MTEXT
  5
61692
330
5DCE8
100
AcDbEntity
  8
D-STR-DIM
 62
     0
440
 16777216
100
AcDbMText
 10
1857.499999999968
 20
18501.50000000015
 30
0.0
 40
70.0
 41
0.0
 46
0.0
 71
     5
 72
     1
  1
200
 11
0.0000000000000001
 21
1.0
 31
0.0
 73
     1
 44
1.0
  0
POINT
  5
61693
330
5DCE8
100
AcDbEntity
  8
DEFPOINTS
 62
     0
440
 16777216
100
AcDbPoint
 10
2525.0
 20
18601.50000000015
 30
0.0
  0
POINT
  5
61694
330
5DCE8
100
AcDbEntity
  8
DEFPOINTS
 62
     0
440
 16777216
100
AcDbPoint
 10
2525.0
 20
18401.50000000015
 30
0.0
  0
POINT
  5
61695
330
5DCE8
100
AcDbEntity
  8
DEFPOINTS
 62
     0
440
 16777216
100
AcDbPoint
 10
1904.999999999971
 20
18401.50000000015
 30
0.0
  0
ENDBLK
  5
5DCF3
330
5DCE8
100
AcDbEntity
  8
0
100
AcDbBlockEnd
  0
BLOCK
  5
5DCFE
330
5DCF4
100
AcDbEntity
  8
0
100
AcDbBlockBegin
  2
*D39
 70
     1
 10
0.0
 20
0.0
 30
0.0
  3
*D39
  1

  0
LINE
  5
61684
330
5DCF4
100
AcDbEntity
  8
D-STR-DIM
 62
     0
440
 16777216
370
    13
100
AcDbLine
 10
2612.5
 20
18721.50000000015
 30
0.0
 11
1879.999999999934
 21
18721.50000000015
 31
0.0
  0
LINE
  5
61685
330
5DCF4
100
AcDbEntity
  8
D-STR-DIM
 62
     0
440
 16777216
370
    13
100
AcDbLine
 10
2612.5
 20
20921.50000000015
 30
0.0
 11
1879.999999999935
 21
20921.50000000015
 31
0.0
  0
LINE
  5
61686
330
5DCF4
100
AcDbEntity
  8
D-STR-DIM
 62
     0
440
 16777216
370
    13
100
AcDbLine
 10
1904.999999999934
 20
18761.50000000015
 30
0.0
 11
1904.999999999935
 21
20881.50000000015
 31
0.0
  0
INSERT
  5
61687
330
5DCF4
100
AcDbEntity
  8
D-STR-DIM
 62
     0
440
 16777216
370
    13
100
AcDbBlockReference
  2
_OPEN
 10
1904.999999999934
 20
18721.50000000015
 30
0.0
 41
40.0
 42
40.0
 43
40.0
 50
270.0
  0
INSERT
  5
61688
330
5DCF4
100
AcDbEntity
  8
D-STR-DIM
 62
     0
440
 16777216
370
    13
100
AcDbBlockReference
  2
_OPEN
 10
1904.999999999935
 20
20921.50000000015
 30
0.0
 41
40.0
 42
40.0
 43
40.0
 50
90.0
  0
MTEXT
  5
61689
330
5DCF4
100
AcDbEntity
  8
D-STR-DIM
 62
     0
440
 16777216
100
AcDbMText
 10
1857.499999999931
 20
19821.50000000015
 30
0.0
 40
70.0
 41
0.0
 46
0.0
 71
     5
 72
     1
  1
2200
 11
0.0000000000000001
 21
1.0
 31
0.0
 73
     1
 44
1.0
  0
POINT
  5
6168A
330
5DCF4
100
AcDbEntity
  8
DEFPOINTS
 62
     0
440
 16777216
100
AcDbPoint
 10
2625.0
 20
18721.50000000015
 30
0.0
  0
POINT
  5
6168B
330
5DCF4
100
AcDbEntity
  8
DEFPOINTS
 62
     0
440
 16777216
100
AcDbPoint
 10
2625.0
 20
20921.50000000015
 30
0.0
  0
POINT
  5
6168C
330
5DCF4
100
AcDbEntity
  8
DEFPOINTS
 62
     0
440
 16777216
100
AcDbPoint
 10
1904.999999999935
 20
20921.50000000015
 30
0.0
  0
ENDBLK
  5
5DCFF
330
5DCF4
100
AcDbEntity
  8
0
100
AcDbBlockEnd
  0
BLOCK
  5
5DD0A
330
5DD00
100
AcDbEntity
  8
0
100
AcDbBlockBegin
  2
*D40
 70
     1
 10
0.0
 20
0.0
 30
0.0
  3
*D40
  1

  0
LINE
  5
6167B
330
5DD00
100
AcDbEntity
  8
D-STR-DIM
 62
     0
440
 16777216
370
    13
100
AcDbLine
 10
2612.5
 20
18721.50000000015
 30
0.0
 11
2079.999999999949
 21
18721.50000000015
 31
0.0
  0
LINE
  5
6167C
330
5DD00
100
AcDbEntity
  8
D-STR-DIM
 62
     0
440
 16777216
370
    13
100
AcDbLine
 10
2592.5
 20
19521.50000000015
 30
0.0
 11
2079.999999999949
 21
19521.50000000015
 31
0.0
  0
LINE
  5
6167D
330
5DD00
100
AcDbEntity
  8
D-STR-DIM
 62
     0
440
 16777216
370
    13
100
AcDbLine
 10
2104.999999999948
 20
18761.50000000015
 30
0.0
 11
2104.999999999949
 21
19481.50000000015
 31
0.0
  0
INSERT
  5
6167E
330
5DD00
100
AcDbEntity
  8
D-STR-DIM
 62
     0
440
 16777216
370
    13
100
AcDbBlockReference
  2
_OPEN
 10
2104.999999999948
 20
18721.50000000015
 30
0.0
 41
40.0
 42
40.0
 43
40.0
 50
270.0
  0
INSERT
  5
6167F
330
5DD00
100
AcDbEntity
  8
D-STR-DIM
 62
     0
440
 16777216
370
    13
100
AcDbBlockReference
  2
_OPEN
 10
2104.999999999949
 20
19521.50000000015
 30
0.0
 41
40.0
 42
40.0
 43
40.0
 50
90.0
  0
MTEXT
  5
61680
330
5DD00
100
AcDbEntity
  8
D-STR-DIM
 62
     0
440
 16777216
100
AcDbMText
 10
2057.499999999946
 20
19121.50000000015
 30
0.0
 40
70.0
 41
0.0
 46
0.0
 71
     5
 72
     1
  1
800
 11
0.0000000000000001
 21
1.0
 31
0.0
 73
     1
 44
1.0
  0
POINT
  5
61681
330
5DD00
100
AcDbEntity
  8
DEFPOINTS
 62
     0
440
 16777216
100
AcDbPoint
 10
2625.0
 20
18721.50000000015
 30
0.0
  0
POINT
  5
61682
330
5DD00
100
AcDbEntity
  8
DEFPOINTS
 62
     0
440
 16777216
100
AcDbPoint
 10
2605.0
 20
19521.50000000015
 30
0.0
  0
POINT
  5
61683
330
5DD00
100
AcDbEntity
  8
DEFPOINTS
 62
     0
440
 16777216
100
AcDbPoint
 10
2104.999999999949
 20
19521.50000000015
 30
0.0
  0
ENDBLK
  5
5DD0B
330
5DD00
100
AcDbEntity
  8
0
100
AcDbBlockEnd
  0
BLOCK
  5
5DD16
330
5DD0C
100
AcDbEntity
  8
0
100
AcDbBlockBegin
  2
*D41
 70
     1
 10
0.0
 20
0.0
 30
0.0
  3
*D41
  1

  0
LINE
  5
61672
330
5DD0C
100
AcDbEntity
  8
D-STR-DIM
 62
     0
440
 16777216
370
    13
100
AcDbLine
 10
2525.0
 20
18389.00000000015
 30
0.0
 11
2525.0
 21
17676.50000000001
 31
0.0
  0
LINE
  5
61673
330
5DD0C
100
AcDbEntity
  8
D-STR-DIM
 62
     0
440
 16777216
370
    13
100
AcDbLine
 10
4295.0
 20
18389.00000000015
 30
0.0
 11
4295.0
 21
17676.50000000001
 31
0.0
  0
LINE
  5
61674
330
5DD0C
100
AcDbEntity
  8
D-STR-DIM
 62
     0
440
 16777216
370
    13
100
AcDbLine
 10
2565.0
 20
17701.50000000001
 30
0.0
 11
4255.0
 21
17701.50000000001
 31
0.0
  0
INSERT
  5
61675
330
5DD0C
100
AcDbEntity
  8
D-STR-DIM
 62
     0
440
 16777216
370
    13
100
AcDbBlockReference
  2
_OPEN
 10
2525.0
 20
17701.50000000001
 30
0.0
 41
40.0
 42
40.0
 43
40.0
 50
180.0
  0
INSERT
  5
61676
330
5DD0C
100
AcDbEntity
  8
D-STR-DIM
 62
     0
440
 16777216
370
    13
100
AcDbBlockReference
  2
_OPEN
 10
4295.0
 20
17701.50000000001
 30
0.0
 41
40.0
 42
40.0
 43
40.0
  0
MTEXT
  5
61677
330
5DD0C
100
AcDbEntity
  8
D-STR-DIM
 62
     0
440
 16777216
100
AcDbMText
 10
3410.0
 20
17749.00000000001
 30
0.0
 40
70.0
 41
0.0
 46
0.0
 71
     5
 72
     1
  1
1770
 73
     1
 44
1.0
  0
POINT
  5
61678
330
5DD0C
100
AcDbEntity
  8
DEFPOINTS
 62
     0
440
 16777216
100
AcDbPoint
 10
2525.0
 20
18401.50000000015
 30
0.0
  0
POINT
  5
61679
330
5DD0C
100
AcDbEntity
  8
DEFPOINTS
 62
     0
440
 16777216
100
AcDbPoint
 10
4295.0
 20
18401.50000000015
 30
0.0
  0
POINT
  5
6167A
330
5DD0C
100
AcDbEntity
  8
DEFPOINTS
 62
     0
440
 16777216
100
AcDbPoint
 10
4295.0
 20
17701.50000000001
 30
0.0
  0
ENDBLK
  5
5DD17
330
5DD0C
100
AcDbEntity
  8
0
100
AcDbBlockEnd
  0
BLOCK
  5
5DD24
330
5DD18
100
AcDbEntity
  8
0
100
AcDbBlockBegin
  2
*D42
 70
     1
 10
0.0
 20
0.0
 30
0.0
  3
*D42
  1

  0
LINE
  5
61667
330
5DD18
100
AcDbEntity
  8
D-STR-DIM
 62
     0
440
 16777216
370
    13
100
AcDbLine
 10
4195.0
 20
18389.00000000015
 30
0.0
 11
4195.0
 21
17876.5
 31
0.0
  0
LINE
  5
61668
330
5DD18
100
AcDbEntity
  8
D-STR-DIM
 62
     0
440
 16777216
370
    13
100
AcDbLine
 10
4295.0
 20
18389.00000000015
 30
0.0
 11
4295.0
 21
17876.5
 31
0.0
  0
LINE
  5
61669
330
5DD18
100
AcDbEntity
  8
D-STR-DIM
 62
     0
440
 16777216
370
    13
100
AcDbLine
 10
4155.0
 20
17901.49999999999
 30
0.0
 11
4115.0
 21
17901.49999999999
 31
0.0
  0
LINE
  5
6166A
330
5DD18
100
AcDbEntity
  8
D-STR-DIM
 62
     0
440
 16777216
370
    13
100
AcDbLine
 10
4335.0
 20
17901.49999999999
 30
0.0
 11
4375.0
 21
17901.49999999999
 31
0.0
  0
LINE
  5
6166B
330
5DD18
100
AcDbEntity
  8
D-STR-DIM
 62
     0
440
 16777216
370
    13
100
AcDbLine
 10
4195.0
 20
17901.49999999999
 30
0.0
 11
4295.0
 21
17901.49999999999
 31
0.0
  0
INSERT
  5
6166C
330
5DD18
100
AcDbEntity
  8
D-STR-DIM
 62
     0
440
 16777216
370
    13
100
AcDbBlockReference
  2
_OPEN
 10
4195.0
 20
17901.49999999999
 30
0.0
 41
40.0
 42
40.0
 43
40.0
  0
INSERT
  5
6166D
330
5DD18
100
AcDbEntity
  8
D-STR-DIM
 62
     0
440
 16777216
370
    13
100
AcDbBlockReference
  2
_OPEN
 10
4295.0
 20
17901.49999999999
 30
0.0
 41
40.0
 42
40.0
 43
40.0
 50
180.0
  0
MTEXT
  5
6166E
330
5DD18
100
AcDbEntity
  8
D-STR-DIM
 62
     0
440
 16777216
100
AcDbMText
 10
4245.0
 20
17948.99999999999
 30
0.0
 40
70.0
 41
0.0
 46
0.0
 71
     5
 72
     1
  1
100
 73
     1
 44
1.0
  0
POINT
  5
6166F
330
5DD18
100
AcDbEntity
  8
DEFPOINTS
 62
     0
440
 16777216
100
AcDbPoint
 10
4195.0
 20
18401.50000000015
 30
0.0
  0
POINT
  5
61670
330
5DD18
100
AcDbEntity
  8
DEFPOINTS
 62
     0
440
 16777216
100
AcDbPoint
 10
4295.0
 20
18401.50000000015
 30
0.0
  0
POINT
  5
61671
330
5DD18
100
AcDbEntity
  8
DEFPOINTS
 62
     0
440
 16777216
100
AcDbPoint
 10
4295.0
 20
17901.49999999999
 30
0.0
  0
ENDBLK
  5
5DD25
330
5DD18
100
AcDbEntity
  8
0
100
AcDbBlockEnd
  0
BLOCK
  5
5DD30
330
5DD26
100
AcDbEntity
  8
0
100
AcDbBlockBegin
  2
*D43
 70
     1
 10
0.0
 20
0.0
 30
0.0
  3
*D43
  1

  0
LINE
  5
6165E
330
5DD26
100
AcDbEntity
  8
D-STR-DIM
 62
     0
440
 16777216
370
    13
100
AcDbLine
 10
2625.0
 20
18389.00000000015
 30
0.0
 11
2625.0
 21
17876.5
 31
0.0
  0
LINE
  5
6165F
330
5DD26
100
AcDbEntity
  8
D-STR-DIM
 62
     0
440
 16777216
370
    13
100
AcDbLine
 10
4195.0
 20
18389.00000000015
 30
0.0
 11
4195.0
 21
17876.5
 31
0.0
  0
LINE
  5
61660
330
5DD26
100
AcDbEntity
  8
D-STR-DIM
 62
     0
440
 16777216
370
    13
100
AcDbLine
 10
2665.0
 20
17901.49999999999
 30
0.0
 11
4155.0
 21
17901.49999999999
 31
0.0
  0
INSERT
  5
61661
330
5DD26
100
AcDbEntity
  8
D-STR-DIM
 62
     0
440
 16777216
370
    13
100
AcDbBlockReference
  2
_OPEN
 10
2625.0
 20
17901.49999999999
 30
0.0
 41
40.0
 42
40.0
 43
40.0
 50
180.0
  0
INSERT
  5
61662
330
5DD26
100
AcDbEntity
  8
D-STR-DIM
 62
     0
440
 16777216
370
    13
100
AcDbBlockReference
  2
_OPEN
 10
4195.0
 20
17901.49999999999
 30
0.0
 41
40.0
 42
40.0
 43
40.0
  0
MTEXT
  5
61663
330
5DD26
100
AcDbEntity
  8
D-STR-DIM
 62
     0
440
 16777216
100
AcDbMText
 10
3410.0
 20
17948.99999999999
 30
0.0
 40
70.0
 41
0.0
 46
0.0
 71
     5
 72
     1
  1
1570
 73
     1
 44
1.0
  0
POINT
  5
61664
330
5DD26
100
AcDbEntity
  8
DEFPOINTS
 62
     0
440
 16777216
100
AcDbPoint
 10
2625.0
 20
18401.50000000015
 30
0.0
  0
POINT
  5
61665
330
5DD26
100
AcDbEntity
  8
DEFPOINTS
 62
     0
440
 16777216
100
AcDbPoint
 10
4195.0
 20
18401.50000000015
 30
0.0
  0
POINT
  5
61666
330
5DD26
100
AcDbEntity
  8
DEFPOINTS
 62
     0
440
 16777216
100
AcDbPoint
 10
4195.0
 20
17901.49999999999
 30
0.0
  0
ENDBLK
  5
5DD31
330
5DD26
100
AcDbEntity
  8
0
100
AcDbBlockEnd
  0
BLOCK
  5
5DD3E
330
5DD32
100
AcDbEntity
  8
0
100
AcDbBlockBegin
  2
*D44
 70
     1
 10
0.0
 20
0.0
 30
0.0
  3
*D44
  1

  0
LINE
  5
61653
330
5DD32
100
AcDbEntity
  8
D-STR-DIM
 62
     0
440
 16777216
370
    13
100
AcDbLine
 10
2525.0
 20
18389.00000000015
 30
0.0
 11
2525.0
 21
17876.5
 31
0.0
  0
LINE
  5
61654
330
5DD32
100
AcDbEntity
  8
D-STR-DIM
 62
     0
440
 16777216
370
    13
100
AcDbLine
 10
2625.0
 20
18389.00000000015
 30
0.0
 11
2625.0
 21
17876.5
 31
0.0
  0
LINE
  5
61655
330
5DD32
100
AcDbEntity
  8
D-STR-DIM
 62
     0
440
 16777216
370
    13
100
AcDbLine
 10
2485.0
 20
17901.49999999999
 30
0.0
 11
2445.0
 21
17901.49999999999
 31
0.0
  0
LINE
  5
61656
330
5DD32
100
AcDbEntity
  8
D-STR-DIM
 62
     0
440
 16777216
370
    13
100
AcDbLine
 10
2665.0
 20
17901.49999999999
 30
0.0
 11
2705.0
 21
17901.49999999999
 31
0.0
  0
LINE
  5
61657
330
5DD32
100
AcDbEntity
  8
D-STR-DIM
 62
     0
440
 16777216
370
    13
100
AcDbLine
 10
2525.0
 20
17901.49999999999
 30
0.0
 11
2625.0
 21
17901.49999999999
 31
0.0
  0
INSERT
  5
61658
330
5DD32
100
AcDbEntity
  8
D-STR-DIM
 62
     0
440
 16777216
370
    13
100
AcDbBlockReference
  2
_OPEN
 10
2525.0
 20
17901.49999999999
 30
0.0
 41
40.0
 42
40.0
 43
40.0
  0
INSERT
  5
61659
330
5DD32
100
AcDbEntity
  8
D-STR-DIM
 62
     0
440
 16777216
370
    13
100
AcDbBlockReference
  2
_OPEN
 10
2625.0
 20
17901.49999999999
 30
0.0
 41
40.0
 42
40.0
 43
40.0
 50
180.0
  0
MTEXT
  5
6165A
330
5DD32
100
AcDbEntity
  8
D-STR-DIM
 62
     0
440
 16777216
100
AcDbMText
 10
2575.0
 20
17948.99999999999
 30
0.0
 40
70.0
 41
0.0
 46
0.0
 71
     5
 72
     1
  1
100
 73
     1
 44
1.0
  0
POINT
  5
6165B
330
5DD32
100
AcDbEntity
  8
DEFPOINTS
 62
     0
440
 16777216
100
AcDbPoint
 10
2525.0
 20
18401.50000000015
 30
0.0
  0
POINT
  5
6165C
330
5DD32
100
AcDbEntity
  8
DEFPOINTS
 62
     0
440
 16777216
100
AcDbPoint
 10
2625.0
 20
18401.50000000015
 30
0.0
  0
POINT
  5
6165D
330
5DD32
100
AcDbEntity
  8
DEFPOINTS
 62
     0
440
 16777216
100
AcDbPoint
 10
2625.0
 20
17901.49999999999
 30
0.0
  0
ENDBLK
  5
5DD3F
330
5DD32
100
AcDbEntity
  8
0
100
AcDbBlockEnd
  0
BLOCK
  5
5DD4C
330
5DD40
100
AcDbEntity
  8
0
100
AcDbBlockBegin
  2
*D45
 70
     1
 10
0.0
 20
0.0
 30
0.0
  3
*D45
  1

  0
LINE
  5
61648
330
5DD40
100
AcDbEntity
  8
D-STR-DIM
 62
     0
440
 16777216
370
    13
100
AcDbLine
 10
2625.0
 20
18389.00000000015
 30
0.0
 11
2625.0
 21
18076.49999999995
 31
0.0
  0
LINE
  5
61649
330
5DD40
100
AcDbEntity
  8
D-STR-DIM
 62
     0
440
 16777216
370
    13
100
AcDbLine
 10
2780.0
 20
18389.00000000015
 30
0.0
 11
2780.0
 21
18076.49999999995
 31
0.0
  0
LINE
  5
6164A
330
5DD40
100
AcDbEntity
  8
D-STR-DIM
 62
     0
440
 16777216
370
    13
100
AcDbLine
 10
2585.0
 20
18101.49999999995
 30
0.0
 11
2545.0
 21
18101.49999999995
 31
0.0
  0
LINE
  5
6164B
330
5DD40
100
AcDbEntity
  8
D-STR-DIM
 62
     0
440
 16777216
370
    13
100
AcDbLine
 10
2820.0
 20
18101.49999999995
 30
0.0
 11
2860.0
 21
18101.49999999995
 31
0.0
  0
LINE
  5
6164C
330
5DD40
100
AcDbEntity
  8
D-STR-DIM
 62
     0
440
 16777216
370
    13
100
AcDbLine
 10
2625.0
 20
18101.49999999995
 30
0.0
 11
2780.0
 21
18101.49999999995
 31
0.0
  0
INSERT
  5
6164D
330
5DD40
100
AcDbEntity
  8
D-STR-DIM
 62
     0
440
 16777216
370
    13
100
AcDbBlockReference
  2
_OPEN
 10
2625.0
 20
18101.49999999995
 30
0.0
 41
40.0
 42
40.0
 43
40.0
  0
INSERT
  5
6164E
330
5DD40
100
AcDbEntity
  8
D-STR-DIM
 62
     0
440
 16777216
370
    13
100
AcDbBlockReference
  2
_OPEN
 10
2780.0
 20
18101.49999999995
 30
0.0
 41
40.0
 42
40.0
 43
40.0
 50
180.0
  0
MTEXT
  5
6164F
330
5DD40
100
AcDbEntity
  8
D-STR-DIM
 62
     0
440
 16777216
100
AcDbMText
 10
2702.500000000001
 20
18148.99999999995
 30
0.0
 40
70.0
 41
0.0
 46
0.0
 71
     5
 72
     1
  1
155
 73
     1
 44
1.0
  0
POINT
  5
61650
330
5DD40
100
AcDbEntity
  8
DEFPOINTS
 62
     0
440
 16777216
100
AcDbPoint
 10
2625.0
 20
18401.50000000015
 30
0.0
  0
POINT
  5
61651
330
5DD40
100
AcDbEntity
  8
DEFPOINTS
 62
     0
440
 16777216
100
AcDbPoint
 10
2780.0
 20
18401.50000000015
 30
0.0
  0
POINT
  5
61652
330
5DD40
100
AcDbEntity
  8
DEFPOINTS
 62
     0
440
 16777216
100
AcDbPoint
 10
2780.0
 20
18101.49999999995
 30
0.0
  0
ENDBLK
  5
5DD4D
330
5DD40
100
AcDbEntity
  8
0
100
AcDbBlockEnd
  0
BLOCK
  5
5DD5A
330
5DD4E
100
AcDbEntity
  8
0
100
AcDbBlockBegin
  2
*D46
 70
     1
 10
0.0
 20
0.0
 30
0.0
  3
*D46
  1

  0
LINE
  5
6163D
330
5DD4E
100
AcDbEntity
  8
D-STR-DIM
 62
     0
440
 16777216
370
    13
100
AcDbLine
 10
2612.5
 20
18721.50000000015
 30
0.0
 11
2300.000000000029
 21
18721.50000000015
 31
0.0
  0
LINE
  5
6163E
330
5DD4E
100
AcDbEntity
  8
D-STR-DIM
 62
     0
440
 16777216
370
    13
100
AcDbLine
 10
2612.5
 20
18876.50000000015
 30
0.0
 11
2300.000000000029
 21
18876.50000000015
 31
0.0
  0
LINE
  5
6163F
330
5DD4E
100
AcDbEntity
  8
D-STR-DIM
 62
     0
440
 16777216
370
    13
100
AcDbLine
 10
2325.000000000029
 20
18681.50000000015
 30
0.0
 11
2325.000000000029
 21
18641.50000000015
 31
0.0
  0
LINE
  5
61640
330
5DD4E
100
AcDbEntity
  8
D-STR-DIM
 62
     0
440
 16777216
370
    13
100
AcDbLine
 10
2325.000000000029
 20
18916.50000000015
 30
0.0
 11
2325.000000000029
 21
18956.50000000015
 31
0.0
  0
LINE
  5
61641
330
5DD4E
100
AcDbEntity
  8
D-STR-DIM
 62
     0
440
 16777216
370
    13
100
AcDbLine
 10
2325.000000000029
 20
18721.50000000015
 30
0.0
 11
2325.000000000029
 21
18876.50000000015
 31
0.0
  0
INSERT
  5
61642
330
5DD4E
100
AcDbEntity
  8
D-STR-DIM
 62
     0
440
 16777216
370
    13
100
AcDbBlockReference
  2
_OPEN
 10
2325.000000000029
 20
18721.50000000015
 30
0.0
 41
40.0
 42
40.0
 43
40.0
 50
90.0
  0
INSERT
  5
61643
330
5DD4E
100
AcDbEntity
  8
D-STR-DIM
 62
     0
440
 16777216
370
    13
100
AcDbBlockReference
  2
_OPEN
 10
2325.000000000029
 20
18876.50000000015
 30
0.0
 41
40.0
 42
40.0
 43
40.0
 50
270.0
  0
MTEXT
  5
61644
330
5DD4E
100
AcDbEntity
  8
D-STR-DIM
 62
     0
440
 16777216
100
AcDbMText
 10
2277.500000000026
 20
18799.00000000015
 30
0.0
 40
70.0
 41
0.0
 46
0.0
 71
     5
 72
     1
  1
155
 11
0.0000000000000001
 21
1.0
 31
0.0
 73
     1
 44
1.0
  0
POINT
  5
61645
330
5DD4E
100
AcDbEntity
  8
DEFPOINTS
 62
     0
440
 16777216
100
AcDbPoint
 10
2625.0
 20
18721.50000000015
 30
0.0
  0
POINT
  5
61646
330
5DD4E
100
AcDbEntity
  8
DEFPOINTS
 62
     0
440
 16777216
100
AcDbPoint
 10
2625.0
 20
18876.50000000015
 30
0.0
  0
POINT
  5
61647
330
5DD4E
100
AcDbEntity
  8
DEFPOINTS
 62
     0
440
 16777216
100
AcDbPoint
 10
2325.000000000029
 20
18876.50000000015
 30
0.0
  0
ENDBLK
  5
5DD5B
330
5DD4E
100
AcDbEntity
  8
0
100
AcDbBlockEnd
  0
BLOCK
  5
5DD68
330
5DD5C
100
AcDbEntity
  8
0
100
AcDbBlockBegin
  2
*D47
 70
     1
 10
0.0
 20
0.0
 30
0.0
  3
*D47
  1

  0
LINE
  5
61632
330
5DD5C
100
AcDbEntity
  8
D-STR-DIM
 62
     0
440
 16777216
370
    13
100
AcDbLine
 10
4207.5
 20
18721.50000000015
 30
0.0
 11
4519.999999999534
 21
18721.50000000015
 31
0.0
  0
LINE
  5
61633
330
5DD5C
100
AcDbEntity
  8
D-STR-DIM
 62
     0
440
 16777216
370
    13
100
AcDbLine
 10
4207.5
 20
18831.50000000015
 30
0.0
 11
4519.999999999534
 21
18831.50000000015
 31
0.0
  0
LINE
  5
61634
330
5DD5C
100
AcDbEntity
  8
D-STR-DIM
 62
     0
440
 16777216
370
    13
100
AcDbLine
 10
4494.999999999534
 20
18681.50000000015
 30
0.0
 11
4494.999999999534
 21
18641.50000000015
 31
0.0
  0
LINE
  5
61635
330
5DD5C
100
AcDbEntity
  8
D-STR-DIM
 62
     0
440
 16777216
370
    13
100
AcDbLine
 10
4494.999999999534
 20
18871.50000000015
 30
0.0
 11
4494.999999999534
 21
18911.50000000015
 31
0.0
  0
LINE
  5
61636
330
5DD5C
100
AcDbEntity
  8
D-STR-DIM
 62
     0
440
 16777216
370
    13
100
AcDbLine
 10
4494.999999999534
 20
18721.50000000015
 30
0.0
 11
4494.999999999534
 21
18831.50000000015
 31
0.0
  0
INSERT
  5
61637
330
5DD5C
100
AcDbEntity
  8
D-STR-DIM
 62
     0
440
 16777216
370
    13
100
AcDbBlockReference
  2
_OPEN
 10
4494.999999999534
 20
18721.50000000015
 30
0.0
 41
40.0
 42
40.0
 43
40.0
 50
90.0
  0
INSERT
  5
61638
330
5DD5C
100
AcDbEntity
  8
D-STR-DIM
 62
     0
440
 16777216
370
    13
100
AcDbBlockReference
  2
_OPEN
 10
4494.999999999534
 20
18831.50000000015
 30
0.0
 41
40.0
 42
40.0
 43
40.0
 50
270.0
  0
MTEXT
  5
61639
330
5DD5C
100
AcDbEntity
  8
D-STR-DIM
 62
     0
440
 16777216
100
AcDbMText
 10
4447.49999999953
 20
18776.50000000015
 30
0.0
 40
70.0
 41
0.0
 46
0.0
 71
     5
 72
     1
  1
110
 11
0.0000000000000001
 21
1.0
 31
0.0
 73
     1
 44
1.0
  0
POINT
  5
6163A
330
5DD5C
100
AcDbEntity
  8
DEFPOINTS
 62
     0
440
 16777216
100
AcDbPoint
 10
4195.0
 20
18721.50000000015
 30
0.0
  0
POINT
  5
6163B
330
5DD5C
100
AcDbEntity
  8
DEFPOINTS
 62
     0
440
 16777216
100
AcDbPoint
 10
4195.0
 20
18831.50000000015
 30
0.0
  0
POINT
  5
6163C
330
5DD5C
100
AcDbEntity
  8
DEFPOINTS
 62
     0
440
 16777216
100
AcDbPoint
 10
4494.999999999534
 20
18831.50000000015
 30
0.0
  0
ENDBLK
  5
5DD69
330
5DD5C
100
AcDbEntity
  8
0
100
AcDbBlockEnd
  0
BLOCK
  5
5DD76
330
5DD6A
100
AcDbEntity
  8
0
100
AcDbBlockBegin
  2
*D48
 70
     1
 10
0.0
 20
0.0
 30
0.0
  3
*D48
  1

  0
LINE
  5
61627
330
5DD6A
100
AcDbEntity
  8
D-STR-DIM
 62
     0
440
 16777216
370
    13
100
AcDbLine
 10
2625.0
 20
20934.00000000015
 30
0.0
 11
2625.0
 21
21246.50000000023
 31
0.0
  0
LINE
  5
61628
330
5DD6A
100
AcDbEntity
  8
D-STR-DIM
 62
     0
440
 16777216
370
    13
100
AcDbLine
 10
2735.0
 20
20934.00000000015
 30
0.0
 11
2735.0
 21
21246.50000000023
 31
0.0
  0
LINE
  5
61629
330
5DD6A
100
AcDbEntity
  8
D-STR-DIM
 62
     0
440
 16777216
370
    13
100
AcDbLine
 10
2585.0
 20
21221.50000000023
 30
0.0
 11
2545.0
 21
21221.50000000023
 31
0.0
  0
LINE
  5
6162A
330
5DD6A
100
AcDbEntity
  8
D-STR-DIM
 62
     0
440
 16777216
370
    13
100
AcDbLine
 10
2775.0
 20
21221.50000000023
 30
0.0
 11
2815.0
 21
21221.50000000023
 31
0.0
  0
LINE
  5
6162B
330
5DD6A
100
AcDbEntity
  8
D-STR-DIM
 62
     0
440
 16777216
370
    13
100
AcDbLine
 10
2625.0
 20
21221.50000000023
 30
0.0
 11
2735.0
 21
21221.50000000023
 31
0.0
  0
INSERT
  5
6162C
330
5DD6A
100
AcDbEntity
  8
D-STR-DIM
 62
     0
440
 16777216
370
    13
100
AcDbBlockReference
  2
_OPEN
 10
2625.0
 20
21221.50000000023
 30
0.0
 41
40.0
 42
40.0
 43
40.0
  0
INSERT
  5
6162D
330
5DD6A
100
AcDbEntity
  8
D-STR-DIM
 62
     0
440
 16777216
370
    13
100
AcDbBlockReference
  2
_OPEN
 10
2735.0
 20
21221.50000000023
 30
0.0
 41
40.0
 42
40.0
 43
40.0
 50
180.0
  0
MTEXT
  5
6162E
330
5DD6A
100
AcDbEntity
  8
D-STR-DIM
 62
     0
440
 16777216
100
AcDbMText
 10
2680.0
 20
21269.00000000023
 30
0.0
 40
70.0
 41
0.0
 46
0.0
 71
     5
 72
     1
  1
110
 73
     1
 44
1.0
  0
POINT
  5
6162F
330
5DD6A
100
AcDbEntity
  8
DEFPOINTS
 62
     0
440
 16777216
100
AcDbPoint
 10
2625.0
 20
20921.50000000015
 30
0.0
  0
POINT
  5
61630
330
5DD6A
100
AcDbEntity
  8
DEFPOINTS
 62
     0
440
 16777216
100
AcDbPoint
 10
2735.0
 20
20921.50000000015
 30
0.0
  0
POINT
  5
61631
330
5DD6A
100
AcDbEntity
  8
DEFPOINTS
 62
     0
440
 16777216
100
AcDbPoint
 10
2735.0
 20
21221.50000000023
 30
0.0
  0
ENDBLK
  5
5DD77
330
5DD6A
100
AcDbEntity
  8
0
100
AcDbBlockEnd
  0
ENDSEC
  0
SECTION
  2
ENTITIES
  0
DIMENSION
  5
5CA17
330
1F
100
AcDbEntity
  8
D-STR-DIM
100
AcDbDimension
280
     0
  2
*D1
 10
13045.0
 20
21221.50000000023
 30
0.0
 11
12845.0
 21
21269.00000000023
 31
0.0
 70
    32
 71
     5
 42
400.0
 73
     0
 74
     0
 75
     0
  3
SXF-20
100
AcDbAlignedDimension
 13
12645.0
 23
20921.50000000015
 33
0.0
 14
13045.0
 24
20621.50000000015
 34
0.0
100
AcDbRotatedDimension
  0
DIMENSION
  5
5CA18
330
1F
100
AcDbEntity
  8
D-STR-DIM
100
AcDbDimension
280
     0
  2
*D2
 10
13345.00000000012
 20
20621.50000000015
 30
0.0
 11
13297.50000000012
 21
20771.50000000016
 31
0.0
 70
    32
 71
     5
 42
300.0
 73
     0
 74
     0
 75
     0
  3
SXF-20
100
AcDbAlignedDimension
 13
12645.0
 23
20921.50000000015
 33
0.0
 14
13045.0
 24
20621.50000000015
 34
0.0
 50
90.0
100
AcDbRotatedDimension
  0
ELLIPSE
  5
5CA19
330
1F
100
AcDbEntity
  8
D-BGD
100
AcDbEllipse
 10
12682.16149654584
 20
20557.21082116939
 30
0.0
 11
11.16369874766583
 21
63.31248174732633
 31
0.0
210
0.0
220
0.0
230
0.9999999999999998
 40
0.5000000000000001
 41
-3.581447759845693
 42
1.234851249212713
  0
LINE
  5
5CA1A
330
1F
100
AcDbEntity
  8
D-BGD
100
AcDbLine
 10
12999.88299235514
 20
19121.50023769239
 30
0.0
 11
13008.90516539816
 21
19121.50023769239
 31
0.0
  0
ELLIPSE
  5
5CA1B
330
1F
100
AcDbEntity
  8
D-BGD
100
AcDbEllipse
 10
12945.26965219142
 20
19185.05803190828
 30
0.0
 11
11.16369874766583
 21
63.31248174732633
 31
0.0
210
0.0
220
0.0
230
0.9999999999999998
 40
0.5000000000000001
 41
1.396263401595463
 42
7.67944870877505
  0
ELLIPSE
  5
5CA1C
330
1F
100
AcDbEntity
  8
D-BGD
100
AcDbEllipse
 10
13011.04669110281
 20
19185.05803190828
 30
0.0
 11
11.16369874766583
 21
63.31248174732633
 31
0.0
210
0.0
220
0.0
230
0.9999999999999998
 40
0.5000000000000001
 41
1.396263401595463
 42
7.67944870877505
  0
ELLIPSE
  5
5CA1D
330
1F
100
AcDbEntity
  8
D-BGD
100
AcDbEllipse
 10
12879.49261328002
 20
19185.05803190828
 30
0.0
 11
11.16369874766583
 21
63.31248174732633
 31
0.0
210
0.0
220
0.0
230
0.9999999999999998
 40
0.5000000000000001
 41
1.396263401595463
 42
7.67944870877505
  0
ELLIPSE
  5
5CA1E
330
1F
100
AcDbEntity
  8
D-BGD
100
AcDbEllipse
 10
12813.71557436863
 20
19185.05803190828
 30
0.0
 11
11.16369874766583
 21
63.31248174732633
 31
0.0
210
0.0
220
0.0
230
0.9999999999999998
 40
0.5000000000000001
 41
1.396263401595463
 42
7.67944870877505
  0
ELLIPSE
  5
5CA1F
330
1F
100
AcDbEntity
  8
D-BGD
100
AcDbEllipse
 10
12747.93853545723
 20
19185.05803190828
 30
0.0
 11
11.16369874766583
 21
63.31248174732633
 31
0.0
210
0.0
220
0.0
230
0.9999999999999998
 40
0.5000000000000001
 41
1.396263401595463
 42
7.67944870877505
  0
LINE
  5
5CA20
330
1F
100
AcDbEntity
  8
D-BGD
100
AcDbLine
 10
12703.31533477322
 20
19121.50000000015
 30
0.0
 11
13045.0
 21
19121.50000000015
 31
0.0
  0
DIMENSION
  5
5CA21
330
1F
100
AcDbEntity
  8
D-STR-DIM
100
AcDbDimension
280
     0
  2
*D3
 10
13345.00000000007
 20
19121.50000000015
 30
0.0
 11
13297.50000000007
 21
19871.50000000015
 31
0.0
 70
    32
 71
     5
 42
1500.0
 73
     0
 74
     0
 75
     0
  3
SXF-20
100
AcDbAlignedDimension
 13
13045.0
 23
20621.50000000015
 33
0.0
 14
13045.0
 24
19121.50000000015
 34
0.0
 50
90.0
100
AcDbRotatedDimension
  0
ELLIPSE
  5
5CA22
330
1F
100
AcDbEntity
  8
D-BGD
100
AcDbEllipse
 10
12813.71557436863
 20
20557.21082116939
 30
0.0
 11
11.16369874766583
 21
63.31248174732633
 31
0.0
210
0.0
220
0.0
230
0.9999999999999998
 40
0.5000000000000001
 41
1.396263401595463
 42
7.67944870877505
  0
ELLIPSE
  5
5CA23
330
1F
100
AcDbEntity
  8
D-BGD
100
AcDbEllipse
 10
12747.93853545723
 20
20557.21082116939
 30
0.0
 11
11.16369874766583
 21
63.31248174732633
 31
0.0
210
0.0
220
0.0
230
0.9999999999999998
 40
0.5000000000000001
 41
1.396263401595463
 42
7.67944870877505
  0
ELLIPSE
  5
5CA24
330
1F
100
AcDbEntity
  8
D-BGD
100
AcDbEllipse
 10
12879.49261328002
 20
20557.21082116939
 30
0.0
 11
11.16369874766583
 21
63.31248174732633
 31
0.0
210
0.0
220
0.0
230
0.9999999999999998
 40
0.5000000000000001
 41
1.396263401595463
 42
7.67944870877505
  0
ELLIPSE
  5
5CA25
330
1F
100
AcDbEntity
  8
D-BGD
100
AcDbEllipse
 10
12945.26965219142
 20
20557.21082116939
 30
0.0
 11
11.16369874766583
 21
63.31248174732633
 31
0.0
210
0.0
220
0.0
230
0.9999999999999998
 40
0.5000000000000001
 41
1.396263401595463
 42
7.67944870877505
  0
ELLIPSE
  5
5CA26
330
1F
100
AcDbEntity
  8
D-BGD
100
AcDbEllipse
 10
13011.04669110281
 20
20557.21082116939
 30
0.0
 11
11.16369874766583
 21
63.31248174732633
 31
0.0
210
0.0
220
0.0
230
0.9999999999999998
 40
0.5000000000000001
 41
1.396263401595463
 42
7.67944870877505
  0
LINE
  5
5CA27
330
1F
100
AcDbEntity
  8
D-BGD
100
AcDbLine
 10
13045.0
 20
20621.50000000015
 30
0.0
 11
13045.0
 21
19121.50000000015
 31
0.0
  0
LINE
  5
5CA28
330
1F
100
AcDbEntity
  8
D-BGD
100
AcDbLine
 10
12654.7192224622
 20
20621.50000000015
 30
0.0
 11
13045.0
 21
20621.50000000015
 31
0.0
  0
DIMENSION
  5
5CA39
330
1F
100
AcDbEntity
  8
D-STR-DIM
100
AcDbDimension
280
     0
  2
*D4
 10
8405.000000000116
 20
20621.50000000015
 30
0.0
 11
8357.500000000113
 21
20771.50000000016
 31
0.0
 70
    32
 71
     5
 42
300.0
 73
     0
 74
     0
 75
     0
  3
SXF-20
100
AcDbAlignedDimension
 13
7705.0
 23
20921.50000000015
 33
0.0
 14
8105.0
 24
20621.50000000015
 34
0.0
 50
90.0
100
AcDbRotatedDimension
  0
DIMENSION
  5
5CA3A
330
1F
100
AcDbEntity
  8
D-STR-DIM
100
AcDbDimension
280
     0
  2
*D5
 10
8105.0
 20
21221.50000000023
 30
0.0
 11
7905.0
 21
21269.00000000023
 31
0.0
 70
    32
 71
     5
 42
400.0
 73
     0
 74
     0
 75
     0
  3
SXF-20
100
AcDbAlignedDimension
 13
7705.0
 23
20921.50000000015
 33
0.0
 14
8105.0
 24
20621.50000000015
 34
0.0
100
AcDbRotatedDimension
  0
ELLIPSE
  5
5CA3B
330
1F
100
AcDbEntity
  8
D-BGD
100
AcDbEllipse
 10
7742.161496545843
 20
20557.21082116939
 30
0.0
 11
11.16369874766583
 21
63.31248174732633
 31
0.0
210
0.0
220
0.0
230
0.9999999999999998
 40
0.5000000000000001
 41
-3.711592753955533
 42
1.341371445920366
  0
LINE
  5
5CA3C
330
1F
100
AcDbEntity
  8
D-BGD
100
AcDbLine
 10
8059.882992355147
 20
19321.50023769239
 30
0.0
 11
8068.905165398167
 21
19321.50023769239
 31
0.0
  0
ELLIPSE
  5
5CA3D
330
1F
100
AcDbEntity
  8
D-BGD
100
AcDbEllipse
 10
8005.269652191419
 20
19385.05803190828
 30
0.0
 11
11.16369874766583
 21
63.31248174732633
 31
0.0
210
0.0
220
0.0
230
0.9999999999999998
 40
0.5000000000000001
 41
1.396263401595463
 42
7.67944870877505
  0
ELLIPSE
  5
5CA3E
330
1F
100
AcDbEntity
  8
D-BGD
100
AcDbEllipse
 10
8071.046691102813
 20
19385.05803190828
 30
0.0
 11
11.16369874766583
 21
63.31248174732633
 31
0.0
210
0.0
220
0.0
230
0.9999999999999998
 40
0.5000000000000001
 41
1.396263401595463
 42
7.67944870877505
  0
ELLIPSE
  5
5CA3F
330
1F
100
AcDbEntity
  8
D-BGD
100
AcDbEllipse
 10
7939.492613280025
 20
19385.05803190828
 30
0.0
 11
11.16369874766583
 21
63.31248174732633
 31
0.0
210
0.0
220
0.0
230
0.9999999999999998
 40
0.5000000000000001
 41
1.396263401595463
 42
7.67944870877505
  0
ELLIPSE
  5
5CA40
330
1F
100
AcDbEntity
  8
D-BGD
100
AcDbEllipse
 10
7742.161496545843
 20
19385.05803190828
 30
0.0
 11
11.16369874766583
 21
63.31248174732633
 31
0.0
210
0.0
220
0.0
230
0.9999999999999998
 40
0.5000000000000001
 41
-2.684723253495068
 42
0.3145019454599436
  0
ELLIPSE
  5
5CA41
330
1F
100
AcDbEntity
  8
D-BGD
100
AcDbEllipse
 10
7873.715574368631
 20
19385.05803190828
 30
0.0
 11
11.16369874766583
 21
63.31248174732633
 31
0.0
210
0.0
220
0.0
230
0.9999999999999998
 40
0.5000000000000001
 41
1.396263401595463
 42
7.67944870877505
  0
ELLIPSE
  5
5CA42
330
1F
100
AcDbEntity
  8
D-BGD
100
AcDbEllipse
 10
7807.938535457236
 20
19385.05803190828
 30
0.0
 11
11.16369874766583
 21
63.31248174732633
 31
0.0
210
0.0
220
0.0
230
0.9999999999999998
 40
0.5000000000000001
 41
1.396263401595463
 42
7.67944870877505
  0
LINE
  5
5CA43
330
1F
100
AcDbEntity
  8
D-BGD
100
AcDbLine
 10
7746.217798594852
 20
19321.50000000015
 30
0.0
 11
8105.0
 21
19321.50000000015
 31
0.0
  0
DIMENSION
  5
5CA44
330
1F
100
AcDbEntity
  8
D-STR-DIM
100
AcDbDimension
280
     0
  2
*D6
 10
8405.000000000057
 20
19321.50000000015
 30
0.0
 11
8357.500000000056
 21
19971.50000000015
 31
0.0
 70
    32
 71
     5
 42
1300.0
 73
     0
 74
     0
 75
     0
  3
SXF-20
100
AcDbAlignedDimension
 13
8105.0
 23
20621.50000000015
 33
0.0
 14
8105.0
 24
19321.50000000015
 34
0.0
 50
90.0
100
AcDbRotatedDimension
  0
ELLIPSE
  5
5CA45
330
1F
100
AcDbEntity
  8
D-BGD
100
AcDbEllipse
 10
7873.715574368631
 20
20557.21082116939
 30
0.0
 11
11.16369874766583
 21
63.31248174732633
 31
0.0
210
0.0
220
0.0
230
0.9999999999999998
 40
0.5000000000000001
 41
1.396263401595463
 42
7.67944870877505
  0
ELLIPSE
  5
5CA46
330
1F
100
AcDbEntity
  8
D-BGD
100
AcDbEllipse
 10
7807.938535457236
 20
20557.21082116939
 30
0.0
 11
11.16369874766583
 21
63.31248174732633
 31
0.0
210
0.0
220
0.0
230
0.9999999999999998
 40
0.5000000000000001
 41
1.396263401595463
 42
7.67944870877505
  0
ELLIPSE
  5
5CA47
330
1F
100
AcDbEntity
  8
D-BGD
100
AcDbEllipse
 10
7939.492613280025
 20
20557.21082116939
 30
0.0
 11
11.16369874766583
 21
63.31248174732633
 31
0.0
210
0.0
220
0.0
230
0.9999999999999998
 40
0.5000000000000001
 41
1.396263401595463
 42
7.67944870877505
  0
ELLIPSE
  5
5CA48
330
1F
100
AcDbEntity
  8
D-BGD
100
AcDbEllipse
 10
8005.269652191419
 20
20557.21082116939
 30
0.0
 11
11.16369874766583
 21
63.31248174732633
 31
0.0
210
0.0
220
0.0
230
0.9999999999999998
 40
0.5000000000000001
 41
1.396263401595463
 42
7.67944870877505
  0
ELLIPSE
  5
5CA49
330
1F
100
AcDbEntity
  8
D-BGD
100
AcDbEllipse
 10
8071.046691102813
 20
20557.21082116939
 30
0.0
 11
11.16369874766583
 21
63.31248174732633
 31
0.0
210
0.0
220
0.0
230
0.9999999999999998
 40
0.5000000000000001
 41
1.396263401595463
 42
7.67944870877505
  0
LINE
  5
5CA4A
330
1F
100
AcDbEntity
  8
D-BGD
100
AcDbLine
 10
8105.0
 20
20621.50000000015
 30
0.0
 11
8105.0
 21
19321.50000000015
 31
0.0
  0
LINE
  5
5CA4B
330
1F
100
AcDbEntity
  8
D-BGD
100
AcDbLine
 10
7712.728337236534
 20
20621.50000000015
 30
0.0
 11
8105.0
 21
20621.50000000015
 31
0.0
  0
DIMENSION
  5
5CA5C
330
1F
100
AcDbEntity
  8
D-STR-DIM
100
AcDbDimension
280
     0
  2
*D7
 10
3135.0
 20
21221.50000000023
 30
0.0
 11
2935.0
 21
21269.00000000023
 31
0.0
 70
    32
 71
     5
 42
400.0
 73
     0
 74
     0
 75
     0
  3
SXF-20
100
AcDbAlignedDimension
 13
2735.0
 23
20921.50000000015
 33
0.0
 14
3135.0
 24
20621.50000000015
 34
0.0
100
AcDbRotatedDimension
  0
DIMENSION
  5
5CA5D
330
1F
100
AcDbEntity
  8
D-STR-DIM
100
AcDbDimension
280
     0
  2
*D8
 10
3435.000000000117
 20
20621.50000000015
 30
0.0
 11
3387.500000000113
 21
20771.50000000016
 31
0.0
 70
    32
 71
     5
 42
300.0
 73
     0
 74
     0
 75
     0
  3
SXF-20
100
AcDbAlignedDimension
 13
2735.0
 23
20921.50000000015
 33
0.0
 14
3135.0
 24
20621.50000000015
 34
0.0
 50
90.0
100
AcDbRotatedDimension
  0
ELLIPSE
  5
5CA5E
330
1F
100
AcDbEntity
  8
D-BGD
100
AcDbEllipse
 10
2772.161496545843
 20
20557.21082116939
 30
0.0
 11
11.16369874766583
 21
63.31248174732633
 31
0.0
210
0.0
220
0.0
230
0.9999999999999998
 40
0.5000000000000001
 41
-3.795342311387268
 42
1.411672253755413
  0
LINE
  5
5CA5F
330
1F
100
AcDbEntity
  8
D-BGD
100
AcDbLine
 10
3089.882992355146
 20
19421.50023769239
 30
0.0
 11
3098.905165398166
 21
19421.50023769239
 31
0.0
  0
ELLIPSE
  5
5CA60
330
1F
100
AcDbEntity
  8
D-BGD
100
AcDbEllipse
 10
3035.269652191419
 20
19485.05803190828
 30
0.0
 11
11.16369874766583
 21
63.31248174732633
 31
0.0
210
0.0
220
0.0
230
0.9999999999999998
 40
0.5000000000000001
 41
1.396263401595463
 42
7.67944870877505
  0
ELLIPSE
  5
5CA61
330
1F
100
AcDbEntity
  8
D-BGD
100
AcDbEllipse
 10
3101.046691102812
 20
19485.05803190828
 30
0.0
 11
11.16369874766583
 21
63.31248174732633
 31
0.0
210
0.0
220
0.0
230
0.9999999999999998
 40
0.5000000000000001
 41
1.396263401595463
 42
7.67944870877505
  0
ELLIPSE
  5
5CA62
330
1F
100
AcDbEntity
  8
D-BGD
100
AcDbEllipse
 10
2969.492613280025
 20
19485.05803190828
 30
0.0
 11
11.16369874766583
 21
63.31248174732633
 31
0.0
210
0.0
220
0.0
230
0.9999999999999998
 40
0.5000000000000001
 41
1.396263401595463
 42
7.67944870877505
  0
ELLIPSE
  5
5CA63
330
1F
100
AcDbEntity
  8
D-BGD
100
AcDbEllipse
 10
2772.161496545843
 20
19485.05803190828
 30
0.0
 11
11.16369874766583
 21
63.31248174732633
 31
0.0
210
0.0
220
0.0
230
0.9999999999999998
 40
0.5000000000000001
 41
-2.926967247606464
 42
0.5432971899745524
  0
ELLIPSE
  5
5CA64
330
1F
100
AcDbEntity
  8
D-BGD
100
AcDbEllipse
 10
2903.715574368631
 20
19485.05803190828
 30
0.0
 11
11.16369874766583
 21
63.31248174732633
 31
0.0
210
0.0
220
0.0
230
0.9999999999999998
 40
0.5000000000000001
 41
1.396263401595463
 42
7.67944870877505
  0
ELLIPSE
  5
5CA65
330
1F
100
AcDbEntity
  8
D-BGD
100
AcDbEllipse
 10
2837.938535457237
 20
19485.05803190828
 30
0.0
 11
11.16369874766583
 21
63.31248174732633
 31
0.0
210
0.0
220
0.0
230
0.9999999999999998
 40
0.5000000000000001
 41
1.396263401595463
 42
7.67944870877505
  0
LINE
  5
5CA66
330
1F
100
AcDbEntity
  8
D-BGD
100
AcDbLine
 10
2768.007334963324
 20
19421.50000000015
 30
0.0
 11
3135.0
 21
19421.50000000015
 31
0.0
  0
DIMENSION
  5
5CA67
330
1F
100
AcDbEntity
  8
D-STR-DIM
100
AcDbDimension
280
     0
  2
*D9
 10
3435.000000000052
 20
19421.50000000015
 30
0.0
 11
3387.500000000049
 21
20021.50000000015
 31
0.0
 70
    32
 71
     5
 42
1200.0
 73
     0
 74
     0
 75
     0
  3
SXF-20
100
AcDbAlignedDimension
 13
3135.0
 23
20621.50000000015
 33
0.0
 14
3135.0
 24
19421.50000000015
 34
0.0
 50
90.0
100
AcDbRotatedDimension
  0
ELLIPSE
  5
5CA68
330
1F
100
AcDbEntity
  8
D-BGD
100
AcDbEllipse
 10
2903.715574368631
 20
20557.21082116939
 30
0.0
 11
11.16369874766583
 21
63.31248174732633
 31
0.0
210
0.0
220
0.0
230
0.9999999999999998
 40
0.5000000000000001
 41
1.396263401595463
 42
7.67944870877505
  0
ELLIPSE
  5
5CA69
330
1F
100
AcDbEntity
  8
D-BGD
100
AcDbEllipse
 10
2837.938535457237
 20
20557.21082116939
 30
0.0
 11
11.16369874766583
 21
63.31248174732633
 31
0.0
210
0.0
220
0.0
230
0.9999999999999998
 40
0.5000000000000001
 41
1.396263401595463
 42
7.67944870877505
  0
ELLIPSE
  5
5CA6A
330
1F
100
AcDbEntity
  8
D-BGD
100
AcDbEllipse
 10
2969.492613280025
 20
20557.21082116939
 30
0.0
 11
11.16369874766583
 21
63.31248174732633
 31
0.0
210
0.0
220
0.0
230
0.9999999999999998
 40
0.5000000000000001
 41
1.396263401595463
 42
7.67944870877505
  0
ELLIPSE
  5
5CA6B
330
1F
100
AcDbEntity
  8
D-BGD
100
AcDbEllipse
 10
3035.269652191419
 20
20557.21082116939
 30
0.0
 11
11.16369874766583
 21
63.31248174732633
 31
0.0
210
0.0
220
0.0
230
0.9999999999999998
 40
0.5000000000000001
 41
1.396263401595463
 42
7.67944870877505
  0
ELLIPSE
  5
5CA6C
330
1F
100
AcDbEntity
  8
D-BGD
100
AcDbEllipse
 10
3101.046691102812
 20
20557.21082116939
 30
0.0
 11
11.16369874766583
 21
63.31248174732633
 31
0.0
210
0.0
220
0.0
230
0.9999999999999998
 40
0.5000000000000001
 41
1.396263401595463
 42
7.67944870877505
  0
LINE
  5
5CA6D
330
1F
100
AcDbEntity
  8
D-BGD
100
AcDbLine
 10
3135.0
 20
20621.50000000015
 30
0.0
 11
3135.0
 21
19421.50000000015
 31
0.0
  0
LINE
  5
5CA6E
330
1F
100
AcDbEntity
  8
D-BGD
100
AcDbLine
 10
2741.601466992666
 20
20621.50000000015
 30
0.0
 11
3135.0
 21
20621.50000000015
 31
0.0
  0
LINE
  5
5CBEA
330
1F
100
AcDbEntity
  8
DEFPOINTS
100
AcDbLine
 10
0.0
 20
11880.0
 30
0.0
 11
16820.0
 21
11880.0
 31
0.0
  0
LINE
  5
5CBF8
330
1F
100
AcDbEntity
  8
D-TTL
100
AcDbLine
 10
16520.0
 20
12180.0
 30
0.0
 11
300.0
 21
12180.0
 31
0.0
  0
LINE
  5
5CBF9
330
1F
100
AcDbEntity
  8
DEFPOINTS
100
AcDbLine
 10
16820.0
 20
23760.0
 30
0.0
 11
16820.0
 21
11880.0
 31
0.0
  0
LINE
  5
5CBFA
330
1F
100
AcDbEntity
  8
D-TTL
100
AcDbLine
 10
16520.0
 20
23460.0
 30
0.0
 11
16520.0
 21
12180.0
 31
0.0
  0
LINE
  5
5CBFB
330
1F
100
AcDbEntity
  8
DEFPOINTS
100
AcDbLine
 10
0.0
 20
11880.0
 30
0.0
 11
0.0
 21
23760.0
 31
0.0
  0
LINE
  5
5CBFC
330
1F
100
AcDbEntity
  8
D-TTL
100
AcDbLine
 10
300.0
 20
12180.0
 30
0.0
 11
300.0
 21
23460.0
 31
0.0
  0
LINE
  5
5CBFD
330
1F
100
AcDbEntity
  8
DEFPOINTS
100
AcDbLine
 10
0.0
 20
23760.0
 30
0.0
 11
16820.0
 21
23760.0
 31
0.0
  0
LINE
  5
5CBFE
330
1F
100
AcDbEntity
  8
D-TTL
100
AcDbLine
 10
300.0
 20
23460.0
 30
0.0
 11
16520.0
 21
23460.0
 31
0.0
  0
ARC
  5
5CD8B
330
1F
100
AcDbEntity
  8
D-STR
100
AcDbCircle
 10
12962.39886361608
 20
18845.1703570065
 30
0.0
 40
250.0
100
AcDbArc
 50
181.8555857364804
 51
267.2562950237712
  0
LINE
  5
5CD8C
330
1F
100
AcDbEntity
  8
D-STR
100
AcDbLine
 10
12645.0
 20
20921.50000000015
 30
0.0
 11
12712.52995943458
 21
18837.07525211941
 31
0.0
  0
LINE
  5
5CD8D
330
1F
100
AcDbEntity
  8
D-STR
100
AcDbLine
 10
14285.0
 20
18531.50000000015
 30
0.0
 11
12950.43176714931
 21
18595.45694406648
 31
0.0
  0
DIMENSION
  5
5CDD2
330
1F
100
AcDbEntity
  8
D-STR-DIM
100
AcDbDimension
280
     0
  2
*D10
 10
11815.0
 20
18401.50000000015
 30
0.0
 11
11767.5
 21
18411.50000000016
 31
0.0
 70
    32
 71
     5
 42
20.0
 73
     0
 74
     0
 75
     0
  3
SXF-20
100
AcDbAlignedDimension
 13
12535.0
 23
18421.50000000015
 33
0.0
 14
12435.0
 24
18401.50000000015
 34
0.0
 50
90.0
100
AcDbRotatedDimension
  0
DIMENSION
  5
5CDD3
330
1F
100
AcDbEntity
  8
D-STR-DIM
100
AcDbDimension
280
     0
  2
*D11
 10
11814.99999999988
 20
18301.50000000015
 30
0.0
 11
11884.99999999988
 21
18351.50000000016
 31
0.0
 70
    32
 71
     5
 42
100.0
 73
     0
 74
     0
 75
     0
  3
SXF-20
100
AcDbAlignedDimension
 13
12435.0
 23
18401.50000000015
 33
0.0
 14
12435.0
 24
18301.50000000015
 34
0.0
 50
90.0
100
AcDbRotatedDimension
1001
ACAD
1000
DSTYLE
1002
{
1070
    77
1070
     0
1070
   145
1040
-1.0
1002
}
  0
DIMENSION
  5
5CDD4
330
1F
100
AcDbEntity
  8
D-STR-DIM
100
AcDbDimension
280
     0
  2
*D12
 10
11815.0
 20
18101.50000000015
 30
0.0
 11
11767.5
 21
18201.50000000015
 31
0.0
 70
    32
 71
     5
 42
200.0
 73
     0
 74
     0
 75
     0
  3
SXF-20
100
AcDbAlignedDimension
 13
12435.0
 23
18301.50000000015
 33
0.0
 14
12435.0
 24
18101.50000000015
 34
0.0
 50
90.0
100
AcDbRotatedDimension
  0
DIMENSION
  5
5CDE3
330
1F
100
AcDbEntity
  8
D-STR-DIM
100
AcDbDimension
280
     0
  2
*D13
 10
11814.99999999993
 20
20921.50000000015
 30
0.0
 11
11767.49999999993
 21
19671.50000000015
 31
0.0
 70
    32
 71
     5
 42
2500.0
 73
     0
 74
     0
 75
     0
  3
SXF-20
100
AcDbAlignedDimension
 13
12535.0
 23
18421.50000000015
 33
0.0
 14
12535.0
 24
20921.50000000015
 34
0.0
 50
90.0
100
AcDbRotatedDimension
  0
DIMENSION
  5
5CDE4
330
1F
100
AcDbEntity
  8
D-STR-DIM
100
AcDbDimension
280
     0
  2
*D14
 10
12014.99999999994
 20
19221.50000000015
 30
0.0
 11
11967.49999999994
 21
18821.50000000016
 31
0.0
 70
    32
 71
     5
 42
800.0
 73
     0
 74
     0
 75
     0
  3
SXF-20
100
AcDbAlignedDimension
 13
12535.0
 23
18421.50000000015
 33
0.0
 14
12515.0
 24
19221.50000000015
 34
0.0
 50
90.0
100
AcDbRotatedDimension
  0
LINE
  5
5CDE5
330
1F
100
AcDbEntity
  8
D-BMK
100
AcDbLine
 10
12515.0
 20
19221.50000000015
 30
0.0
 11
12720.07559395249
 21
19221.50000000015
 31
0.0
  0
LINE
  5
5CDE6
330
1F
100
AcDbEntity
  8
D-STR
  6
SXF_破線
100
AcDbLine
 10
12535.0
 20
19184.00000000015
 30
0.0
 11
12701.29049676026
 21
19184.00000000015
 31
0.0
  0
LINE
  5
5CDE7
330
1F
100
AcDbEntity
  8
D-STR
  6
SXF_破線
100
AcDbLine
 10
12535.0
 20
19259.00000000015
 30
0.0
 11
12698.86069114471
 21
19259.00000000015
 31
0.0
  0
POLYLINE
  5
5CDE8
330
1F
100
AcDbEntity
  8
D-STR-HTXT
  6
Continuous
100
AcDb2dPolyline
 66
     1
 10
0.0
 20
0.0
 30
0.0
  0
VERTEX
  5
5CDE9
330
5CDE8
100
AcDbEntity
  8
D-STR-HTXT
  6
Continuous
100
AcDbVertex
100
AcDb2dVertex
 10
12801.93508792465
 20
18694.51776740169
 30
0.0
  0
VERTEX
  5
5CDEA
330
5CDE8
100
AcDbEntity
  8
D-STR-HTXT
  6
Continuous
100
AcDbVertex
100
AcDb2dVertex
 10
12784.25741839498
 20
18669.76903006016
 30
0.0
  0
VERTEX
  5
5CDEB
330
5CDE8
100
AcDbEntity
  8
D-STR-HTXT
  6
Continuous
100
AcDbVertex
100
AcDb2dVertex
 10
12809.00615573651
 20
18687.44669958982
 30
0.0
  0
SEQEND
  5
5CDEC
330
5CDE8
100
AcDbEntity
  8
D-STR-HTXT
  6
Continuous
  0
LEADER
  5
5CDED
330
1F
100
AcDbEntity
  8
D-STR-HTXT
100
AcDbLeader
  3
SXF-20
 71
     0
 73
     0
 76
     3
 10
12784.25741839498
 20
18669.76903006016
 30
0.0
 10
12833.23710599937
 20
18718.74871766454
 30
0.0
 10
12971.83003511194
 20
18857.3416467771
 30
0.0
211
0.7071067811865755
221
0.7071067811865197
231
0.0
  0
DIMENSION
  5
5CDF0
330
1F
100
AcDbEntity
  8
D-STR-DIM
100
AcDbDimension
280
     0
  2
*D15
 10
14385.0
 20
17401.50000000001
 30
0.0
 11
13410.0
 21
17449.00000000001
 31
0.0
 70
    32
 71
     5
 42
1950.0
 73
     0
 74
     0
 75
     0
  3
SXF-20
100
AcDbAlignedDimension
 13
12435.0
 23
18101.50000000015
 33
0.0
 14
14385.0
 24
18101.50000000015
 34
0.0
100
AcDbRotatedDimension
  0
DIMENSION
  5
5CDF1
330
1F
100
AcDbEntity
  8
D-STR-DIM
100
AcDbDimension
280
     0
  2
*D16
 10
14385.0
 20
17601.49999999999
 30
0.0
 11
14335.0
 21
17648.99999999999
 31
0.0
 70
    32
 71
     5
 42
100.0
 73
     0
 74
     0
 75
     0
  3
SXF-20
100
AcDbAlignedDimension
 13
14285.0
 23
18101.50000000015
 33
0.0
 14
14385.0
 24
18101.50000000015
 34
0.0
100
AcDbRotatedDimension
  0
DIMENSION
  5
5CDF2
330
1F
100
AcDbEntity
  8
D-STR-DIM
100
AcDbDimension
280
     0
  2
*D17
 10
14285.0
 20
17601.49999999999
 30
0.0
 11
13410.0
 21
17648.99999999999
 31
0.0
 70
    32
 71
     5
 42
1750.0
 73
     0
 74
     0
 75
     0
  3
SXF-20
100
AcDbAlignedDimension
 13
12535.0
 23
18101.50000000015
 33
0.0
 14
14285.0
 24
18101.50000000015
 34
0.0
100
AcDbRotatedDimension
  0
DIMENSION
  5
5CDF3
330
1F
100
AcDbEntity
  8
D-STR-DIM
100
AcDbDimension
280
     0
  2
*D18
 10
12535.0
 20
17601.49999999999
 30
0.0
 11
12485.0
 21
17648.99999999999
 31
0.0
 70
    32
 71
     5
 42
100.0
 73
     0
 74
     0
 75
     0
  3
SXF-20
100
AcDbAlignedDimension
 13
12435.0
 23
18101.50000000015
 33
0.0
 14
12535.0
 24
18101.50000000015
 34
0.0
100
AcDbRotatedDimension
  0
ELLIPSE
  5
5CDF4
330
1F
100
AcDbEntity
  8
D-BGD
100
AcDbEllipse
 10
14127.55793940741
 20
18201.50000000015
 30
0.0
 11
17.36481776669304
 21
98.48077530122081
 31
0.0
210
0.0
220
0.0
230
1.0
 40
0.5000000000000002
 41
1.396263401595463
 42
7.67944870877505
  0
ELLIPSE
  5
5CDF5
330
1F
100
AcDbEntity
  8
D-BGD
100
AcDbEllipse
 10
14229.87226369602
 20
18201.50000000015
 30
0.0
 11
17.36481776669304
 21
98.48077530122081
 31
0.0
210
0.0
220
0.0
230
1.0
 40
0.5000000000000002
 41
1.396263401595463
 42
7.67944870877505
  0
ELLIPSE
  5
5CDF6
330
1F
100
AcDbEntity
  8
D-BGD
100
AcDbEllipse
 10
14332.18658798464
 20
18201.50000000015
 30
0.0
 11
17.36481776669304
 21
98.48077530122081
 31
0.0
210
0.0
220
0.0
230
1.0
 40
0.5000000000000002
 41
1.396263401595463
 42
7.67944870877505
  0
ELLIPSE
  5
5CDF7
330
1F
100
AcDbEntity
  8
D-BGD
100
AcDbEllipse
 10
12692.44206059259
 20
18201.50000000015
 30
0.0
 11
17.36481776669304
 21
98.48077530122081
 31
0.0
210
0.0
220
0.0
230
1.0
 40
0.5000000000000002
 41
1.396263401595463
 42
7.67944870877505
  0
ELLIPSE
  5
5CDF8
330
1F
100
AcDbEntity
  8
D-BGD
100
AcDbEllipse
 10
12590.12773630398
 20
18201.50000000015
 30
0.0
 11
17.36481776669304
 21
98.48077530122081
 31
0.0
210
0.0
220
0.0
230
1.0
 40
0.5000000000000002
 41
1.396263401595463
 42
7.67944870877505
  0
ELLIPSE
  5
5CDF9
330
1F
100
AcDbEntity
  8
D-BGD
100
AcDbEllipse
 10
12487.81341201538
 20
18201.50000000015
 30
0.0
 11
17.36481776669304
 21
98.48077530122081
 31
0.0
210
0.0
220
0.0
230
1.0
 40
0.5000000000000002
 41
1.396263401595463
 42
7.67944870877505
  0
LINE
  5
5CDFA
330
1F
100
AcDbEntity
  8
D-BGD
100
AcDbLine
 10
14285.0
 20
18421.50000000015
 30
0.0
 11
14285.0
 21
18401.50000000015
 31
0.0
  0
LINE
  5
5CDFB
330
1F
100
AcDbEntity
  8
D-BGD
100
AcDbLine
 10
12535.0
 20
18421.50000000015
 30
0.0
 11
12535.0
 21
18401.50000000015
 31
0.0
  0
LINE
  5
5CDFC
330
1F
100
AcDbEntity
  8
D-BGD
100
AcDbLine
 10
12435.0
 20
18101.50000000015
 30
0.0
 11
12435.0
 21
18401.50000000015
 31
0.0
  0
LINE
  5
5CDFD
330
1F
100
AcDbEntity
  8
D-BGD
100
AcDbLine
 10
14385.0
 20
18101.50000000015
 30
0.0
 11
14385.0
 21
18401.50000000015
 31
0.0
  0
LINE
  5
5CDFE
330
1F
100
AcDbEntity
  8
D-BGD
100
AcDbLine
 10
12435.0
 20
18101.50000000015
 30
0.0
 11
14385.0
 21
18101.50000000015
 31
0.0
  0
LINE
  5
5CDFF
330
1F
100
AcDbEntity
  8
D-BGD
100
AcDbLine
 10
12435.0
 20
18301.50000000015
 30
0.0
 11
14385.0
 21
18301.50000000015
 31
0.0
  0
LINE
  5
5CE00
330
1F
100
AcDbEntity
  8
D-BGD
100
AcDbLine
 10
12435.0
 20
18401.50000000015
 30
0.0
 11
14385.0
 21
18401.50000000015
 31
0.0
  0
DIMENSION
  5
5CE01
330
1F
100
AcDbEntity
  8
D-STR-DIM
100
AcDbDimension
280
     0
  2
*D19
 10
12720.0
 20
17801.49999999998
 30
0.0
 11
12627.5
 21
17848.99999999998
 31
0.0
 70
    32
 71
     5
 42
185.0
 73
     0
 74
     0
 75
     0
  3
SXF-20
100
AcDbAlignedDimension
 13
12535.0
 23
18101.50000000015
 33
0.0
 14
12720.0
 24
18101.50000000015
 34
0.0
100
AcDbRotatedDimension
  0
DIMENSION
  5
5CE02
330
1F
100
AcDbEntity
  8
D-STR-DIM
100
AcDbDimension
280
     0
  2
*D20
 10
12235.0
 20
18606.50000000015
 30
0.0
 11
12187.5
 21
18514.00000000015
 31
0.0
 70
    32
 71
     5
 42
185.0
 73
     0
 74
     0
 75
     0
  3
SXF-20
100
AcDbAlignedDimension
 13
12535.0
 23
18421.50000000015
 33
0.0
 14
12535.0
 24
18606.50000000015
 34
0.0
 50
90.0
100
AcDbRotatedDimension
  0
DIMENSION
  5
5CE03
330
1F
100
AcDbEntity
  8
D-STR-DIM
100
AcDbDimension
280
     0
  2
*D21
 10
14584.99999999947
 20
18531.50000000015
 30
0.0
 11
14537.49999999947
 21
18476.50000000015
 31
0.0
 70
    32
 71
     5
 42
110.0
 73
     0
 74
     0
 75
     0
  3
SXF-20
100
AcDbAlignedDimension
 13
14285.0
 23
18421.50000000015
 33
0.0
 14
14285.0
 24
18531.50000000015
 34
0.0
 50
90.0
100
AcDbRotatedDimension
  0
DIMENSION
  5
5CE04
330
1F
100
AcDbEntity
  8
D-STR-DIM
100
AcDbDimension
280
     0
  2
*D22
 10
12645.0
 20
21221.50000000023
 30
0.0
 11
12590.0
 21
21269.00000000023
 31
0.0
 70
    32
 71
     5
 42
110.0
 73
     0
 74
     0
 75
     0
  3
SXF-20
100
AcDbAlignedDimension
 13
12535.0
 23
20921.50000000015
 33
0.0
 14
12645.0
 24
20921.50000000015
 34
0.0
100
AcDbRotatedDimension
  0
LINE
  5
5CE05
330
1F
100
AcDbEntity
  8
D-STR
100
AcDbLine
 10
12535.0
 20
20921.50000000015
 30
0.0
 11
12645.0
 21
20921.50000000015
 31
0.0
  0
LINE
  5
5CE06
330
1F
100
AcDbEntity
  8
D-STR
100
AcDbLine
 10
14285.0
 20
18421.50000000015
 30
0.0
 11
14285.0
 21
18531.50000000015
 31
0.0
  0
LINE
  5
5CE07
330
1F
100
AcDbEntity
  8
D-STR
100
AcDbLine
 10
12535.0
 20
18421.50000000015
 30
0.0
 11
14285.0
 21
18421.50000000015
 31
0.0
  0
LINE
  5
5CE08
330
1F
100
AcDbEntity
  8
D-STR
100
AcDbLine
 10
12535.0
 20
20921.50000000015
 30
0.0
 11
12535.0
 21
18421.50000000015
 31
0.0
  0
ARC
  5
5CE0B
330
1F
100
AcDbEntity
  8
D-STR
100
AcDbCircle
 10
8003.873983188597
 20
19027.52044084916
 30
0.0
 40
250.0
100
AcDbArc
 50
181.4756773081386
 51
267.8499736490467
  0
LINE
  5
5CE0C
330
1F
100
AcDbEntity
  8
D-STR
100
AcDbLine
 10
7705.0
 20
20921.50000000015
 30
0.0
 11
7753.956896362281
 21
19021.08229575528
 31
0.0
  0
LINE
  5
5CE0D
330
1F
100
AcDbEntity
  8
D-STR
100
AcDbLine
 10
9225.0
 20
18731.50000000015
 30
0.0
 11
7994.494924995946
 21
18777.6964362631
 31
0.0
  0
DIMENSION
  5
5CE52
330
1F
100
AcDbEntity
  8
D-STR-DIM
100
AcDbDimension
280
     0
  2
*D23
 10
6874.999999999825
 20
18601.50000000015
 30
0.0
 11
6827.499999999822
 21
18611.50000000015
 31
0.0
 70
    32
 71
     5
 42
20.0
 73
     0
 74
     0
 75
     0
  3
SXF-20
100
AcDbAlignedDimension
 13
7595.0
 23
18621.50000000015
 33
0.0
 14
7495.0
 24
18601.50000000015
 34
0.0
 50
90.0
100
AcDbRotatedDimension
  0
DIMENSION
  5
5CE53
330
1F
100
AcDbEntity
  8
D-STR-DIM
100
AcDbDimension
280
     0
  2
*D24
 10
6875.0
 20
18501.50000000015
 30
0.0
 11
6944.999999999996
 21
18551.50000000015
 31
0.0
 70
    32
 71
     5
 42
100.0
 73
     0
 74
     0
 75
     0
  3
SXF-20
100
AcDbAlignedDimension
 13
7495.0
 23
18601.50000000015
 33
0.0
 14
7495.0
 24
18501.50000000015
 34
0.0
 50
90.0
100
AcDbRotatedDimension
1001
ACAD
1000
DSTYLE
1002
{
1070
    77
1070
     0
1070
   145
1040
-1.0
1002
}
  0
DIMENSION
  5
5CE54
330
1F
100
AcDbEntity
  8
D-STR-DIM
100
AcDbDimension
280
     0
  2
*D25
 10
6874.999999999971
 20
18301.50000000015
 30
0.0
 11
6827.499999999968
 21
18401.50000000015
 31
0.0
 70
    32
 71
     5
 42
200.0
 73
     0
 74
     0
 75
     0
  3
SXF-20
100
AcDbAlignedDimension
 13
7495.0
 23
18501.50000000015
 33
0.0
 14
7495.0
 24
18301.50000000015
 34
0.0
 50
90.0
100
AcDbRotatedDimension
  0
DIMENSION
  5
5CE63
330
1F
100
AcDbEntity
  8
D-STR-DIM
100
AcDbDimension
280
     0
  2
*D26
 10
6874.999999999935
 20
20921.50000000015
 30
0.0
 11
6827.499999999931
 21
19771.50000000015
 31
0.0
 70
    32
 71
     5
 42
2300.0
 73
     0
 74
     0
 75
     0
  3
SXF-20
100
AcDbAlignedDimension
 13
7595.0
 23
18621.50000000015
 33
0.0
 14
7595.0
 24
20921.50000000015
 34
0.0
 50
90.0
100
AcDbRotatedDimension
  0
DIMENSION
  5
5CE64
330
1F
100
AcDbEntity
  8
D-STR-DIM
100
AcDbDimension
280
     0
  2
*D27
 10
7074.999999999949
 20
19421.50000000015
 30
0.0
 11
7027.499999999945
 21
19021.50000000015
 31
0.0
 70
    32
 71
     5
 42
800.0
 73
     0
 74
     0
 75
     0
  3
SXF-20
100
AcDbAlignedDimension
 13
7595.0
 23
18621.50000000015
 33
0.0
 14
7575.0
 24
19421.50000000015
 34
0.0
 50
90.0
100
AcDbRotatedDimension
  0
LINE
  5
5CE65
330
1F
100
AcDbEntity
  8
D-BMK
100
AcDbLine
 10
7575.0
 20
19421.50000000015
 30
0.0
 11
7763.641686182673
 21
19421.50000000015
 31
0.0
  0
LINE
  5
5CE66
330
1F
100
AcDbEntity
  8
D-STR
  6
SXF_破線
100
AcDbLine
 10
7595.0
 20
19384.00000000015
 30
0.0
 11
7744.607728337236
 21
19384.00000000015
 31
0.0
  0
LINE
  5
5CE67
330
1F
100
AcDbEntity
  8
D-STR
  6
SXF_破線
100
AcDbLine
 10
7595.0
 20
19459.00000000015
 30
0.0
 11
7742.675644028103
 21
19459.00000000015
 31
0.0
  0
POLYLINE
  5
5CE68
330
1F
100
AcDbEntity
  8
D-STR-HTXT
  6
Continuous
100
AcDb2dPolyline
 66
     1
 10
0.0
 20
0.0
 30
0.0
  0
VERTEX
  5
5CE69
330
5CE68
100
AcDbEntity
  8
D-STR-HTXT
  6
Continuous
100
AcDbVertex
100
AcDb2dVertex
 10
7843.737727910301
 20
18876.53583433021
 30
0.0
  0
VERTEX
  5
5CE6A
330
5CE68
100
AcDbEntity
  8
D-STR-HTXT
  6
Continuous
100
AcDbVertex
100
AcDb2dVertex
 10
7826.060058380638
 20
18851.78709698868
 30
0.0
  0
VERTEX
  5
5CE6B
330
5CE68
100
AcDbEntity
  8
D-STR-HTXT
  6
Continuous
100
AcDbVertex
100
AcDb2dVertex
 10
7850.808795722165
 20
18869.46476651835
 30
0.0
  0
SEQEND
  5
5CE6C
330
5CE68
100
AcDbEntity
  8
D-STR-HTXT
  6
Continuous
  0
LEADER
  5
5CE6D
330
1F
100
AcDbEntity
  8
D-STR-HTXT
100
AcDbLeader
  3
SXF-20
 71
     0
 73
     0
 76
     3
 10
7826.060058380638
 20
18851.78709698868
 30
0.0
 10
7875.039745985029
 20
18900.76678459307
 30
0.0
 10
8013.632675097595
 20
19039.35971370563
 30
0.0
211
0.7071067811865662
221
0.7071067811865291
231
0.0
  0
DIMENSION
  5
5CE70
330
1F
100
AcDbEntity
  8
D-STR-DIM
100
AcDbDimension
280
     0
  2
*D28
 10
9325.0
 20
17601.50000000001
 30
0.0
 11
8410.0
 21
17649.00000000001
 31
0.0
 70
    32
 71
     5
 42
1830.0
 73
     0
 74
     0
 75
     0
  3
SXF-20
100
AcDbAlignedDimension
 13
7495.0
 23
18301.50000000015
 33
0.0
 14
9325.0
 24
18301.50000000015
 34
0.0
100
AcDbRotatedDimension
  0
DIMENSION
  5
5CE71
330
1F
100
AcDbEntity
  8
D-STR-DIM
100
AcDbDimension
280
     0
  2
*D29
 10
9325.0
 20
17801.49999999999
 30
0.0
 11
9275.0
 21
17848.99999999999
 31
0.0
 70
    32
 71
     5
 42
100.0
 73
     0
 74
     0
 75
     0
  3
SXF-20
100
AcDbAlignedDimension
 13
9225.0
 23
18301.50000000015
 33
0.0
 14
9325.0
 24
18301.50000000015
 34
0.0
100
AcDbRotatedDimension
  0
DIMENSION
  5
5CE72
330
1F
100
AcDbEntity
  8
D-STR-DIM
100
AcDbDimension
280
     0
  2
*D30
 10
9225.0
 20
17801.49999999999
 30
0.0
 11
8410.0
 21
17848.99999999999
 31
0.0
 70
    32
 71
     5
 42
1630.0
 73
     0
 74
     0
 75
     0
  3
SXF-20
100
AcDbAlignedDimension
 13
7595.0
 23
18301.50000000015
 33
0.0
 14
9225.0
 24
18301.50000000015
 34
0.0
100
AcDbRotatedDimension
  0
DIMENSION
  5
5CE73
330
1F
100
AcDbEntity
  8
D-STR-DIM
100
AcDbDimension
280
     0
  2
*D31
 10
7595.0
 20
17801.49999999999
 30
0.0
 11
7545.0
 21
17848.99999999999
 31
0.0
 70
    32
 71
     5
 42
100.0
 73
     0
 74
     0
 75
     0
  3
SXF-20
100
AcDbAlignedDimension
 13
7495.0
 23
18301.50000000015
 33
0.0
 14
7595.0
 24
18301.50000000015
 34
0.0
100
AcDbRotatedDimension
  0
ELLIPSE
  5
5CE74
330
1F
100
AcDbEntity
  8
D-BGD
100
AcDbEllipse
 10
9067.557939407416
 20
18401.50000000015
 30
0.0
 11
17.36481776669304
 21
98.48077530122081
 31
0.0
210
0.0
220
0.0
230
1.0
 40
0.5000000000000002
 41
1.396263401595463
 42
7.67944870877505
  0
ELLIPSE
  5
5CE75
330
1F
100
AcDbEntity
  8
D-BGD
100
AcDbEllipse
 10
9169.872263696023
 20
18401.50000000015
 30
0.0
 11
17.36481776669304
 21
98.48077530122081
 31
0.0
210
0.0
220
0.0
230
1.0
 40
0.5000000000000002
 41
1.396263401595463
 42
7.67944870877505
  0
ELLIPSE
  5
5CE76
330
1F
100
AcDbEntity
  8
D-BGD
100
AcDbEllipse
 10
9272.186587984638
 20
18401.50000000015
 30
0.0
 11
17.36481776669304
 21
98.48077530122081
 31
0.0
210
0.0
220
0.0
230
1.0
 40
0.5000000000000002
 41
1.396263401595463
 42
7.67944870877505
  0
ELLIPSE
  5
5CE77
330
1F
100
AcDbEntity
  8
D-BGD
100
AcDbEllipse
 10
7752.442060592591
 20
18401.50000000015
 30
0.0
 11
17.36481776669304
 21
98.48077530122081
 31
0.0
210
0.0
220
0.0
230
1.0
 40
0.5000000000000002
 41
1.396263401595463
 42
7.67944870877505
  0
ELLIPSE
  5
5CE78
330
1F
100
AcDbEntity
  8
D-BGD
100
AcDbEllipse
 10
7650.127736303985
 20
18401.50000000015
 30
0.0
 11
17.36481776669304
 21
98.48077530122081
 31
0.0
210
0.0
220
0.0
230
1.0
 40
0.5000000000000002
 41
1.396263401595463
 42
7.67944870877505
  0
ELLIPSE
  5
5CE79
330
1F
100
AcDbEntity
  8
D-BGD
100
AcDbEllipse
 10
7547.813412015377
 20
18401.50000000015
 30
0.0
 11
17.36481776669304
 21
98.48077530122081
 31
0.0
210
0.0
220
0.0
230
1.0
 40
0.5000000000000002
 41
1.396263401595463
 42
7.67944870877505
  0
LINE
  5
5CE7A
330
1F
100
AcDbEntity
  8
D-BGD
100
AcDbLine
 10
9225.0
 20
18621.50000000015
 30
0.0
 11
9225.0
 21
18601.50000000015
 31
0.0
  0
LINE
  5
5CE7B
330
1F
100
AcDbEntity
  8
D-BGD
100
AcDbLine
 10
7595.0
 20
18621.50000000015
 30
0.0
 11
7595.0
 21
18601.50000000015
 31
0.0
  0
LINE
  5
5CE7C
330
1F
100
AcDbEntity
  8
D-BGD
100
AcDbLine
 10
7495.0
 20
18301.50000000015
 30
0.0
 11
7495.0
 21
18601.50000000015
 31
0.0
  0
LINE
  5
5CE7D
330
1F
100
AcDbEntity
  8
D-BGD
100
AcDbLine
 10
9325.0
 20
18301.50000000015
 30
0.0
 11
9325.0
 21
18601.50000000015
 31
0.0
  0
LINE
  5
5CE7E
330
1F
100
AcDbEntity
  8
D-BGD
100
AcDbLine
 10
7495.0
 20
18301.50000000015
 30
0.0
 11
9325.0
 21
18301.50000000015
 31
0.0
  0
LINE
  5
5CE7F
330
1F
100
AcDbEntity
  8
D-BGD
100
AcDbLine
 10
7495.0
 20
18501.50000000015
 30
0.0
 11
9325.0
 21
18501.50000000015
 31
0.0
  0
LINE
  5
5CE80
330
1F
100
AcDbEntity
  8
D-BGD
100
AcDbLine
 10
7495.0
 20
18601.50000000015
 30
0.0
 11
9325.0
 21
18601.50000000015
 31
0.0
  0
DIMENSION
  5
5CE81
330
1F
100
AcDbEntity
  8
D-STR-DIM
100
AcDbDimension
280
     0
  2
*D32
 10
7760.0
 20
18001.49999999996
 30
0.0
 11
7677.500000000001
 21
18048.99999999996
 31
0.0
 70
    32
 71
     5
 42
165.0
 73
     0
 74
     0
 75
     0
  3
SXF-20
100
AcDbAlignedDimension
 13
7595.0
 23
18301.50000000015
 33
0.0
 14
7760.0
 24
18301.50000000015
 34
0.0
100
AcDbRotatedDimension
  0
DIMENSION
  5
5CE82
330
1F
100
AcDbEntity
  8
D-STR-DIM
100
AcDbDimension
280
     0
  2
*D33
 10
7295.000000000029
 20
18786.50000000015
 30
0.0
 11
7247.500000000025
 21
18704.00000000015
 31
0.0
 70
    32
 71
     5
 42
165.0
 73
     0
 74
     0
 75
     0
  3
SXF-20
100
AcDbAlignedDimension
 13
7595.0
 23
18621.50000000015
 33
0.0
 14
7595.0
 24
18786.50000000015
 34
0.0
 50
90.0
100
AcDbRotatedDimension
  0
DIMENSION
  5
5CE83
330
1F
100
AcDbEntity
  8
D-STR-DIM
100
AcDbDimension
280
     0
  2
*D34
 10
9524.999999999534
 20
18731.50000000015
 30
0.0
 11
9477.499999999533
 21
18676.50000000016
 31
0.0
 70
    32
 71
     5
 42
110.0
 73
     0
 74
     0
 75
     0
  3
SXF-20
100
AcDbAlignedDimension
 13
9225.0
 23
18621.50000000015
 33
0.0
 14
9225.0
 24
18731.50000000015
 34
0.0
 50
90.0
100
AcDbRotatedDimension
  0
DIMENSION
  5
5CE84
330
1F
100
AcDbEntity
  8
D-STR-DIM
100
AcDbDimension
280
     0
  2
*D35
 10
7705.0
 20
21221.50000000023
 30
0.0
 11
7650.0
 21
21269.00000000023
 31
0.0
 70
    32
 71
     5
 42
110.0
 73
     0
 74
     0
 75
     0
  3
SXF-20
100
AcDbAlignedDimension
 13
7595.0
 23
20921.50000000015
 33
0.0
 14
7705.0
 24
20921.50000000015
 34
0.0
100
AcDbRotatedDimension
  0
LINE
  5
5CE85
330
1F
100
AcDbEntity
  8
D-STR
100
AcDbLine
 10
7595.0
 20
20921.50000000015
 30
0.0
 11
7705.0
 21
20921.50000000015
 31
0.0
  0
LINE
  5
5CE86
330
1F
100
AcDbEntity
  8
D-STR
100
AcDbLine
 10
9225.0
 20
18621.50000000015
 30
0.0
 11
9225.0
 21
18731.50000000015
 31
0.0
  0
LINE
  5
5CE87
330
1F
100
AcDbEntity
  8
D-STR
100
AcDbLine
 10
7595.0
 20
18621.50000000015
 30
0.0
 11
9225.0
 21
18621.50000000015
 31
0.0
  0
LINE
  5
5CE88
330
1F
100
AcDbEntity
  8
D-STR
100
AcDbLine
 10
7595.0
 20
20921.50000000015
 30
0.0
 11
7595.0
 21
18621.50000000015
 31
0.0
  0
ARC
  5
5CE89
330
1F
100
AcDbEntity
  8
D-STR
100
AcDbCircle
 10
3024.72777690833
 20
19118.84352774385
 30
0.0
 40
250.0
100
AcDbArc
 50
181.2605838857781
 51
268.1784866482487
  0
LINE
  5
5CE8A
330
1F
100
AcDbEntity
  8
D-STR
100
AcDbLine
 10
2735.0
 20
20921.50000000015
 30
0.0
 11
2774.788281834022
 21
19113.3436366542
 31
0.0
  0
LINE
  5
5CE8B
330
1F
100
AcDbEntity
  8
D-STR
100
AcDbLine
 10
4195.0
 20
18831.50000000015
 30
0.0
 11
3016.781264308942
 21
18868.96985378538
 31
0.0
  0
DIMENSION
  5
5CED6
330
1F
100
AcDbEntity
  8
D-STR-DIM
100
AcDbDimension
280
     0
  2
*D36
 10
1904.999999999971
 20
18701.50000000015
 30
0.0
 11
1857.499999999968
 21
18711.50000000015
 31
0.0
 70
    32
 71
     5
 42
20.0
 73
     0
 74
     0
 75
     0
  3
SXF-20
100
AcDbAlignedDimension
 13
2625.0
 23
18721.50000000015
 33
0.0
 14
2525.0
 24
18701.50000000015
 34
0.0
 50
90.0
100
AcDbRotatedDimension
  0
DIMENSION
  5
5CED7
330
1F
100
AcDbEntity
  8
D-STR-DIM
100
AcDbDimension
280
     0
  2
*D37
 10
1904.999999999971
 20
18601.50000000015
 30
0.0
 11
1974.999999999968
 21
18651.50000000015
 31
0.0
 70
    32
 71
     5
 42
100.0
 73
     0
 74
     0
 75
     0
  3
SXF-20
100
AcDbAlignedDimension
 13
2525.0
 23
18701.50000000015
 33
0.0
 14
2525.0
 24
18601.50000000015
 34
0.0
 50
90.0
100
AcDbRotatedDimension
1001
ACAD
1000
DSTYLE
1002
{
1070
    77
1070
     0
1070
   145
1040
-1.0
1002
}
  0
DIMENSION
  5
5CED8
330
1F
100
AcDbEntity
  8
D-STR-DIM
100
AcDbDimension
280
     0
  2
*D38
 10
1904.999999999971
 20
18401.50000000015
 30
0.0
 11
1857.499999999968
 21
18501.50000000015
 31
0.0
 70
    32
 71
     5
 42
200.0
 73
     0
 74
     0
 75
     0
  3
SXF-20
100
AcDbAlignedDimension
 13
2525.0
 23
18601.50000000015
 33
0.0
 14
2525.0
 24
18401.50000000015
 34
0.0
 50
90.0
100
AcDbRotatedDimension
  0
DIMENSION
  5
5CEE7
330
1F
100
AcDbEntity
  8
D-STR-DIM
100
AcDbDimension
280
     0
  2
*D39
 10
1904.999999999935
 20
20921.50000000015
 30
0.0
 11
1857.499999999931
 21
19821.50000000015
 31
0.0
 70
    32
 71
     5
 42
2200.0
 73
     0
 74
     0
 75
     0
  3
SXF-20
100
AcDbAlignedDimension
 13
2625.0
 23
18721.50000000015
 33
0.0
 14
2625.0
 24
20921.50000000015
 34
0.0
 50
90.0
100
AcDbRotatedDimension
  0
DIMENSION
  5
5CEE8
330
1F
100
AcDbEntity
  8
D-STR-DIM
100
AcDbDimension
280
     0
  2
*D40
 10
2104.999999999949
 20
19521.50000000015
 30
0.0
 11
2057.499999999946
 21
19121.50000000015
 31
0.0
 70
    32
 71
     5
 42
800.0
 73
     0
 74
     0
 75
     0
  3
SXF-20
100
AcDbAlignedDimension
 13
2625.0
 23
18721.50000000015
 33
0.0
 14
2605.0
 24
19521.50000000015
 34
0.0
 50
90.0
100
AcDbRotatedDimension
  0
LINE
  5
5CEE9
330
1F
100
AcDbEntity
  8
D-BMK
100
AcDbLine
 10
2605.0
 20
19521.50000000015
 30
0.0
 11
2785.806845965773
 21
19521.50000000015
 31
0.0
  0
LINE
  5
5CEEA
330
1F
100
AcDbEntity
  8
D-STR
  6
SXF_破線
100
AcDbLine
 10
2625.0
 20
19484.00000000015
 30
0.0
 11
2766.632029339853
 21
19484.00000000015
 31
0.0
  0
LINE
  5
5CEEB
330
1F
100
AcDbEntity
  8
D-STR
  6
SXF_破線
100
AcDbLine
 10
2625.0
 20
19559.00000000015
 30
0.0
 11
2764.981662591687
 21
19559.00000000015
 31
0.0
  0
POLYLINE
  5
5CEEC
330
1F
100
AcDbEntity
  8
D-STR-HTXT
  6
Continuous
100
AcDb2dPolyline
 66
     1
 10
0.0
 20
0.0
 30
0.0
  0
VERTEX
  5
5CEED
330
5CEEC
100
AcDbEntity
  8
D-STR-HTXT
  6
Continuous
100
AcDbVertex
100
AcDb2dVertex
 10
2864.765544735492
 20
18967.68301199412
 30
0.0
  0
VERTEX
  5
5CEEE
330
5CEEC
100
AcDbEntity
  8
D-STR-HTXT
  6
Continuous
100
AcDbVertex
100
AcDb2dVertex
 10
2847.087875205827
 20
18942.9342746526
 30
0.0
  0
VERTEX
  5
5CEEF
330
5CEEC
100
AcDbEntity
  8
D-STR-HTXT
  6
Continuous
100
AcDbVertex
100
AcDb2dVertex
 10
2871.836612547362
 20
18960.61194418226
 30
0.0
  0
SEQEND
  5
5CEF0
330
5CEEC
100
AcDbEntity
  8
D-STR-HTXT
  6
Continuous
  0
LEADER
  5
5CEF1
330
1F
100
AcDbEntity
  8
D-STR-HTXT
100
AcDbLeader
  3
SXF-20
 71
     0
 73
     0
 76
     3
 10
2847.087875205827
 20
18942.9342746526
 30
0.0
 10
2896.067562810218
 20
18991.91396225698
 30
0.0
 10
3034.660491922783
 20
19130.50689136954
 30
0.0
211
0.7071067811865662
221
0.7071067811865291
231
0.0
  0
DIMENSION
  5
5CEF4
330
1F
100
AcDbEntity
  8
D-STR-DIM
100
AcDbDimension
280
     0
  2
*D41
 10
4295.0
 20
17701.50000000001
 30
0.0
 11
3410.0
 21
17749.00000000001
 31
0.0
 70
    32
 71
     5
 42
1770.0
 73
     0
 74
     0
 75
     0
  3
SXF-20
100
AcDbAlignedDimension
 13
2525.0
 23
18401.50000000015
 33
0.0
 14
4295.0
 24
18401.50000000015
 34
0.0
100
AcDbRotatedDimension
  0
DIMENSION
  5
5CEF5
330
1F
100
AcDbEntity
  8
D-STR-DIM
100
AcDbDimension
280
     0
  2
*D42
 10
4295.0
 20
17901.49999999999
 30
0.0
 11
4245.0
 21
17948.99999999999
 31
0.0
 70
    32
 71
     5
 42
100.0
 73
     0
 74
     0
 75
     0
  3
SXF-20
100
AcDbAlignedDimension
 13
4195.0
 23
18401.50000000015
 33
0.0
 14
4295.0
 24
18401.50000000015
 34
0.0
100
AcDbRotatedDimension
  0
DIMENSION
  5
5CEF6
330
1F
100
AcDbEntity
  8
D-STR-DIM
100
AcDbDimension
280
     0
  2
*D43
 10
4195.0
 20
17901.49999999999
 30
0.0
 11
3410.0
 21
17948.99999999999
 31
0.0
 70
    32
 71
     5
 42
1570.0
 73
     0
 74
     0
 75
     0
  3
SXF-20
100
AcDbAlignedDimension
 13
2625.0
 23
18401.50000000015
 33
0.0
 14
4195.0
 24
18401.50000000015
 34
0.0
100
AcDbRotatedDimension
  0
DIMENSION
  5
5CEF7
330
1F
100
AcDbEntity
  8
D-STR-DIM
100
AcDbDimension
280
     0
  2
*D44
 10
2625.0
 20
17901.49999999999
 30
0.0
 11
2575.0
 21
17948.99999999999
 31
0.0
 70
    32
 71
     5
 42
100.0
 73
     0
 74
     0
 75
     0
  3
SXF-20
100
AcDbAlignedDimension
 13
2525.0
 23
18401.50000000015
 33
0.0
 14
2625.0
 24
18401.50000000015
 34
0.0
100
AcDbRotatedDimension
  0
ELLIPSE
  5
5CEF8
330
1F
100
AcDbEntity
  8
D-BGD
100
AcDbEllipse
 10
4037.557939407416
 20
18501.50000000015
 30
0.0
 11
17.36481776669304
 21
98.48077530122081
 31
0.0
210
0.0
220
0.0
230
1.0
 40
0.5000000000000002
 41
1.396263401595463
 42
7.67944870877505
  0
ELLIPSE
  5
5CEF9
330
1F
100
AcDbEntity
  8
D-BGD
100
AcDbEllipse
 10
4139.872263696022
 20
18501.50000000015
 30
0.0
 11
17.36481776669304
 21
98.48077530122081
 31
0.0
210
0.0
220
0.0
230
1.0
 40
0.5000000000000002
 41
1.396263401595463
 42
7.67944870877505
  0
ELLIPSE
  5
5CEFA
330
1F
100
AcDbEntity
  8
D-BGD
100
AcDbEllipse
 10
4242.186587984637
 20
18501.50000000015
 30
0.0
 11
17.36481776669304
 21
98.48077530122081
 31
0.0
210
0.0
220
0.0
230
1.0
 40
0.5000000000000002
 41
1.396263401595463
 42
7.67944870877505
  0
ELLIPSE
  5
5CEFB
330
1F
100
AcDbEntity
  8
D-BGD
100
AcDbEllipse
 10
2782.442060592592
 20
18501.50000000015
 30
0.0
 11
17.36481776669304
 21
98.48077530122081
 31
0.0
210
0.0
220
0.0
230
1.0
 40
0.5000000000000002
 41
1.396263401595463
 42
7.67944870877505
  0
ELLIPSE
  5
5CEFC
330
1F
100
AcDbEntity
  8
D-BGD
100
AcDbEllipse
 10
2680.127736303985
 20
18501.50000000015
 30
0.0
 11
17.36481776669304
 21
98.48077530122081
 31
0.0
210
0.0
220
0.0
230
1.0
 40
0.5000000000000002
 41
1.396263401595463
 42
7.67944870877505
  0
ELLIPSE
  5
5CEFD
330
1F
100
AcDbEntity
  8
D-BGD
100
AcDbEllipse
 10
2577.813412015377
 20
18501.50000000015
 30
0.0
 11
17.36481776669304
 21
98.48077530122081
 31
0.0
210
0.0
220
0.0
230
1.0
 40
0.5000000000000002
 41
1.396263401595463
 42
7.67944870877505
  0
LINE
  5
5CEFE
330
1F
100
AcDbEntity
  8
D-BGD
100
AcDbLine
 10
4195.0
 20
18721.50000000015
 30
0.0
 11
4195.0
 21
18701.50000000015
 31
0.0
  0
LINE
  5
5CEFF
330
1F
100
AcDbEntity
  8
D-BGD
100
AcDbLine
 10
2625.0
 20
18721.50000000015
 30
0.0
 11
2625.0
 21
18701.50000000015
 31
0.0
  0
LINE
  5
5CF00
330
1F
100
AcDbEntity
  8
D-BGD
100
AcDbLine
 10
2525.0
 20
18401.50000000015
 30
0.0
 11
2525.0
 21
18701.50000000015
 31
0.0
  0
LINE
  5
5CF01
330
1F
100
AcDbEntity
  8
D-BGD
100
AcDbLine
 10
4295.0
 20
18401.50000000015
 30
0.0
 11
4295.0
 21
18701.50000000015
 31
0.0
  0
LINE
  5
5CF02
330
1F
100
AcDbEntity
  8
D-BGD
100
AcDbLine
 10
2525.0
 20
18401.50000000015
 30
0.0
 11
4295.0
 21
18401.50000000015
 31
0.0
  0
LINE
  5
5CF03
330
1F
100
AcDbEntity
  8
D-BGD
100
AcDbLine
 10
2525.0
 20
18601.50000000015
 30
0.0
 11
4295.0
 21
18601.50000000015
 31
0.0
  0
LINE
  5
5CF04
330
1F
100
AcDbEntity
  8
D-BGD
100
AcDbLine
 10
2525.0
 20
18701.50000000015
 30
0.0
 11
4295.0
 21
18701.50000000015
 31
0.0
  0
DIMENSION
  5
5CF05
330
1F
100
AcDbEntity
  8
D-STR-DIM
100
AcDbDimension
280
     0
  2
*D45
 10
2780.0
 20
18101.49999999995
 30
0.0
 11
2702.500000000001
 21
18148.99999999995
 31
0.0
 70
    32
 71
     5
 42
155.0
 73
     0
 74
     0
 75
     0
  3
SXF-20
100
AcDbAlignedDimension
 13
2625.0
 23
18401.50000000015
 33
0.0
 14
2780.0
 24
18401.50000000015
 34
0.0
100
AcDbRotatedDimension
  0
DIMENSION
  5
5CF06
330
1F
100
AcDbEntity
  8
D-STR-DIM
100
AcDbDimension
280
     0
  2
*D46
 10
2325.000000000029
 20
18876.50000000015
 30
0.0
 11
2277.500000000026
 21
18799.00000000015
 31
0.0
 70
    32
 71
     5
 42
155.0
 73
     0
 74
     0
 75
     0
  3
SXF-20
100
AcDbAlignedDimension
 13
2625.0
 23
18721.50000000015
 33
0.0
 14
2625.0
 24
18876.50000000015
 34
0.0
 50
90.0
100
AcDbRotatedDimension
  0
DIMENSION
  5
5CF07
330
1F
100
AcDbEntity
  8
D-STR-DIM
100
AcDbDimension
280
     0
  2
*D47
 10
4494.999999999534
 20
18831.50000000015
 30
0.0
 11
4447.49999999953
 21
18776.50000000015
 31
0.0
 70
    32
 71
     5
 42
110.0
 73
     0
 74
     0
 75
     0
  3
SXF-20
100
AcDbAlignedDimension
 13
4195.0
 23
18721.50000000015
 33
0.0
 14
4195.0
 24
18831.50000000015
 34
0.0
 50
90.0
100
AcDbRotatedDimension
  0
DIMENSION
  5
5CF08
330
1F
100
AcDbEntity
  8
D-STR-DIM
100
AcDbDimension
280
     0
  2
*D48
 10
2735.0
 20
21221.50000000023
 30
0.0
 11
2680.0
 21
21269.00000000023
 31
0.0
 70
    32
 71
     5
 42
110.0
 73
     0
 74
     0
 75
     0
  3
SXF-20
100
AcDbAlignedDimension
 13
2625.0
 23
20921.50000000015
 33
0.0
 14
2735.0
 24
20921.50000000015
 34
0.0
100
AcDbRotatedDimension
  0
LINE
  5
5CF09
330
1F
100
AcDbEntity
  8
D-STR
100
AcDbLine
 10
2625.0
 20
20921.50000000015
 30
0.0
 11
2735.0
 21
20921.50000000015
 31
0.0
  0
LINE
  5
5CF0A
330
1F
100
AcDbEntity
  8
D-STR
100
AcDbLine
 10
4195.0
 20
18721.50000000015
 30
0.0
 11
4195.0
 21
18831.50000000015
 31
0.0
  0
LINE
  5
5CF0B
330
1F
100
AcDbEntity
  8
D-STR
100
AcDbLine
 10
2625.0
 20
18721.50000000015
 30
0.0
 11
4195.0
 21
18721.50000000015
 31
0.0
  0
LINE
  5
5CF0C
330
1F
100
AcDbEntity
  8
D-STR
100
AcDbLine
 10
2625.0
 20
20921.50000000015
 30
0.0
 11
2625.0
 21
18721.50000000015
 31
0.0
  0
LINE
  5
60403
330
1F
100
AcDbEntity
  8
D-STR-HTXT
100
AcDbLine
 10
4423.001300589255
 20
18486.14777058214
 30
0.0
 11
5178.401300589234
 21
18486.14777058217
 31
0.0
1001
ACAD
1000
DSTYLE
1002
{
1070
   147
1040
0.625
1070
    77
1070
     1
1002
}
  0
LEADER
  5
60404
330
1F
100
AcDbEntity
  8
D-STR-HTXT
100
AcDbLeader
  3
SXF-20
 76
     2
 10
4123.321142573376
 20
18620.38808944937
 30
0.0
 10
4414.999999999723
 20
18356.14777058214
 30
0.0
211
-1.0
221
0.0
231
0.0
210
0.0
220
0.0
230
-1.0
1001
ACAD
1000
DSTYLE
1002
{
1070
   147
1040
0.625
1070
    77
1070
     1
1002
}
  0
LINE
  5
60405
330
1F
100
AcDbEntity
  8
D-STR-HTXT
100
AcDbLine
 10
4414.999999999723
 20
18356.14777058214
 30
0.0
 11
5786.069567422499
 21
18356.14777058216
 31
0.0
1001
ACAD
1000
DSTYLE
1002
{
1070
   147
1040
0.625
1070
    77
1070
     1
1002
}
  0
LINE
  5
60408
330
1F
100
AcDbEntity
  8
D-STR-HTXT
100
AcDbLine
 10
4394.999999999753
 20
18226.14777058214
 30
0.0
 11
5047.284221896087
 21
18226.14777058216
 31
0.0
1001
ACAD
1000
DSTYLE
1002
{
1070
   147
1040
0.625
1070
    77
1070
     1
1002
}
  0
LEADER
  5
60409
330
1F
100
AcDbEntity
  8
D-STR-HTXT
100
AcDbLeader
  3
SXF-20
 76
     2
 10
4133.721285966574
 20
18456.69207458995
 30
0.0
 10
4394.999999999745
 20
18226.14777058214
 30
0.0
211
-1.0
221
0.0
231
0.0
210
0.0
220
0.0
230
-1.0
1001
ACAD
1000
DSTYLE
1002
{
1070
   147
1040
0.625
1070
    77
1070
     1
1002
}
  0
LEADER
  5
6040A
330
1F
100
AcDbEntity
  8
D-STR-HTXT
100
AcDbLeader
  3
SXF-20
 76
     2
 10
4175.322084679908
 20
18708.73209794295
 30
0.0
 10
4423.001300589247
 20
18486.14777058214
 30
0.0
211
-1.0
221
0.0
231
0.0
210
0.0
220
0.0
230
-1.0
1001
ACAD
1000
DSTYLE
1002
{
1070
   147
1040
0.625
1070
    77
1070
     1
1002
}
  0
LINE
  5
60419
330
1F
100
AcDbEntity
  8
D-STR-HTXT
100
AcDbLine
 10
9453.001300589255
 20
18386.14777058214
 30
0.0
 11
10208.40130058923
 21
18386.14777058216
 31
0.0
1001
ACAD
1000
DSTYLE
1002
{
1070
   147
1040
0.625
1070
    77
1070
     1
1002
}
  0
LEADER
  5
6041A
330
1F
100
AcDbEntity
  8
D-STR-HTXT
100
AcDbLeader
  3
SXF-20
 76
     2
 10
9153.321142573375
 20
18520.38808944937
 30
0.0
 10
9444.999999999723
 20
18256.14777058214
 30
0.0
211
-1.0
221
0.0
231
0.0
210
0.0
220
0.0
230
-1.0
1001
ACAD
1000
DSTYLE
1002
{
1070
   147
1040
0.625
1070
    77
1070
     1
1002
}
  0
LINE
  5
6041B
330
1F
100
AcDbEntity
  8
D-STR-HTXT
100
AcDbLine
 10
9444.999999999723
 20
18256.14777058214
 30
0.0
 11
10816.0695674225
 21
18256.14777058216
 31
0.0
1001
ACAD
1000
DSTYLE
1002
{
1070
   147
1040
0.625
1070
    77
1070
     1
1002
}
  0
LINE
  5
6041E
330
1F
100
AcDbEntity
  8
D-STR-HTXT
100
AcDbLine
 10
9424.999999999753
 20
18126.14777058214
 30
0.0
 11
10077.28422189609
 21
18126.14777058217
 31
0.0
1001
ACAD
1000
DSTYLE
1002
{
1070
   147
1040
0.625
1070
    77
1070
     1
1002
}
  0
LEADER
  5
6041F
330
1F
100
AcDbEntity
  8
D-STR-HTXT
100
AcDbLeader
  3
SXF-20
 76
     2
 10
9163.721285966573
 20
18356.69207458995
 30
0.0
 10
9424.999999999746
 20
18126.14777058214
 30
0.0
211
-1.0
221
0.0
231
0.0
210
0.0
220
0.0
230
-1.0
1001
ACAD
1000
DSTYLE
1002
{
1070
   147
1040
0.625
1070
    77
1070
     1
1002
}
  0
LEADER
  5
60420
330
1F
100
AcDbEntity
  8
D-STR-HTXT
100
AcDbLeader
  3
SXF-20
 76
     2
 10
9205.322084679909
 20
18608.73209794295
 30
0.0
 10
9453.001300589248
 20
18386.14777058214
 30
0.0
211
-1.0
221
0.0
231
0.0
210
0.0
220
0.0
230
-1.0
1001
ACAD
1000
DSTYLE
1002
{
1070
   147
1040
0.625
1070
    77
1070
     1
1002
}
  0
LINE
  5
6042F
330
1F
100
AcDbEntity
  8
D-STR-HTXT
100
AcDbLine
 10
14513.00130058925
 20
18186.14777058214
 30
0.0
 11
15268.40130058923
 21
18186.14777058217
 31
0.0
1001
ACAD
1000
DSTYLE
1002
{
1070
   147
1040
0.625
1070
    77
1070
     1
1002
}
  0
LEADER
  5
60430
330
1F
100
AcDbEntity
  8
D-STR-HTXT
100
AcDbLeader
  3
SXF-20
 76
     2
 10
14213.32114257337
 20
18320.38808944938
 30
0.0
 10
14504.99999999972
 20
18056.14777058213
 30
0.0
211
-1.0
221
0.0
231
0.0
210
0.0
220
0.0
230
-1.0
1001
ACAD
1000
DSTYLE
1002
{
1070
   147
1040
0.625
1070
    77
1070
     1
1002
}
  0
LINE
  5
60431
330
1F
100
AcDbEntity
  8
D-STR-HTXT
100
AcDbLine
 10
14504.99999999972
 20
18056.14777058213
 30
0.0
 11
15876.0695674225
 21
18056.14777058216
 31
0.0
1001
ACAD
1000
DSTYLE
1002
{
1070
   147
1040
0.625
1070
    77
1070
     1
1002
}
  0
LINE
  5
60434
330
1F
100
AcDbEntity
  8
D-STR-HTXT
100
AcDbLine
 10
14484.99999999975
 20
17926.14777058214
 30
0.0
 11
15137.28422189609
 21
17926.14777058217
 31
0.0
1001
ACAD
1000
DSTYLE
1002
{
1070
   147
1040
0.625
1070
    77
1070
     1
1002
}
  0
LEADER
  5
60435
330
1F
100
AcDbEntity
  8
D-STR-HTXT
100
AcDbLeader
  3
SXF-20
 76
     2
 10
14223.72128596657
 20
18156.69207458995
 30
0.0
 10
14484.99999999974
 20
17926.14777058214
 30
0.0
211
-1.0
221
0.0
231
0.0
210
0.0
220
0.0
230
-1.0
1001
ACAD
1000
DSTYLE
1002
{
1070
   147
1040
0.625
1070
    77
1070
     1
1002
}
  0
LEADER
  5
60436
330
1F
100
AcDbEntity
  8
D-STR-HTXT
100
AcDbLeader
  3
SXF-20
 76
     2
 10
14265.32208467991
 20
18408.73209794295
 30
0.0
 10
14513.00130058925
 20
18186.14777058214
 30
0.0
211
-1.0
221
0.0
231
0.0
210
0.0
220
0.0
230
-1.0
1001
ACAD
1000
DSTYLE
1002
{
1070
   147
1040
0.625
1070
    77
1070
     1
1002
}
  0
TEXT
  5
60B88
330
1F
100
AcDbEntity
  8
D-MTR-TXT
100
AcDbText
 10
14958.07106598985
 20
16613.14348357729
 30
0.0
 40
69.99999999999999
  1
6.00
 72
     2
 11
15140.0
 21
16648.14348357729
 31
0.0
100
AcDbText
 73
     2
  0
TEXT
  5
60B89
330
1F
100
AcDbEntity
  8
D-MTR-TXT
100
AcDbText
 10
14743.75634517766
 20
16643.39729068388
 30
0.0
 40
49.99999999999999
  1
3
 72
     4
 11
14760.0
 21
16668.14348357729
 31
0.0
100
AcDbText
  0
TEXT
  5
60B8A
330
1F
100
AcDbEntity
  8
D-MTR-TXT
100
AcDbText
 10
14687.25888324873
 20
16623.80338205445
 30
0.0
 40
69.99999999999999
  1
m
 72
     4
 11
14710.0
 21
16648.14348357729
 31
0.0
100
AcDbText
  0
TEXT
  5
60B8B
330
1F
100
AcDbEntity
  8
D-MTR-TXT
100
AcDbText
 10
13580.0
 20
16613.14348357729
 30
0.0
 40
69.99999999999999
  1
0.400×1.500×10.0
 11
13580.0
 21
16648.14348357729
 31
0.0
100
AcDbText
 73
     2
  0
TEXT
  5
60BA2
330
1F
100
AcDbEntity
  8
D-MTR-TXT
100
AcDbText
 10
13580.0
 20
16473.14348357729
 30
0.0
 40
69.99999999999999
  1
1.750×0.020×10.0
 11
13580.0
 21
16508.14348357729
 31
0.0
100
AcDbText
 73
     2
  0
TEXT
  5
60BA3
330
1F
100
AcDbEntity
  8
D-MTR-TXT
100
AcDbText
 10
14687.25888324873
 20
16483.80338205445
 30
0.0
 40
69.99999999999999
  1
m
 72
     4
 11
14710.0
 21
16508.14348357729
 31
0.0
100
AcDbText
  0
TEXT
  5
60BA4
330
1F
100
AcDbEntity
  8
D-MTR-TXT
100
AcDbText
 10
14743.75634517766
 20
16503.39729068388
 30
0.0
 40
49.99999999999999
  1
3
 72
     4
 11
14760.0
 21
16528.14348357729
 31
0.0
100
AcDbText
  0
TEXT
  5
60BA5
330
1F
100
AcDbEntity
  8
D-MTR-TXT
100
AcDbText
 10
14958.07106598985
 20
16473.14348357729
 30
0.0
 40
69.99999999999999
  1
0.35
 72
     2
 11
15140.0
 21
16508.14348357729
 31
0.0
100
AcDbText
 73
     2
  0
TEXT
  5
60BA8
330
1F
100
AcDbEntity
  8
D-MTR-TXT
100
AcDbText
 10
13580.0
 20
16333.14348357729
 30
0.0
 40
69.99999999999999
  1
1.950×10.0
 11
13580.0
 21
16368.14348357729
 31
0.0
100
AcDbText
 73
     2
  0
TEXT
  5
60BA9
330
1F
100
AcDbEntity
  8
D-MTR-TXT
100
AcDbText
 10
14687.25888324873
 20
16343.80338205444
 30
0.0
 40
69.99999999999999
  1
m
 72
     4
 11
14710.0
 21
16368.14348357729
 31
0.0
100
AcDbText
  0
TEXT
  5
60BAA
330
1F
100
AcDbEntity
  8
D-MTR-TXT
100
AcDbText
 10
14743.75634517766
 20
16363.39729068389
 30
0.0
 40
49.99999999999999
  1
2
 72
     4
 11
14760.0
 21
16388.14348357729
 31
0.0
100
AcDbText
  0
TEXT
  5
60BAB
330
1F
100
AcDbEntity
  8
D-MTR-TXT
100
AcDbText
 10
14912.58883248731
 20
16333.14348357729
 30
0.0
 40
69.99999999999999
  1
19.50
 72
     2
 11
15140.0
 21
16368.14348357729
 31
0.0
100
AcDbText
 73
     2
  0
TEXT
  5
60BAD
330
1F
100
AcDbEntity
  8
D-MTR-TXT
100
AcDbText
 10
13580.0
 20
16193.14348357729
 30
0.0
 40
69.99999999999999
  1
0.100×10.0×2
 11
13580.0
 21
16228.14348357729
 31
0.0
100
AcDbText
 73
     2
  0
TEXT
  5
60BAE
330
1F
100
AcDbEntity
  8
D-MTR-TXT
100
AcDbText
 10
14687.25888324873
 20
16203.80338205444
 30
0.0
 40
69.99999999999999
  1
m
 72
     4
 11
14710.0
 21
16228.14348357729
 31
0.0
100
AcDbText
  0
TEXT
  5
60BAF
330
1F
100
AcDbEntity
  8
D-MTR-TXT
100
AcDbText
 10
14743.75634517766
 20
16223.39729068389
 30
0.0
 40
49.99999999999999
  1
2
 72
     4
 11
14760.0
 21
16248.14348357729
 31
0.0
100
AcDbText
  0
TEXT
  5
60BB0
330
1F
100
AcDbEntity
  8
D-MTR-TXT
100
AcDbText
 10
14958.07106598985
 20
16193.14348357729
 30
0.0
 40
69.99999999999999
  1
2.00
 72
     2
 11
15140.0
 21
16228.14348357729
 31
0.0
100
AcDbText
 73
     2
  0
TEXT
  5
60BB3
330
1F
100
AcDbEntity
  8
D-MTR-TXT
100
AcDbText
 10
13580.0
 20
16053.14348357729
 30
0.0
 40
69.99999999999999
  1
1.950×10.0
 11
13580.0
 21
16088.14348357729
 31
0.0
100
AcDbText
 73
     2
  0
TEXT
  5
60BB4
330
1F
100
AcDbEntity
  8
D-MTR-TXT
100
AcDbText
 10
14687.25888324873
 20
16063.80338205444
 30
0.0
 40
69.99999999999999
  1
m
 72
     4
 11
14710.0
 21
16088.14348357729
 31
0.0
100
AcDbText
  0
TEXT
  5
60BB5
330
1F
100
AcDbEntity
  8
D-MTR-TXT
100
AcDbText
 10
14743.75634517766
 20
16083.39729068389
 30
0.0
 40
49.99999999999999
  1
2
 72
     4
 11
14760.0
 21
16108.14348357729
 31
0.0
100
AcDbText
  0
TEXT
  5
60BB6
330
1F
100
AcDbEntity
  8
D-MTR-TXT
100
AcDbText
 10
14912.58883248731
 20
16053.14348357729
 30
0.0
 40
69.99999999999999
  1
19.50
 72
     2
 11
15140.0
 21
16088.14348357729
 31
0.0
100
AcDbText
 73
     2
  0
TEXT
  5
60BBB
330
1F
100
AcDbEntity
  8
D-MTR-TXT
100
AcDbText
 10
9862.588832487311
 20
16053.14348357729
 30
0.0
 40
69.99999999999999
  1
18.30
 72
     2
 11
10090.0
 21
16088.14348357729
 31
0.0
100
AcDbText
 73
     2
  0
TEXT
  5
60BBC
330
1F
100
AcDbEntity
  8
D-MTR-TXT
100
AcDbText
 10
9693.756345177664
 20
16083.39729068389
 30
0.0
 40
49.99999999999999
  1
2
 72
     4
 11
9710.0
 21
16108.14348357729
 31
0.0
100
AcDbText
  0
TEXT
  5
60BBD
330
1F
100
AcDbEntity
  8
D-MTR-TXT
100
AcDbText
 10
9637.258883248732
 20
16063.80338205444
 30
0.0
 40
69.99999999999999
  1
m
 72
     4
 11
9660.0
 21
16088.14348357729
 31
0.0
100
AcDbText
  0
TEXT
  5
60BBE
330
1F
100
AcDbEntity
  8
D-MTR-TXT
100
AcDbText
 10
8530.0
 20
16053.14348357729
 30
0.0
 40
69.99999999999999
  1
1.830×10.0
 11
8530.0
 21
16088.14348357729
 31
0.0
100
AcDbText
 73
     2
  0
TEXT
  5
60BC1
330
1F
100
AcDbEntity
  8
D-MTR-TXT
100
AcDbText
 10
9908.071065989849
 20
16193.14348357729
 30
0.0
 40
69.99999999999999
  1
2.00
 72
     2
 11
10090.0
 21
16228.14348357729
 31
0.0
100
AcDbText
 73
     2
  0
TEXT
  5
60BC2
330
1F
100
AcDbEntity
  8
D-MTR-TXT
100
AcDbText
 10
9693.756345177664
 20
16223.39729068389
 30
0.0
 40
49.99999999999999
  1
2
 72
     4
 11
9710.0
 21
16248.14348357729
 31
0.0
100
AcDbText
  0
TEXT
  5
60BC3
330
1F
100
AcDbEntity
  8
D-MTR-TXT
100
AcDbText
 10
9637.258883248732
 20
16203.80338205444
 30
0.0
 40
69.99999999999999
  1
m
 72
     4
 11
9660.0
 21
16228.14348357729
 31
0.0
100
AcDbText
  0
TEXT
  5
60BC4
330
1F
100
AcDbEntity
  8
D-MTR-TXT
100
AcDbText
 10
8530.0
 20
16193.14348357729
 30
0.0
 40
69.99999999999999
  1
0.100×10.0×2
 11
8530.0
 21
16228.14348357729
 31
0.0
100
AcDbText
 73
     2
  0
TEXT
  5
60BC6
330
1F
100
AcDbEntity
  8
D-MTR-TXT
100
AcDbText
 10
9862.588832487311
 20
16333.14348357729
 30
0.0
 40
69.99999999999999
  1
18.30
 72
     2
 11
10090.0
 21
16368.14348357729
 31
0.0
100
AcDbText
 73
     2
  0
TEXT
  5
60BC7
330
1F
100
AcDbEntity
  8
D-MTR-TXT
100
AcDbText
 10
9693.756345177664
 20
16363.39729068389
 30
0.0
 40
49.99999999999999
  1
2
 72
     4
 11
9710.0
 21
16388.14348357729
 31
0.0
100
AcDbText
  0
TEXT
  5
60BC8
330
1F
100
AcDbEntity
  8
D-MTR-TXT
100
AcDbText
 10
9637.258883248732
 20
16343.80338205444
 30
0.0
 40
69.99999999999999
  1
m
 72
     4
 11
9660.0
 21
16368.14348357729
 31
0.0
100
AcDbText
  0
TEXT
  5
60BC9
330
1F
100
AcDbEntity
  8
D-MTR-TXT
100
AcDbText
 10
8530.0
 20
16333.14348357729
 30
0.0
 40
69.99999999999999
  1
1.830×10.0
 11
8530.0
 21
16368.14348357729
 31
0.0
100
AcDbText
 73
     2
  0
TEXT
  5
60BCC
330
1F
100
AcDbEntity
  8
D-MTR-TXT
100
AcDbText
 10
9908.071065989849
 20
16473.14348357729
 30
0.0
 40
69.99999999999999
  1
0.33
 72
     2
 11
10090.0
 21
16508.14348357729
 31
0.0
100
AcDbText
 73
     2
  0
TEXT
  5
60BCD
330
1F
100
AcDbEntity
  8
D-MTR-TXT
100
AcDbText
 10
9693.756345177664
 20
16503.39729068388
 30
0.0
 40
49.99999999999999
  1
3
 72
     4
 11
9710.0
 21
16528.14348357729
 31
0.0
100
AcDbText
  0
TEXT
  5
60BCE
330
1F
100
AcDbEntity
  8
D-MTR-TXT
100
AcDbText
 10
9637.258883248732
 20
16483.80338205445
 30
0.0
 40
69.99999999999999
  1
m
 72
     4
 11
9660.0
 21
16508.14348357729
 31
0.0
100
AcDbText
  0
TEXT
  5
60BCF
330
1F
100
AcDbEntity
  8
D-MTR-TXT
100
AcDbText
 10
8530.0
 20
16473.14348357729
 30
0.0
 40
69.99999999999999
  1
1.630×0.020×10.0
 11
8530.0
 21
16508.14348357729
 31
0.0
100
AcDbText
 73
     2
  0
TEXT
  5
60BE6
330
1F
100
AcDbEntity
  8
D-MTR-TXT
100
AcDbText
 10
8530.0
 20
16613.14348357729
 30
0.0
 40
69.99999999999999
  1
0.400×1.300×10.0
 11
8530.0
 21
16648.14348357729
 31
0.0
100
AcDbText
 73
     2
  0
TEXT
  5
60BE7
330
1F
100
AcDbEntity
  8
D-MTR-TXT
100
AcDbText
 10
9637.258883248732
 20
16623.80338205445
 30
0.0
 40
69.99999999999999
  1
m
 72
     4
 11
9660.0
 21
16648.14348357729
 31
0.0
100
AcDbText
  0
TEXT
  5
60BE8
330
1F
100
AcDbEntity
  8
D-MTR-TXT
100
AcDbText
 10
9693.756345177664
 20
16643.39729068388
 30
0.0
 40
49.99999999999999
  1
3
 72
     4
 11
9710.0
 21
16668.14348357729
 31
0.0
100
AcDbText
  0
TEXT
  5
60BE9
330
1F
100
AcDbEntity
  8
D-MTR-TXT
100
AcDbText
 10
9908.071065989849
 20
16613.14348357729
 30
0.0
 40
69.99999999999999
  1
5.20
 72
     2
 11
10090.0
 21
16648.14348357729
 31
0.0
100
AcDbText
 73
     2
  0
TEXT
  5
60BEA
330
1F
100
AcDbEntity
  8
D-MTR-TXT
100
AcDbText
 10
4908.071065989847
 20
16613.14348357729
 30
0.0
 40
69.99999999999999
  1
4.80
 72
     2
 11
5090.0
 21
16648.14348357729
 31
0.0
100
AcDbText
 73
     2
  0
TEXT
  5
60BEB
330
1F
100
AcDbEntity
  8
D-MTR-TXT
100
AcDbText
 10
4693.756345177665
 20
16643.39729068388
 30
0.0
 40
49.99999999999999
  1
3
 72
     4
 11
4710.0
 21
16668.14348357729
 31
0.0
100
AcDbText
  0
TEXT
  5
60BEC
330
1F
100
AcDbEntity
  8
D-MTR-TXT
100
AcDbText
 10
4637.258883248731
 20
16623.80338205445
 30
0.0
 40
69.99999999999999
  1
m
 72
     4
 11
4660.0
 21
16648.14348357729
 31
0.0
100
AcDbText
  0
TEXT
  5
60BED
330
1F
100
AcDbEntity
  8
D-MTR-TXT
100
AcDbText
 10
3530.0
 20
16613.14348357729
 30
0.0
 40
69.99999999999999
  1
0.400×1.200×10.0
 11
3530.0
 21
16648.14348357729
 31
0.0
100
AcDbText
 73
     2
  0
TEXT
  5
60C04
330
1F
100
AcDbEntity
  8
D-MTR-TXT
100
AcDbText
 10
3530.0
 20
16473.14348357729
 30
0.0
 40
69.99999999999999
  1
1.570×0.020×10.0
 11
3530.0
 21
16508.14348357729
 31
0.0
100
AcDbText
 73
     2
  0
TEXT
  5
60C05
330
1F
100
AcDbEntity
  8
D-MTR-TXT
100
AcDbText
 10
4637.258883248731
 20
16483.80338205445
 30
0.0
 40
69.99999999999999
  1
m
 72
     4
 11
4660.0
 21
16508.14348357729
 31
0.0
100
AcDbText
  0
TEXT
  5
60C06
330
1F
100
AcDbEntity
  8
D-MTR-TXT
100
AcDbText
 10
4693.756345177665
 20
16503.39729068388
 30
0.0
 40
49.99999999999999
  1
3
 72
     4
 11
4710.0
 21
16528.14348357729
 31
0.0
100
AcDbText
  0
TEXT
  5
60C07
330
1F
100
AcDbEntity
  8
D-MTR-TXT
100
AcDbText
 10
4908.071065989847
 20
16473.14348357729
 30
0.0
 40
69.99999999999999
  1
0.31
 72
     2
 11
5090.0
 21
16508.14348357729
 31
0.0
100
AcDbText
 73
     2
  0
TEXT
  5
60C0A
330
1F
100
AcDbEntity
  8
D-MTR-TXT
100
AcDbText
 10
3530.0
 20
16333.14348357729
 30
0.0
 40
69.99999999999999
  1
1.770×10.0
 11
3530.0
 21
16368.14348357729
 31
0.0
100
AcDbText
 73
     2
  0
TEXT
  5
60C0B
330
1F
100
AcDbEntity
  8
D-MTR-TXT
100
AcDbText
 10
4637.258883248731
 20
16343.80338205444
 30
0.0
 40
69.99999999999999
  1
m
 72
     4
 11
4660.0
 21
16368.14348357729
 31
0.0
100
AcDbText
  0
TEXT
  5
60C0C
330
1F
100
AcDbEntity
  8
D-MTR-TXT
100
AcDbText
 10
4693.756345177665
 20
16363.39729068389
 30
0.0
 40
49.99999999999999
  1
2
 72
     4
 11
4710.0
 21
16388.14348357729
 31
0.0
100
AcDbText
  0
TEXT
  5
60C0D
330
1F
100
AcDbEntity
  8
D-MTR-TXT
100
AcDbText
 10
4862.588832487309
 20
16333.14348357729
 30
0.0
 40
69.99999999999999
  1
17.70
 72
     2
 11
5090.0
 21
16368.14348357729
 31
0.0
100
AcDbText
 73
     2
  0
TEXT
  5
60C0F
330
1F
100
AcDbEntity
  8
D-MTR-TXT
100
AcDbText
 10
3530.0
 20
16193.14348357729
 30
0.0
 40
69.99999999999999
  1
0.100×10.0×2
 11
3530.0
 21
16228.14348357729
 31
0.0
100
AcDbText
 73
     2
  0
TEXT
  5
60C10
330
1F
100
AcDbEntity
  8
D-MTR-TXT
100
AcDbText
 10
4637.258883248731
 20
16203.80338205444
 30
0.0
 40
69.99999999999999
  1
m
 72
     4
 11
4660.0
 21
16228.14348357729
 31
0.0
100
AcDbText
  0
TEXT
  5
60C11
330
1F
100
AcDbEntity
  8
D-MTR-TXT
100
AcDbText
 10
4693.756345177665
 20
16223.39729068389
 30
0.0
 40
49.99999999999999
  1
2
 72
     4
 11
4710.0
 21
16248.14348357729
 31
0.0
100
AcDbText
  0
TEXT
  5
60C12
330
1F
100
AcDbEntity
  8
D-MTR-TXT
100
AcDbText
 10
4908.071065989847
 20
16193.14348357729
 30
0.0
 40
69.99999999999999
  1
2.00
 72
     2
 11
5090.0
 21
16228.14348357729
 31
0.0
100
AcDbText
 73
     2
  0
TEXT
  5
60C15
330
1F
100
AcDbEntity
  8
D-MTR-TXT
100
AcDbText
 10
3530.0
 20
16053.14348357729
 30
0.0
 40
69.99999999999999
  1
1.770×10.0
 11
3530.0
 21
16088.14348357729
 31
0.0
100
AcDbText
 73
     2
  0
TEXT
  5
60C16
330
1F
100
AcDbEntity
  8
D-MTR-TXT
100
AcDbText
 10
4637.258883248731
 20
16063.80338205444
 30
0.0
 40
69.99999999999999
  1
m
 72
     4
 11
4660.0
 21
16088.14348357729
 31
0.0
100
AcDbText
  0
TEXT
  5
60C17
330
1F
100
AcDbEntity
  8
D-MTR-TXT
100
AcDbText
 10
4693.756345177665
 20
16083.39729068389
 30
0.0
 40
49.99999999999999
  1
2
 72
     4
 11
4710.0
 21
16108.14348357729
 31
0.0
100
AcDbText
  0
TEXT
  5
60C18
330
1F
100
AcDbEntity
  8
D-MTR-TXT
100
AcDbText
 10
4862.588832487309
 20
16053.14348357729
 30
0.0
 40
69.99999999999999
  1
17.70
 72
     2
 11
5090.0
 21
16088.14348357729
 31
0.0
100
AcDbText
 73
     2
  0
TEXT
  5
60CF9
330
1F
100
AcDbEntity
  8
D-STR-HTXT
100
AcDbText
 10
2879.985934300945
 20
19018.2587406189
 30
0.0
 40
50.0
  1
r=250
 50
44.99999999999999
100
AcDbText
  0
TEXT
  5
60CFA
330
1F
100
AcDbEntity
  8
D-STR-HTXT
100
AcDbText
 10
7858.958117475755
 20
18927.11156295499
 30
0.0
 40
50.0
  1
r=250
 50
44.99999999999999
100
AcDbText
  0
TEXT
  5
60CFB
330
1F
100
AcDbEntity
  8
D-STR-HTXT
100
AcDbText
 10
12817.1554774901
 20
18745.09349602647
 30
0.0
 40
50.0
  1
r=250
 50
44.99999999999999
100
AcDbText
  0
LINE
  5
60D76
330
1F
100
AcDbEntity
  8
D-STR-HTXT
100
AcDbLine
 10
13087.85862573965
 20
21028.67770800589
 30
0.0
 11
13757.86299274693
 21
21028.67770800592
 31
0.0
1001
ACAD
1000
DSTYLE
1002
{
1070
   147
1040
0.625
1070
    77
1070
     1
1002
}
  0
LEADER
  5
60D77
330
1F
100
AcDbEntity
  8
D-STR-HTXT
100
AcDbLeader
  3
SXF-20
 76
     2
 10
12826.57991170647
 20
20578.89117176247
 30
0.0
 10
13087.85862573964
 20
21028.67770800589
 30
0.0
211
-1.0
221
0.0
231
0.0
210
0.0
220
0.0
230
-1.0
1001
ACAD
1000
DSTYLE
1002
{
1070
   147
1040
0.625
1070
    77
1070
     1
1002
}
  0
LINE
  5
60D80
330
1F
100
AcDbEntity
  8
D-STR-HTXT
100
AcDbLine
 10
8147.858625739653
 20
21028.67770800589
 30
0.0
 11
8817.862992746929
 21
21028.67770800592
 31
0.0
1001
ACAD
1000
DSTYLE
1002
{
1070
   147
1040
0.625
1070
    77
1070
     1
1002
}
  0
LEADER
  5
60D81
330
1F
100
AcDbEntity
  8
D-STR-HTXT
100
AcDbLeader
  3
SXF-20
 76
     2
 10
7886.579911706474
 20
20578.89117176247
 30
0.0
 10
8147.858625739646
 20
21028.67770800589
 30
0.0
211
-1.0
221
0.0
231
0.0
210
0.0
220
0.0
230
-1.0
1001
ACAD
1000
DSTYLE
1002
{
1070
   147
1040
0.625
1070
    77
1070
     1
1002
}
  0
LINE
  5
60D8A
330
1F
100
AcDbEntity
  8
D-STR-HTXT
100
AcDbLine
 10
3177.858625739653
 20
21028.67770800589
 30
0.0
 11
3847.86299274693
 21
21028.67770800592
 31
0.0
1001
ACAD
1000
DSTYLE
1002
{
1070
   147
1040
0.625
1070
    77
1070
     1
1002
}
  0
LEADER
  5
60D8B
330
1F
100
AcDbEntity
  8
D-STR-HTXT
100
AcDbLeader
  3
SXF-20
 76
     2
 10
2916.579911706474
 20
20578.89117176247
 30
0.0
 10
3177.858625739645
 20
21028.67770800589
 30
0.0
211
-1.0
221
0.0
231
0.0
210
0.0
220
0.0
230
-1.0
1001
ACAD
1000
DSTYLE
1002
{
1070
   147
1040
0.625
1070
    77
1070
     1
1002
}
  0
TEXT
  5
60DBB
330
1F
100
AcDbEntity
  8
D-STR-HTXT
100
AcDbText
 10
7864.213197969544
 20
21547.08375634533
 30
0.0
 40
140.0
  1
2,300×1,630
 72
     1
 11
8410.0
 21
21521.50000000015
 31
0.0
100
AcDbText
 73
     1
  0
TEXT
  5
60DBC
330
1F
100
AcDbEntity
  8
D-STR-HTXT
100
AcDbText
 10
12864.21319796954
 20
21547.08375634533
 30
0.0
 40
140.0
  1
2,500×1,750
 72
     1
 11
13410.0
 21
21521.50000000015
 31
0.0
100
AcDbText
 73
     1
  0
TEXT
  5
60DBD
330
1F
100
AcDbEntity
  8
D-STR-HTXT
100
AcDbText
 10
2864.213197969543
 20
21547.08375634533
 30
0.0
 40
140.0
  1
2,200×1,570
 72
     1
 11
3410.0
 21
21521.50000000015
 31
0.0
100
AcDbText
 73
     1
  0
TEXT
  5
60DDA
330
1F
100
AcDbEntity
  8
D-STR-HTXT
100
AcDbText
 10
7565.329949238578
 20
22716.64253422982
 30
0.0
 40
200.0
  1
(2,200-2,500)
 72
     4
 11
8410.0
 21
22809.02832103185
 31
0.0
100
AcDbText
  0
TEXT
  5
60DDB
330
1F
100
AcDbEntity
  8
D-STR-HTXT
100
AcDbText
 10
6267.278139105155
 20
23090.15173867655
 30
0.0
 40
200.0
  1
シンプル・ウォール
100
AcDbText
  0
LINE
  5
60DDC
330
1F
100
AcDbEntity
  8
D-TTL-TXT
100
AcDbLine
 10
6175.118026501499
 20
22993.0088815337
 30
0.0
 11
10644.8819734985
 21
22993.0088815337
 31
0.0
  0
TEXT
  5
60DDD
330
1F
100
AcDbEntity
  8
D-STR-HTXT
100
AcDbText
 10
9456.340971757272
 20
23067.00888153369
 30
0.0
 40
140.0
  1
尺度 1:20
100
AcDbText
  0
TEXT
  5
627C2
330
1F
100
AcDbEntity
  8
D-MTR-TXT
100
AcDbText
 10
13146.29441624365
 20
16613.49881352653
 30
0.0
 40
69.99999999999999
  1
RC-40
 72
     4
 11
13260.0
 21
16648.14348357729
 31
0.0
100
AcDbText
  0
TEXT
  5
627C3
330
1F
100
AcDbEntity
  8
D-MTR-TXT
100
AcDbText
 10
12223.55329949238
 20
16616.69678306967
 30
0.0
 40
69.99999999999999
  1
裏込材
 72
     4
 11
12360.0
 21
16648.14348357729
 31
0.0
100
AcDbText
  0
TEXT
  5
627C4
330
1F
100
AcDbEntity
  8
D-MTR-TXT
100
AcDbText
 10
12132.58883248731
 20
16475.9861231712
 30
0.0
 40
69.99999999999999
  1
敷モルタル
 72
     4
 11
12360.0
 21
16508.14348357729
 31
0.0
100
AcDbText
  0
TEXT
  5
627C5
330
1F
100
AcDbEntity
  8
D-MTR-TXT
100
AcDbText
 10
13191.77664974619
 20
16473.49881352653
 30
0.0
 40
69.99999999999999
  1
1:3
 72
     4
 11
13260.0
 21
16508.14348357729
 31
0.0
100
AcDbText
  0
TEXT
  5
627C6
330
1F
100
AcDbEntity
  8
D-MTR-TXT
100
AcDbText
 10
11836.95431472081
 20
16335.45312824734
 30
0.0
 40
69.99999999999999
  1
均しコンクリート(t=100)
 72
     4
 11
12360.0
 21
16368.14348357729
 31
0.0
100
AcDbText
  0
TEXT
  5
627C7
330
1F
100
AcDbEntity
  8
D-MTR-TXT
100
AcDbText
 10
13055.32994923858
 20
16333.49881352653
 30
0.0
 40
69.99999999999999
  1
18-5-40BB
 72
     4
 11
13260.0
 21
16368.14348357729
 31
0.0
100
AcDbText
  0
TEXT
  5
627C8
330
1F
100
AcDbEntity
  8
D-MTR-TXT
100
AcDbText
 10
12178.07106598985
 20
16195.45312824734
 30
0.0
 40
69.99999999999999
  1
同上型枠
 72
     4
 11
12360.0
 21
16228.14348357729
 31
0.0
100
AcDbText
  0
TEXT
  5
627C9
330
1F
100
AcDbEntity
  8
D-MTR-TXT
100
AcDbText
 10
12064.3654822335
 20
16055.27546327272
 30
0.0
 40
69.99999999999999
  1
基礎材(t=200)
 72
     4
 11
12360.0
 21
16088.14348357729
 31
0.0
100
AcDbText
  0
TEXT
  5
627CA
330
1F
100
AcDbEntity
  8
D-MTR-TXT
100
AcDbText
 10
13146.29441624365
 20
16053.49881352652
 30
0.0
 40
69.99999999999999
  1
RC-40
 72
     4
 11
13260.0
 21
16088.14348357729
 31
0.0
100
AcDbText
  0
LWPOLYLINE
  5
627CB
330
1F
100
AcDbEntity
  8
D-MTR-FRAM
100
AcDbPolyline
 90
        2
 70
     0
 43
0.0
 10
11760.0
 20
16998.14348357727
 10
15160.0
 20
16998.14348357727
  0
LWPOLYLINE
  5
627CC
330
1F
100
AcDbEntity
  8
D-MTR-FRAM
100
AcDbPolyline
 90
        2
 70
     0
 43
0.0
 10
11760.0
 20
16858.14348357727
 10
15160.0
 20
16858.14348357727
  0
LWPOLYLINE
  5
627CD
330
1F
100
AcDbEntity
  8
D-MTR-FRAM
100
AcDbPolyline
 90
        2
 70
     0
 43
0.0
 10
11760.0
 20
16718.14348357727
 10
15160.0
 20
16718.14348357727
  0
LWPOLYLINE
  5
627CE
330
1F
100
AcDbEntity
  8
D-MTR-FRAM
100
AcDbPolyline
 90
        2
 70
     0
 43
0.0
 10
11760.0
 20
16578.14348357726
 10
15160.0
 20
16578.14348357726
  0
LWPOLYLINE
  5
627CF
330
1F
100
AcDbEntity
  8
D-MTR-FRAM
100
AcDbPolyline
 90
        2
 70
     0
 43
0.0
 10
11760.0
 20
16438.14348357726
 10
15160.0
 20
16438.14348357726
  0
LWPOLYLINE
  5
627D0
330
1F
100
AcDbEntity
  8
D-MTR-FRAM
100
AcDbPolyline
 90
        2
 70
     0
 43
0.0
 10
11760.0
 20
16298.14348357727
 10
15160.0
 20
16298.14348357727
  0
LWPOLYLINE
  5
627D1
330
1F
100
AcDbEntity
  8
D-MTR-FRAM
100
AcDbPolyline
 90
        2
 70
     0
 43
0.0
 10
11760.0
 20
16998.14348357727
 10
11760.0
 20
16018.14348357726
  0
LWPOLYLINE
  5
627D2
330
1F
100
AcDbEntity
  8
D-MTR-FRAM
100
AcDbPolyline
 90
        2
 70
     0
 43
0.0
 10
12960.0
 20
16998.14348357727
 10
12960.0
 20
16018.14348357726
  0
LWPOLYLINE
  5
627D3
330
1F
100
AcDbEntity
  8
D-MTR-FRAM
100
AcDbPolyline
 90
        2
 70
     0
 43
0.0
 10
13560.0
 20
16998.14348357727
 10
13560.0
 20
16018.14348357726
  0
LWPOLYLINE
  5
627D4
330
1F
100
AcDbEntity
  8
D-MTR-FRAM
100
AcDbPolyline
 90
        2
 70
     0
 43
0.0
 10
14560.0
 20
16998.14348357727
 10
14560.0
 20
16018.14348357726
  0
LWPOLYLINE
  5
627D5
330
1F
100
AcDbEntity
  8
D-MTR-FRAM
100
AcDbPolyline
 90
        2
 70
     0
 43
0.0
 10
14860.0
 20
16998.14348357727
 10
14860.0
 20
16018.14348357726
  0
LWPOLYLINE
  5
627D6
330
1F
100
AcDbEntity
  8
D-MTR-FRAM
100
AcDbPolyline
 90
        2
 70
     0
 43
0.0
 10
15160.0
 20
16998.14348357727
 10
15160.0
 20
16018.14348357726
  0
TEXT
  5
627D7
330
1F
100
AcDbEntity
  8
D-MTR-TXT
100
AcDbText
 10
12269.03553299492
 20
16895.45312824734
 30
0.0
 40
69.99999999999999
  1
名称
 72
     4
 11
12360.0
 21
16928.14348357729
 31
0.0
100
AcDbText
  0
TEXT
  5
627D8
330
1F
100
AcDbEntity
  8
D-MTR-TXT
100
AcDbText
 10
13169.03553299492
 20
16895.80845819658
 30
0.0
 40
69.99999999999999
  1
規格
 72
     4
 11
13260.0
 21
16928.14348357729
 31
0.0
100
AcDbText
  0
TEXT
  5
627D9
330
1F
100
AcDbEntity
  8
D-MTR-TXT
100
AcDbText
 10
13923.55329949238
 20
16895.45312824734
 30
0.0
 40
69.99999999999999
  1
計算式
 72
     4
 11
14060.0
 21
16928.14348357729
 31
0.0
100
AcDbText
  0
TEXT
  5
627DA
330
1F
100
AcDbEntity
  8
D-MTR-TXT
100
AcDbText
 10
14619.03553299492
 20
16895.0977982981
 30
0.0
 40
69.99999999999999
  1
単位
 72
     4
 11
14710.0
 21
16928.14348357729
 31
0.0
100
AcDbText
  0
TEXT
  5
627DB
330
1F
100
AcDbEntity
  8
D-MTR-TXT
100
AcDbText
 10
14919.03553299492
 20
16895.80845819658
 30
0.0
 40
69.99999999999999
  1
数量
 72
     4
 11
15010.0
 21
16928.14348357729
 31
0.0
100
AcDbText
  0
TEXT
  5
627DC
330
1F
100
AcDbEntity
  8
D-MTR-TXT
100
AcDbText
 10
11760.0
 20
17036.41759525241
 30
0.0
 40
99.99999999999998
  1
材料表
 11
11760.0
 21
17018.14348357729
 31
0.0
100
AcDbText
 73
     1
  0
TEXT
  5
627DD
330
1F
100
AcDbEntity
  8
D-MTR-TXT
100
AcDbText
 10
14659.69543147208
 20
17030.93536174988
 30
0.0
 40
69.99999999999999
  1
(10.0m当り)
 72
     2
 11
15160.0
 21
17018.14348357729
 31
0.0
100
AcDbText
 73
     1
  0
LWPOLYLINE
  5
627DE
330
1F
100
AcDbEntity
  8
D-MTR-FRAM
100
AcDbPolyline
 90
        2
 70
     0
 43
0.0
 10
11760.0
 20
16158.14348357726
 10
15160.0
 20
16158.14348357726
  0
TEXT
  5
627DF
330
1F
100
AcDbEntity
  8
D-MTR-TXT
100
AcDbText
 10
14958.07106598985
 20
16753.14348357729
 30
0.0
 40
69.99999999999999
  1
5.0 
 72
     2
 11
15140.0
 21
16788.14348357729
 31
0.0
100
AcDbText
 73
     2
  0
TEXT
  5
627E0
330
1F
100
AcDbEntity
  8
D-MTR-TXT
100
AcDbText
 10
14664.51776649746
 20
16754.74246834886
 30
0.0
 40
69.99999999999999
  1
個
 72
     4
 11
14710.0
 21
16788.14348357729
 31
0.0
100
AcDbText
  0
TEXT
  5
627E1
330
1F
100
AcDbEntity
  8
D-MTR-TXT
100
AcDbText
 10
13580.0
 20
16753.14348357729
 30
0.0
 40
69.99999999999999
  1
10.0÷2.0
 11
13580.0
 21
16788.14348357729
 31
0.0
100
AcDbText
 73
     2
  0
TEXT
  5
627E2
330
1F
100
AcDbEntity
  8
D-MTR-TXT
100
AcDbText
 10
13032.58883248731
 20
16753.49881352653
 30
0.0
 40
69.99999999999999
  1
2500×1750
 72
     4
 11
13260.0
 21
16788.14348357729
 31
0.0
100
AcDbText
  0
TEXT
  5
627E3
330
1F
100
AcDbEntity
  8
D-MTR-TXT
100
AcDbText
 10
11950.65989847716
 20
16752.96581860267
 30
0.0
 40
69.99999999999999
  1
シンプル・ウォール
 72
     4
 11
12360.0
 21
16788.14348357729
 31
0.0
100
AcDbText
  0
LWPOLYLINE
  5
627E4
330
1F
100
AcDbEntity
  8
D-MTR-FRAM
100
AcDbPolyline
 90
        2
 70
     0
 43
0.0
 10
11760.0
 20
16018.14348357726
 10
15160.0
 20
16018.14348357726
  0
TEXT
  5
62834
330
1F
100
AcDbEntity
  8
D-MTR-TXT
100
AcDbText
 10
8096.294416243656
 20
16613.49881352653
 30
0.0
 40
69.99999999999999
  1
RC-40
 72
     4
 11
8210.0
 21
16648.14348357729
 31
0.0
100
AcDbText
  0
TEXT
  5
62835
330
1F
100
AcDbEntity
  8
D-MTR-TXT
100
AcDbText
 10
7173.553299492386
 20
16616.69678306967
 30
0.0
 40
69.99999999999999
  1
裏込材
 72
     4
 11
7310.0
 21
16648.14348357729
 31
0.0
100
AcDbText
  0
TEXT
  5
62836
330
1F
100
AcDbEntity
  8
D-MTR-TXT
100
AcDbText
 10
7082.588832487309
 20
16475.9861231712
 30
0.0
 40
69.99999999999999
  1
敷モルタル
 72
     4
 11
7310.0
 21
16508.14348357729
 31
0.0
100
AcDbText
  0
TEXT
  5
62837
330
1F
100
AcDbEntity
  8
D-MTR-TXT
100
AcDbText
 10
8141.776649746192
 20
16473.49881352653
 30
0.0
 40
69.99999999999999
  1
1:3
 72
     4
 11
8210.0
 21
16508.14348357729
 31
0.0
100
AcDbText
  0
TEXT
  5
62838
330
1F
100
AcDbEntity
  8
D-MTR-TXT
100
AcDbText
 10
6786.954314720812
 20
16335.45312824734
 30
0.0
 40
69.99999999999999
  1
均しコンクリート(t=100)
 72
     4
 11
7310.0
 21
16368.14348357729
 31
0.0
100
AcDbText
  0
TEXT
  5
62839
330
1F
100
AcDbEntity
  8
D-MTR-TXT
100
AcDbText
 10
8005.329949238578
 20
16333.49881352653
 30
0.0
 40
69.99999999999999
  1
18-5-40BB
 72
     4
 11
8210.0
 21
16368.14348357729
 31
0.0
100
AcDbText
  0
TEXT
  5
6283A
330
1F
100
AcDbEntity
  8
D-MTR-TXT
100
AcDbText
 10
7128.071065989847
 20
16195.45312824734
 30
0.0
 40
69.99999999999999
  1
同上型枠
 72
     4
 11
7310.0
 21
16228.14348357729
 31
0.0
100
AcDbText
  0
TEXT
  5
6283B
330
1F
100
AcDbEntity
  8
D-MTR-TXT
100
AcDbText
 10
7014.365482233504
 20
16055.27546327272
 30
0.0
 40
69.99999999999999
  1
基礎材(t=200)
 72
     4
 11
7310.0
 21
16088.14348357729
 31
0.0
100
AcDbText
  0
TEXT
  5
6283C
330
1F
100
AcDbEntity
  8
D-MTR-TXT
100
AcDbText
 10
8096.294416243656
 20
16053.49881352652
 30
0.0
 40
69.99999999999999
  1
RC-40
 72
     4
 11
8210.0
 21
16088.14348357729
 31
0.0
100
AcDbText
  0
LWPOLYLINE
  5
6283D
330
1F
100
AcDbEntity
  8
D-MTR-FRAM
100
AcDbPolyline
 90
        2
 70
     0
 43
0.0
 10
6710.0
 20
16998.14348357727
 10
10110.0
 20
16998.14348357727
  0
LWPOLYLINE
  5
6283E
330
1F
100
AcDbEntity
  8
D-MTR-FRAM
100
AcDbPolyline
 90
        2
 70
     0
 43
0.0
 10
6710.0
 20
16858.14348357727
 10
10110.0
 20
16858.14348357727
  0
LWPOLYLINE
  5
6283F
330
1F
100
AcDbEntity
  8
D-MTR-FRAM
100
AcDbPolyline
 90
        2
 70
     0
 43
0.0
 10
6710.0
 20
16718.14348357727
 10
10110.0
 20
16718.14348357727
  0
LWPOLYLINE
  5
62840
330
1F
100
AcDbEntity
  8
D-MTR-FRAM
100
AcDbPolyline
 90
        2
 70
     0
 43
0.0
 10
6710.0
 20
16578.14348357726
 10
10110.0
 20
16578.14348357726
  0
LWPOLYLINE
  5
62841
330
1F
100
AcDbEntity
  8
D-MTR-FRAM
100
AcDbPolyline
 90
        2
 70
     0
 43
0.0
 10
6710.0
 20
16438.14348357726
 10
10110.0
 20
16438.14348357726
  0
LWPOLYLINE
  5
62842
330
1F
100
AcDbEntity
  8
D-MTR-FRAM
100
AcDbPolyline
 90
        2
 70
     0
 43
0.0
 10
6710.0
 20
16298.14348357727
 10
10110.0
 20
16298.14348357727
  0
LWPOLYLINE
  5
62843
330
1F
100
AcDbEntity
  8
D-MTR-FRAM
100
AcDbPolyline
 90
        2
 70
     0
 43
0.0
 10
6710.0
 20
16998.14348357727
 10
6710.0
 20
16018.14348357726
  0
LWPOLYLINE
  5
62844
330
1F
100
AcDbEntity
  8
D-MTR-FRAM
100
AcDbPolyline
 90
        2
 70
     0
 43
0.0
 10
7910.0
 20
16998.14348357727
 10
7910.0
 20
16018.14348357726
  0
LWPOLYLINE
  5
62845
330
1F
100
AcDbEntity
  8
D-MTR-FRAM
100
AcDbPolyline
 90
        2
 70
     0
 43
0.0
 10
8510.0
 20
16998.14348357727
 10
8510.0
 20
16018.14348357726
  0
LWPOLYLINE
  5
62846
330
1F
100
AcDbEntity
  8
D-MTR-FRAM
100
AcDbPolyline
 90
        2
 70
     0
 43
0.0
 10
9510.0
 20
16998.14348357727
 10
9510.0
 20
16018.14348357726
  0
LWPOLYLINE
  5
62847
330
1F
100
AcDbEntity
  8
D-MTR-FRAM
100
AcDbPolyline
 90
        2
 70
     0
 43
0.0
 10
9810.0
 20
16998.14348357727
 10
9810.0
 20
16018.14348357726
  0
LWPOLYLINE
  5
62848
330
1F
100
AcDbEntity
  8
D-MTR-FRAM
100
AcDbPolyline
 90
        2
 70
     0
 43
0.0
 10
10110.0
 20
16998.14348357727
 10
10110.0
 20
16018.14348357726
  0
TEXT
  5
62849
330
1F
100
AcDbEntity
  8
D-MTR-TXT
100
AcDbText
 10
7219.035532994924
 20
16895.45312824734
 30
0.0
 40
69.99999999999999
  1
名称
 72
     4
 11
7310.0
 21
16928.14348357729
 31
0.0
100
AcDbText
  0
TEXT
  5
6284A
330
1F
100
AcDbEntity
  8
D-MTR-TXT
100
AcDbText
 10
8119.035532994924
 20
16895.80845819658
 30
0.0
 40
69.99999999999999
  1
規格
 72
     4
 11
8210.0
 21
16928.14348357729
 31
0.0
100
AcDbText
  0
TEXT
  5
6284B
330
1F
100
AcDbEntity
  8
D-MTR-TXT
100
AcDbText
 10
8873.553299492385
 20
16895.45312824734
 30
0.0
 40
69.99999999999999
  1
計算式
 72
     4
 11
9010.0
 21
16928.14348357729
 31
0.0
100
AcDbText
  0
TEXT
  5
6284C
330
1F
100
AcDbEntity
  8
D-MTR-TXT
100
AcDbText
 10
9569.035532994924
 20
16895.0977982981
 30
0.0
 40
69.99999999999999
  1
単位
 72
     4
 11
9660.0
 21
16928.14348357729
 31
0.0
100
AcDbText
  0
TEXT
  5
6284D
330
1F
100
AcDbEntity
  8
D-MTR-TXT
100
AcDbText
 10
9869.035532994924
 20
16895.80845819658
 30
0.0
 40
69.99999999999999
  1
数量
 72
     4
 11
9960.0
 21
16928.14348357729
 31
0.0
100
AcDbText
  0
TEXT
  5
6284E
330
1F
100
AcDbEntity
  8
D-MTR-TXT
100
AcDbText
 10
6710.0
 20
17036.41759525241
 30
0.0
 40
99.99999999999998
  1
材料表
 11
6710.0
 21
17018.14348357729
 31
0.0
100
AcDbText
 73
     1
  0
TEXT
  5
6284F
330
1F
100
AcDbEntity
  8
D-MTR-TXT
100
AcDbText
 10
9609.695431472081
 20
17030.93536174988
 30
0.0
 40
69.99999999999999
  1
(10.0m当り)
 72
     2
 11
10110.0
 21
17018.14348357729
 31
0.0
100
AcDbText
 73
     1
  0
LWPOLYLINE
  5
62850
330
1F
100
AcDbEntity
  8
D-MTR-FRAM
100
AcDbPolyline
 90
        2
 70
     0
 43
0.0
 10
6710.0
 20
16158.14348357726
 10
10110.0
 20
16158.14348357726
  0
TEXT
  5
62851
330
1F
100
AcDbEntity
  8
D-MTR-TXT
100
AcDbText
 10
9908.071065989849
 20
16753.14348357729
 30
0.0
 40
69.99999999999999
  1
5.0 
 72
     2
 11
10090.0
 21
16788.14348357729
 31
0.0
100
AcDbText
 73
     2
  0
TEXT
  5
62852
330
1F
100
AcDbEntity
  8
D-MTR-TXT
100
AcDbText
 10
9614.517766497463
 20
16754.74246834886
 30
0.0
 40
69.99999999999999
  1
個
 72
     4
 11
9660.0
 21
16788.14348357729
 31
0.0
100
AcDbText
  0
TEXT
  5
62853
330
1F
100
AcDbEntity
  8
D-MTR-TXT
100
AcDbText
 10
8530.0
 20
16753.14348357729
 30
0.0
 40
69.99999999999999
  1
10.0÷2.0
 11
8530.0
 21
16788.14348357729
 31
0.0
100
AcDbText
 73
     2
  0
TEXT
  5
62854
330
1F
100
AcDbEntity
  8
D-MTR-TXT
100
AcDbText
 10
7982.588832487309
 20
16753.49881352653
 30
0.0
 40
69.99999999999999
  1
2300×1630
 72
     4
 11
8210.0
 21
16788.14348357729
 31
0.0
100
AcDbText
  0
TEXT
  5
62855
330
1F
100
AcDbEntity
  8
D-MTR-TXT
100
AcDbText
 10
6900.659898477157
 20
16752.96581860267
 30
0.0
 40
69.99999999999999
  1
シンプル・ウォール
 72
     4
 11
7310.0
 21
16788.14348357729
 31
0.0
100
AcDbText
  0
LWPOLYLINE
  5
62856
330
1F
100
AcDbEntity
  8
D-MTR-FRAM
100
AcDbPolyline
 90
        2
 70
     0
 43
0.0
 10
6710.0
 20
16018.14348357726
 10
10110.0
 20
16018.14348357726
  0
TEXT
  5
628A6
330
1F
100
AcDbEntity
  8
D-MTR-TXT
100
AcDbText
 10
3096.294416243655
 20
16613.49881352653
 30
0.0
 40
69.99999999999999
  1
RC-40
 72
     4
 11
3210.0
 21
16648.14348357729
 31
0.0
100
AcDbText
  0
TEXT
  5
628A7
330
1F
100
AcDbEntity
  8
D-MTR-TXT
100
AcDbText
 10
2173.553299492386
 20
16616.69678306967
 30
0.0
 40
69.99999999999999
  1
裏込材
 72
     4
 11
2310.0
 21
16648.14348357729
 31
0.0
100
AcDbText
  0
TEXT
  5
628A8
330
1F
100
AcDbEntity
  8
D-MTR-TXT
100
AcDbText
 10
2082.58883248731
 20
16475.9861231712
 30
0.0
 40
69.99999999999999
  1
敷モルタル
 72
     4
 11
2310.0
 21
16508.14348357729
 31
0.0
100
AcDbText
  0
TEXT
  5
628A9
330
1F
100
AcDbEntity
  8
D-MTR-TXT
100
AcDbText
 10
3141.776649746193
 20
16473.49881352653
 30
0.0
 40
69.99999999999999
  1
1:3
 72
     4
 11
3210.0
 21
16508.14348357729
 31
0.0
100
AcDbText
  0
TEXT
  5
628AA
330
1F
100
AcDbEntity
  8
D-MTR-TXT
100
AcDbText
 10
1786.954314720812
 20
16335.45312824734
 30
0.0
 40
69.99999999999999
  1
均しコンクリート(t=100)
 72
     4
 11
2310.0
 21
16368.14348357729
 31
0.0
100
AcDbText
  0
TEXT
  5
628AB
330
1F
100
AcDbEntity
  8
D-MTR-TXT
100
AcDbText
 10
3005.329949238579
 20
16333.49881352653
 30
0.0
 40
69.99999999999999
  1
18-5-40BB
 72
     4
 11
3210.0
 21
16368.14348357729
 31
0.0
100
AcDbText
  0
TEXT
  5
628AC
330
1F
100
AcDbEntity
  8
D-MTR-TXT
100
AcDbText
 10
2128.071065989848
 20
16195.45312824734
 30
0.0
 40
69.99999999999999
  1
同上型枠
 72
     4
 11
2310.0
 21
16228.14348357729
 31
0.0
100
AcDbText
  0
TEXT
  5
628AD
330
1F
100
AcDbEntity
  8
D-MTR-TXT
100
AcDbText
 10
2014.365482233503
 20
16055.27546327272
 30
0.0
 40
69.99999999999999
  1
基礎材(t=200)
 72
     4
 11
2310.0
 21
16088.14348357729
 31
0.0
100
AcDbText
  0
TEXT
  5
628AE
330
1F
100
AcDbEntity
  8
D-MTR-TXT
100
AcDbText
 10
3096.294416243655
 20
16053.49881352652
 30
0.0
 40
69.99999999999999
  1
RC-40
 72
     4
 11
3210.0
 21
16088.14348357729
 31
0.0
100
AcDbText
  0
LWPOLYLINE
  5
628AF
330
1F
100
AcDbEntity
  8
D-MTR-FRAM
100
AcDbPolyline
 90
        2
 70
     0
 43
0.0
 10
1710.0
 20
16998.14348357727
 10
5110.0
 20
16998.14348357727
  0
LWPOLYLINE
  5
628B0
330
1F
100
AcDbEntity
  8
D-MTR-FRAM
100
AcDbPolyline
 90
        2
 70
     0
 43
0.0
 10
1710.0
 20
16858.14348357727
 10
5110.0
 20
16858.14348357727
  0
LWPOLYLINE
  5
628B1
330
1F
100
AcDbEntity
  8
D-MTR-FRAM
100
AcDbPolyline
 90
        2
 70
     0
 43
0.0
 10
1710.0
 20
16718.14348357727
 10
5110.0
 20
16718.14348357727
  0
LWPOLYLINE
  5
628B2
330
1F
100
AcDbEntity
  8
D-MTR-FRAM
100
AcDbPolyline
 90
        2
 70
     0
 43
0.0
 10
1710.0
 20
16578.14348357726
 10
5110.0
 20
16578.14348357726
  0
LWPOLYLINE
  5
628B3
330
1F
100
AcDbEntity
  8
D-MTR-FRAM
100
AcDbPolyline
 90
        2
 70
     0
 43
0.0
 10
1710.0
 20
16438.14348357726
 10
5110.0
 20
16438.14348357726
  0
LWPOLYLINE
  5
628B4
330
1F
100
AcDbEntity
  8
D-MTR-FRAM
100
AcDbPolyline
 90
        2
 70
     0
 43
0.0
 10
1710.0
 20
16298.14348357727
 10
5110.0
 20
16298.14348357727
  0
LWPOLYLINE
  5
628B5
330
1F
100
AcDbEntity
  8
D-MTR-FRAM
100
AcDbPolyline
 90
        2
 70
     0
 43
0.0
 10
1710.0
 20
16998.14348357727
 10
1710.0
 20
16018.14348357726
  0
LWPOLYLINE
  5
628B6
330
1F
100
AcDbEntity
  8
D-MTR-FRAM
100
AcDbPolyline
 90
        2
 70
     0
 43
0.0
 10
2910.0
 20
16998.14348357727
 10
2910.0
 20
16018.14348357726
  0
LWPOLYLINE
  5
628B7
330
1F
100
AcDbEntity
  8
D-MTR-FRAM
100
AcDbPolyline
 90
        2
 70
     0
 43
0.0
 10
3510.0
 20
16998.14348357727
 10
3510.0
 20
16018.14348357726
  0
LWPOLYLINE
  5
628B8
330
1F
100
AcDbEntity
  8
D-MTR-FRAM
100
AcDbPolyline
 90
        2
 70
     0
 43
0.0
 10
4510.0
 20
16998.14348357727
 10
4510.0
 20
16018.14348357726
  0
LWPOLYLINE
  5
628B9
330
1F
100
AcDbEntity
  8
D-MTR-FRAM
100
AcDbPolyline
 90
        2
 70
     0
 43
0.0
 10
4810.0
 20
16998.14348357727
 10
4810.0
 20
16018.14348357726
  0
LWPOLYLINE
  5
628BA
330
1F
100
AcDbEntity
  8
D-MTR-FRAM
100
AcDbPolyline
 90
        2
 70
     0
 43
0.0
 10
5110.0
 20
16998.14348357727
 10
5110.0
 20
16018.14348357726
  0
TEXT
  5
628BB
330
1F
100
AcDbEntity
  8
D-MTR-TXT
100
AcDbText
 10
2219.035532994924
 20
16895.45312824734
 30
0.0
 40
69.99999999999999
  1
名称
 72
     4
 11
2310.0
 21
16928.14348357729
 31
0.0
100
AcDbText
  0
TEXT
  5
628BC
330
1F
100
AcDbEntity
  8
D-MTR-TXT
100
AcDbText
 10
3119.035532994924
 20
16895.80845819658
 30
0.0
 40
69.99999999999999
  1
規格
 72
     4
 11
3210.0
 21
16928.14348357729
 31
0.0
100
AcDbText
  0
TEXT
  5
628BD
330
1F
100
AcDbEntity
  8
D-MTR-TXT
100
AcDbText
 10
3873.553299492386
 20
16895.45312824734
 30
0.0
 40
69.99999999999999
  1
計算式
 72
     4
 11
4010.0
 21
16928.14348357729
 31
0.0
100
AcDbText
  0
TEXT
  5
628BE
330
1F
100
AcDbEntity
  8
D-MTR-TXT
100
AcDbText
 10
4569.035532994924
 20
16895.0977982981
 30
0.0
 40
69.99999999999999
  1
単位
 72
     4
 11
4660.0
 21
16928.14348357729
 31
0.0
100
AcDbText
  0
TEXT
  5
628BF
330
1F
100
AcDbEntity
  8
D-MTR-TXT
100
AcDbText
 10
4869.035532994924
 20
16895.80845819658
 30
0.0
 40
69.99999999999999
  1
数量
 72
     4
 11
4960.0
 21
16928.14348357729
 31
0.0
100
AcDbText
  0
TEXT
  5
628C0
330
1F
100
AcDbEntity
  8
D-MTR-TXT
100
AcDbText
 10
1710.0
 20
17036.41759525241
 30
0.0
 40
99.99999999999998
  1
材料表
 11
1710.0
 21
17018.14348357729
 31
0.0
100
AcDbText
 73
     1
  0
TEXT
  5
628C1
330
1F
100
AcDbEntity
  8
D-MTR-TXT
100
AcDbText
 10
4609.695431472082
 20
17030.93536174988
 30
0.0
 40
69.99999999999999
  1
(10.0m当り)
 72
     2
 11
5110.0
 21
17018.14348357729
 31
0.0
100
AcDbText
 73
     1
  0
LWPOLYLINE
  5
628C2
330
1F
100
AcDbEntity
  8
D-MTR-FRAM
100
AcDbPolyline
 90
        2
 70
     0
 43
0.0
 10
1710.0
 20
16158.14348357726
 10
5110.0
 20
16158.14348357726
  0
TEXT
  5
628C3
330
1F
100
AcDbEntity
  8
D-MTR-TXT
100
AcDbText
 10
4908.071065989847
 20
16753.14348357729
 30
0.0
 40
69.99999999999999
  1
5.0 
 72
     2
 11
5090.0
 21
16788.14348357729
 31
0.0
100
AcDbText
 73
     2
  0
TEXT
  5
628C4
330
1F
100
AcDbEntity
  8
D-MTR-TXT
100
AcDbText
 10
4614.517766497462
 20
16754.74246834886
 30
0.0
 40
69.99999999999999
  1
個
 72
     4
 11
4660.0
 21
16788.14348357729
 31
0.0
100
AcDbText
  0
TEXT
  5
628C5
330
1F
100
AcDbEntity
  8
D-MTR-TXT
100
AcDbText
 10
3530.0
 20
16753.14348357729
 30
0.0
 40
69.99999999999999
  1
10.0÷2.0
 11
3530.0
 21
16788.14348357729
 31
0.0
100
AcDbText
 73
     2
  0
TEXT
  5
628C6
330
1F
100
AcDbEntity
  8
D-MTR-TXT
100
AcDbText
 10
2982.58883248731
 20
16753.49881352653
 30
0.0
 40
69.99999999999999
  1
2200×1570
 72
     4
 11
3210.0
 21
16788.14348357729
 31
0.0
100
AcDbText
  0
TEXT
  5
628C7
330
1F
100
AcDbEntity
  8
D-MTR-TXT
100
AcDbText
 10
1900.659898477157
 20
16752.96581860267
 30
0.0
 40
69.99999999999999
  1
シンプル・ウォール
 72
     4
 11
2310.0
 21
16788.14348357729
 31
0.0
100
AcDbText
  0
LWPOLYLINE
  5
628C8
330
1F
100
AcDbEntity
  8
D-MTR-FRAM
100
AcDbPolyline
 90
        2
 70
     0
 43
0.0
 10
1710.0
 20
16018.14348357726
 10
5110.0
 20
16018.14348357726
  0
TEXT
  5
62A85
330
1F
100
AcDbEntity
  8
D-STR-HTXT
100
AcDbText
 10
13116.66299274693
 20
21042.67770800592
 30
0.0
 40
69.99999999999999
  1
裏込材(RC-40)
100
AcDbText
  0
TEXT
  5
62A86
330
1F
100
AcDbEntity
  8
D-STR-HTXT
100
AcDbText
 10
8176.662992746932
 20
21042.67770800592
 30
0.0
 40
69.99999999999999
  1
裏込材(RC-40)
100
AcDbText
  0
TEXT
  5
62A87
330
1F
100
AcDbEntity
  8
D-STR-HTXT
100
AcDbText
 10
3206.66299274693
 20
21042.67770800592
 30
0.0
 40
69.99999999999999
  1
裏込材(RC-40)
100
AcDbText
  0
TEXT
  5
62A88
330
1F
100
AcDbEntity
  8
D-STR-HTXT
100
AcDbText
 10
4428.358268538623
 20
18507.84777058217
 30
0.0
 40
69.99999999999999
  1
敷モルタル(1:3)
100
AcDbText
  0
TEXT
  5
62A89
330
1F
100
AcDbEntity
  8
D-STR-HTXT
100
AcDbText
 10
4420.796751567874
 20
18377.44777058216
 30
0.0
 40
69.99999999999999
  1
均しコンクリート(18-5-40BB)
100
AcDbText
  0
TEXT
  5
62A8A
330
1F
100
AcDbEntity
  8
D-STR-HTXT
100
AcDbText
 10
4402.155500149564
 20
18250.64777058217
 30
0.0
 40
69.99999999999999
  1
基礎材(RC-40)
100
AcDbText
  0
TEXT
  5
62A8B
330
1F
100
AcDbEntity
  8
D-STR-HTXT
100
AcDbText
 10
9432.155500149564
 20
18150.64777058217
 30
0.0
 40
69.99999999999999
  1
基礎材(RC-40)
100
AcDbText
  0
TEXT
  5
62A8C
330
1F
100
AcDbEntity
  8
D-STR-HTXT
100
AcDbText
 10
9450.796751567876
 20
18277.44777058216
 30
0.0
 40
69.99999999999999
  1
均しコンクリート(18-5-40BB)
100
AcDbText
  0
TEXT
  5
62A8D
330
1F
100
AcDbEntity
  8
D-STR-HTXT
100
AcDbText
 10
9458.358268538624
 20
18407.84777058217
 30
0.0
 40
69.99999999999999
  1
敷モルタル(1:3)
100
AcDbText
  0
TEXT
  5
62A8E
330
1F
100
AcDbEntity
  8
D-STR-HTXT
100
AcDbText
 10
14510.79675156787
 20
18077.44777058216
 30
0.0
 40
69.99999999999999
  1
均しコンクリート(18-5-40BB)
100
AcDbText
  0
TEXT
  5
62A8F
330
1F
100
AcDbEntity
  8
D-STR-HTXT
100
AcDbText
 10
14518.35826853862
 20
18207.84777058216
 30
0.0
 40
69.99999999999999
  1
敷モルタル(1:3)
100
AcDbText
  0
TEXT
  5
62A90
330
1F
100
AcDbEntity
  8
D-STR-HTXT
100
AcDbText
 10
14492.15550014956
 20
17950.64777058217
 30
0.0
 40
69.99999999999999
  1
基礎材(RC-40)
100
AcDbText
  0
VIEWPORT
  5
62AF5
330
62AF3
100
AcDbEntity
 67
     1
  8
0
100
AcDbViewport
 10
420.4993782714963
 20
297.000001383014
 30
0.0
 40
1060.078542500429
 41
600.0064684997678
 68
     1
 69
     1
 12
420.4993782714963
 22
297.000001383014
 13
0.0
 23
0.0
 14
10.0
 24
10.0
 15
10.0
 25
10.0
 16
0.0
 26
0.0
 36
1.0
 17
0.0
 27
0.0
 37
0.0
 42
50.0
 43
0.0
 44
0.0
 45
600.0064684997678
 50
0.0
 51
0.0
 72
   100
 90
    32800
  1

281
     0
 71
     1
 74
     0
110
0.0
120
0.0
130
0.0
111
1.0
121
0.0
131
0.0
112
0.0
122
1.0
132
0.0
 79
     0
146
0.0
170
     0
 61
     5
348
62BC9
292
     1
282
     1
141
0.0
142
0.0
 63
   250
421
  3355443
  0
VIEWPORT
  5
62AF6
330
62AF3
100
AcDbEntity
 67
     1
  8
DEFPOINTS
100
AcDbViewport
 10
420.5
 20
296.9999999999999
 30
0.0
 40
841.0
 41
594.0
 68
     2
 69
     2
 12
8410.0
 22
17820.0
 13
0.0
 23
0.0
 14
10.0
 24
10.0
 15
10.0
 25
10.0
 16
0.0
 26
0.0
 36
1.0
 17
0.0
 27
0.0
 37
0.0
 42
50.0
 43
0.0
 44
0.0
 45
11880.0
 50
0.0
 51
0.0
 72
  1000
 90
    32864
  1

281
     0
 71
     1
 74
     0
110
0.0
120
0.0
130
0.0
111
1.0
121
0.0
131
0.0
112
0.0
122
1.0
132
0.0
 79
     0
146
0.0
170
     0
 61
     5
348
62BC9
292
     1
282
     1
141
0.0
142
0.0
 63
   250
421
  3355443
  0
ENDSEC
  0
SECTION
  2
OBJECTS
  0
DICTIONARY
  5
C
330
0
100
AcDbDictionary
281
     1
  3
ACAD_CIP_PREVIOUS_PRODUCT_INFO
350
62BF9
  3
ACAD_COLOR
350
6B
  3
ACAD_DETAILVIEWSTYLE
350
62BF4
  3
ACAD_GROUP
350
D
  3
ACAD_LAYOUT
350
1A
  3
ACAD_MATERIAL
350
6A
  3
ACAD_MLEADERSTYLE
350
62BF0
  3
ACAD_MLINESTYLE
350
17
  3
ACAD_PLOTSETTINGS
350
19
  3
ACAD_PLOTSTYLENAME
350
E
  3
ACAD_SCALELIST
350
62BDE
  3
ACAD_SECTIONVIEWSTYLE
350
62BF2
  3
ACAD_TABLESTYLE
350
62BDC
  3
ACAD_VISUALSTYLE
350
62BC3
  3
ACAD_WIPEOUT_VARS
350
DF
  3
AcadDim
350
26981
  3
ACDB_RECOMPOSE_DATA
350
62C1B
  3
AcDbVariableDictionary
350
5E
  3
ADE_QUERY_LIBRARY
350
8C
  3
ASE_INDEX_DICTIONARY
350
88
1001
ADE
1000
ADE02C004
1000
[Query]
1000
CaseSensitiveMatch=0
1000
SaveCurrQueryInSession=1
1000
MkSelSetWithQryObj=0
1000
ShowBlockAsInsPt=0
1000
CreateAssociativeHatchObjects=0
1000
ReferenceBoundaryForAreaLocation=1
1000
ShowImageAsBoundary=1
1000
DefaultJoinOperator=2
1000
ColorForAdd=red
1000
ColorForRemove=red
1000
BlockLocnForQuery=1
1000
TextLocnForQuery=1
1000
[Save Back]
1000
RedefineBlockDefinitions=1
1000
RedefineLayerDefinitions=1
1000
RedefineTextStyleDefinitions=1
1000
RemoveUnusedGroups=1
1000
EraseSavedBackObjects=1
1000
RemoveLockAfterSave=1
1000
CreateHistoryFileOfChanges=0
1000
CreateBackupFileOfSourceDwg=1
1000
DontAddObjectsToSaveSet=0
1000
MarkObjectsForEditingWithoutPrompting=0
1000
[Coordinate Transformation]
1000
RestoreLastActiveDwgsOnStartup=1
1000
ActivateDwgsOnAttach=1
1000
AdjustSizesAndScalesForChangesInUnits=1
1000
AdjustRotationsForMapDistortions=1
1000
AdjustSizesAndScalesForMapDistortions=1
1000
AdjustElevations=1
1000
AdjustZeroRotationObjects=1
1000
ReconnectDbOnWSOpen=1
1000
NoOfSQLConditionsInHistory=10
  0
DICTIONARY
  5
68D
330
2
100
AcDbDictionary
280
     1
281
     1
  3
ACAD_LAYERFILTERS
360
6FB
  3
ACAD_LAYERSTATES
360
68E
  0
DICTIONARY
  5
62BFB
330
10
100
AcDbDictionary
280
     1
281
     1
  3
ADSK_XREC_LAYER_RECONCILED
360
62BFC
  0
DICTIONARY
  5
62BFD
330
1F5
100
AcDbDictionary
280
     1
281
     1
  3
ADSK_XREC_LAYER_RECONCILED
360
62BFE
  0
DICTIONARY
  5
62BFF
330
1F8
100
AcDbDictionary
280
     1
281
     1
  3
ADSK_XREC_LAYER_RECONCILED
360
62C00
  0
DICTIONARY
  5
62C01
330
69D
100
AcDbDictionary
280
     1
281
     1
  3
ADSK_XREC_LAYER_RECONCILED
360
62C02
  0
DICTIONARY
  5
62C03
330
6A1
100
AcDbDictionary
280
     1
281
     1
  3
ADSK_XREC_LAYER_RECONCILED
360
62C04
  0
DICTIONARY
  5
62C05
330
6A4
100
AcDbDictionary
280
     1
281
     1
  3
ADSK_XREC_LAYER_RECONCILED
360
62C06
  0
DICTIONARY
  5
62C07
330
6A5
100
AcDbDictionary
280
     1
281
     1
  3
ADSK_XREC_LAYER_RECONCILED
360
62C08
  0
DICTIONARY
  5
62C09
330
6A6
100
AcDbDictionary
280
     1
281
     1
  3
ADSK_XREC_LAYER_RECONCILED
360
62C0A
  0
DICTIONARY
  5
62C0B
330
6A7
100
AcDbDictionary
280
     1
281
     1
  3
ADSK_XREC_LAYER_RECONCILED
360
62C0C
  0
DICTIONARY
  5
62C0D
330
6A8
100
AcDbDictionary
280
     1
281
     1
  3
ADSK_XREC_LAYER_RECONCILED
360
62C0E
  0
XRECORD
  5
62BF9
102
{ACAD_REACTORS
330
C
102
}
330
C
100
AcDbXrecord
280
     1
300
ACD
300
2023
300

  0
DICTIONARY
  5
6B
102
{ACAD_REACTORS
330
C
102
}
330
C
100
AcDbDictionary
281
     1
  0
DICTIONARY
  5
62BF4
102
{ACAD_REACTORS
330
C
102
}
330
C
100
AcDbDictionary
281
     1
  3
Metric50
350
62BF5
  0
DICTIONARY
  5
D
102
{ACAD_REACTORS
330
C
102
}
330
C
100
AcDbDictionary
281
     1
  0
DICTIONARY
  5
1A
102
{ACAD_REACTORS
330
C
102
}
330
C
100
AcDbDictionary
281
     1
  3
2200-2500
350
62AF8
  3
Model
350
22
  0
DICTIONARY
  5
6A
102
{ACAD_REACTORS
330
C
102
}
330
C
100
AcDbDictionary
281
     1
  3
ByBlock
350
62BB3
  3
ByLayer
350
62BAB
  3
Global
350
62BBB
  0
DICTIONARY
  5
62BF0
102
{ACAD_REACTORS
330
C
102
}
330
C
100
AcDbDictionary
281
     1
  3
Standard
350
62BF1
  0
DICTIONARY
  5
17
102
{ACAD_REACTORS
330
C
102
}
330
C
100
AcDbDictionary
281
     1
  3
Standard
350
18
  0
DICTIONARY
  5
19
102
{ACAD_REACTORS
330
C
102
}
330
C
100
AcDbDictionary
281
     1
  0
ACDBDICTIONARYWDFLT
  5
E
102
{ACAD_REACTORS
330
C
102
}
330
C
100
AcDbDictionary
281
     1
  3
Normal
350
F
100
AcDbDictionaryWithDefault
340
F
  0
DICTIONARY
  5
62BDE
102
{ACAD_REACTORS
330
C
102
}
330
C
100
AcDbDictionary
281
     1
  3
A0
350
62BDF
  3
A1
350
62BE0
  3
A2
350
62BE1
  3
A3
350
62BE2
  3
A4
350
62BE3
  3
A5
350
62BE4
  3
A6
350
62BE5
  3
A7
350
62BE6
  3
A8
350
62BE7
  3
A9
350
62BE8
  3
B0
350
62BE9
  3
B1
350
62BEA
  3
B2
350
62BEB
  3
B3
350
62BEC
  3
B4
350
62BED
  3
B5
350
62BEE
  3
B6
350
62BEF
  0
DICTIONARY
  5
62BF2
102
{ACAD_REACTORS
330
C
102
}
330
C
100
AcDbDictionary
281
     1
  3
Metric50
350
62BF3
  0
DICTIONARY
  5
62BDC
102
{ACAD_REACTORS
330
C
102
}
330
C
100
AcDbDictionary
281
     1
  3
Standard
350
62BDD
  0
DICTIONARY
  5
62BC3
102
{ACAD_REACTORS
330
C
102
}
330
C
100
AcDbDictionary
281
     1
  3
2dWireframe
350
62BC9
  3
Basic
350
62BC8
  3
Brighten
350
62BCF
  3
ColorChange
350
62BD3
  3
Conceptual
350
62BCC
  3
Dim
350
62BCE
  3
EdgeColorOff
350
62BDB
  3
Facepattern
350
62BD2
  3
Flat
350
62BC4
  3
FlatWithEdges
350
62BC5
  3
Gouraud
350
62BC6
  3
GouraudWithEdges
350
62BC7
  3
Hidden
350
62BCB
  3
JitterOff
350
62BD9
  3
Linepattern
350
62BD1
  3
OverhangOff
350
62BDA
  3
Realistic
350
62BCD
  3
Shaded
350
62BD8
  3
Shaded with edges
350
62BD7
  3
Shades of Gray
350
62BD4
  3
Sketchy
350
62BD5
  3
Thicken
350
62BD0
  3
Wireframe
350
62BCA
  3
X-Ray
350
62BD6
  0
WIPEOUTVARIABLES
  5
DF
102
{ACAD_REACTORS
330
C
102
}
330
C
100
AcDbWipeoutVariables
 70
     1
  0
XRECORD
  5
26981
102
{ACAD_REACTORS
330
C
102
}
330
C
100
AcDbXrecord
280
     1
 90
   990106
  3

 60
     0
 61
     0
 62
     4
 63
     4
 64
     1
 65
     0
 66
     0
 67
     3
 68
     0
 69
     1
 70
     0
 71
     0
 72
     0
 40
711.5818310675458
170
     1
340
0
  0
XRECORD
  5
62C1B
102
{ACAD_REACTORS
330
C
102
}
330
C
100
AcDbXrecord
280
     1
 90
        1
330
62BDD
  0
DICTIONARY
  5
5E
102
{ACAD_REACTORS
330
C
102
}
330
C
100
AcDbDictionary
281
     1
  3
CANNOSCALE
350
62C14
  3
CMLEADERSTYLE
350
62C10
  3
CTABLESTYLE
350
62C0F
  3
CVIEWDETAILSTYLE
350
62C11
  3
CVIEWSECTIONSTYLE
350
62C12
  3
DIMASSOC
350
5F
  3
HIDETEXT
350
63
  3
LAYEREVAL
350
62C16
  3
LAYERNOTIFY
350
62C17
  3
LIGHTINGUNITS
350
62C15
  3
MSLTSCALE
350
62C13
  3
PROJECTNAME
350
260F4
  0
DICTIONARY
  5
8C
102
{ACAD_REACTORS
330
C
102
}
330
C
100
AcDbDictionary
281
     1
  3
_CurrQry
350
550
  0
DICTIONARY
  5
88
102
{ACAD_REACTORS
330
C
102
}
330
C
100
AcDbDictionary
281
     1
  3
ASEBlockHierarchyIndexRecord
350
8A
1001
DCO15
1040
1485105096.922
  0
DICTIONARY
  5
6FB
102
{ACAD_REACTORS
330
68D
102
}
330
68D
100
AcDbDictionary
281
     1
  0
DICTIONARY
  5
68E
102
{ACAD_REACTORS
330
68D
102
}
330
68D
100
AcDbDictionary
281
     1
  3
道路本体設計（7）小構造物図
350
68F
  0
XRECORD
  5
62BFC
102
{ACAD_REACTORS
330
62BFB
102
}
330
62BFB
100
AcDbXrecord
280
     1
290
     1
  0
XRECORD
  5
62BFE
102
{ACAD_REACTORS
330
62BFD
102
}
330
62BFD
100
AcDbXrecord
280
     1
290
     1
  0
XRECORD
  5
62C00
102
{ACAD_REACTORS
330
62BFF
102
}
330
62BFF
100
AcDbXrecord
280
     1
290
     1
  0
XRECORD
  5
62C02
102
{ACAD_REACTORS
330
62C01
102
}
330
62C01
100
AcDbXrecord
280
     1
290
     1
  0
XRECORD
  5
62C04
102
{ACAD_REACTORS
330
62C03
102
}
330
62C03
100
AcDbXrecord
280
     1
290
     1
  0
XRECORD
  5
62C06
102
{ACAD_REACTORS
330
62C05
102
}
330
62C05
100
AcDbXrecord
280
     1
290
     1
  0
XRECORD
  5
62C08
102
{ACAD_REACTORS
330
62C07
102
}
330
62C07
100
AcDbXrecord
280
     1
290
     1
  0
XRECORD
  5
62C0A
102
{ACAD_REACTORS
330
62C09
102
}
330
62C09
100
AcDbXrecord
280
     1
290
     1
  0
XRECORD
  5
62C0C
102
{ACAD_REACTORS
330
62C0B
102
}
330
62C0B
100
AcDbXrecord
280
     1
290
     1
  0
XRECORD
  5
62C0E
102
{ACAD_REACTORS
330
62C0D
102
}
330
62C0D
100
AcDbXrecord
280
     1
290
     1
  0
ACDBDETAILVIEWSTYLE
  5
62BF5
102
{ACAD_XDICTIONARY
360
62C1E
102
}
102
{ACAD_REACTORS
330
62BF4
102
}
330
62BF4
100
AcDbModelDocViewStyle
 70
     0
  3
Metric50
290
     0
100
AcDbDetailViewStyle
 70
     0
 71
     0
 90
        3
 71
     1
340
11
 62
   256
 40
5.0
340
0
 62
   256
 40
5.0
300

 40
0.0
280
     1
 71
     2
340
16
 90
       25
 62
   256
 71
     3
340
11
 62
   256
 40
5.0
 90
        0
 40
15.0
 90
        1
300
%<\AcVar ViewDetailId>% (%<\AcVar ViewScale \f "%sn">%)
 71
     4
340
16
 90
       25
 62
   256
340
16
 90
       25
 62
   256
280
     0
  0
LAYOUT
  5
62AF8
102
{ACAD_REACTORS
330
1A
102
}
330
1A
100
AcDbPlotSettings
  1

  2
Canon LASER SHOT LBP-1910-(A1).pc3
  4
User4403
  6

 40
5.873749732971191
 41
5.873747825622558
 42
5.87371826171875
 43
5.873779296875
 44
593.9366455078125
 45
840.9939575195313
 46
-5.94
 47
-5.929999999999999
 48
0.0
 49
0.0
140
841.0
141
594.0
142
1.0
143
1.0
 70
   676
 72
     1
 73
     1
 74
     1
  7
CALS-(A1).ctb
 75
     0
147
1.0
 76
     1
 77
     2
 78
   300
148
0.0574680763497781
149
0.0362535978599681
100
AcDbLayout
  1
2200-2500
 70
     1
 71
     1
 10
-0.0012473732247784
 20
0.0299966691688409
 11
840.9927101463065
 21
593.9666421769813
 12
0.0
 22
0.0
 32
0.0
 14
-0.0269107364158572
 24
-0.0181260584133725
 34
-0.0015258207003583
 15
841.0256672794085
 25
594.0181288244414
 35
0.0000000349246037
146
0.0
 13
0.0
 23
0.0
 33
0.0
 16
1.0
 26
0.0
 36
0.0
 17
0.0
 27
1.0
 37
0.0
 76
     0
330
62AF3
331
62AF5
  0
LAYOUT
  5
22
102
{ACAD_REACTORS
330
1A
102
}
330
1A
100
AcDbPlotSettings
  1

  2
Canon LASER SHOT LBP-1910
  4
A3
  6

 40
5.873749732971191
 41
5.873747825622558
 42
5.873748779296875
 43
5.873748779296875
 44
296.9259948730469
 45
419.9466552734374
 46
14.58
 47
0.0
 48
0.0
 49
0.0
140
0.0
141
0.0
142
1.0
143
653.6376414194014
 70
 11956
 72
     1
 73
     1
 74
     0
  7
CALS.ctb
 75
     0
147
0.0015298996517833
 76
     0
 77
     2
 78
   300
148
16040.30246129884
149
13643.4627185206
100
AcDbLayout
  1
Model
 70
     1
 71
     0
 10
0.0
 20
0.0
 11
12.0
 21
9.0
 12
0.0
 22
0.0
 32
0.0
 14
0.0
 24
0.0
 34
0.0
 15
0.0
 25
0.0
 35
0.0
146
0.0
 13
0.0
 23
0.0
 33
0.0
 16
1.0
 26
0.0
 36
0.0
 17
0.0
 27
1.0
 37
0.0
 76
     0
330
1F
331
62B91
  0
MATERIAL
  5
62BB3
102
{ACAD_XDICTIONARY
360
62BB4
102
}
102
{ACAD_REACTORS
330
6A
102
}
330
6A
100
AcDbMaterial
  1
ByBlock
 72
     0
 43
0.0008202099737533
 43
0.0
 43
0.0
 43
0.0
 43
0.0
 43
0.0008202099737533
 43
0.0
 43
0.0
 43
0.0
 43
0.0
 43
1.0
 43
0.0
 43
0.0
 43
0.0
 43
0.0
 43
1.0
 77
     0
 47
0.0008202099737533
 47
0.0
 47
0.0
 47
0.0
 47
0.0
 47
0.0008202099737533
 47
0.0
 47
0.0
 47
0.0
 47
0.0
 47
1.0
 47
0.0
 47
0.0
 47
0.0
 47
0.0
 47
1.0
171
     0
 49
0.0008202099737533
 49
0.0
 49
0.0
 49
0.0
 49
0.0
 49
0.0008202099737533
 49
0.0
 49
0.0
 49
0.0
 49
0.0
 49
1.0
 49
0.0
 49
0.0
 49
0.0
 49
0.0
 49
1.0
175
     0
142
0.0008202099737533
142
0.0
142
0.0
142
0.0
142
0.0
142
0.0008202099737533
142
0.0
142
0.0
142
0.0
142
0.0
142
1.0
142
0.0
142
0.0
142
0.0
142
0.0
142
1.0
179
     0
144
0.0008202099737533
144
0.0
144
0.0
144
0.0
144
0.0
144
0.0008202099737533
144
0.0
144
0.0
144
0.0
144
0.0
144
1.0
144
0.0
144
0.0
144
0.0
144
0.0
144
1.0
147
0.0008202099737533
147
0.0
147
0.0
147
0.0
147
0.0
147
0.0008202099737533
147
0.0
147
0.0
147
0.0
147
0.0
147
1.0
147
0.0
147
0.0
147
0.0
147
0.0
147
1.0
  0
MATERIAL
  5
62BAB
102
{ACAD_XDICTIONARY
360
62BAC
102
}
102
{ACAD_REACTORS
330
6A
102
}
330
6A
100
AcDbMaterial
  1
ByLayer
 72
     0
 43
0.0008202099737533
 43
0.0
 43
0.0
 43
0.0
 43
0.0
 43
0.0008202099737533
 43
0.0
 43
0.0
 43
0.0
 43
0.0
 43
1.0
 43
0.0
 43
0.0
 43
0.0
 43
0.0
 43
1.0
 77
     0
 47
0.0008202099737533
 47
0.0
 47
0.0
 47
0.0
 47
0.0
 47
0.0008202099737533
 47
0.0
 47
0.0
 47
0.0
 47
0.0
 47
1.0
 47
0.0
 47
0.0
 47
0.0
 47
0.0
 47
1.0
171
     0
 49
0.0008202099737533
 49
0.0
 49
0.0
 49
0.0
 49
0.0
 49
0.0008202099737533
 49
0.0
 49
0.0
 49
0.0
 49
0.0
 49
1.0
 49
0.0
 49
0.0
 49
0.0
 49
0.0
 49
1.0
175
     0
142
0.0008202099737533
142
0.0
142
0.0
142
0.0
142
0.0
142
0.0008202099737533
142
0.0
142
0.0
142
0.0
142
0.0
142
1.0
142
0.0
142
0.0
142
0.0
142
0.0
142
1.0
179
     0
144
0.0008202099737533
144
0.0
144
0.0
144
0.0
144
0.0
144
0.0008202099737533
144
0.0
144
0.0
144
0.0
144
0.0
144
1.0
144
0.0
144
0.0
144
0.0
144
0.0
144
1.0
147
0.0008202099737533
147
0.0
147
0.0
147
0.0
147
0.0
147
0.0008202099737533
147
0.0
147
0.0
147
0.0
147
0.0
147
1.0
147
0.0
147
0.0
147
0.0
147
0.0
147
1.0
  0
MATERIAL
  5
62BBB
102
{ACAD_XDICTIONARY
360
62BBC
102
}
102
{ACAD_REACTORS
330
6A
102
}
330
6A
100
AcDbMaterial
  1
Global
 72
     0
 43
0.0008202099737533
 43
0.0
 43
0.0
 43
0.0
 43
0.0
 43
0.0008202099737533
 43
0.0
 43
0.0
 43
0.0
 43
0.0
 43
1.0
 43
0.0
 43
0.0
 43
0.0
 43
0.0
 43
1.0
 77
     0
 47
0.0008202099737533
 47
0.0
 47
0.0
 47
0.0
 47
0.0
 47
0.0008202099737533
 47
0.0
 47
0.0
 47
0.0
 47
0.0
 47
1.0
 47
0.0
 47
0.0
 47
0.0
 47
0.0
 47
1.0
171
     0
 49
0.0008202099737533
 49
0.0
 49
0.0
 49
0.0
 49
0.0
 49
0.0008202099737533
 49
0.0
 49
0.0
 49
0.0
 49
0.0
 49
1.0
 49
0.0
 49
0.0
 49
0.0
 49
0.0
 49
1.0
175
     0
142
0.0008202099737533
142
0.0
142
0.0
142
0.0
142
0.0
142
0.0008202099737533
142
0.0
142
0.0
142
0.0
142
0.0
142
1.0
142
0.0
142
0.0
142
0.0
142
0.0
142
1.0
179
     0
144
0.0008202099737533
144
0.0
144
0.0
144
0.0
144
0.0
144
0.0008202099737533
144
0.0
144
0.0
144
0.0
144
0.0
144
1.0
144
0.0
144
0.0
144
0.0
144
0.0
144
1.0
147
0.0008202099737533
147
0.0
147
0.0
147
0.0
147
0.0
147
0.0008202099737533
147
0.0
147
0.0
147
0.0
147
0.0
147
1.0
147
0.0
147
0.0
147
0.0
147
0.0
147
1.0
  0
MLEADERSTYLE
  5
62BF1
102
{ACAD_REACTORS
330
62BF0
102
}
330
62BF0
100
AcDbMLeaderStyle
179
     2
170
     2
171
     1
172
     0
 90
        2
 40
0.0
 41
0.0
173
     1
 91
-1056964608
340
14
 92
       -2
290
     1
 42
2.0
291
     1
 43
0.36
  3
Standard
 44
4.0
300

342
11
174
     1
178
     6
175
     1
176
     0
 93
-1056964608
 45
4.0
292
     0
297
     0
 46
4.0
 94
-1056964608
 47
1.0
 49
1.0
140
1.0
293
     1
141
0.0
294
     1
177
     0
142
1.0
295
     0
296
     0
143
0.125
271
     0
272
     9
273
     9
298
     1
  0
MLINESTYLE
  5
18
102
{ACAD_REACTORS
330
17
102
}
330
17
100
AcDbMlineStyle
  2
STANDARD
 70
     0
  3

 62
   256
 51
90.0
 52
90.0
 71
     2
 49
0.5
 62
   256
  6
BYLAYER
 49
-0.5
 62
   256
  6
BYLAYER
  0
ACDBPLACEHOLDER
  5
F
102
{ACAD_REACTORS
330
E
102
}
330
E
  0
SCALE
  5
62BDF
102
{ACAD_REACTORS
330
62BDE
102
}
330
62BDE
100
AcDbScale
 70
     0
300
1:1
140
1.0
141
1.0
290
     1
  0
SCALE
  5
62BE0
102
{ACAD_REACTORS
330
62BDE
102
}
330
62BDE
100
AcDbScale
 70
     0
300
1:2
140
1.0
141
2.0
290
     0
  0
SCALE
  5
62BE1
102
{ACAD_REACTORS
330
62BDE
102
}
330
62BDE
100
AcDbScale
 70
     0
300
1:4
140
1.0
141
4.0
290
     0
  0
SCALE
  5
62BE2
102
{ACAD_REACTORS
330
62BDE
102
}
330
62BDE
100
AcDbScale
 70
     0
300
1:5
140
1.0
141
5.0
290
     0
  0
SCALE
  5
62BE3
102
{ACAD_REACTORS
330
62BDE
102
}
330
62BDE
100
AcDbScale
 70
     0
300
1:8
140
1.0
141
8.0
290
     0
  0
SCALE
  5
62BE4
102
{ACAD_REACTORS
330
62BDE
102
}
330
62BDE
100
AcDbScale
 70
     0
300
1:10
140
1.0
141
10.0
290
     0
  0
SCALE
  5
62BE5
102
{ACAD_REACTORS
330
62BDE
102
}
330
62BDE
100
AcDbScale
 70
     0
300
1:16
140
1.0
141
16.0
290
     0
  0
SCALE
  5
62BE6
102
{ACAD_REACTORS
330
62BDE
102
}
330
62BDE
100
AcDbScale
 70
     0
300
1:20
140
1.0
141
20.0
290
     0
  0
SCALE
  5
62BE7
102
{ACAD_REACTORS
330
62BDE
102
}
330
62BDE
100
AcDbScale
 70
     0
300
1:30
140
1.0
141
30.0
290
     0
  0
SCALE
  5
62BE8
102
{ACAD_REACTORS
330
62BDE
102
}
330
62BDE
100
AcDbScale
 70
     0
300
1:40
140
1.0
141
40.0
290
     0
  0
SCALE
  5
62BE9
102
{ACAD_REACTORS
330
62BDE
102
}
330
62BDE
100
AcDbScale
 70
     0
300
1:50
140
1.0
141
50.0
290
     0
  0
SCALE
  5
62BEA
102
{ACAD_REACTORS
330
62BDE
102
}
330
62BDE
100
AcDbScale
 70
     0
300
1:100
140
1.0
141
100.0
290
     0
  0
SCALE
  5
62BEB
102
{ACAD_REACTORS
330
62BDE
102
}
330
62BDE
100
AcDbScale
 70
     0
300
2:1
140
2.0
141
1.0
290
     0
  0
SCALE
  5
62BEC
102
{ACAD_REACTORS
330
62BDE
102
}
330
62BDE
100
AcDbScale
 70
     0
300
4:1
140
4.0
141
1.0
290
     0
  0
SCALE
  5
62BED
102
{ACAD_REACTORS
330
62BDE
102
}
330
62BDE
100
AcDbScale
 70
     0
300
8:1
140
8.0
141
1.0
290
     0
  0
SCALE
  5
62BEE
102
{ACAD_REACTORS
330
62BDE
102
}
330
62BDE
100
AcDbScale
 70
     0
300
10:1
140
10.0
141
1.0
290
     0
  0
SCALE
  5
62BEF
102
{ACAD_REACTORS
330
62BDE
102
}
330
62BDE
100
AcDbScale
 70
     0
300
100:1
140
100.0
141
1.0
290
     0
  0
ACDBSECTIONVIEWSTYLE
  5
62BF3
102
{ACAD_XDICTIONARY
360
62C1C
102
}
102
{ACAD_REACTORS
330
62BF2
102
}
330
62BF2
100
AcDbModelDocViewStyle
 70
     0
  3
Metric50
290
     0
100
AcDbSectionViewStyle
 70
     0
 71
     0
 90
      102
 71
     1
340
11
 62
   256
 40
5.0
340
0
340
0
 62
   256
 40
5.0
300
I, O, Q, S, X, Z
 40
10.0
 90
        0
 40
2.5
 90
        0
 71
     2
340
16
 90
       25
 62
   256
340
16
 90
       50
 62
   256
 40
5.0
 40
2.5
 40
5.0
 71
     3
340
11
 62
   256
 40
5.0
 90
        0
 40
15.0
 90
        1
300
%<\AcVar ViewSectionStartId>%-%<\AcVar ViewSectionEndId>% (%<\AcVar ViewScale \f "%sn">%)
 71
     4
 62
   256
 62
   257
300
ANSI31
 40
1.0
 90
        0
290
     0
290
     0
 90
        6
 40
0.0
 40
1.570796326794896
 40
0.2617993877991494
 40
1.308996938995747
 40
-0.2617993877991494
 40
1.832595714594046
  0
TABLESTYLE
  5
62BDD
102
{ACAD_XDICTIONARY
360
62C19
102
}
102
{ACAD_REACTORS
330
62BDC
102
}
330
62BDC
100
AcDbTableStyle
280
     0
  3
Standard
 70
     0
 71
     0
 40
1.5
 41
1.5
280
     0
281
     0
  7
Standard
140
4.5
170
     2
 62
     0
 63
     7
283
     0
 90
      512
 91
        0
  1

274
    -2
284
     1
 64
     0
275
    -2
285
     1
 65
     0
276
    -2
286
     1
 66
     0
277
    -2
287
     1
 67
     0
278
    -2
288
     1
 68
     0
279
    -2
289
     1
 69
     0
  7
Standard
140
6.0
170
     5
 62
     0
 63
     7
283
     0
 90
      512
 91
        0
  1

274
    -2
284
     1
 64
     0
275
    -2
285
     1
 65
     0
276
    -2
286
     1
 66
     0
277
    -2
287
     1
 67
     0
278
    -2
288
     1
 68
     0
279
    -2
289
     1
 69
     0
  7
Standard
140
4.5
170
     5
 62
     0
 63
     7
283
     0
 90
      512
 91
        0
  1

274
    -2
284
     1
 64
     0
275
    -2
285
     1
 65
     0
276
    -2
286
     1
 66
     0
277
    -2
287
     1
 67
     0
278
    -2
288
     1
 68
     0
279
    -2
289
     1
 69
     0
  0
VISUALSTYLE
  5
62BC9
102
{ACAD_REACTORS
330
62BC3
102
}
330
62BC3
100
AcDbVisualStyle
  2
2dWireframe
 70
     4
177
     3
291
     0
 70
    58
 90
        0
176
     1
 90
        2
176
     1
 90
        0
176
     1
 90
        0
176
     1
 40
0.6
176
     1
 40
30.0
176
     1
 62
     7
420
 16777215
176
     1
 90
        1
176
     1
 90
        4
176
     1
 62
     7
176
     1
 62
   257
176
     1
 90
        1
176
     1
 90
        1
176
     1
 40
1.0
176
     1
 90
        0
176
     1
 62
   257
176
     1
 40
1.0
176
     1
 90
        1
176
     1
 90
        6
176
     1
 90
        2
176
     1
 62
     7
176
     1
 90
        5
176
     1
 90
        0
176
     1
 90
        0
176
     1
290
     0
176
     1
 90
        1
176
     1
 40
0.0
176
     1
 90
        0
176
     1
290
     1
176
     1
290
     1
176
     1
290
     0
176
     1
290
     0
176
     1
290
     0
176
     1
290
     0
176
     1
290
     0
176
     1
290
     0
176
     1
290
     0
176
     1
 90
       50
176
     1
 40
0.0
176
     1
 40
1.0
176
     1
 90
        0
176
     1
 62
    18
420
        0
176
     1
 90
       50
176
     1
 90
        3
176
     1
 62
     5
420
      255
176
     1
290
     0
176
     1
 90
       50
176
     1
 90
       50
176
     1
 90
       50
176
     1
290
     0
176
     1
 90
       50
176
     1
 62
   256
176
     0
 40
1.0
176
     0
 90
        2
176
     1
  1
strokes_ogs.tif
176
     1
290
     0
176
     1
 40
1.0
176
     1
 40
1.0
176
     1
1001
ACAD
1000
AcDbSavedByObjectVersion
1070
     0
  0
VISUALSTYLE
  5
62BC8
102
{ACAD_REACTORS
330
62BC3
102
}
330
62BC3
100
AcDbVisualStyle
  2
Basic
 70
     7
177
     3
291
     1
 70
    58
 90
        1
176
     1
 90
        0
176
     1
 90
        1
176
     1
 90
        0
176
     1
 40
0.6
176
     1
 40
30.0
176
     1
 62
     7
420
 16777215
176
     1
 90
        0
176
     1
 90
        4
176
     1
 62
     7
176
     1
 62
   257
176
     1
 90
        1
176
     1
 90
        1
176
     1
 40
1.0
176
     1
 90
        8
176
     1
 62
     7
176
     1
 40
1.0
176
     1
 90
        1
176
     1
 90
        6
176
     1
 90
        2
176
     1
 62
     7
176
     1
 90
        5
176
     1
 90
        0
176
     1
 90
        0
176
     1
290
     0
176
     1
 90
        1
176
     1
 40
0.0
176
     1
 90
        0
176
     1
290
     0
176
     1
290
     1
176
     1
290
     1
176
     1
290
     0
176
     1
290
     0
176
     1
290
     0
176
     1
290
     0
176
     1
290
     0
176
     1
290
     0
176
     1
 90
       50
176
     1
 40
0.0
176
     1
 40
1.0
176
     1
 90
        0
176
     1
 62
    18
420
        0
176
     1
 90
       50
176
     1
 90
        3
176
     1
 62
     5
420
      255
176
     1
290
     0
176
     1
 90
       50
176
     1
 90
       50
176
     1
 90
       50
176
     1
290
     0
176
     1
 90
       50
176
     1
 62
   256
176
     0
 40
1.0
176
     0
 90
        2
176
     1
  1
strokes_ogs.tif
176
     1
290
     0
176
     1
 40
1.0
176
     1
 40
1.0
176
     1
1001
ACAD
1000
AcDbSavedByObjectVersion
1070
     0
  0
VISUALSTYLE
  5
62BCF
102
{ACAD_REACTORS
330
62BC3
102
}
330
62BC3
100
AcDbVisualStyle
  2
Brighten
 70
    12
177
     3
291
     1
 70
    58
 90
        2
176
     1
 90
        2
176
     1
 90
        0
176
     1
 90
        0
176
     1
 40
0.6
176
     1
 40
30.0
176
     1
 62
     7
420
 16777215
176
     1
 90
        1
176
     1
 90
        4
176
     1
 62
     7
176
     1
 62
   257
176
     1
 90
        1
176
     1
 90
        1
176
     1
 40
1.0
176
     1
 90
        8
176
     1
 62
     7
176
     1
 40
1.0
176
     1
 90
        1
176
     1
 90
        6
176
     1
 90
        2
176
     1
 62
     7
176
     1
 90
        5
176
     1
 90
        0
176
     1
 90
        0
176
     1
290
     0
176
     1
 90
        1
176
     1
 40
50.0
176
     1
 90
        0
176
     1
290
     0
176
     1
290
     1
176
     1
290
     1
176
     1
290
     0
176
     1
290
     0
176
     1
290
     0
176
     1
290
     0
176
     1
290
     0
176
     1
290
     0
176
     1
 90
       50
176
     1
 40
0.0
176
     1
 40
1.0
176
     1
 90
        0
176
     1
 62
    18
420
        0
176
     1
 90
       50
176
     1
 90
        3
176
     1
 62
     5
420
      255
176
     1
290
     0
176
     1
 90
       50
176
     1
 90
       50
176
     1
 90
       50
176
     1
290
     0
176
     1
 90
       50
176
     1
 62
   256
176
     0
 40
1.0
176
     0
 90
        2
176
     1
  1
strokes_ogs.tif
176
     1
290
     0
176
     1
 40
1.0
176
     1
 40
1.0
176
     1
1001
ACAD
1000
AcDbSavedByObjectVersion
1070
     0
  0
VISUALSTYLE
  5
62BD3
102
{ACAD_REACTORS
330
62BC3
102
}
330
62BC3
100
AcDbVisualStyle
  2
ColorChange
 70
    16
177
     3
291
     1
 70
    58
 90
        2
176
     1
 90
        2
176
     1
 90
        3
176
     1
 90
        0
176
     1
 40
0.6
176
     1
 40
30.0
176
     1
 62
     8
420
  8421504
176
     1
 90
        1
176
     1
 90
        4
176
     1
 62
     7
176
     1
 62
   257
176
     1
 90
        1
176
     1
 90
        1
176
     1
 40
1.0
176
     1
 90
        8
176
     1
 62
     8
420
  8421504
176
     1
 40
1.0
176
     1
 90
        1
176
     1
 90
        6
176
     1
 90
        2
176
     1
 62
     7
176
     1
 90
        5
176
     1
 90
        0
176
     1
 90
        0
176
     1
290
     0
176
     1
 90
        1
176
     1
 40
0.0
176
     1
 90
        0
176
     1
290
     0
176
     1
290
     1
176
     1
290
     1
176
     1
290
     0
176
     1
290
     0
176
     1
290
     0
176
     1
290
     0
176
     1
290
     0
176
     1
290
     0
176
     1
 90
       50
176
     1
 40
0.0
176
     1
 40
1.0
176
     1
 90
        0
176
     1
 62
    18
420
        0
176
     1
 90
       50
176
     1
 90
        3
176
     1
 62
     5
420
      255
176
     1
290
     0
176
     1
 90
       50
176
     1
 90
       50
176
     1
 90
       50
176
     1
290
     0
176
     1
 90
       50
176
     1
 62
   256
176
     0
 40
1.0
176
     0
 90
        2
176
     1
  1
strokes_ogs.tif
176
     1
290
     0
176
     1
 40
1.0
176
     1
 40
1.0
176
     1
1001
ACAD
1000
AcDbSavedByObjectVersion
1070
     0
  0
VISUALSTYLE
  5
62BCC
102
{ACAD_REACTORS
330
62BC3
102
}
330
62BC3
100
AcDbVisualStyle
  2
Conceptual
 70
     9
177
     3
291
     0
 70
    58
 90
        3
176
     1
 90
        2
176
     1
 90
        0
176
     1
 90
        0
176
     1
 40
0.6
176
     1
 40
30.0
176
     1
 62
     7
420
 16777215
176
     1
 90
        2
176
     1
 90
        2
176
     1
 62
     7
176
     1
 62
   257
176
     1
 90
        1
176
     1
 90
        1
176
     1
 40
179.0
176
     1
 90
        8
176
     1
 62
     7
176
     1
 40
1.0
176
     1
 90
        1
176
     1
 90
        6
176
     1
 90
        2
176
     1
 62
     7
176
     1
 90
        3
176
     1
 90
        0
176
     1
 90
        0
176
     1
290
     0
176
     1
 90
        1
176
     1
 40
0.0
176
     1
 90
        0
176
     1
290
     0
176
     1
290
     1
176
     1
290
     1
176
     1
290
     0
176
     1
290
     0
176
     1
290
     0
176
     1
290
     0
176
     1
290
     0
176
     1
290
     0
176
     1
 90
       50
176
     1
 40
0.0
176
     1
 40
1.0
176
     1
 90
        0
176
     1
 62
    18
420
        0
176
     1
 90
       50
176
     1
 90
        3
176
     1
 62
     5
420
      255
176
     1
290
     0
176
     1
 90
       50
176
     1
 90
       50
176
     1
 90
       50
176
     1
290
     0
176
     1
 90
       50
176
     1
 62
   256
176
     0
 40
1.0
176
     0
 90
        2
176
     1
  1
strokes_ogs.tif
176
     1
290
     0
176
     1
 40
1.0
176
     1
 40
1.0
176
     1
1001
ACAD
1000
AcDbSavedByObjectVersion
1070
     0
  0
VISUALSTYLE
  5
62BCE
102
{ACAD_REACTORS
330
62BC3
102
}
330
62BC3
100
AcDbVisualStyle
  2
Dim
 70
    11
177
     3
291
     1
 70
    58
 90
        2
176
     1
 90
        2
176
     1
 90
        0
176
     1
 90
        0
176
     1
 40
0.6
176
     1
 40
30.0
176
     1
 62
     7
420
 16777215
176
     1
 90
        1
176
     1
 90
        4
176
     1
 62
     7
176
     1
 62
   257
176
     1
 90
        1
176
     1
 90
        1
176
     1
 40
1.0
176
     1
 90
        8
176
     1
 62
     7
176
     1
 40
1.0
176
     1
 90
        1
176
     1
 90
        6
176
     1
 90
        2
176
     1
 62
     7
176
     1
 90
        5
176
     1
 90
        0
176
     1
 90
        0
176
     1
290
     0
176
     1
 90
        1
176
     1
 40
-50.0
176
     1
 90
        0
176
     1
290
     0
176
     1
290
     1
176
     1
290
     1
176
     1
290
     0
176
     1
290
     0
176
     1
290
     0
176
     1
290
     0
176
     1
290
     0
176
     1
290
     0
176
     1
 90
       50
176
     1
 40
0.0
176
     1
 40
1.0
176
     1
 90
        0
176
     1
 62
    18
420
        0
176
     1
 90
       50
176
     1
 90
        3
176
     1
 62
     5
420
      255
176
     1
290
     0
176
     1
 90
       50
176
     1
 90
       50
176
     1
 90
       50
176
     1
290
     0
176
     1
 90
       50
176
     1
 62
   256
176
     0
 40
1.0
176
     0
 90
        2
176
     1
  1
strokes_ogs.tif
176
     1
290
     0
176
     1
 40
1.0
176
     1
 40
1.0
176
     1
1001
ACAD
1000
AcDbSavedByObjectVersion
1070
     0
  0
VISUALSTYLE
  5
62BDB
102
{ACAD_REACTORS
330
62BC3
102
}
330
62BC3
100
AcDbVisualStyle
  2
EdgeColorOff
 70
    22
177
     3
291
     1
 70
    58
 90
        2
176
     0
 90
        2
176
     0
 90
        0
176
     0
 90
        0
176
     0
 40
0.6
176
     0
 40
30.0
176
     0
 62
     7
420
 16777215
176
     0
 90
        1
176
     0
 90
        4
176
     0
 62
     7
176
     0
 62
   257
176
     0
 90
        1
176
     0
 90
        1
176
     0
 40
1.0
176
     0
 90
        8
176
     2
 62
     7
176
     0
 40
1.0
176
     0
 90
        1
176
     0
 90
        6
176
     0
 90
        2
176
     0
 62
     7
176
     0
 90
        5
176
     0
 90
        0
176
     0
 90
        0
176
     0
290
     0
176
     0
 90
        1
176
     0
 40
0.0
176
     0
 90
        0
176
     0
290
     0
176
     0
290
     1
176
     0
290
     1
176
     0
290
     0
176
     0
290
     0
176
     0
290
     0
176
     0
290
     0
176
     0
290
     0
176
     0
290
     0
176
     0
 90
       50
176
     0
 40
0.0
176
     0
 40
1.0
176
     0
 90
        0
176
     0
 62
    18
420
        0
176
     0
 90
       50
176
     0
 90
        3
176
     0
 62
     5
420
      255
176
     0
290
     0
176
     0
 90
       50
176
     0
 90
       50
176
     0
 90
       50
176
     0
290
     0
176
     0
 90
       50
176
     0
 62
   256
176
     0
 40
1.0
176
     0
 90
        2
176
     0
  1
strokes_ogs.tif
176
     0
290
     0
176
     0
 40
1.0
176
     0
 40
1.0
176
     0
1001
ACAD
1000
AcDbSavedByObjectVersion
1070
     0
  0
VISUALSTYLE
  5
62BD2
102
{ACAD_REACTORS
330
62BC3
102
}
330
62BC3
100
AcDbVisualStyle
  2
Facepattern
 70
    15
177
     3
291
     1
 70
    58
 90
        2
176
     1
 90
        2
176
     1
 90
        0
176
     1
 90
        0
176
     1
 40
0.6
176
     1
 40
30.0
176
     1
 62
     7
420
 16777215
176
     1
 90
        1
176
     1
 90
        4
176
     1
 62
     7
176
     1
 62
   257
176
     1
 90
        1
176
     1
 90
        1
176
     1
 40
1.0
176
     1
 90
        8
176
     1
 62
     7
176
     1
 40
1.0
176
     1
 90
        1
176
     1
 90
        6
176
     1
 90
        2
176
     1
 62
     7
176
     1
 90
        5
176
     1
 90
        0
176
     1
 90
        0
176
     1
290
     0
176
     1
 90
        1
176
     1
 40
0.0
176
     1
 90
        0
176
     1
290
     0
176
     1
290
     1
176
     1
290
     1
176
     1
290
     0
176
     1
290
     0
176
     1
290
     0
176
     1
290
     0
176
     1
290
     0
176
     1
290
     0
176
     1
 90
       50
176
     1
 40
0.0
176
     1
 40
1.0
176
     1
 90
        0
176
     1
 62
    18
420
        0
176
     1
 90
       50
176
     1
 90
        3
176
     1
 62
     5
420
      255
176
     1
290
     0
176
     1
 90
       50
176
     1
 90
       50
176
     1
 90
       50
176
     1
290
     0
176
     1
 90
       50
176
     1
 62
   256
176
     0
 40
1.0
176
     0
 90
        2
176
     1
  1
strokes_ogs.tif
176
     1
290
     0
176
     1
 40
1.0
176
     1
 40
1.0
176
     1
1001
ACAD
1000
AcDbSavedByObjectVersion
1070
     0
  0
VISUALSTYLE
  5
62BC4
102
{ACAD_REACTORS
330
62BC3
102
}
330
62BC3
100
AcDbVisualStyle
  2
Flat
 70
     0
177
     3
291
     1
 70
    58
 90
        2
176
     1
 90
        1
176
     1
 90
        1
176
     1
 90
        2
176
     1
 40
0.6
176
     1
 40
30.0
176
     1
 62
     7
420
 16777215
176
     1
 90
        0
176
     1
 90
        0
176
     1
 62
     7
176
     1
 62
   257
176
     1
 90
        1
176
     1
 90
        1
176
     1
 40
1.0
176
     1
 90
        8
176
     1
 62
     7
176
     1
 40
1.0
176
     1
 90
        1
176
     1
 90
        6
176
     1
 90
        2
176
     1
 62
     7
176
     1
 90
        5
176
     1
 90
        0
176
     1
 90
        0
176
     1
290
     0
176
     1
 90
       13
176
     1
 40
0.0
176
     1
 90
        0
176
     1
290
     0
176
     1
290
     1
176
     1
290
     1
176
     1
290
     0
176
     1
290
     0
176
     1
290
     0
176
     1
290
     0
176
     1
290
     0
176
     1
290
     0
176
     1
 90
       50
176
     1
 40
0.0
176
     1
 40
1.0
176
     1
 90
        0
176
     1
 62
    18
420
        0
176
     1
 90
       50
176
     1
 90
        3
176
     1
 62
     5
420
      255
176
     1
290
     0
176
     1
 90
       50
176
     1
 90
       50
176
     1
 90
       50
176
     1
290
     0
176
     1
 90
       50
176
     1
 62
   256
176
     0
 40
1.0
176
     0
 90
        2
176
     1
  1
strokes_ogs.tif
176
     1
290
     0
176
     1
 40
1.0
176
     1
 40
1.0
176
     1
1001
ACAD
1000
AcDbSavedByObjectVersion
1070
     0
  0
VISUALSTYLE
  5
62BC5
102
{ACAD_REACTORS
330
62BC3
102
}
330
62BC3
100
AcDbVisualStyle
  2
FlatWithEdges
 70
     1
177
     3
291
     1
 70
    58
 90
        2
176
     1
 90
        1
176
     1
 90
        1
176
     1
 90
        2
176
     1
 40
0.6
176
     1
 40
30.0
176
     1
 62
     7
420
 16777215
176
     1
 90
        1
176
     1
 90
        0
176
     1
 62
     7
176
     1
 62
   257
176
     1
 90
        1
176
     1
 90
        1
176
     1
 40
1.0
176
     1
 90
        0
176
     1
 62
   257
176
     1
 40
1.0
176
     1
 90
        1
176
     1
 90
        6
176
     1
 90
        2
176
     1
 62
     7
176
     1
 90
        5
176
     1
 90
        0
176
     1
 90
        0
176
     1
290
     0
176
     1
 90
       13
176
     1
 40
0.0
176
     1
 90
        0
176
     1
290
     0
176
     1
290
     1
176
     1
290
     1
176
     1
290
     0
176
     1
290
     0
176
     1
290
     0
176
     1
290
     0
176
     1
290
     0
176
     1
290
     0
176
     1
 90
       50
176
     1
 40
0.0
176
     1
 40
1.0
176
     1
 90
        0
176
     1
 62
    18
420
        0
176
     1
 90
       50
176
     1
 90
        3
176
     1
 62
     5
420
      255
176
     1
290
     0
176
     1
 90
       50
176
     1
 90
       50
176
     1
 90
       50
176
     1
290
     0
176
     1
 90
       50
176
     1
 62
   256
176
     0
 40
1.0
176
     0
 90
        2
176
     1
  1
strokes_ogs.tif
176
     1
290
     0
176
     1
 40
1.0
176
     1
 40
1.0
176
     1
1001
ACAD
1000
AcDbSavedByObjectVersion
1070
     0
  0
VISUALSTYLE
  5
62BC6
102
{ACAD_REACTORS
330
62BC3
102
}
330
62BC3
100
AcDbVisualStyle
  2
Gouraud
 70
     2
177
     3
291
     1
 70
    58
 90
        2
176
     1
 90
        2
176
     1
 90
        1
176
     1
 90
        2
176
     1
 40
0.6
176
     1
 40
30.0
176
     1
 62
     7
420
 16777215
176
     1
 90
        0
176
     1
 90
        0
176
     1
 62
     7
176
     1
 62
   257
176
     1
 90
        1
176
     1
 90
        1
176
     1
 40
1.0
176
     1
 90
        0
176
     1
 62
     7
176
     1
 40
1.0
176
     1
 90
        1
176
     1
 90
        6
176
     1
 90
        2
176
     1
 62
     7
176
     1
 90
        5
176
     1
 90
        0
176
     1
 90
        0
176
     1
290
     0
176
     1
 90
       13
176
     1
 40
0.0
176
     1
 90
        0
176
     1
290
     0
176
     1
290
     1
176
     1
290
     1
176
     1
290
     0
176
     1
290
     0
176
     1
290
     0
176
     1
290
     0
176
     1
290
     0
176
     1
290
     0
176
     1
 90
       50
176
     1
 40
0.0
176
     1
 40
1.0
176
     1
 90
        0
176
     1
 62
    18
420
        0
176
     1
 90
       50
176
     1
 90
        3
176
     1
 62
     5
420
      255
176
     1
290
     0
176
     1
 90
       50
176
     1
 90
       50
176
     1
 90
       50
176
     1
290
     0
176
     1
 90
       50
176
     1
 62
   256
176
     0
 40
1.0
176
     0
 90
        2
176
     1
  1
strokes_ogs.tif
176
     1
290
     0
176
     1
 40
1.0
176
     1
 40
1.0
176
     1
1001
ACAD
1000
AcDbSavedByObjectVersion
1070
     0
  0
VISUALSTYLE
  5
62BC7
102
{ACAD_REACTORS
330
62BC3
102
}
330
62BC3
100
AcDbVisualStyle
  2
GouraudWithEdges
 70
     3
177
     3
291
     1
 70
    58
 90
        2
176
     1
 90
        2
176
     1
 90
        1
176
     1
 90
        2
176
     1
 40
0.6
176
     1
 40
30.0
176
     1
 62
     7
420
 16777215
176
     1
 90
        1
176
     1
 90
        0
176
     1
 62
     7
176
     1
 62
   257
176
     1
 90
        1
176
     1
 90
        1
176
     1
 40
1.0
176
     1
 90
        0
176
     1
 62
   257
176
     1
 40
1.0
176
     1
 90
        1
176
     1
 90
        6
176
     1
 90
        2
176
     1
 62
     7
176
     1
 90
        5
176
     1
 90
        0
176
     1
 90
        0
176
     1
290
     0
176
     1
 90
       13
176
     1
 40
0.0
176
     1
 90
        0
176
     1
290
     0
176
     1
290
     1
176
     1
290
     1
176
     1
290
     0
176
     1
290
     0
176
     1
290
     0
176
     1
290
     0
176
     1
290
     0
176
     1
290
     0
176
     1
 90
       50
176
     1
 40
0.0
176
     1
 40
1.0
176
     1
 90
        0
176
     1
 62
    18
420
        0
176
     1
 90
       50
176
     1
 90
        3
176
     1
 62
     5
420
      255
176
     1
290
     0
176
     1
 90
       50
176
     1
 90
       50
176
     1
 90
       50
176
     1
290
     0
176
     1
 90
       50
176
     1
 62
   256
176
     0
 40
1.0
176
     0
 90
        2
176
     1
  1
strokes_ogs.tif
176
     1
290
     0
176
     1
 40
1.0
176
     1
 40
1.0
176
     1
1001
ACAD
1000
AcDbSavedByObjectVersion
1070
     0
  0
VISUALSTYLE
  5
62BCB
102
{ACAD_REACTORS
330
62BC3
102
}
330
62BC3
100
AcDbVisualStyle
  2
Hidden
 70
     6
177
     3
291
     0
 70
    58
 90
        1
176
     1
 90
        2
176
     1
 90
        2
176
     1
 90
        0
176
     1
 40
0.6
176
     1
 40
30.0
176
     1
 62
     7
420
 16777215
176
     1
 90
        2
176
     1
 90
        2
176
     1
 62
     7
176
     1
 62
   257
176
     1
 90
        2
176
     1
 90
        1
176
     1
 40
40.0
176
     1
 90
        0
176
     1
 62
   257
176
     1
 40
1.0
176
     1
 90
        1
176
     1
 90
        6
176
     1
 90
        2
176
     1
 62
     7
176
     1
 90
        3
176
     1
 90
        0
176
     1
 90
        0
176
     1
290
     0
176
     1
 90
        1
176
     1
 40
0.0
176
     1
 90
        0
176
     1
290
     0
176
     1
290
     1
176
     1
290
     1
176
     1
290
     0
176
     1
290
     0
176
     1
290
     0
176
     1
290
     0
176
     1
290
     0
176
     1
290
     0
176
     1
 90
       50
176
     1
 40
0.0
176
     1
 40
1.0
176
     1
 90
        0
176
     1
 62
    18
420
        0
176
     1
 90
       50
176
     1
 90
        3
176
     1
 62
     5
420
      255
176
     1
290
     0
176
     1
 90
       50
176
     1
 90
       50
176
     1
 90
       50
176
     1
290
     0
176
     1
 90
       50
176
     1
 62
   256
176
     0
 40
1.0
176
     0
 90
        2
176
     1
  1
strokes_ogs.tif
176
     1
290
     0
176
     1
 40
1.0
176
     1
 40
1.0
176
     1
1001
ACAD
1000
AcDbSavedByObjectVersion
1070
     0
  0
VISUALSTYLE
  5
62BD9
102
{ACAD_REACTORS
330
62BC3
102
}
330
62BC3
100
AcDbVisualStyle
  2
JitterOff
 70
    20
177
     3
291
     1
 70
    58
 90
        2
176
     0
 90
        2
176
     0
 90
        0
176
     0
 90
        0
176
     0
 40
0.6
176
     0
 40
30.0
176
     0
 62
     7
420
 16777215
176
     0
 90
        1
176
     0
 90
        4
176
     0
 62
     7
176
     0
 62
   257
176
     0
 90
        1
176
     0
 90
        1
176
     0
 40
1.0
176
     0
 90
       10
176
     2
 62
     7
176
     0
 40
1.0
176
     0
 90
        1
176
     0
 90
        6
176
     0
 90
        2
176
     0
 62
     7
176
     0
 90
        5
176
     0
 90
        0
176
     0
 90
        0
176
     0
290
     0
176
     0
 90
        1
176
     0
 40
0.0
176
     0
 90
        0
176
     0
290
     0
176
     0
290
     1
176
     0
290
     1
176
     0
290
     0
176
     0
290
     0
176
     0
290
     0
176
     0
290
     0
176
     0
290
     0
176
     0
290
     0
176
     0
 90
       50
176
     0
 40
0.0
176
     0
 40
1.0
176
     0
 90
        0
176
     0
 62
    18
420
        0
176
     0
 90
       50
176
     0
 90
        3
176
     0
 62
     5
420
      255
176
     0
290
     0
176
     0
 90
       50
176
     0
 90
       50
176
     0
 90
       50
176
     0
290
     0
176
     0
 90
       50
176
     0
 62
   256
176
     0
 40
1.0
176
     0
 90
        2
176
     0
  1
strokes_ogs.tif
176
     0
290
     0
176
     0
 40
1.0
176
     0
 40
1.0
176
     0
1001
ACAD
1000
AcDbSavedByObjectVersion
1070
     0
  0
VISUALSTYLE
  5
62BD1
102
{ACAD_REACTORS
330
62BC3
102
}
330
62BC3
100
AcDbVisualStyle
  2
Linepattern
 70
    14
177
     3
291
     1
 70
    58
 90
        2
176
     1
 90
        2
176
     1
 90
        0
176
     1
 90
        0
176
     1
 40
0.6
176
     1
 40
30.0
176
     1
 62
     7
420
 16777215
176
     1
 90
        1
176
     1
 90
        4
176
     1
 62
     7
176
     1
 62
   257
176
     1
 90
        7
176
     1
 90
        7
176
     1
 40
1.0
176
     1
 90
        8
176
     1
 62
     7
176
     1
 40
1.0
176
     1
 90
        1
176
     1
 90
        6
176
     1
 90
        2
176
     1
 62
     7
176
     1
 90
        5
176
     1
 90
        0
176
     1
 90
        0
176
     1
290
     0
176
     1
 90
        1
176
     1
 40
0.0
176
     1
 90
        0
176
     1
290
     0
176
     1
290
     1
176
     1
290
     1
176
     1
290
     0
176
     1
290
     0
176
     1
290
     0
176
     1
290
     0
176
     1
290
     0
176
     1
290
     0
176
     1
 90
       50
176
     1
 40
0.0
176
     1
 40
1.0
176
     1
 90
        0
176
     1
 62
    18
420
        0
176
     1
 90
       50
176
     1
 90
        3
176
     1
 62
     5
420
      255
176
     1
290
     0
176
     1
 90
       50
176
     1
 90
       50
176
     1
 90
       50
176
     1
290
     0
176
     1
 90
       50
176
     1
 62
   256
176
     0
 40
1.0
176
     0
 90
        2
176
     1
  1
strokes_ogs.tif
176
     1
290
     0
176
     1
 40
1.0
176
     1
 40
1.0
176
     1
1001
ACAD
1000
AcDbSavedByObjectVersion
1070
     0
  0
VISUALSTYLE
  5
62BDA
102
{ACAD_REACTORS
330
62BC3
102
}
330
62BC3
100
AcDbVisualStyle
  2
OverhangOff
 70
    21
177
     3
291
     1
 70
    58
 90
        2
176
     0
 90
        2
176
     0
 90
        0
176
     0
 90
        0
176
     0
 40
0.6
176
     0
 40
30.0
176
     0
 62
     7
420
 16777215
176
     0
 90
        1
176
     0
 90
        4
176
     0
 62
     7
176
     0
 62
   257
176
     0
 90
        1
176
     0
 90
        1
176
     0
 40
1.0
176
     0
 90
        9
176
     2
 62
     7
176
     0
 40
1.0
176
     0
 90
        1
176
     0
 90
        6
176
     0
 90
        2
176
     0
 62
     7
176
     0
 90
        5
176
     0
 90
        0
176
     0
 90
        0
176
     0
290
     0
176
     0
 90
        1
176
     0
 40
0.0
176
     0
 90
        0
176
     0
290
     0
176
     0
290
     1
176
     0
290
     1
176
     0
290
     0
176
     0
290
     0
176
     0
290
     0
176
     0
290
     0
176
     0
290
     0
176
     0
290
     0
176
     0
 90
       50
176
     0
 40
0.0
176
     0
 40
1.0
176
     0
 90
        0
176
     0
 62
    18
420
        0
176
     0
 90
       50
176
     0
 90
        3
176
     0
 62
     5
420
      255
176
     0
290
     0
176
     0
 90
       50
176
     0
 90
       50
176
     0
 90
       50
176
     0
290
     0
176
     0
 90
       50
176
     0
 62
   256
176
     0
 40
1.0
176
     0
 90
        2
176
     0
  1
strokes_ogs.tif
176
     0
290
     0
176
     0
 40
1.0
176
     0
 40
1.0
176
     0
1001
ACAD
1000
AcDbSavedByObjectVersion
1070
     0
  0
VISUALSTYLE
  5
62BCD
102
{ACAD_REACTORS
330
62BC3
102
}
330
62BC3
100
AcDbVisualStyle
  2
Realistic
 70
     8
177
     3
291
     0
 70
    58
 90
        2
176
     1
 90
        3
176
     1
 90
        0
176
     1
 90
        2
176
     1
 40
0.6
176
     1
 40
30.0
176
     1
 62
     7
420
 16777215
176
     1
 90
        0
176
     1
 90
        0
176
     1
 62
     7
176
     1
 62
   257
176
     1
 90
        1
176
     1
 90
        1
176
     1
 40
1.0
176
     1
 90
        8
176
     1
 62
   257
176
     1
 40
1.0
176
     1
 90
        1
176
     1
 90
        6
176
     1
 90
        2
176
     1
 62
     7
176
     1
 90
        3
176
     1
 90
        0
176
     1
 90
        0
176
     1
290
     0
176
     1
 90
       13
176
     1
 40
0.0
176
     1
 90
        0
176
     1
290
     0
176
     1
290
     1
176
     1
290
     1
176
     1
290
     0
176
     1
290
     0
176
     1
290
     0
176
     1
290
     0
176
     1
290
     0
176
     1
290
     0
176
     1
 90
       50
176
     1
 40
0.0
176
     1
 40
1.0
176
     1
 90
        0
176
     1
 62
    18
420
        0
176
     1
 90
       50
176
     1
 90
        3
176
     1
 62
     5
420
      255
176
     1
290
     0
176
     1
 90
       50
176
     1
 90
       50
176
     1
 90
       50
176
     1
290
     0
176
     1
 90
       50
176
     1
 62
   256
176
     0
 40
1.0
176
     0
 90
        2
176
     1
  1
strokes_ogs.tif
176
     1
290
     0
176
     1
 40
1.0
176
     1
 40
1.0
176
     1
1001
ACAD
1000
AcDbSavedByObjectVersion
1070
     0
  0
VISUALSTYLE
  5
62BD8
102
{ACAD_REACTORS
330
62BC3
102
}
330
62BC3
100
AcDbVisualStyle
  2
Shaded
 70
    27
177
     3
291
     0
 70
    58
 90
        2
176
     1
 90
        2
176
     1
 90
        1
176
     1
 90
        2
176
     1
 40
0.6
176
     1
 40
30.0
176
     1
 62
     7
420
 16777215
176
     1
 90
        0
176
     1
 90
        4
176
     1
 62
     7
176
     1
 62
   257
176
     1
 90
        1
176
     1
 90
        1
176
     1
 40
1.0
176
     1
 90
        8
176
     1
 62
   257
176
     1
 40
1.0
176
     1
 90
        1
176
     1
 90
        6
176
     1
 90
        2
176
     1
 62
     8
420
  7895160
176
     1
 90
        3
176
     1
 90
        0
176
     1
 90
        0
176
     1
290
     0
176
     1
 90
        5
176
     1
 40
0.0
176
     1
 90
        0
176
     1
290
     0
176
     1
290
     1
176
     1
290
     1
176
     1
290
     0
176
     1
290
     0
176
     1
290
     0
176
     1
290
     0
176
     1
290
     0
176
     1
290
     0
176
     1
 90
       50
176
     1
 40
0.0
176
     1
 40
1.0
176
     1
 90
        0
176
     1
 62
    18
420
        0
176
     1
 90
       50
176
     1
 90
        3
176
     1
 62
     5
420
      255
176
     1
290
     0
176
     1
 90
       50
176
     1
 90
       50
176
     1
 90
       50
176
     1
290
     0
176
     1
 90
       50
176
     1
 62
   256
176
     0
 40
1.0
176
     0
 90
        2
176
     1
  1
strokes_ogs.tif
176
     1
290
     0
176
     1
 40
1.0
176
     1
 40
1.0
176
     1
1001
ACAD
1000
AcDbSavedByObjectVersion
1070
     0
  0
VISUALSTYLE
  5
62BD7
102
{ACAD_REACTORS
330
62BC3
102
}
330
62BC3
100
AcDbVisualStyle
  2
Shaded with edges
 70
    26
177
     3
291
     0
 70
    58
 90
        2
176
     1
 90
        2
176
     1
 90
        1
176
     1
 90
        2
176
     1
 40
0.6
176
     1
 40
30.0
176
     1
 62
     7
420
 16777215
176
     1
 90
        1
176
     1
 90
        2
176
     1
 62
     7
176
     1
 62
   257
176
     1
 90
        2
176
     1
 90
        1
176
     1
 40
1.0
176
     1
 90
        8
176
     1
 62
   257
176
     1
 40
1.0
176
     1
 90
        1
176
     1
 90
        6
176
     1
 90
        2
176
     1
 62
     7
176
     1
 90
        3
176
     1
 90
        0
176
     1
 90
        0
176
     1
290
     0
176
     1
 90
        5
176
     1
 40
0.0
176
     1
 90
        0
176
     1
290
     0
176
     1
290
     1
176
     1
290
     1
176
     1
290
     0
176
     1
290
     0
176
     1
290
     0
176
     1
290
     0
176
     1
290
     0
176
     1
290
     0
176
     1
 90
       50
176
     1
 40
0.0
176
     1
 40
1.0
176
     1
 90
        0
176
     1
 62
    18
420
        0
176
     1
 90
       50
176
     1
 90
        3
176
     1
 62
     5
420
      255
176
     1
290
     0
176
     1
 90
       50
176
     1
 90
       50
176
     1
 90
       50
176
     1
290
     0
176
     1
 90
       50
176
     1
 62
   256
176
     0
 40
1.0
176
     0
 90
        2
176
     1
  1
strokes_ogs.tif
176
     1
290
     0
176
     1
 40
1.0
176
     1
 40
1.0
176
     1
1001
ACAD
1000
AcDbSavedByObjectVersion
1070
     0
  0
VISUALSTYLE
  5
62BD4
102
{ACAD_REACTORS
330
62BC3
102
}
330
62BC3
100
AcDbVisualStyle
  2
Shades of Gray
 70
    23
177
     3
291
     0
 70
    58
 90
        2
176
     1
 90
        2
176
     1
 90
        3
176
     1
 90
        0
176
     1
 40
0.6
176
     1
 40
30.0
176
     1
 62
     7
420
 16777215
176
     1
 90
        2
176
     1
 90
        2
176
     1
 62
     7
176
     1
 62
     7
176
     1
 90
        1
176
     1
 90
        1
176
     1
 40
40.0
176
     1
 90
        8
176
     1
 62
     7
176
     1
 40
1.0
176
     1
 90
        1
176
     1
 90
        6
176
     1
 90
        2
176
     1
 62
     7
176
     1
 90
        3
176
     1
 90
        0
176
     1
 90
        0
176
     1
290
     0
176
     1
 90
        1
176
     1
 40
0.0
176
     1
 90
        0
176
     1
290
     0
176
     1
290
     1
176
     1
290
     1
176
     1
290
     0
176
     1
290
     0
176
     1
290
     0
176
     1
290
     0
176
     1
290
     0
176
     1
290
     0
176
     1
 90
       50
176
     1
 40
0.0
176
     1
 40
1.0
176
     1
 90
        0
176
     1
 62
    18
420
        0
176
     1
 90
       50
176
     1
 90
        3
176
     1
 62
     5
420
      255
176
     1
290
     0
176
     1
 90
       50
176
     1
 90
       50
176
     1
 90
       50
176
     1
290
     0
176
     1
 90
       50
176
     1
 62
   256
176
     0
 40
1.0
176
     0
 90
        2
176
     1
  1
strokes_ogs.tif
176
     1
290
     0
176
     1
 40
1.0
176
     1
 40
1.0
176
     1
1001
ACAD
1000
AcDbSavedByObjectVersion
1070
     0
  0
VISUALSTYLE
  5
62BD5
102
{ACAD_REACTORS
330
62BC3
102
}
330
62BC3
100
AcDbVisualStyle
  2
Sketchy
 70
    24
177
     3
291
     0
 70
    58
 90
        1
176
     1
 90
        2
176
     1
 90
        2
176
     1
 90
        0
176
     1
 40
0.6
176
     1
 40
30.0
176
     1
 62
     7
420
 16777215
176
     1
 90
        2
176
     1
 90
        2
176
     1
 62
     7
176
     1
 62
     7
176
     1
 90
        1
176
     1
 90
        1
176
     1
 40
40.0
176
     1
 90
       11
176
     1
 62
     7
176
     1
 40
1.0
176
     1
 90
        1
176
     1
 90
        6
176
     1
 90
        2
176
     1
 62
     7
176
     1
 90
        6
176
     1
 90
        0
176
     1
 90
        0
176
     1
290
     0
176
     1
 90
        1
176
     1
 40
0.0
176
     1
 90
        0
176
     1
290
     0
176
     1
290
     1
176
     1
290
     1
176
     1
290
     0
176
     1
290
     0
176
     1
290
     0
176
     1
290
     0
176
     1
290
     0
176
     1
290
     0
176
     1
 90
       50
176
     1
 40
0.0
176
     1
 40
1.0
176
     1
 90
        0
176
     1
 62
    18
420
        0
176
     1
 90
       50
176
     1
 90
        3
176
     1
 62
     5
420
      255
176
     1
290
     0
176
     1
 90
       50
176
     1
 90
       50
176
     1
 90
       50
176
     1
290
     0
176
     1
 90
       50
176
     1
 62
   256
176
     0
 40
1.0
176
     0
 90
        2
176
     1
  1
strokes_ogs.tif
176
     1
290
     0
176
     1
 40
1.0
176
     1
 40
1.0
176
     1
1001
ACAD
1000
AcDbSavedByObjectVersion
1070
     0
  0
VISUALSTYLE
  5
62BD0
102
{ACAD_REACTORS
330
62BC3
102
}
330
62BC3
100
AcDbVisualStyle
  2
Thicken
 70
    13
177
     3
291
     1
 70
    58
 90
        2
176
     1
 90
        2
176
     1
 90
        0
176
     1
 90
        0
176
     1
 40
0.6
176
     1
 40
30.0
176
     1
 62
     7
420
 16777215
176
     1
 90
        1
176
     1
 90
        4
176
     1
 62
     7
176
     1
 62
   257
176
     1
 90
        1
176
     1
 90
        1
176
     1
 40
1.0
176
     1
 90
       12
176
     1
 62
     7
176
     1
 40
1.0
176
     1
 90
        1
176
     1
 90
        6
176
     1
 90
        2
176
     1
 62
     7
176
     1
 90
        5
176
     1
 90
        0
176
     1
 90
        0
176
     1
290
     0
176
     1
 90
        1
176
     1
 40
0.0
176
     1
 90
        0
176
     1
290
     0
176
     1
290
     1
176
     1
290
     1
176
     1
290
     0
176
     1
290
     0
176
     1
290
     0
176
     1
290
     0
176
     1
290
     0
176
     1
290
     0
176
     1
 90
       50
176
     1
 40
0.0
176
     1
 40
1.0
176
     1
 90
        0
176
     1
 62
    18
420
        0
176
     1
 90
       50
176
     1
 90
        3
176
     1
 62
     5
420
      255
176
     1
290
     0
176
     1
 90
       50
176
     1
 90
       50
176
     1
 90
       50
176
     1
290
     0
176
     1
 90
       50
176
     1
 62
   256
176
     0
 40
1.0
176
     0
 90
        2
176
     1
  1
strokes_ogs.tif
176
     1
290
     0
176
     1
 40
1.0
176
     1
 40
1.0
176
     1
1001
ACAD
1000
AcDbSavedByObjectVersion
1070
     0
  0
VISUALSTYLE
  5
62BCA
102
{ACAD_REACTORS
330
62BC3
102
}
330
62BC3
100
AcDbVisualStyle
  2
Wireframe
 70
     5
177
     3
291
     0
 70
    58
 90
        0
176
     1
 90
        2
176
     1
 90
        0
176
     1
 90
        0
176
     1
 40
0.6
176
     1
 40
30.0
176
     1
 62
     7
420
 16777215
176
     1
 90
        1
176
     1
 90
        4
176
     1
 62
     7
176
     1
 62
   257
176
     1
 90
        1
176
     1
 90
        1
176
     1
 40
1.0
176
     1
 90
        0
176
     1
 62
   257
176
     1
 40
1.0
176
     1
 90
        1
176
     1
 90
        6
176
     1
 90
        2
176
     1
 62
     7
176
     1
 90
        3
176
     1
 90
        0
176
     1
 90
        0
176
     1
290
     0
176
     1
 90
        1
176
     1
 40
0.0
176
     1
 90
        0
176
     1
290
     0
176
     1
290
     1
176
     1
290
     1
176
     1
290
     0
176
     1
290
     0
176
     1
290
     0
176
     1
290
     0
176
     1
290
     0
176
     1
290
     0
176
     1
 90
       50
176
     1
 40
0.0
176
     1
 40
1.0
176
     1
 90
        0
176
     1
 62
    18
420
        0
176
     1
 90
       50
176
     1
 90
        3
176
     1
 62
     5
420
      255
176
     1
290
     0
176
     1
 90
       50
176
     1
 90
       50
176
     1
 90
       50
176
     1
290
     0
176
     1
 90
       50
176
     1
 62
   256
176
     0
 40
1.0
176
     0
 90
        2
176
     1
  1
strokes_ogs.tif
176
     1
290
     0
176
     1
 40
1.0
176
     1
 40
1.0
176
     1
1001
ACAD
1000
AcDbSavedByObjectVersion
1070
     0
  0
VISUALSTYLE
  5
62BD6
102
{ACAD_REACTORS
330
62BC3
102
}
330
62BC3
100
AcDbVisualStyle
  2
X-Ray
 70
    25
177
     3
291
     0
 70
    58
 90
        2
176
     1
 90
        2
176
     1
 90
        1
176
     1
 90
        1
176
     1
 40
0.5
176
     1
 40
30.0
176
     1
 62
     7
420
 16777215
176
     1
 90
        1
176
     1
 90
        0
176
     1
 62
     7
176
     1
 62
   257
176
     1
 90
        1
176
     1
 90
        1
176
     1
 40
1.0
176
     1
 90
        8
176
     1
 62
     7
176
     1
 40
1.0
176
     1
 90
        1
176
     1
 90
        6
176
     1
 90
        2
176
     1
 62
     7
176
     1
 90
        3
176
     1
 90
        0
176
     1
 90
        0
176
     1
290
     0
176
     1
 90
       13
176
     1
 40
0.0
176
     1
 90
        0
176
     1
290
     0
176
     1
290
     1
176
     1
290
     1
176
     1
290
     0
176
     1
290
     0
176
     1
290
     0
176
     1
290
     0
176
     1
290
     0
176
     1
290
     0
176
     1
 90
       50
176
     1
 40
0.0
176
     1
 40
1.0
176
     1
 90
        0
176
     1
 62
    18
420
        0
176
     1
 90
       50
176
     1
 90
        3
176
     1
 62
     5
420
      255
176
     1
290
     0
176
     1
 90
       50
176
     1
 90
       50
176
     1
 90
       50
176
     1
290
     0
176
     1
 90
       50
176
     1
 62
   256
176
     0
 40
1.0
176
     0
 90
        2
176
     1
  1
strokes_ogs.tif
176
     1
290
     0
176
     1
 40
1.0
176
     1
 40
1.0
176
     1
1001
ACAD
1000
AcDbSavedByObjectVersion
1070
     0
  0
DICTIONARYVAR
  5
62C14
102
{ACAD_REACTORS
330
5E
102
}
330
5E
100
DictionaryVariables
280
     0
  1
1:1
  0
DICTIONARYVAR
  5
62C10
102
{ACAD_REACTORS
330
5E
102
}
330
5E
100
DictionaryVariables
280
     0
  1
STANDARD
  0
DICTIONARYVAR
  5
62C0F
102
{ACAD_REACTORS
330
5E
102
}
330
5E
100
DictionaryVariables
280
     0
  1
STANDARD
  0
DICTIONARYVAR
  5
62C11
102
{ACAD_REACTORS
330
5E
102
}
330
5E
100
DictionaryVariables
280
     0
  1
Metric50
  0
DICTIONARYVAR
  5
62C12
102
{ACAD_REACTORS
330
5E
102
}
330
5E
100
DictionaryVariables
280
     0
  1
Metric50
  0
DICTIONARYVAR
  5
5F
102
{ACAD_REACTORS
330
5E
102
}
330
5E
100
DictionaryVariables
280
     0
  1
2
  0
DICTIONARYVAR
  5
63
102
{ACAD_REACTORS
330
5E
102
}
330
5E
100
DictionaryVariables
280
     0
  1
1
  0
DICTIONARYVAR
  5
62C16
102
{ACAD_REACTORS
330
5E
102
}
330
5E
100
DictionaryVariables
280
     0
  1
1
  0
DICTIONARYVAR
  5
62C17
102
{ACAD_REACTORS
330
5E
102
}
330
5E
100
DictionaryVariables
280
     0
  1
15
  0
DICTIONARYVAR
  5
62C15
102
{ACAD_REACTORS
330
5E
102
}
330
5E
100
DictionaryVariables
280
     0
  1
0
  0
DICTIONARYVAR
  5
62C13
102
{ACAD_REACTORS
330
5E
102
}
330
5E
100
DictionaryVariables
280
     0
  1
0
  0
DICTIONARYVAR
  5
260F4
102
{ACAD_REACTORS
330
5E
102
}
330
5E
100
DictionaryVariables
280
     0
  1

  0
XRECORD
  5
550
102
{ACAD_REACTORS
330
8C
102
}
330
8C
100
AcDbXrecord
280
     1
1000
ADE02C001
1070
     1
1070
     0
1002
{
1002
}
1002
{
1002
}
1002
{
1002
}
1000

  0
XRECORD
  5
8A
102
{ACAD_REACTORS
330
88
102
}
330
88
100
AcDbXrecord
280
     1
330
0
330
0
330
0
330
0
  0
XRECORD
  5
68F
102
{ACAD_REACTORS
330
68E
102
}
330
68E
100
AcDbXrecord
280
     1
 91
      511
330
B5
 90
        0
 62
     7
370
    -3
331
16
  1
色_7
330
1F8
 90
        8
 62
     7
370
    25
331
16
  1
色_7
330
1F5
 90
        8
 62
     2
370
   140
331
16
  1
色_2
330
6A8
 90
        8
 62
     7
370
    13
331
16
  1
色_7
330
6A7
 90
        8
 62
     7
370
    25
331
16
  1
色_7
330
6A6
 90
        8
 62
     1
370
    50
331
16
  1
色_1
330
6A5
 90
        8
 62
     7
370
    25
331
16
  1
色_7
330
6A4
 90
        8
 62
     7
370
    25
331
16
  1
色_7
330
6A1
 90
        8
 62
     2
370
    13
331
95
  1
色_2
330
69D
 90
        8
 62
     7
370
    13
331
16
  1
色_7
330
10
 90
        8
 62
     7
370
    -3
331
16
  0
DICTIONARY
  5
62C1E
330
62BF5
100
AcDbDictionary
280
     1
281
     1
  3
ACAD_XREC_ROUNDTRIP
360
62C1F
  0
DICTIONARY
  5
62BB4
330
62BB3
100
AcDbDictionary
280
     1
281
     1
  3
BUMPTILE
360
62BB6
  3
DIFFUSETILE
360
62BB5
  3
OPACITYTILE
360
62BB9
  3
REFLECTIONTILE
360
62BB8
  3
REFRACTIONTILE
360
62BBA
  3
SPECULARTILE
360
62BB7
  0
DICTIONARY
  5
62BAC
330
62BAB
100
AcDbDictionary
280
     1
281
     1
  3
BUMPTILE
360
62BAE
  3
DIFFUSETILE
360
62BAD
  3
OPACITYTILE
360
62BB1
  3
REFLECTIONTILE
360
62BB0
  3
REFRACTIONTILE
360
62BB2
  3
SPECULARTILE
360
62BAF
  0
DICTIONARY
  5
62BBC
330
62BBB
100
AcDbDictionary
280
     1
281
     1
  3
BUMPTILE
360
62BBE
  3
DIFFUSETILE
360
62BBD
  3
OPACITYTILE
360
62BC1
  3
REFLECTIONTILE
360
62BC0
  3
REFRACTIONTILE
360
62BC2
  3
SPECULARTILE
360
62BBF
  0
DICTIONARY
  5
62C1C
330
62BF3
100
AcDbDictionary
280
     1
281
     1
  3
ACAD_XREC_ROUNDTRIP
360
62C1D
  0
DICTIONARY
  5
62C19
330
62BDD
100
AcDbDictionary
280
     1
281
     1
  3
ACAD_ROUNDTRIP_2008_TABLESTYLE_CELLSTYLEMAP
360
62C1A
  0
XRECORD
  5
62C1F
102
{ACAD_REACTORS
330
62C1E
102
}
330
62C1E
100
AcDbXrecord
280
     1
102
DISPLAYNAME
  1
Metric50
102
FLAGS
 90
        0
  0
XRECORD
  5
62BB6
102
{ACAD_REACTORS
330
62BB4
102
}
330
62BB4
100
AcDbXrecord
280
     1
270
     1
271
     1
  0
XRECORD
  5
62BB5
102
{ACAD_REACTORS
330
62BB4
102
}
330
62BB4
100
AcDbXrecord
280
     1
270
     1
271
     1
  0
XRECORD
  5
62BB9
102
{ACAD_REACTORS
330
62BB4
102
}
330
62BB4
100
AcDbXrecord
280
     1
270
     1
271
     1
  0
XRECORD
  5
62BB8
102
{ACAD_REACTORS
330
62BB4
102
}
330
62BB4
100
AcDbXrecord
280
     1
270
     1
271
     1
  0
XRECORD
  5
62BBA
102
{ACAD_REACTORS
330
62BB4
102
}
330
62BB4
100
AcDbXrecord
280
     1
270
     1
271
     1
  0
XRECORD
  5
62BB7
102
{ACAD_REACTORS
330
62BB4
102
}
330
62BB4
100
AcDbXrecord
280
     1
270
     1
271
     1
  0
XRECORD
  5
62BAE
102
{ACAD_REACTORS
330
62BAC
102
}
330
62BAC
100
AcDbXrecord
280
     1
270
     1
271
     1
  0
XRECORD
  5
62BAD
102
{ACAD_REACTORS
330
62BAC
102
}
330
62BAC
100
AcDbXrecord
280
     1
270
     1
271
     1
  0
XRECORD
  5
62BB1
102
{ACAD_REACTORS
330
62BAC
102
}
330
62BAC
100
AcDbXrecord
280
     1
270
     1
271
     1
  0
XRECORD
  5
62BB0
102
{ACAD_REACTORS
330
62BAC
102
}
330
62BAC
100
AcDbXrecord
280
     1
270
     1
271
     1
  0
XRECORD
  5
62BB2
102
{ACAD_REACTORS
330
62BAC
102
}
330
62BAC
100
AcDbXrecord
280
     1
270
     1
271
     1
  0
XRECORD
  5
62BAF
102
{ACAD_REACTORS
330
62BAC
102
}
330
62BAC
100
AcDbXrecord
280
     1
270
     1
271
     1
  0
XRECORD
  5
62BBE
102
{ACAD_REACTORS
330
62BBC
102
}
330
62BBC
100
AcDbXrecord
280
     1
270
     1
271
     1
  0
XRECORD
  5
62BBD
102
{ACAD_REACTORS
330
62BBC
102
}
330
62BBC
100
AcDbXrecord
280
     1
270
     1
271
     1
  0
XRECORD
  5
62BC1
102
{ACAD_REACTORS
330
62BBC
102
}
330
62BBC
100
AcDbXrecord
280
     1
270
     1
271
     1
  0
XRECORD
  5
62BC0
102
{ACAD_REACTORS
330
62BBC
102
}
330
62BBC
100
AcDbXrecord
280
     1
270
     1
271
     1
  0
XRECORD
  5
62BC2
102
{ACAD_REACTORS
330
62BBC
102
}
330
62BBC
100
AcDbXrecord
280
     1
270
     1
271
     1
  0
XRECORD
  5
62BBF
102
{ACAD_REACTORS
330
62BBC
102
}
330
62BBC
100
AcDbXrecord
280
     1
270
     1
271
     1
  0
XRECORD
  5
62C1D
102
{ACAD_REACTORS
330
62C1C
102
}
330
62C1C
100
AcDbXrecord
280
     1
102
DISPLAYNAME
  1
Metric50
102
FLAGS
 90
        0
  0
CELLSTYLEMAP
  5
62C1A
102
{ACAD_REACTORS
330
62C19
102
}
330
62C19
100
AcDbCellStyleMap
 90
        3
300
CELLSTYLE
  1
TABLEFORMAT_BEGIN
 90
        5
170
     1
 91
        0
 92
    32768
 62
   257
 93
        1
300
CONTENTFORMAT
  1
CONTENTFORMAT_BEGIN
 90
        0
 91
        0
 92
      512
 93
        0
300

 40
0.0
140
1.0
 94
        5
 62
     0
340
11
144
6.0
309
CONTENTFORMAT_END
171
     1
301
MARGIN
  1
CELLMARGIN_BEGIN
 40
1.5
 40
1.5
 40
1.5
 40
1.5
 40
4.5
 40
4.5
309
CELLMARGIN_END
 94
        6
 95
        1
302
GRIDFORMAT
  1
GRIDFORMAT_BEGIN
 90
        0
 91
        1
 62
     0
 92
       -2
340
0
 93
        0
 40
1.125
309
GRIDFORMAT_END
 95
        2
302
GRIDFORMAT
  1
GRIDFORMAT_BEGIN
 90
        0
 91
        1
 62
     0
 92
       -2
340
0
 93
        0
 40
1.125
309
GRIDFORMAT_END
 95
        4
302
GRIDFORMAT
  1
GRIDFORMAT_BEGIN
 90
        0
 91
        1
 62
     0
 92
       -2
340
0
 93
        0
 40
1.125
309
GRIDFORMAT_END
 95
        8
302
GRIDFORMAT
  1
GRIDFORMAT_BEGIN
 90
        0
 91
        1
 62
     0
 92
       -2
340
0
 93
        0
 40
1.125
309
GRIDFORMAT_END
 95
       16
302
GRIDFORMAT
  1
GRIDFORMAT_BEGIN
 90
        0
 91
        1
 62
     0
 92
       -2
340
0
 93
        0
 40
1.125
309
GRIDFORMAT_END
 95
       32
302
GRIDFORMAT
  1
GRIDFORMAT_BEGIN
 90
        0
 91
        1
 62
     0
 92
       -2
340
0
 93
        0
 40
1.125
309
GRIDFORMAT_END
309
TABLEFORMAT_END
  1
CELLSTYLE_BEGIN
 90
        1
 91
        1
300
_TITLE
309
CELLSTYLE_END
300
CELLSTYLE
  1
TABLEFORMAT_BEGIN
 90
        5
170
     1
 91
        0
 92
        0
 62
   257
 93
        1
300
CONTENTFORMAT
  1
CONTENTFORMAT_BEGIN
 90
        0
 91
        0
 92
      512
 93
        0
300

 40
0.0
140
1.0
 94
        5
 62
     0
340
11
144
4.5
309
CONTENTFORMAT_END
171
     1
301
MARGIN
  1
CELLMARGIN_BEGIN
 40
1.5
 40
1.5
 40
1.5
 40
1.5
 40
4.5
 40
4.5
309
CELLMARGIN_END
 94
        6
 95
        1
302
GRIDFORMAT
  1
GRIDFORMAT_BEGIN
 90
        0
 91
        1
 62
     0
 92
       -2
340
0
 93
        0
 40
1.125
309
GRIDFORMAT_END
 95
        2
302
GRIDFORMAT
  1
GRIDFORMAT_BEGIN
 90
        0
 91
        1
 62
     0
 92
       -2
340
0
 93
        0
 40
1.125
309
GRIDFORMAT_END
 95
        4
302
GRIDFORMAT
  1
GRIDFORMAT_BEGIN
 90
        0
 91
        1
 62
     0
 92
       -2
340
0
 93
        0
 40
1.125
309
GRIDFORMAT_END
 95
        8
302
GRIDFORMAT
  1
GRIDFORMAT_BEGIN
 90
        0
 91
        1
 62
     0
 92
       -2
340
0
 93
        0
 40
1.125
309
GRIDFORMAT_END
 95
       16
302
GRIDFORMAT
  1
GRIDFORMAT_BEGIN
 90
        0
 91
        1
 62
     0
 92
       -2
340
0
 93
        0
 40
1.125
309
GRIDFORMAT_END
 95
       32
302
GRIDFORMAT
  1
GRIDFORMAT_BEGIN
 90
        0
 91
        1
 62
     0
 92
       -2
340
0
 93
        0
 40
1.125
309
GRIDFORMAT_END
309
TABLEFORMAT_END
  1
CELLSTYLE_BEGIN
 90
        2
 91
        1
300
_HEADER
309
CELLSTYLE_END
300
CELLSTYLE
  1
TABLEFORMAT_BEGIN
 90
        5
170
     1
 91
        0
 92
        0
 62
   257
 93
        1
300
CONTENTFORMAT
  1
CONTENTFORMAT_BEGIN
 90
        0
 91
        0
 92
      512
 93
        0
300

 40
0.0
140
1.0
 94
        2
 62
     0
340
11
144
4.5
309
CONTENTFORMAT_END
171
     1
301
MARGIN
  1
CELLMARGIN_BEGIN
 40
1.5
 40
1.5
 40
1.5
 40
1.5
 40
4.5
 40
4.5
309
CELLMARGIN_END
 94
        6
 95
        1
302
GRIDFORMAT
  1
GRIDFORMAT_BEGIN
 90
        0
 91
        1
 62
     0
 92
       -2
340
0
 93
        0
 40
1.125
309
GRIDFORMAT_END
 95
        2
302
GRIDFORMAT
  1
GRIDFORMAT_BEGIN
 90
        0
 91
        1
 62
     0
 92
       -2
340
0
 93
        0
 40
1.125
309
GRIDFORMAT_END
 95
        4
302
GRIDFORMAT
  1
GRIDFORMAT_BEGIN
 90
        0
 91
        1
 62
     0
 92
       -2
340
0
 93
        0
 40
1.125
309
GRIDFORMAT_END
 95
        8
302
GRIDFORMAT
  1
GRIDFORMAT_BEGIN
 90
        0
 91
        1
 62
     0
 92
       -2
340
0
 93
        0
 40
1.125
309
GRIDFORMAT_END
 95
       16
302
GRIDFORMAT
  1
GRIDFORMAT_BEGIN
 90
        0
 91
        1
 62
     0
 92
       -2
340
0
 93
        0
 40
1.125
309
GRIDFORMAT_END
 95
       32
302
GRIDFORMAT
  1
GRIDFORMAT_BEGIN
 90
        0
 91
        1
 62
     0
 92
       -2
340
0
 93
        0
 40
1.125
309
GRIDFORMAT_END
309
TABLEFORMAT_END
  1
CELLSTYLE_BEGIN
 90
        3
 91
        2
300
_DATA
309
CELLSTYLE_END
  0
ENDSEC
  0
EOF
