  0
SECTION
  2
HEADER
  9
$ACADVER
  1
AC1027
  9
$ACADMAINTVER
 70
   125
  9
$DWGCODEPAGE
  3
ANSI_932
  9
$LASTSAVEDBY
  1
yano27
  9
$REQUIREDVERSIONS
160
                 0
  9
$INSBASE
 10
0.0
 20
0.0
 30
0.0
  9
$EXTMIN
 10
5261.042763046038
 20
8598.899784166922
 30
0.0
  9
$EXTMAX
 10
18120.55988147332
 20
15939.64264130977
 30
0.0
  9
$LIMMIN
 10
0.0
 20
0.0
  9
$LIMMAX
 10
420.0
 20
297.0
  9
$ORTHOMODE
 70
     0
  9
$REGENMODE
 70
     1
  9
$FILLMODE
 70
     1
  9
$QTEXTMODE
 70
     0
  9
$MIRRTEXT
 70
     0
  9
$LTSCALE
 40
1.0
  9
$ATTMODE
 70
     1
  9
$TEXTSIZE
 40
35.0
  9
$TRACEWID
 40
1.0
  9
$TEXTSTYLE
  7
STANDARD
  9
$CLAYER
  8
D-BGD
  9
$CELTYPE
  6
BYLAYER
  9
$CECOLOR
 62
   256
  9
$CELTSCALE
 40
1.0
  9
$DISPSILH
 70
     0
  9
$DIMSCALE
 40
1.0
  9
$DIMASZ
 40
0.18
  9
$DIMEXO
 40
0.0625
  9
$DIMDLI
 40
0.38
  9
$DIMRND
 40
0.0
  9
$DIMDLE
 40
0.0
  9
$DIMEXE
 40
0.18
  9
$DIMTP
 40
0.0
  9
$DIMTM
 40
0.0
  9
$DIMTXT
 40
0.18
  9
$DIMCEN
 40
0.09
  9
$DIMTSZ
 40
0.0
  9
$DIMTOL
 70
     0
  9
$DIMLIM
 70
     0
  9
$DIMTIH
 70
     1
  9
$DIMTOH
 70
     1
  9
$DIMSE1
 70
     0
  9
$DIMSE2
 70
     0
  9
$DIMTAD
 70
     0
  9
$DIMZIN
 70
     0
  9
$DIMBLK
  1

  9
$DIMASO
 70
     1
  9
$DIMSHO
 70
     1
  9
$DIMPOST
  1

  9
$DIMAPOST
  1

  9
$DIMALT
 70
     0
  9
$DIMALTD
 70
     2
  9
$DIMALTF
 40
25.4
  9
$DIMLFAC
 40
1.0
  9
$DIMTOFL
 70
     0
  9
$DIMTVP
 40
0.0
  9
$DIMTIX
 70
     0
  9
$DIMSOXD
 70
     0
  9
$DIMSAH
 70
     0
  9
$DIMBLK1
  1

  9
$DIMBLK2
  1

  9
$DIMSTYLE
  2
Standard
  9
$DIMCLRD
 70
     0
  9
$DIMCLRE
 70
     0
  9
$DIMCLRT
 70
     0
  9
$DIMTFAC
 40
1.0
  9
$DIMGAP
 40
0.09
  9
$DIMJUST
 70
     0
  9
$DIMSD1
 70
     0
  9
$DIMSD2
 70
     0
  9
$DIMTOLJ
 70
     1
  9
$DIMTZIN
 70
     0
  9
$DIMALTZ
 70
     0
  9
$DIMALTTZ
 70
     0
  9
$DIMUPT
 70
     0
  9
$DIMDEC
 70
     4
  9
$DIMTDEC
 70
     4
  9
$DIMALTU
 70
     2
  9
$DIMALTTD
 70
     2
  9
$DIMTXSTY
  7
STANDARD
  9
$DIMAUNIT
 70
     0
  9
$DIMADEC
 70
     0
  9
$DIMALTRND
 40
0.0
  9
$DIMAZIN
 70
     0
  9
$DIMDSEP
 70
    46
  9
$DIMATFIT
 70
     3
  9
$DIMFRAC
 70
     0
  9
$DIMLDRBLK
  1

  9
$DIMLUNIT
 70
     2
  9
$DIMLWD
 70
    -2
  9
$DIMLWE
 70
    -2
  9
$DIMTMOVE
 70
     0
  9
$DIMFXL
 40
1.0
  9
$DIMFXLON
 70
     0
  9
$DIMJOGANG
 40
0.7853981633974483
  9
$DIMTFILL
 70
     0
  9
$DIMTFILLCLR
 70
     0
  9
$DIMARCSYM
 70
     0
  9
$DIMLTYPE
  6

  9
$DIMLTEX1
  6

  9
$DIMLTEX2
  6

  9
$DIMTXTDIRECTION
 70
     0
  9
$LUNITS
 70
     2
  9
$LUPREC
 70
     4
  9
$SKETCHINC
 40
1.0
  9
$FILLETRAD
 40
250.0
  9
$AUNITS
 70
     0
  9
$AUPREC
 70
     0
  9
$MENU
  1
.
  9
$ELEVATION
 40
0.0
  9
$PELEVATION
 40
0.0
  9
$THICKNESS
 40
0.0
  9
$LIMCHECK
 70
     0
  9
$CHAMFERA
 40
0.0
  9
$CHAMFERB
 40
0.0
  9
$CHAMFERC
 40
20.0
  9
$CHAMFERD
 40
0.0
  9
$SKPOLY
 70
     0
  9
$TDCREATE
 40
2452404.412662037
  9
$TDUCREATE
 40
2452404.037662234
  9
$TDUPDATE
 40
2459920.789363426
  9
$TDUUPDATE
 40
2459920.414363426
  9
$TDINDWG
 40
3.9121793634
  9
$TDUSRTIMER
 40
3.9121786690
  9
$USRTIMER
 70
     1
  9
$ANGBASE
 50
0.0
  9
$ANGDIR
 70
     0
  9
$PDMODE
 70
    35
  9
$PDSIZE
 40
-10.0
  9
$PLINEWID
 40
0.0
  9
$SPLFRAME
 70
     0
  9
$SPLINETYPE
 70
     6
  9
$SPLINESEGS
 70
     8
  9
$HANDSEED
  5
4A3F4
  9
$SURFTAB1
 70
     6
  9
$SURFTAB2
 70
     6
  9
$SURFTYPE
 70
     6
  9
$SURFU
 70
     6
  9
$SURFV
 70
     6
  9
$UCSBASE
  2

  9
$UCSNAME
  2

  9
$UCSORG
 10
0.0
 20
0.0
 30
0.0
  9
$UCSXDIR
 10
1.0
 20
0.0
 30
0.0
  9
$UCSYDIR
 10
0.0
 20
1.0
 30
0.0
  9
$UCSORTHOREF
  2

  9
$UCSORTHOVIEW
 70
     0
  9
$UCSORGTOP
 10
0.0
 20
0.0
 30
0.0
  9
$UCSORGBOTTOM
 10
0.0
 20
0.0
 30
0.0
  9
$UCSORGLEFT
 10
0.0
 20
0.0
 30
0.0
  9
$UCSORGRIGHT
 10
0.0
 20
0.0
 30
0.0
  9
$UCSORGFRONT
 10
0.0
 20
0.0
 30
0.0
  9
$UCSORGBACK
 10
0.0
 20
0.0
 30
0.0
  9
$PUCSBASE
  2

  9
$PUCSNAME
  2

  9
$PUCSORG
 10
0.0
 20
0.0
 30
0.0
  9
$PUCSXDIR
 10
1.0
 20
0.0
 30
0.0
  9
$PUCSYDIR
 10
0.0
 20
1.0
 30
0.0
  9
$PUCSORTHOREF
  2

  9
$PUCSORTHOVIEW
 70
     0
  9
$PUCSORGTOP
 10
0.0
 20
0.0
 30
0.0
  9
$PUCSORGBOTTOM
 10
0.0
 20
0.0
 30
0.0
  9
$PUCSORGLEFT
 10
0.0
 20
0.0
 30
0.0
  9
$PUCSORGRIGHT
 10
0.0
 20
0.0
 30
0.0
  9
$PUCSORGFRONT
 10
0.0
 20
0.0
 30
0.0
  9
$PUCSORGBACK
 10
0.0
 20
0.0
 30
0.0
  9
$USERI1
 70
     0
  9
$USERI2
 70
     0
  9
$USERI3
 70
     0
  9
$USERI4
 70
     0
  9
$USERI5
 70
     0
  9
$USERR1
 40
0.0
  9
$USERR2
 40
0.0
  9
$USERR3
 40
0.0
  9
$USERR4
 40
0.0
  9
$USERR5
 40
0.0
  9
$WORLDVIEW
 70
     1
  9
$SHADEDGE
 70
     3
  9
$SHADEDIF
 70
    70
  9
$TILEMODE
 70
     0
  9
$MAXACTVP
 70
    48
  9
$PINSBASE
 10
0.0
 20
0.0
 30
0.0
  9
$PLIMCHECK
 70
     0
  9
$PEXTMIN
 10
0.0
 20
0.0
 30
0.0
  9
$PEXTMAX
 10
841.0
 20
594.0
 30
0.0
  9
$PLIMMIN
 10
0.5525024414062507
 20
0.0725005340576175
  9
$PLIMMAX
 10
840.4458129882812
 20
593.9244902801513
  9
$UNITMODE
 70
     0
  9
$VISRETAIN
 70
     1
  9
$PLINEGEN
 70
     0
  9
$PSLTSCALE
 70
     1
  9
$TREEDEPTH
 70
  3020
  9
$CMLSTYLE
  2
STANDARD
  9
$CMLJUST
 70
     0
  9
$CMLSCALE
 40
20.0
  9
$PROXYGRAPHICS
 70
     1
  9
$MEASUREMENT
 70
     0
  9
$CELWEIGHT
370
    -1
  9
$ENDCAPS
280
     0
  9
$JOINSTYLE
280
     0
  9
$LWDISPLAY
290
     0
  9
$INSUNITS
 70
     0
  9
$HYPERLINKBASE
  1

  9
$STYLESHEET
  1
canon国土交通省.ctb
  9
$XEDIT
290
     1
  9
$CEPSNTYPE
380
     0
  9
$PSTYLEMODE
290
     1
  9
$FINGERPRINTGUID
  2
{2179596F-6415-11D6-8A52-000255ECC0C6}
  9
$VERSIONGUID
  2
{12C0B540-8FD2-4364-95B9-688EF128FF85}
  9
$EXTNAMES
290
     1
  9
$PSVPSCALE
 40
0.05
  9
$OLESTARTUP
290
     0
  9
$SORTENTS
280
   112
  9
$INDEXCTL
280
     0
  9
$HIDETEXT
280
     0
  9
$XCLIPFRAME
280
     0
  9
$HALOGAP
280
     0
  9
$OBSCOLOR
 70
   257
  9
$OBSLTYPE
280
     0
  9
$INTERSECTIONDISPLAY
280
     0
  9
$INTERSECTIONCOLOR
 70
   257
  9
$DIMASSOC
280
     1
  9
$PROJECTNAME
  1

  9
$CAMERADISPLAY
290
     0
  9
$LENSLENGTH
 40
50.0
  9
$CAMERAHEIGHT
 40
0.0
  9
$STEPSPERSEC
 40
2.0
  9
$STEPSIZE
 40
6.0
  9
$3DDWFPREC
 40
2.0
  9
$PSOLWIDTH
 40
0.25
  9
$PSOLHEIGHT
 40
4.0
  9
$LOFTANG1
 40
1.570796326794896
  9
$LOFTANG2
 40
1.570796326794896
  9
$LOFTMAG1
 40
0.0
  9
$LOFTMAG2
 40
0.0
  9
$LOFTPARAM
 70
     7
  9
$LOFTNORMALS
280
     1
  9
$LATITUDE
 40
37.795
  9
$LONGITUDE
 40
-122.394
  9
$NORTHDIRECTION
 40
0.0
  9
$TIMEZONE
 70
 -8000
  9
$LIGHTGLYPHDISPLAY
280
     1
  9
$TILEMODELIGHTSYNCH
280
     1
  9
$CMATERIAL
347
4A37A
  9
$SOLIDHIST
280
     0
  9
$SHOWHIST
280
     1
  9
$DWFFRAME
280
     2
  9
$DGNFRAME
280
     0
  9
$REALWORLDSCALE
290
     1
  9
$INTERFERECOLOR
 62
     1
  9
$INTERFEREOBJVS
345
4A394
  9
$INTERFEREVPVS
346
4A391
  9
$CSHADOW
280
     0
  9
$SHADOWPLANELOCATION
 40
0.0
  0
ENDSEC
  0
SECTION
  2
CLASSES
  0
CLASS
  1
ACDBDICTIONARYWDFLT
  2
AcDbDictionaryWithDefault
  3
ObjectDBX Classes
 90
        0
 91
        1
280
     0
281
     0
  0
CLASS
  1
DICTIONARYVAR
  2
AcDbDictionaryVar
  3
ObjectDBX Classes
 90
        0
 91
       13
280
     0
281
     0
  0
CLASS
  1
PLOTSETTINGS
  2
AcDbPlotSettings
  3
ObjectDBX Classes
 90
        0
 91
        0
280
     0
281
     0
  0
CLASS
  1
DIMASSOC
  2
AcDbDimAssoc
  3
"AcDbDimAssoc|Product Desc:     AcDim ARX App For Dimension|Company:          Autodesk, Inc.|WEB Address:      www.autodesk.com"
 90
        0
 91
        0
280
     0
281
     0
  0
CLASS
  1
MATERIAL
  2
AcDbMaterial
  3
ObjectDBX Classes
 90
     1153
 91
        3
280
     0
281
     0
  0
CLASS
  1
SORTENTSTABLE
  2
AcDbSortentsTable
  3
ObjectDBX Classes
 90
        0
 91
        0
280
     0
281
     0
  0
CLASS
  1
VISUALSTYLE
  2
AcDbVisualStyle
  3
ObjectDBX Classes
 90
     4095
 91
       24
280
     0
281
     0
  0
CLASS
  1
TABLESTYLE
  2
AcDbTableStyle
  3
ObjectDBX Classes
 90
     4095
 91
        1
280
     0
281
     0
  0
CLASS
  1
SCALE
  2
AcDbScale
  3
ObjectDBX Classes
 90
     1153
 91
       17
280
     0
281
     0
  0
CLASS
  1
MLEADERSTYLE
  2
AcDbMLeaderStyle
  3
ACDB_MLEADERSTYLE_CLASS
 90
     4095
 91
        1
280
     0
281
     0
  0
CLASS
  1
ACDBSECTIONVIEWSTYLE
  2
AcDbSectionViewStyle
  3
ObjectDBX Classes
 90
     1025
 91
        1
280
     0
281
     0
  0
CLASS
  1
ACDBDETAILVIEWSTYLE
  2
AcDbDetailViewStyle
  3
ObjectDBX Classes
 90
     1025
 91
        1
280
     0
281
     0
  0
CLASS
  1
CELLSTYLEMAP
  2
AcDbCellStyleMap
  3
ObjectDBX Classes
 90
     1152
 91
        1
280
     0
281
     0
  0
ENDSEC
  0
SECTION
  2
TABLES
  0
TABLE
  2
VPORT
  5
8
330
0
100
AcDbSymbolTable
 70
     1
1001
ACAD
1000
DbSaveVer
1071
      278
  0
VPORT
  5
4A363
330
8
100
AcDbSymbolTableRecord
100
AcDbViewportTableRecord
  2
*Active
 70
     0
 10
0.0
 20
0.0
 11
1.0
 21
1.0
 12
8136.867731457552
 22
13829.52479192153
 13
0.0
 23
0.0
 14
10.0
 24
10.0
 15
10.0
 25
10.0
 16
0.0
 26
0.0
 36
1.0
 17
0.0
 27
0.0
 37
0.0
 40
6734.737958190343
 41
1.672676837725381
 42
50.0
 43
0.0
 44
0.0
 50
0.0
 51
0.0
 71
     0
 72
   100
 73
     1
 74
     3
 75
     0
 76
     0
 77
     0
 78
     0
281
     0
 65
     1
110
0.0
120
0.0
130
0.0
111
1.0
121
0.0
131
0.0
112
0.0
122
1.0
132
0.0
 79
     0
146
0.0
348
4A390
 60
     3
 61
     5
292
     1
282
     1
141
0.0
142
0.0
 63
   250
421
  3355443
  0
ENDTAB
  0
TABLE
  2
LTYPE
  5
5
330
0
100
AcDbSymbolTable
 70
     3
  0
LTYPE
  5
14
330
5
100
AcDbSymbolTableRecord
100
AcDbLinetypeTableRecord
  2
BYBLOCK
 70
     0
  3

 72
    65
 73
     0
 40
0.0
  0
LTYPE
  5
15
330
5
100
AcDbSymbolTableRecord
100
AcDbLinetypeTableRecord
  2
BYLAYER
 70
     0
  3

 72
    65
 73
     0
 40
0.0
  0
LTYPE
  5
16
330
5
100
AcDbSymbolTableRecord
100
AcDbLinetypeTableRecord
  2
CONTINUOUS
 70
     0
  3
Solid line
 72
    65
 73
     0
 40
0.0
  0
LTYPE
  5
45504
330
5
100
AcDbSymbolTableRecord
100
AcDbLinetypeTableRecord
  2
SXF_一点鎖線
 70
     0
  3
08 chain ---- - --- - --- - ---
 72
    65
 73
     4
 40
18.5
 49
12.0
 74
     0
 49
-1.5
 74
     0
 49
3.5
 74
     0
 49
-1.5
 74
     0
  0
LTYPE
  5
4A227
330
5
100
AcDbSymbolTableRecord
100
AcDbLinetypeTableRecord
  2
SXF_破線
 70
     0
  3
02 dashed -- -- -- -- -- --
 72
    65
 73
     2
 40
7.5
 49
6.0
 74
     0
 49
-1.5
 74
     0
  0
ENDTAB
  0
TABLE
  2
LAYER
  5
2
102
{ACAD_XDICTIONARY
360
1F315
102
}
330
0
100
AcDbSymbolTable
 70
    15
  0
LAYER
  5
10
102
{ACAD_XDICTIONARY
360
4A3C8
102
}
330
2
100
AcDbSymbolTableRecord
100
AcDbLayerTableRecord
  2
0
 70
     0
 62
     7
  6
CONTINUOUS
370
    13
390
7E81
347
4A36E
348
0
  0
LAYER
  5
AC
102
{ACAD_XDICTIONARY
360
4A3CA
102
}
330
2
100
AcDbSymbolTableRecord
100
AcDbLayerTableRecord
  2
D-STR-DIM
 70
     0
 62
    31
  6
CONTINUOUS
370
    13
390
7E81
347
4A36E
348
0
  0
LAYER
  5
D6
102
{ACAD_XDICTIONARY
360
4A3CC
102
}
330
2
100
AcDbSymbolTableRecord
100
AcDbLayerTableRecord
  2
D-TTL-TXT
 70
     0
 62
     7
  6
CONTINUOUS
370
    13
390
7E81
347
4A36E
348
0
  0
LAYER
  5
3CD
330
2
100
AcDbSymbolTableRecord
100
AcDbLayerTableRecord
  2
DEFPOINTS
 70
     0
 62
     7
  6
CONTINUOUS
290
     0
370
    13
390
7E81
347
4A36E
348
0
  0
LAYER
  5
6662
102
{ACAD_XDICTIONARY
360
4A3CE
102
}
330
2
100
AcDbSymbolTableRecord
100
AcDbLayerTableRecord
  2
D-BGD-DIM
 70
     0
 62
   115
  6
CONTINUOUS
370
    13
390
7E81
347
4A36E
348
0
  0
LAYER
  5
8A66
102
{ACAD_XDICTIONARY
360
4A3D0
102
}
330
2
100
AcDbSymbolTableRecord
100
AcDbLayerTableRecord
  2
D-STR-DIM1
 70
     0
 62
   101
  6
CONTINUOUS
370
    13
390
7E81
347
4A36E
348
0
  0
LAYER
  5
1408F
102
{ACAD_XDICTIONARY
360
4A3D2
102
}
330
2
100
AcDbSymbolTableRecord
100
AcDbLayerTableRecord
  2
D-STR
 70
     0
 62
     1
  6
CONTINUOUS
370
    25
390
7E81
347
4A36E
348
0
  0
LAYER
  5
1620E
102
{ACAD_XDICTIONARY
360
4A3D4
102
}
330
2
100
AcDbSymbolTableRecord
100
AcDbLayerTableRecord
  2
D-TTL
 70
     0
 62
     2
  6
CONTINUOUS
370
   140
390
7E81
347
4A36E
348
0
  0
LAYER
  5
16210
102
{ACAD_XDICTIONARY
360
4A3D6
102
}
330
2
100
AcDbSymbolTableRecord
100
AcDbLayerTableRecord
  2
D-BGD
 70
     0
 62
    84
  6
CONTINUOUS
370
    13
390
7E81
347
4A36E
348
0
  0
LAYER
  5
16212
102
{ACAD_XDICTIONARY
360
4A3D8
102
}
330
2
100
AcDbSymbolTableRecord
100
AcDbLayerTableRecord
  2
D-BMK
 70
     0
 62
     2
  6
SXF_一点鎖線
370
    13
390
7E81
347
4A36E
348
0
  0
LAYER
  5
16213
102
{ACAD_XDICTIONARY
360
4A3DA
102
}
330
2
100
AcDbSymbolTableRecord
100
AcDbLayerTableRecord
  2
D-STR-HTXT
 70
     0
 62
   142
  6
CONTINUOUS
370
    13
390
7E81
347
4A36E
348
0
  0
LAYER
  5
16216
102
{ACAD_XDICTIONARY
360
4A3DC
102
}
330
2
100
AcDbSymbolTableRecord
100
AcDbLayerTableRecord
  2
D-MTR-FRAM
 70
     0
 62
   173
  6
CONTINUOUS
370
    13
390
7E81
347
4A36E
348
0
  0
LAYER
  5
16217
102
{ACAD_XDICTIONARY
360
4A3DE
102
}
330
2
100
AcDbSymbolTableRecord
100
AcDbLayerTableRecord
  2
D-MTR
 70
     0
 62
     6
  6
CONTINUOUS
370
    13
390
7E81
347
4A36E
348
0
  0
LAYER
  5
16218
102
{ACAD_XDICTIONARY
360
4A3E0
102
}
330
2
100
AcDbSymbolTableRecord
100
AcDbLayerTableRecord
  2
D-MTR-TXT
 70
     0
 62
   213
  6
CONTINUOUS
370
    13
390
7E81
347
4A36E
348
0
  0
LAYER
  5
1F32E
102
{ACAD_XDICTIONARY
360
4A3E2
102
}
330
2
100
AcDbSymbolTableRecord
100
AcDbLayerTableRecord
  2
D-STR-STR1
 70
     0
 62
     4
  6
CONTINUOUS
370
    25
390
7E81
347
4A36E
348
0
  0
ENDTAB
  0
TABLE
  2
STYLE
  5
3
330
0
100
AcDbSymbolTable
 70
     2
  0
STYLE
  5
11
330
3
100
AcDbSymbolTableRecord
100
AcDbTextStyleTableRecord
  2
STANDARD
 70
     0
 40
0.0
 41
1.0
 50
0.0
 71
     0
 42
35.0
  3
MS Mincho.ttf
  4

1001
ACAD
1000
MS Mincho
1071
    32785
  0
STYLE
  5
37B26
330
3
100
AcDbSymbolTableRecord
100
AcDbTextStyleTableRecord
  2
WMF-ＭＳ 明朝0
 70
     0
 40
0.0
 41
1.0
 50
0.0
 71
     0
 42
175.0
  3
MS Mincho.ttf
  4

1001
ACAD
1000
MS Mincho
1071
    32784
  0
ENDTAB
  0
TABLE
  2
VIEW
  5
6
330
0
100
AcDbSymbolTable
 70
     0
  0
ENDTAB
  0
TABLE
  2
UCS
  5
7
330
0
100
AcDbSymbolTable
 70
     0
  0
ENDTAB
  0
TABLE
  2
APPID
  5
9
330
0
100
AcDbSymbolTable
 70
     3
  0
APPID
  5
12
330
9
100
AcDbSymbolTableRecord
100
AcDbRegAppTableRecord
  2
ACAD
 70
     0
  0
APPID
  5
7C1E
330
9
100
AcDbSymbolTableRecord
100
AcDbRegAppTableRecord
  2
CONTENTBLOCKICON
 70
     0
  0
APPID
  5
45143
330
9
100
AcDbSymbolTableRecord
100
AcDbRegAppTableRecord
  2
ADE
 70
     0
  0
ENDTAB
  0
TABLE
  2
DIMSTYLE
  5
A
330
0
100
AcDbSymbolTable
 70
     3
100
AcDbDimStyleTable
 71
     2
340
33C25
340
45519
  0
DIMSTYLE
105
33C25
330
A
100
AcDbSymbolTableRecord
100
AcDbDimStyleTableRecord
  2
Standard
 70
     0
340
11
  0
DIMSTYLE
105
45519
102
{ACAD_REACTORS
330
45AC1
330
45B2A
330
45AEC
330
45ADF
330
45AF9
330
45B53
330
45B46
330
45B39
330
45AD0
330
49892
330
49896
330
4989E
330
458D2
330
458C5
330
4566B
330
455E6
330
455D9
330
455AD
330
4559E
330
45788
330
45737
330
45841
330
45834
330
45744
330
456F1
330
4565D
330
456DB
330
45617
330
45626
330
45601
330
45728
330
4558E
330
48AFD
330
45950
330
45922
330
45915
330
45943
330
4A326
330
4A325
102
}
330
A
100
AcDbSymbolTableRecord
100
AcDbDimStyleTableRecord
  2
SXF-20
 70
     0
 40
20.0
 41
2.0
 42
0.625
 43
3.75
 44
1.25
 73
     0
 74
     0
 77
     1
 78
     1
140
3.5
141
2.5
143
0.03937007874016
147
0.625
171
     3
172
     1
174
     1
179
     4
271
     0
272
     0
274
     3
275
     1
279
     2
283
     0
284
     8
340
11
341
31
342
31
371
    13
372
    13
  0
DIMSTYLE
105
4A36D
330
A
100
AcDbSymbolTableRecord
100
AcDbDimStyleTableRecord
  2
SXF-10
 70
     0
 40
10.0
 41
2.0
 42
0.625
 43
3.75
 44
1.25
 73
     0
 74
     0
 77
     1
 78
     1
140
3.5
141
2.5
143
0.03937007874016
147
0.625
171
     3
172
     1
174
     1
179
     4
271
     0
272
     0
274
     3
275
     1
279
     2
283
     0
284
     8
340
11
341
31
342
31
371
    13
372
    13
  0
ENDTAB
  0
TABLE
  2
BLOCK_RECORD
  5
1
330
0
100
AcDbSymbolTable
 70
    39
  0
BLOCK_RECORD
  5
1F
102
{ACAD_XDICTIONARY
360
7BCB
102
}
330
1
100
AcDbSymbolTableRecord
100
AcDbBlockTableRecord
  2
*MODEL_SPACE
340
7E82
 70
     0
280
     1
281
     0
  0
BLOCK_RECORD
  5
214E1
102
{ACAD_XDICTIONARY
360
214F4
102
}
330
1
100
AcDbSymbolTableRecord
100
AcDbBlockTableRecord
  2
*PAPER_SPACE
340
214F8
 70
     0
280
     1
281
     0
  0
BLOCK_RECORD
  5
31
330
1
100
AcDbSymbolTableRecord
100
AcDbBlockTableRecord
  2
_OPEN
340
0
310
2800000020000000200000000100080000000000000400000000000000000000000000000000000000000000000080000080000000808000800000008000800080800000C0C0C000C0DCC000F0CAA6000020400000206000002080000020A0000020C0000020E00000400000004020000040400000406000004080000040A0
310
000040C0000040E00000600000006020000060400000606000006080000060A0000060C0000060E00000800000008020000080400000806000008080000080A0000080C0000080E00000A0000000A0200000A0400000A0600000A0800000A0A00000A0C00000A0E00000C0000000C0200000C0400000C0600000C0800000C0
310
A00000C0C00000C0E00000E0000000E0200000E0400000E0600000E0800000E0A00000E0C00000E0E00040000000400020004000400040006000400080004000A0004000C0004000E00040200000402020004020400040206000402080004020A0004020C0004020E000404000004040200040404000404060004040800040
310
40A0004040C0004040E00040600000406020004060400040606000406080004060A0004060C0004060E00040800000408020004080400040806000408080004080A0004080C0004080E00040A0000040A0200040A0400040A0600040A0800040A0A00040A0C00040A0E00040C0000040C0200040C0400040C0600040C08000
310
40C0A00040C0C00040C0E00040E0000040E0200040E0400040E0600040E0800040E0A00040E0C00040E0E00080000000800020008000400080006000800080008000A0008000C0008000E00080200000802020008020400080206000802080008020A0008020C0008020E00080400000804020008040400080406000804080
310
008040A0008040C0008040E00080600000806020008060400080606000806080008060A0008060C0008060E00080800000808020008080400080806000808080008080A0008080C0008080E00080A0000080A0200080A0400080A0600080A0800080A0A00080A0C00080A0E00080C0000080C0200080C0400080C0600080C0
310
800080C0A00080C0C00080C0E00080E0000080E0200080E0400080E0600080E0800080E0A00080E0C00080E0E000C0000000C0002000C0004000C0006000C0008000C000A000C000C000C000E000C0200000C0202000C0204000C0206000C0208000C020A000C020C000C020E000C0400000C0402000C0404000C0406000C0
310
408000C040A000C040C000C040E000C0600000C0602000C0604000C0606000C0608000C060A000C060C000C060E000C0800000C0802000C0804000C0806000C0808000C080A000C080C000C080E000C0A00000C0A02000C0A04000C0A06000C0A08000C0A0A000C0A0C000C0A0E000C0C00000C0C02000C0C04000C0C06000
310
C0C08000C0C0A000F0FBFF00A4A0A000808080000000FF0000FF000000FFFF00FF000000FF00FF00FFFF0000FFFFFF0000000000000000000000000000000000000000000000000000000000000000000000000000000000000000000000000000000000000000000000000000000000000000000000000000000000000000
310
00000000000000000000000000000000000000000000000000000000000000000000000000000000000000000000000000000000000000000000000000000000000000000000000000000000000000000000000000000000000000000000000000000000000000000000000000000000000000000000000000000000000000
310
00000000000000000000000000000000000000000000000000000000000000000000000000000000000000000000000000000000000000000000000000000000000000000000000000000000000000000000000000000000000000000000000000000000000000000000000000000000000000000000000000000000000000
310
0000000000000000000000000000000000000000FFFFFF0000000000000000000000000000000000000000000000000000000000000000FFFFFFFFFFFF0000000000000000000000000000000000000000000000000000000000000000FFFFFFFFFFFF00000000000000000000000000000000000000000000000000000000
310
00000000FFFFFFFFFFFF0000000000000000000000000000000000000000000000000000000000000000FFFFFFFFFFFF0000000000FFFFFFFFFFFFFFFFFFFFFFFFFFFFFFFFFFFFFFFFFFFFFFFFFFFFFFFFFFFF000000000000000000000000000000000000000000FFFFFFFFFFFFFF00000000000000000000000000000000
310
00FFFFFFFFFFFFFFFF0000000000000000000000000000000000FFFFFFFFFFFFFF000000000000000000000000000000000000000000FFFFFFFF000000000000000000000000000000000000000000000000000000000000000000000000000000000000000000000000000000000000000000000000000000000000000000
310
00000000000000000000000000000000000000000000000000000000000000000000000000000000000000000000000000000000000000000000000000000000000000000000000000000000000000000000000000000000000000000000000000000000000000000000000000000000000000000000000000000000000000
310
00000000000000000000000000000000000000000000000000000000000000000000000000000000000000000000000000000000000000000000000000000000000000000000000000000000000000000000000000000000000000000000000000000000000000000000000000000000000000000000000000000000000000
310
0000000000000000000000000000000000000000000000000000000000000000000000000000000000000000000000000000000000000000
102
{BLKREFS
331
49642
331
49643
331
4964B
331
4964C
331
49683
331
49684
331
496B5
331
496B6
331
496BE
331
496BF
331
4996F
331
49970
331
49C37
331
49C57
331
49E19
331
49E1A
331
49E22
331
49E23
331
49E2B
331
49E2C
331
49E34
331
49E35
331
49E3F
331
49E40
331
49E48
331
49E49
331
49E51
331
49E52
331
49E5A
331
49E5B
331
49E65
331
49E66
331
49E6E
331
49E6F
331
49E8D
331
49E8E
331
49E96
331
49E97
331
49EB7
331
49EB8
331
49F92
331
49F93
331
49F9B
331
49F9C
331
49FA4
331
49FA5
331
49FDC
331
49FDD
331
49FF8
331
49FF9
331
4A024
331
4A025
331
4A02F
331
4A030
331
4A044
331
4A045
331
4A04D
331
4A04E
331
4A056
331
4A057
331
48D1A
331
48D1B
331
48D2C
331
48D2D
331
49637
331
49638
331
4A131
331
4A132
331
4A344
331
4A345
331
4A34F
331
4A350
331
4990A
331
4990B
331
49927
331
49928
331
49954
331
49955
102
}
 70
     0
280
     1
281
     0
  0
BLOCK_RECORD
  5
4558F
330
1
100
AcDbSymbolTableRecord
100
AcDbBlockTableRecord
  2
*D1
340
0
 70
     0
280
     1
281
     0
  0
BLOCK_RECORD
  5
4559F
330
1
100
AcDbSymbolTableRecord
100
AcDbBlockTableRecord
  2
*D2
340
0
 70
     0
280
     1
281
     0
  0
BLOCK_RECORD
  5
455AE
330
1
100
AcDbSymbolTableRecord
100
AcDbBlockTableRecord
  2
*D3
340
0
 70
     0
280
     1
281
     0
  0
BLOCK_RECORD
  5
455DA
330
1
100
AcDbSymbolTableRecord
100
AcDbBlockTableRecord
  2
*D4
340
0
 70
     0
280
     1
281
     0
  0
BLOCK_RECORD
  5
455E7
330
1
100
AcDbSymbolTableRecord
100
AcDbBlockTableRecord
  2
*D5
340
0
 70
     0
280
     1
281
     0
  0
BLOCK_RECORD
  5
45602
330
1
100
AcDbSymbolTableRecord
100
AcDbBlockTableRecord
  2
*D6
340
0
 70
     0
280
     1
281
     0
  0
BLOCK_RECORD
  5
45618
330
1
100
AcDbSymbolTableRecord
100
AcDbBlockTableRecord
  2
*D7
340
0
 70
     0
280
     1
281
     0
  0
BLOCK_RECORD
  5
45627
330
1
100
AcDbSymbolTableRecord
100
AcDbBlockTableRecord
  2
*D8
340
0
 70
     0
280
     1
281
     0
  0
BLOCK_RECORD
  5
4565E
330
1
100
AcDbSymbolTableRecord
100
AcDbBlockTableRecord
  2
*D9
340
0
 70
     0
280
     1
281
     0
  0
BLOCK_RECORD
  5
4566C
330
1
100
AcDbSymbolTableRecord
100
AcDbBlockTableRecord
  2
*D10
340
0
 70
     0
280
     1
281
     0
  0
BLOCK_RECORD
  5
456DC
330
1
100
AcDbSymbolTableRecord
100
AcDbBlockTableRecord
  2
*D11
340
0
 70
     0
280
     1
281
     0
  0
BLOCK_RECORD
  5
456F2
330
1
100
AcDbSymbolTableRecord
100
AcDbBlockTableRecord
  2
*D12
340
0
 70
     0
280
     1
281
     0
  0
BLOCK_RECORD
  5
45729
330
1
100
AcDbSymbolTableRecord
100
AcDbBlockTableRecord
  2
*D13
340
0
 70
     0
280
     1
281
     0
  0
BLOCK_RECORD
  5
45738
330
1
100
AcDbSymbolTableRecord
100
AcDbBlockTableRecord
  2
*D14
340
0
 70
     0
280
     1
281
     0
  0
BLOCK_RECORD
  5
45745
330
1
100
AcDbSymbolTableRecord
100
AcDbBlockTableRecord
  2
*D15
340
0
 70
     0
280
     1
281
     0
  0
BLOCK_RECORD
  5
45789
330
1
100
AcDbSymbolTableRecord
100
AcDbBlockTableRecord
  2
*D16
340
0
 70
     0
280
     1
281
     0
  0
BLOCK_RECORD
  5
45835
330
1
100
AcDbSymbolTableRecord
100
AcDbBlockTableRecord
  2
*D17
340
0
 70
     0
280
     1
281
     0
  0
BLOCK_RECORD
  5
45842
330
1
100
AcDbSymbolTableRecord
100
AcDbBlockTableRecord
  2
*D18
340
0
 70
     0
280
     1
281
     0
  0
BLOCK_RECORD
  5
458C6
330
1
100
AcDbSymbolTableRecord
100
AcDbBlockTableRecord
  2
*D19
340
0
 70
     0
280
     1
281
     0
  0
BLOCK_RECORD
  5
458D3
330
1
100
AcDbSymbolTableRecord
100
AcDbBlockTableRecord
  2
*D20
340
0
 70
     0
280
     1
281
     0
  0
BLOCK_RECORD
  5
45916
330
1
100
AcDbSymbolTableRecord
100
AcDbBlockTableRecord
  2
*D21
340
0
 70
     0
280
     1
281
     0
  0
BLOCK_RECORD
  5
45923
330
1
100
AcDbSymbolTableRecord
100
AcDbBlockTableRecord
  2
*D22
340
0
 70
     0
280
     1
281
     0
  0
BLOCK_RECORD
  5
45944
330
1
100
AcDbSymbolTableRecord
100
AcDbBlockTableRecord
  2
*D23
340
0
 70
     0
280
     1
281
     0
  0
BLOCK_RECORD
  5
45951
330
1
100
AcDbSymbolTableRecord
100
AcDbBlockTableRecord
  2
*D24
340
0
 70
     0
280
     1
281
     0
  0
BLOCK_RECORD
  5
45AC2
330
1
100
AcDbSymbolTableRecord
100
AcDbBlockTableRecord
  2
*D25
340
0
 70
     0
280
     1
281
     0
  0
BLOCK_RECORD
  5
45AD1
330
1
100
AcDbSymbolTableRecord
100
AcDbBlockTableRecord
  2
*D26
340
0
 70
     0
280
     1
281
     0
  0
BLOCK_RECORD
  5
45AE0
330
1
100
AcDbSymbolTableRecord
100
AcDbBlockTableRecord
  2
*D27
340
0
 70
     0
280
     1
281
     0
  0
BLOCK_RECORD
  5
45AED
330
1
100
AcDbSymbolTableRecord
100
AcDbBlockTableRecord
  2
*D28
340
0
 70
     0
280
     1
281
     0
  0
BLOCK_RECORD
  5
45AFA
330
1
100
AcDbSymbolTableRecord
100
AcDbBlockTableRecord
  2
*D29
340
0
 70
     0
280
     1
281
     0
  0
BLOCK_RECORD
  5
45B2B
330
1
100
AcDbSymbolTableRecord
100
AcDbBlockTableRecord
  2
*D30
340
0
 70
     0
280
     1
281
     0
  0
BLOCK_RECORD
  5
45B3A
330
1
100
AcDbSymbolTableRecord
100
AcDbBlockTableRecord
  2
*D31
340
0
 70
     0
280
     1
281
     0
  0
BLOCK_RECORD
  5
45B47
330
1
100
AcDbSymbolTableRecord
100
AcDbBlockTableRecord
  2
*D32
340
0
 70
     0
280
     1
281
     0
  0
BLOCK_RECORD
  5
45B54
330
1
100
AcDbSymbolTableRecord
100
AcDbBlockTableRecord
  2
*D33
340
0
 70
     0
280
     1
281
     0
  0
BLOCK_RECORD
  5
498C4
330
1
100
AcDbSymbolTableRecord
100
AcDbBlockTableRecord
  2
*D34
340
0
 70
     0
280
     1
281
     0
  0
BLOCK_RECORD
  5
498D0
330
1
100
AcDbSymbolTableRecord
100
AcDbBlockTableRecord
  2
*D35
340
0
 70
     0
280
     1
281
     0
  0
BLOCK_RECORD
  5
498DC
330
1
100
AcDbSymbolTableRecord
100
AcDbBlockTableRecord
  2
*D36
340
0
 70
     0
280
     1
281
     0
  0
BLOCK_RECORD
  5
4A327
330
1
100
AcDbSymbolTableRecord
100
AcDbBlockTableRecord
  2
*D37
340
0
 70
     0
280
     1
281
     0
  0
BLOCK_RECORD
  5
4A333
330
1
100
AcDbSymbolTableRecord
100
AcDbBlockTableRecord
  2
*D38
340
0
 70
     0
280
     1
281
     0
  0
ENDTAB
  0
ENDSEC
  0
SECTION
  2
BLOCKS
  0
BLOCK
  5
20
330
1F
100
AcDbEntity
  8
0
100
AcDbBlockBegin
  2
*MODEL_SPACE
 70
     0
 10
0.0
 20
0.0
 30
0.0
  3
*MODEL_SPACE
  1

  0
ENDBLK
  5
21
330
1F
100
AcDbEntity
  8
0
100
AcDbBlockEnd
  0
BLOCK
  5
214F6
330
214E1
100
AcDbEntity
 67
     1
  8
0
100
AcDbBlockBegin
  2
*PAPER_SPACE
 70
     0
 10
0.0
 20
0.0
 30
0.0
  3
*PAPER_SPACE
  1

  0
ENDBLK
  5
214F7
330
214E1
100
AcDbEntity
 67
     1
  8
0
100
AcDbBlockEnd
  0
BLOCK
  5
35
330
31
100
AcDbEntity
  8
0
100
AcDbBlockBegin
  2
_OPEN
 70
     0
 10
0.0
 20
0.0
 30
0.0
  3
_OPEN
  1

  0
LINE
  5
32
330
31
100
AcDbEntity
  8
0
  6
ByBlock
 62
     0
100
AcDbLine
 10
-1.0
 20
0.1666666666666666
 30
0.0
 11
0.0
 21
0.0
 31
0.0
  0
LINE
  5
33
330
31
100
AcDbEntity
  8
0
  6
ByBlock
 62
     0
100
AcDbLine
 10
-1.0
 20
-0.1666666666666666
 30
0.0
 11
0.0
 21
0.0
 31
0.0
  0
LINE
  5
34
330
31
100
AcDbEntity
  8
0
  6
ByBlock
 62
     0
100
AcDbLine
 10
0.0
 20
0.0
 30
0.0
 11
-1.0
 21
0.0
 31
0.0
  0
ENDBLK
  5
36
330
31
100
AcDbEntity
  8
0
100
AcDbBlockEnd
  0
BLOCK
  5
45599
330
4558F
100
AcDbEntity
  8
0
100
AcDbBlockBegin
  2
*D1
 70
     1
 10
0.0
 20
0.0
 30
0.0
  3
*D1
  1

  0
LINE
  5
49EB2
330
4558F
100
AcDbEntity
  8
D-BGD-DIM
 62
     0
440
 16777216
370
    13
100
AcDbLine
 10
6261.54276304604
 20
15133.39978416692
 30
0.0
 11
6261.54276304604
 21
15445.89978416692
 31
0.0
  0
LINE
  5
49EB3
330
4558F
100
AcDbEntity
  8
D-BGD-DIM
 62
     0
440
 16777216
370
    13
100
AcDbLine
 10
6371.54276304604
 20
15133.39978416692
 30
0.0
 11
6371.54276304604
 21
15445.89978416692
 31
0.0
  0
LINE
  5
49EB4
330
4558F
100
AcDbEntity
  8
D-BGD-DIM
 62
     0
440
 16777216
370
    13
100
AcDbLine
 10
6221.54276304604
 20
15420.89978416692
 30
0.0
 11
6181.54276304604
 21
15420.89978416692
 31
0.0
  0
LINE
  5
49EB5
330
4558F
100
AcDbEntity
  8
D-BGD-DIM
 62
     0
440
 16777216
370
    13
100
AcDbLine
 10
6411.54276304604
 20
15420.89978416692
 30
0.0
 11
6451.542763046039
 21
15420.89978416692
 31
0.0
  0
LINE
  5
49EB6
330
4558F
100
AcDbEntity
  8
D-BGD-DIM
 62
     0
440
 16777216
370
    13
100
AcDbLine
 10
6261.54276304604
 20
15420.89978416692
 30
0.0
 11
6371.54276304604
 21
15420.89978416692
 31
0.0
  0
INSERT
  5
49EB7
330
4558F
100
AcDbEntity
  8
D-BGD-DIM
 62
     0
440
 16777216
370
    13
100
AcDbBlockReference
  2
_OPEN
 10
6261.54276304604
 20
15420.89978416692
 30
0.0
 41
40.0
 42
40.0
 43
40.0
  0
INSERT
  5
49EB8
330
4558F
100
AcDbEntity
  8
D-BGD-DIM
 62
     0
440
 16777216
370
    13
100
AcDbBlockReference
  2
_OPEN
 10
6371.54276304604
 20
15420.89978416692
 30
0.0
 41
40.0
 42
40.0
 43
40.0
 50
180.0
  0
MTEXT
  5
49EB9
330
4558F
100
AcDbEntity
  8
D-BGD-DIM
 62
     0
440
 16777216
100
AcDbMText
 10
6316.54276304604
 20
15468.39978416692
 30
0.0
 40
70.0
 41
0.0
 46
0.0
 71
     5
 72
     1
  1
110
 73
     1
 44
1.0
  0
POINT
  5
49EBA
330
4558F
100
AcDbEntity
  8
DEFPOINTS
 62
     0
440
 16777216
100
AcDbPoint
 10
6261.54276304604
 20
15120.89978416692
 30
0.0
  0
POINT
  5
49EBB
330
4558F
100
AcDbEntity
  8
DEFPOINTS
 62
     0
440
 16777216
100
AcDbPoint
 10
6371.54276304604
 20
15120.89978416692
 30
0.0
  0
POINT
  5
49EBC
330
4558F
100
AcDbEntity
  8
DEFPOINTS
 62
     0
440
 16777216
100
AcDbPoint
 10
6371.54276304604
 20
15420.89978416692
 30
0.0
  0
ENDBLK
  5
4559A
330
4558F
100
AcDbEntity
  8
0
100
AcDbBlockEnd
  0
BLOCK
  5
455AB
330
4559F
100
AcDbEntity
  8
0
100
AcDbBlockBegin
  2
*D2
 70
     1
 10
0.0
 20
0.0
 30
0.0
  3
*D2
  1

  0
LINE
  5
4A02A
330
4559F
100
AcDbEntity
  8
D-STR-DIM
 62
     0
440
 16777216
370
    13
100
AcDbLine
 10
6249.04276304604
 20
12805.89978416692
 30
0.0
 11
5936.54276304604
 21
12805.89978416692
 31
0.0
  0
LINE
  5
4A02B
330
4559F
100
AcDbEntity
  8
D-STR-DIM
 62
     0
440
 16777216
370
    13
100
AcDbLine
 10
6249.04276304604
 20
12755.74016054112
 30
0.0
 11
5936.54276304604
 21
12755.74016054112
 31
0.0
  0
LINE
  5
4A02C
330
4559F
100
AcDbEntity
  8
D-STR-DIM
 62
     0
440
 16777216
370
    13
100
AcDbLine
 10
5961.54276304604
 20
12845.89978416692
 30
0.0
 11
5961.54276304604
 21
12885.89978416692
 31
0.0
  0
LINE
  5
4A02D
330
4559F
100
AcDbEntity
  8
D-STR-DIM
 62
     0
440
 16777216
370
    13
100
AcDbLine
 10
5961.54276304604
 20
12715.74016054112
 30
0.0
 11
5961.54276304604
 21
12675.74016054112
 31
0.0
  0
LINE
  5
4A02E
330
4559F
100
AcDbEntity
  8
D-STR-DIM
 62
     0
440
 16777216
370
    13
100
AcDbLine
 10
5961.54276304604
 20
12805.89978416692
 30
0.0
 11
5961.54276304604
 21
12755.74016054112
 31
0.0
  0
INSERT
  5
4A02F
330
4559F
100
AcDbEntity
  8
D-STR-DIM
 62
     0
440
 16777216
370
    13
100
AcDbBlockReference
  2
_OPEN
 10
5961.54276304604
 20
12805.89978416692
 30
0.0
 41
40.0
 42
40.0
 43
40.0
 50
270.0
  0
INSERT
  5
4A030
330
4559F
100
AcDbEntity
  8
D-STR-DIM
 62
     0
440
 16777216
370
    13
100
AcDbBlockReference
  2
_OPEN
 10
5961.54276304604
 20
12755.74016054112
 30
0.0
 41
40.0
 42
40.0
 43
40.0
 50
90.0
  0
MTEXT
  5
4A031
330
4559F
100
AcDbEntity
  8
D-STR-DIM
 62
     0
440
 16777216
100
AcDbMText
 10
6031.542763046038
 20
12780.81997235402
 30
0.0
 40
70.0
 41
0.0
 46
0.0
 71
     5
 72
     1
  1
50
 11
0.0000000000000001
 21
1.0
 31
0.0
 73
     1
 44
1.0
  0
POINT
  5
4A032
330
4559F
100
AcDbEntity
  8
DEFPOINTS
 62
     0
440
 16777216
100
AcDbPoint
 10
6261.54276304604
 20
12805.89978416692
 30
0.0
  0
POINT
  5
4A033
330
4559F
100
AcDbEntity
  8
DEFPOINTS
 62
     0
440
 16777216
100
AcDbPoint
 10
6261.54276304604
 20
12755.74016054112
 30
0.0
  0
POINT
  5
4A034
330
4559F
100
AcDbEntity
  8
DEFPOINTS
 62
     0
440
 16777216
100
AcDbPoint
 10
5961.54276304604
 20
12755.74016054112
 30
0.0
  0
ENDBLK
  5
455AC
330
4559F
100
AcDbEntity
  8
0
100
AcDbBlockEnd
  0
BLOCK
  5
455B8
330
455AE
100
AcDbEntity
  8
0
100
AcDbBlockBegin
  2
*D3
 70
     1
 10
0.0
 20
0.0
 30
0.0
  3
*D3
  1

  0
LINE
  5
4A040
330
455AE
100
AcDbEntity
  8
D-STR-DIM
 62
     0
440
 16777216
370
    13
100
AcDbLine
 10
6249.04276304604
 20
12755.74016054112
 30
0.0
 11
5936.54276304604
 21
12755.74016054112
 31
0.0
  0
LINE
  5
4A041
330
455AE
100
AcDbEntity
  8
D-STR-DIM
 62
     0
440
 16777216
370
    13
100
AcDbLine
 10
6249.04276304604
 20
12620.89978416692
 30
0.0
 11
5936.54276304604
 21
12620.89978416692
 31
0.0
  0
LINE
  5
4A042
330
455AE
100
AcDbEntity
  8
D-STR-DIM
 62
     0
440
 16777216
370
    13
100
AcDbLine
 10
5961.54276304604
 20
12715.74016054112
 30
0.0
 11
5961.54276304604
 21
12660.89978416692
 31
0.0
  0
MTEXT
  5
4A043
330
455AE
100
AcDbEntity
  8
D-STR-DIM
 62
     0
440
 16777216
100
AcDbMText
 10
5914.042763046038
 20
12658.31997235402
 30
0.0
 40
70.0
 41
0.0
 46
0.0
 71
     5
 72
     1
  1
135
 11
0.0000000000000001
 21
1.0
 31
0.0
 73
     1
 44
1.0
  0
INSERT
  5
4A044
330
455AE
100
AcDbEntity
  8
D-STR-DIM
 62
     0
440
 16777216
370
    13
100
AcDbBlockReference
  2
_OPEN
 10
5961.54276304604
 20
12755.74016054112
 30
0.0
 41
40.0
 42
40.0
 43
40.0
 50
90.0
  0
INSERT
  5
4A045
330
455AE
100
AcDbEntity
  8
D-STR-DIM
 62
     0
440
 16777216
370
    13
100
AcDbBlockReference
  2
_OPEN
 10
5961.54276304604
 20
12620.89978416692
 30
0.0
 41
40.0
 42
40.0
 43
40.0
 50
270.0
  0
POINT
  5
4A046
330
455AE
100
AcDbEntity
  8
DEFPOINTS
 62
     0
440
 16777216
100
AcDbPoint
 10
6261.54276304604
 20
12755.74016054112
 30
0.0
  0
POINT
  5
4A047
330
455AE
100
AcDbEntity
  8
DEFPOINTS
 62
     0
440
 16777216
100
AcDbPoint
 10
6261.54276304604
 20
12620.89978416692
 30
0.0
  0
POINT
  5
4A048
330
455AE
100
AcDbEntity
  8
DEFPOINTS
 62
     0
440
 16777216
100
AcDbPoint
 10
5961.54276304604
 20
12620.89978416692
 30
0.0
  0
ENDBLK
  5
455B9
330
455AE
100
AcDbEntity
  8
0
100
AcDbBlockEnd
  0
BLOCK
  5
455E4
330
455DA
100
AcDbEntity
  8
0
100
AcDbBlockBegin
  2
*D4
 70
     1
 10
0.0
 20
0.0
 30
0.0
  3
*D4
  1

  0
LINE
  5
49E93
330
455DA
100
AcDbEntity
  8
D-BGD-DIM
 62
     0
440
 16777216
370
    13
100
AcDbLine
 10
6249.04276304604
 20
12805.89978416692
 30
0.0
 11
5636.54276304604
 21
12805.89978416692
 31
0.0
  0
LINE
  5
49E94
330
455DA
100
AcDbEntity
  8
D-BGD-DIM
 62
     0
440
 16777216
370
    13
100
AcDbLine
 10
6249.04276304604
 20
12620.89978416692
 30
0.0
 11
5636.54276304604
 21
12620.89978416692
 31
0.0
  0
LINE
  5
49E95
330
455DA
100
AcDbEntity
  8
D-BGD-DIM
 62
     0
440
 16777216
370
    13
100
AcDbLine
 10
5661.54276304604
 20
12765.89978416692
 30
0.0
 11
5661.54276304604
 21
12660.89978416692
 31
0.0
  0
INSERT
  5
49E96
330
455DA
100
AcDbEntity
  8
D-BGD-DIM
 62
     0
440
 16777216
370
    13
100
AcDbBlockReference
  2
_OPEN
 10
5661.54276304604
 20
12805.89978416692
 30
0.0
 41
40.0
 42
40.0
 43
40.0
 50
90.0
  0
INSERT
  5
49E97
330
455DA
100
AcDbEntity
  8
D-BGD-DIM
 62
     0
440
 16777216
370
    13
100
AcDbBlockReference
  2
_OPEN
 10
5661.54276304604
 20
12620.89978416692
 30
0.0
 41
40.0
 42
40.0
 43
40.0
 50
270.0
  0
MTEXT
  5
49E98
330
455DA
100
AcDbEntity
  8
D-BGD-DIM
 62
     0
440
 16777216
100
AcDbMText
 10
5614.042763046038
 20
12713.39978416692
 30
0.0
 40
70.0
 41
0.0
 46
0.0
 71
     5
 72
     1
  1
185
 11
0.0000000000000001
 21
1.0
 31
0.0
 73
     1
 44
1.0
  0
POINT
  5
49E99
330
455DA
100
AcDbEntity
  8
DEFPOINTS
 62
     0
440
 16777216
100
AcDbPoint
 10
6261.54276304604
 20
12805.89978416692
 30
0.0
  0
POINT
  5
49E9A
330
455DA
100
AcDbEntity
  8
DEFPOINTS
 62
     0
440
 16777216
100
AcDbPoint
 10
6261.54276304604
 20
12620.89978416692
 30
0.0
  0
POINT
  5
49E9B
330
455DA
100
AcDbEntity
  8
DEFPOINTS
 62
     0
440
 16777216
100
AcDbPoint
 10
5661.54276304604
 20
12620.89978416692
 30
0.0
  0
ENDBLK
  5
455E5
330
455DA
100
AcDbEntity
  8
0
100
AcDbBlockEnd
  0
BLOCK
  5
455F1
330
455E7
100
AcDbEntity
  8
0
100
AcDbBlockBegin
  2
*D5
 70
     1
 10
0.0
 20
0.0
 30
0.0
  3
*D5
  1

  0
LINE
  5
49E8A
330
455E7
100
AcDbEntity
  8
D-BGD-DIM
 62
     0
440
 16777216
370
    13
100
AcDbLine
 10
6249.04276304604
 20
15120.89978416692
 30
0.0
 11
5336.542763046041
 21
15120.89978416692
 31
0.0
  0
LINE
  5
49E8B
330
455E7
100
AcDbEntity
  8
D-BGD-DIM
 62
     0
440
 16777216
370
    13
100
AcDbLine
 10
6249.04276304604
 20
12620.89978416692
 30
0.0
 11
5336.54276304604
 21
12620.89978416692
 31
0.0
  0
LINE
  5
49E8C
330
455E7
100
AcDbEntity
  8
D-BGD-DIM
 62
     0
440
 16777216
370
    13
100
AcDbLine
 10
5361.542763046041
 20
15080.89978416692
 30
0.0
 11
5361.54276304604
 21
12660.89978416692
 31
0.0
  0
INSERT
  5
49E8D
330
455E7
100
AcDbEntity
  8
D-BGD-DIM
 62
     0
440
 16777216
370
    13
100
AcDbBlockReference
  2
_OPEN
 10
5361.542763046041
 20
15120.89978416692
 30
0.0
 41
40.0
 42
40.0
 43
40.0
 50
90.0
  0
INSERT
  5
49E8E
330
455E7
100
AcDbEntity
  8
D-BGD-DIM
 62
     0
440
 16777216
370
    13
100
AcDbBlockReference
  2
_OPEN
 10
5361.54276304604
 20
12620.89978416692
 30
0.0
 41
40.0
 42
40.0
 43
40.0
 50
270.0
  0
MTEXT
  5
49E8F
330
455E7
100
AcDbEntity
  8
D-BGD-DIM
 62
     0
440
 16777216
100
AcDbMText
 10
5314.042763046038
 20
13870.89978416692
 30
0.0
 40
70.0
 41
0.0
 46
0.0
 71
     5
 72
     1
  1
2500
 11
0.0000000000000001
 21
1.0
 31
0.0
 73
     1
 44
1.0
  0
POINT
  5
49E90
330
455E7
100
AcDbEntity
  8
DEFPOINTS
 62
     0
440
 16777216
100
AcDbPoint
 10
6261.54276304604
 20
15120.89978416692
 30
0.0
  0
POINT
  5
49E91
330
455E7
100
AcDbEntity
  8
DEFPOINTS
 62
     0
440
 16777216
100
AcDbPoint
 10
6261.54276304604
 20
12620.89978416692
 30
0.0
  0
POINT
  5
49E92
330
455E7
100
AcDbEntity
  8
DEFPOINTS
 62
     0
440
 16777216
100
AcDbPoint
 10
5361.54276304604
 20
12620.89978416692
 30
0.0
  0
ENDBLK
  5
455F2
330
455E7
100
AcDbEntity
  8
0
100
AcDbBlockEnd
  0
BLOCK
  5
4560C
330
45602
100
AcDbEntity
  8
0
100
AcDbBlockBegin
  2
*D6
 70
     1
 10
0.0
 20
0.0
 30
0.0
  3
*D6
  1

  0
LINE
  5
4A049
330
45602
100
AcDbEntity
  8
D-STR-DIM
 62
     0
440
 16777216
370
    13
100
AcDbLine
 10
6261.54276304604
 20
12608.39978416692
 30
0.0
 11
6261.54276304604
 21
12295.89978416692
 31
0.0
  0
LINE
  5
4A04A
330
45602
100
AcDbEntity
  8
D-STR-DIM
 62
     0
440
 16777216
370
    13
100
AcDbLine
 10
6396.419081433604
 20
12608.39978416692
 30
0.0
 11
6396.419081433604
 21
12295.89978416692
 31
0.0
  0
LINE
  5
4A04B
330
45602
100
AcDbEntity
  8
D-STR-DIM
 62
     0
440
 16777216
370
    13
100
AcDbLine
 10
6301.54276304604
 20
12320.89978416692
 30
0.0
 11
6356.419081433604
 21
12320.89978416692
 31
0.0
  0
MTEXT
  5
4A04C
330
45602
100
AcDbEntity
  8
D-STR-DIM
 62
     0
440
 16777216
100
AcDbMText
 10
6298.980922239821
 20
12368.39978416692
 30
0.0
 40
70.0
 41
0.0
 46
0.0
 71
     5
 72
     1
  1
135
 73
     1
 44
1.0
  0
INSERT
  5
4A04D
330
45602
100
AcDbEntity
  8
D-STR-DIM
 62
     0
440
 16777216
370
    13
100
AcDbBlockReference
  2
_OPEN
 10
6261.54276304604
 20
12320.89978416692
 30
0.0
 41
40.0
 42
40.0
 43
40.0
 50
180.0
  0
INSERT
  5
4A04E
330
45602
100
AcDbEntity
  8
D-STR-DIM
 62
     0
440
 16777216
370
    13
100
AcDbBlockReference
  2
_OPEN
 10
6396.419081433604
 20
12320.89978416692
 30
0.0
 41
40.0
 42
40.0
 43
40.0
  0
POINT
  5
4A04F
330
45602
100
AcDbEntity
  8
DEFPOINTS
 62
     0
440
 16777216
100
AcDbPoint
 10
6261.54276304604
 20
12620.89978416692
 30
0.0
  0
POINT
  5
4A050
330
45602
100
AcDbEntity
  8
DEFPOINTS
 62
     0
440
 16777216
100
AcDbPoint
 10
6396.419081433604
 20
12620.89978416692
 30
0.0
  0
POINT
  5
4A051
330
45602
100
AcDbEntity
  8
DEFPOINTS
 62
     0
440
 16777216
100
AcDbPoint
 10
6396.419081433604
 20
12320.89978416692
 30
0.0
  0
ENDBLK
  5
4560D
330
45602
100
AcDbEntity
  8
0
100
AcDbBlockEnd
  0
BLOCK
  5
45624
330
45618
100
AcDbEntity
  8
0
100
AcDbBlockBegin
  2
*D7
 70
     1
 10
0.0
 20
0.0
 30
0.0
  3
*D7
  1

  0
LINE
  5
4A01F
330
45618
100
AcDbEntity
  8
D-STR-DIM
 62
     0
440
 16777216
370
    13
100
AcDbLine
 10
6396.419081433604
 20
12608.39978416692
 30
0.0
 11
6396.419081433604
 21
12295.89978416692
 31
0.0
  0
LINE
  5
4A020
330
45618
100
AcDbEntity
  8
D-STR-DIM
 62
     0
440
 16777216
370
    13
100
AcDbLine
 10
6446.542763046043
 20
12608.39978416692
 30
0.0
 11
6446.542763046043
 21
12295.89978416692
 31
0.0
  0
LINE
  5
4A021
330
45618
100
AcDbEntity
  8
D-STR-DIM
 62
     0
440
 16777216
370
    13
100
AcDbLine
 10
6356.419081433604
 20
12320.89978416692
 30
0.0
 11
6316.419081433604
 21
12320.89978416692
 31
0.0
  0
LINE
  5
4A022
330
45618
100
AcDbEntity
  8
D-STR-DIM
 62
     0
440
 16777216
370
    13
100
AcDbLine
 10
6486.542763046042
 20
12320.89978416692
 30
0.0
 11
6526.542763046042
 21
12320.89978416692
 31
0.0
  0
LINE
  5
4A023
330
45618
100
AcDbEntity
  8
D-STR-DIM
 62
     0
440
 16777216
370
    13
100
AcDbLine
 10
6396.419081433604
 20
12320.89978416692
 30
0.0
 11
6446.542763046043
 21
12320.89978416692
 31
0.0
  0
INSERT
  5
4A024
330
45618
100
AcDbEntity
  8
D-STR-DIM
 62
     0
440
 16777216
370
    13
100
AcDbBlockReference
  2
_OPEN
 10
6396.419081433604
 20
12320.89978416692
 30
0.0
 41
40.0
 42
40.0
 43
40.0
  0
INSERT
  5
4A025
330
45618
100
AcDbEntity
  8
D-STR-DIM
 62
     0
440
 16777216
370
    13
100
AcDbBlockReference
  2
_OPEN
 10
6446.542763046043
 20
12320.89978416692
 30
0.0
 41
40.0
 42
40.0
 43
40.0
 50
180.0
  0
MTEXT
  5
4A026
330
45618
100
AcDbEntity
  8
D-STR-DIM
 62
     0
440
 16777216
100
AcDbMText
 10
6421.480922239823
 20
12250.89978416692
 30
0.0
 40
70.0
 41
0.0
 46
0.0
 71
     5
 72
     1
  1
50
 73
     1
 44
1.0
  0
POINT
  5
4A027
330
45618
100
AcDbEntity
  8
DEFPOINTS
 62
     0
440
 16777216
100
AcDbPoint
 10
6396.419081433604
 20
12620.89978416692
 30
0.0
  0
POINT
  5
4A028
330
45618
100
AcDbEntity
  8
DEFPOINTS
 62
     0
440
 16777216
100
AcDbPoint
 10
6446.542763046043
 20
12620.89978416692
 30
0.0
  0
POINT
  5
4A029
330
45618
100
AcDbEntity
  8
DEFPOINTS
 62
     0
440
 16777216
100
AcDbPoint
 10
6446.542763046043
 20
12320.89978416692
 30
0.0
  0
ENDBLK
  5
45625
330
45618
100
AcDbEntity
  8
0
100
AcDbBlockEnd
  0
BLOCK
  5
45631
330
45627
100
AcDbEntity
  8
0
100
AcDbBlockBegin
  2
*D8
 70
     1
 10
0.0
 20
0.0
 30
0.0
  3
*D8
  1

  0
LINE
  5
49E6B
330
45627
100
AcDbEntity
  8
D-BGD-DIM
 62
     0
440
 16777216
370
    13
100
AcDbLine
 10
6261.54276304604
 20
12608.39978416692
 30
0.0
 11
6261.54276304604
 21
11995.89978416692
 31
0.0
  0
LINE
  5
49E6C
330
45627
100
AcDbEntity
  8
D-BGD-DIM
 62
     0
440
 16777216
370
    13
100
AcDbLine
 10
6446.542763046043
 20
12608.39978416692
 30
0.0
 11
6446.542763046043
 21
11995.89978416692
 31
0.0
  0
LINE
  5
49E6D
330
45627
100
AcDbEntity
  8
D-BGD-DIM
 62
     0
440
 16777216
370
    13
100
AcDbLine
 10
6301.54276304604
 20
12020.89978416692
 30
0.0
 11
6406.542763046042
 21
12020.89978416692
 31
0.0
  0
INSERT
  5
49E6E
330
45627
100
AcDbEntity
  8
D-BGD-DIM
 62
     0
440
 16777216
370
    13
100
AcDbBlockReference
  2
_OPEN
 10
6261.54276304604
 20
12020.89978416692
 30
0.0
 41
40.0
 42
40.0
 43
40.0
 50
180.0
  0
INSERT
  5
49E6F
330
45627
100
AcDbEntity
  8
D-BGD-DIM
 62
     0
440
 16777216
370
    13
100
AcDbBlockReference
  2
_OPEN
 10
6446.542763046043
 20
12020.89978416692
 30
0.0
 41
40.0
 42
40.0
 43
40.0
  0
MTEXT
  5
49E70
330
45627
100
AcDbEntity
  8
D-BGD-DIM
 62
     0
440
 16777216
100
AcDbMText
 10
6354.042763046041
 20
12068.39978416692
 30
0.0
 40
70.0
 41
0.0
 46
0.0
 71
     5
 72
     1
  1
185
 73
     1
 44
1.0
  0
POINT
  5
49E71
330
45627
100
AcDbEntity
  8
DEFPOINTS
 62
     0
440
 16777216
100
AcDbPoint
 10
6261.54276304604
 20
12620.89978416692
 30
0.0
  0
POINT
  5
49E72
330
45627
100
AcDbEntity
  8
DEFPOINTS
 62
     0
440
 16777216
100
AcDbPoint
 10
6446.542763046043
 20
12620.89978416692
 30
0.0
  0
POINT
  5
49E73
330
45627
100
AcDbEntity
  8
DEFPOINTS
 62
     0
440
 16777216
100
AcDbPoint
 10
6446.542763046043
 20
12020.89978416692
 30
0.0
  0
ENDBLK
  5
45632
330
45627
100
AcDbEntity
  8
0
100
AcDbBlockEnd
  0
BLOCK
  5
45668
330
4565E
100
AcDbEntity
  8
0
100
AcDbBlockBegin
  2
*D9
 70
     1
 10
0.0
 20
0.0
 30
0.0
  3
*D9
  1

  0
LINE
  5
49E4E
330
4565E
100
AcDbEntity
  8
D-BGD-DIM
 62
     0
440
 16777216
370
    13
100
AcDbLine
 10
6261.54276304604
 20
12608.39978416692
 30
0.0
 11
6261.54276304604
 21
11695.89978416692
 31
0.0
  0
LINE
  5
49E4F
330
4565E
100
AcDbEntity
  8
D-BGD-DIM
 62
     0
440
 16777216
370
    13
100
AcDbLine
 10
8011.54276304604
 20
12608.39978416692
 30
0.0
 11
8011.54276304604
 21
11695.89978416692
 31
0.0
  0
LINE
  5
49E50
330
4565E
100
AcDbEntity
  8
D-BGD-DIM
 62
     0
440
 16777216
370
    13
100
AcDbLine
 10
6301.54276304604
 20
11720.89978416692
 30
0.0
 11
7971.54276304604
 21
11720.89978416692
 31
0.0
  0
INSERT
  5
49E51
330
4565E
100
AcDbEntity
  8
D-BGD-DIM
 62
     0
440
 16777216
370
    13
100
AcDbBlockReference
  2
_OPEN
 10
6261.54276304604
 20
11720.89978416692
 30
0.0
 41
40.0
 42
40.0
 43
40.0
 50
180.0
  0
INSERT
  5
49E52
330
4565E
100
AcDbEntity
  8
D-BGD-DIM
 62
     0
440
 16777216
370
    13
100
AcDbBlockReference
  2
_OPEN
 10
8011.54276304604
 20
11720.89978416692
 30
0.0
 41
40.0
 42
40.0
 43
40.0
  0
MTEXT
  5
49E53
330
4565E
100
AcDbEntity
  8
D-BGD-DIM
 62
     0
440
 16777216
100
AcDbMText
 10
7136.54276304604
 20
11768.39978416692
 30
0.0
 40
70.0
 41
0.0
 46
0.0
 71
     5
 72
     1
  1
1750
 73
     1
 44
1.0
  0
POINT
  5
49E54
330
4565E
100
AcDbEntity
  8
DEFPOINTS
 62
     0
440
 16777216
100
AcDbPoint
 10
6261.54276304604
 20
12620.89978416692
 30
0.0
  0
POINT
  5
49E55
330
4565E
100
AcDbEntity
  8
DEFPOINTS
 62
     0
440
 16777216
100
AcDbPoint
 10
8011.54276304604
 20
12620.89978416692
 30
0.0
  0
POINT
  5
49E56
330
4565E
100
AcDbEntity
  8
DEFPOINTS
 62
     0
440
 16777216
100
AcDbPoint
 10
8011.54276304604
 20
11720.89978416692
 30
0.0
  0
ENDBLK
  5
45669
330
4565E
100
AcDbEntity
  8
0
100
AcDbBlockEnd
  0
BLOCK
  5
45678
330
4566C
100
AcDbEntity
  8
0
100
AcDbBlockBegin
  2
*D10
 70
     1
 10
0.0
 20
0.0
 30
0.0
  3
*D10
  1

  0
LINE
  5
4A052
330
4566C
100
AcDbEntity
  8
D-BGD-DIM
 62
     0
440
 16777216
370
    13
100
AcDbLine
 10
8024.042763046043
 20
12730.89978416692
 30
0.0
 11
8336.54276304604
 21
12730.89978416692
 31
0.0
  0
LINE
  5
4A053
330
4566C
100
AcDbEntity
  8
D-BGD-DIM
 62
     0
440
 16777216
370
    13
100
AcDbLine
 10
8024.04276304604
 20
12620.89978416692
 30
0.0
 11
8336.54276304604
 21
12620.89978416692
 31
0.0
  0
LINE
  5
4A054
330
4566C
100
AcDbEntity
  8
D-BGD-DIM
 62
     0
440
 16777216
370
    13
100
AcDbLine
 10
8311.542763046039
 20
12690.89978416692
 30
0.0
 11
8311.542763046039
 21
12660.89978416692
 31
0.0
  0
MTEXT
  5
4A055
330
4566C
100
AcDbEntity
  8
D-BGD-DIM
 62
     0
440
 16777216
100
AcDbMText
 10
8264.042763046036
 20
12645.89978416692
 30
0.0
 40
70.0
 41
0.0
 46
0.0
 71
     5
 72
     1
  1
110
 11
0.0000000000000001
 21
1.0
 31
0.0
 73
     1
 44
1.0
  0
INSERT
  5
4A056
330
4566C
100
AcDbEntity
  8
D-BGD-DIM
 62
     0
440
 16777216
370
    13
100
AcDbBlockReference
  2
_OPEN
 10
8311.542763046039
 20
12730.89978416692
 30
0.0
 41
40.0
 42
40.0
 43
40.0
 50
90.0
  0
INSERT
  5
4A057
330
4566C
100
AcDbEntity
  8
D-BGD-DIM
 62
     0
440
 16777216
370
    13
100
AcDbBlockReference
  2
_OPEN
 10
8311.542763046039
 20
12620.89978416692
 30
0.0
 41
40.0
 42
40.0
 43
40.0
 50
270.0
  0
POINT
  5
4A058
330
4566C
100
AcDbEntity
  8
DEFPOINTS
 62
     0
440
 16777216
100
AcDbPoint
 10
8011.542763046042
 20
12730.89978416692
 30
0.0
  0
POINT
  5
4A059
330
4566C
100
AcDbEntity
  8
DEFPOINTS
 62
     0
440
 16777216
100
AcDbPoint
 10
8011.54276304604
 20
12620.89978416692
 30
0.0
  0
POINT
  5
4A05A
330
4566C
100
AcDbEntity
  8
DEFPOINTS
 62
     0
440
 16777216
100
AcDbPoint
 10
8311.542763046039
 20
12620.89978416692
 30
0.0
  0
ENDBLK
  5
45679
330
4566C
100
AcDbEntity
  8
0
100
AcDbBlockEnd
  0
BLOCK
  5
456E6
330
456DC
100
AcDbEntity
  8
0
100
AcDbBlockBegin
  2
*D11
 70
     1
 10
0.0
 20
0.0
 30
0.0
  3
*D11
  1

  0
LINE
  5
49E57
330
456DC
100
AcDbEntity
  8
D-STR-DIM1
 62
     0
440
 16777216
370
    13
100
AcDbLine
 10
6261.54276304604
 20
11133.39978416692
 30
0.0
 11
6261.54276304604
 21
11445.89978416692
 31
0.0
  0
LINE
  5
49E58
330
456DC
100
AcDbEntity
  8
D-STR-DIM1
 62
     0
440
 16777216
370
    13
100
AcDbLine
 10
7251.542763046039
 20
11133.39978416692
 30
0.0
 11
7251.542763046039
 21
11445.89978416692
 31
0.0
  0
LINE
  5
49E59
330
456DC
100
AcDbEntity
  8
D-STR-DIM1
 62
     0
440
 16777216
370
    13
100
AcDbLine
 10
6301.54276304604
 20
11420.89978416692
 30
0.0
 11
7211.54276304604
 21
11420.89978416692
 31
0.0
  0
INSERT
  5
49E5A
330
456DC
100
AcDbEntity
  8
D-STR-DIM1
 62
     0
440
 16777216
370
    13
100
AcDbBlockReference
  2
_OPEN
 10
6261.54276304604
 20
11420.89978416692
 30
0.0
 41
40.0
 42
40.0
 43
40.0
 50
180.0
  0
INSERT
  5
49E5B
330
456DC
100
AcDbEntity
  8
D-STR-DIM1
 62
     0
440
 16777216
370
    13
100
AcDbBlockReference
  2
_OPEN
 10
7251.542763046039
 20
11420.89978416692
 30
0.0
 41
40.0
 42
40.0
 43
40.0
  0
MTEXT
  5
49E5C
330
456DC
100
AcDbEntity
  8
D-STR-DIM1
 62
     0
440
 16777216
100
AcDbMText
 10
6756.542763046041
 20
11468.39978416692
 30
0.0
 40
70.0
 41
0.0
 46
0.0
 71
     5
 72
     1
  1
990
 73
     1
 44
1.0
  0
POINT
  5
49E5D
330
456DC
100
AcDbEntity
  8
DEFPOINTS
 62
     0
440
 16777216
100
AcDbPoint
 10
6261.54276304604
 20
11120.89978416692
 30
0.0
  0
POINT
  5
49E5E
330
456DC
100
AcDbEntity
  8
DEFPOINTS
 62
     0
440
 16777216
100
AcDbPoint
 10
7251.542763046039
 20
11120.89978416692
 30
0.0
  0
POINT
  5
49E5F
330
456DC
100
AcDbEntity
  8
DEFPOINTS
 62
     0
440
 16777216
100
AcDbPoint
 10
7251.542763046039
 20
11420.89978416692
 30
0.0
  0
ENDBLK
  5
456E7
330
456DC
100
AcDbEntity
  8
0
100
AcDbBlockEnd
  0
BLOCK
  5
456FC
330
456F2
100
AcDbEntity
  8
0
100
AcDbBlockBegin
  2
*D12
 70
     1
 10
0.0
 20
0.0
 30
0.0
  3
*D12
  1

  0
LINE
  5
49E45
330
456F2
100
AcDbEntity
  8
D-STR-DIM1
 62
     0
440
 16777216
370
    13
100
AcDbLine
 10
7251.542763046039
 20
11133.39978416692
 30
0.0
 11
7251.542763046039
 21
11445.89978416692
 31
0.0
  0
LINE
  5
49E46
330
456F2
100
AcDbEntity
  8
D-STR-DIM1
 62
     0
440
 16777216
370
    13
100
AcDbLine
 10
8011.54276304604
 20
11133.39978416692
 30
0.0
 11
8011.54276304604
 21
11445.89978416692
 31
0.0
  0
LINE
  5
49E47
330
456F2
100
AcDbEntity
  8
D-STR-DIM1
 62
     0
440
 16777216
370
    13
100
AcDbLine
 10
7291.54276304604
 20
11420.89978416692
 30
0.0
 11
7971.54276304604
 21
11420.89978416692
 31
0.0
  0
INSERT
  5
49E48
330
456F2
100
AcDbEntity
  8
D-STR-DIM1
 62
     0
440
 16777216
370
    13
100
AcDbBlockReference
  2
_OPEN
 10
7251.542763046039
 20
11420.89978416692
 30
0.0
 41
40.0
 42
40.0
 43
40.0
 50
180.0
  0
INSERT
  5
49E49
330
456F2
100
AcDbEntity
  8
D-STR-DIM1
 62
     0
440
 16777216
370
    13
100
AcDbBlockReference
  2
_OPEN
 10
8011.54276304604
 20
11420.89978416692
 30
0.0
 41
40.0
 42
40.0
 43
40.0
  0
MTEXT
  5
49E4A
330
456F2
100
AcDbEntity
  8
D-STR-DIM1
 62
     0
440
 16777216
100
AcDbMText
 10
7631.542763046041
 20
11468.39978416692
 30
0.0
 40
70.0
 41
0.0
 46
0.0
 71
     5
 72
     1
  1
760
 73
     1
 44
1.0
  0
POINT
  5
49E4B
330
456F2
100
AcDbEntity
  8
DEFPOINTS
 62
     0
440
 16777216
100
AcDbPoint
 10
7251.542763046039
 20
11120.89978416692
 30
0.0
  0
POINT
  5
49E4C
330
456F2
100
AcDbEntity
  8
DEFPOINTS
 62
     0
440
 16777216
100
AcDbPoint
 10
8011.54276304604
 20
11120.89978416692
 30
0.0
  0
POINT
  5
49E4D
330
456F2
100
AcDbEntity
  8
DEFPOINTS
 62
     0
440
 16777216
100
AcDbPoint
 10
8011.54276304604
 20
11420.89978416692
 30
0.0
  0
ENDBLK
  5
456FD
330
456F2
100
AcDbEntity
  8
0
100
AcDbBlockEnd
  0
BLOCK
  5
45735
330
45729
100
AcDbEntity
  8
0
100
AcDbBlockBegin
  2
*D13
 70
     1
 10
0.0
 20
0.0
 30
0.0
  3
*D13
  1

  0
LINE
  5
49E60
330
45729
100
AcDbEntity
  8
D-BGD-DIM
 62
     0
440
 16777216
370
    13
100
AcDbLine
 10
8024.04276304604
 20
11120.89978416692
 30
0.0
 11
8536.542763046041
 21
11120.89978416692
 31
0.0
  0
LINE
  5
49E61
330
45729
100
AcDbEntity
  8
D-BGD-DIM
 62
     0
440
 16777216
370
    13
100
AcDbLine
 10
8024.04276304604
 20
11110.89978416692
 30
0.0
 11
8536.542763046041
 21
11110.89978416692
 31
0.0
  0
LINE
  5
49E62
330
45729
100
AcDbEntity
  8
D-BGD-DIM
 62
     0
440
 16777216
370
    13
100
AcDbLine
 10
8511.54276304604
 20
11160.89978416692
 30
0.0
 11
8511.54276304604
 21
11200.89978416692
 31
0.0
  0
LINE
  5
49E63
330
45729
100
AcDbEntity
  8
D-BGD-DIM
 62
     0
440
 16777216
370
    13
100
AcDbLine
 10
8511.54276304604
 20
11070.89978416692
 30
0.0
 11
8511.54276304604
 21
11030.89978416692
 31
0.0
  0
LINE
  5
49E64
330
45729
100
AcDbEntity
  8
D-BGD-DIM
 62
     0
440
 16777216
370
    13
100
AcDbLine
 10
8511.54276304604
 20
11120.89978416692
 30
0.0
 11
8511.54276304604
 21
11110.89978416692
 31
0.0
  0
INSERT
  5
49E65
330
45729
100
AcDbEntity
  8
D-BGD-DIM
 62
     0
440
 16777216
370
    13
100
AcDbBlockReference
  2
_OPEN
 10
8511.54276304604
 20
11120.89978416692
 30
0.0
 41
40.0
 42
40.0
 43
40.0
 50
270.0
  0
INSERT
  5
49E66
330
45729
100
AcDbEntity
  8
D-BGD-DIM
 62
     0
440
 16777216
370
    13
100
AcDbBlockReference
  2
_OPEN
 10
8511.54276304604
 20
11110.89978416692
 30
0.0
 41
40.0
 42
40.0
 43
40.0
 50
90.0
  0
MTEXT
  5
49E67
330
45729
100
AcDbEntity
  8
D-BGD-DIM
 62
     0
440
 16777216
100
AcDbMText
 10
8464.042763046037
 20
11115.89978416692
 30
0.0
 40
70.0
 41
0.0
 46
0.0
 71
     5
 72
     1
  1
10
 11
0.0000000000000001
 21
1.0
 31
0.0
 73
     1
 44
1.0
  0
POINT
  5
49E68
330
45729
100
AcDbEntity
  8
DEFPOINTS
 62
     0
440
 16777216
100
AcDbPoint
 10
8011.54276304604
 20
11120.89978416692
 30
0.0
  0
POINT
  5
49E69
330
45729
100
AcDbEntity
  8
DEFPOINTS
 62
     0
440
 16777216
100
AcDbPoint
 10
8011.54276304604
 20
11110.89978416692
 30
0.0
  0
POINT
  5
49E6A
330
45729
100
AcDbEntity
  8
DEFPOINTS
 62
     0
440
 16777216
100
AcDbPoint
 10
8511.54276304604
 20
11110.89978416692
 30
0.0
  0
ENDBLK
  5
45736
330
45729
100
AcDbEntity
  8
0
100
AcDbBlockEnd
  0
BLOCK
  5
45742
330
45738
100
AcDbEntity
  8
0
100
AcDbBlockBegin
  2
*D14
 70
     1
 10
0.0
 20
0.0
 30
0.0
  3
*D14
  1

  0
LINE
  5
49E1F
330
45738
100
AcDbEntity
  8
D-BGD-DIM
 62
     0
440
 16777216
370
    13
100
AcDbLine
 10
8024.04276304604
 20
11110.89978416692
 30
0.0
 11
8536.542763046041
 21
11110.89978416692
 31
0.0
  0
LINE
  5
49E20
330
45738
100
AcDbEntity
  8
D-BGD-DIM
 62
     0
440
 16777216
370
    13
100
AcDbLine
 10
8024.04276304604
 20
9133.899784166922
 30
0.0
 11
8536.542763046041
 21
9133.899784166922
 31
0.0
  0
LINE
  5
49E21
330
45738
100
AcDbEntity
  8
D-BGD-DIM
 62
     0
440
 16777216
370
    13
100
AcDbLine
 10
8511.54276304604
 20
11070.89978416692
 30
0.0
 11
8511.54276304604
 21
9173.899784166923
 31
0.0
  0
INSERT
  5
49E22
330
45738
100
AcDbEntity
  8
D-BGD-DIM
 62
     0
440
 16777216
370
    13
100
AcDbBlockReference
  2
_OPEN
 10
8511.54276304604
 20
11110.89978416692
 30
0.0
 41
40.0
 42
40.0
 43
40.0
 50
90.0
  0
INSERT
  5
49E23
330
45738
100
AcDbEntity
  8
D-BGD-DIM
 62
     0
440
 16777216
370
    13
100
AcDbBlockReference
  2
_OPEN
 10
8511.54276304604
 20
9133.899784166922
 30
0.0
 41
40.0
 42
40.0
 43
40.0
 50
270.0
  0
MTEXT
  5
49E24
330
45738
100
AcDbEntity
  8
D-BGD-DIM
 62
     0
440
 16777216
100
AcDbMText
 10
8464.042763046037
 20
10122.39978416692
 30
0.0
 40
70.0
 41
0.0
 46
0.0
 71
     5
 72
     1
  1
1977
 11
0.0000000000000001
 21
1.0
 31
0.0
 73
     1
 44
1.0
  0
POINT
  5
49E25
330
45738
100
AcDbEntity
  8
DEFPOINTS
 62
     0
440
 16777216
100
AcDbPoint
 10
8011.54276304604
 20
11110.89978416692
 30
0.0
  0
POINT
  5
49E26
330
45738
100
AcDbEntity
  8
DEFPOINTS
 62
     0
440
 16777216
100
AcDbPoint
 10
8011.54276304604
 20
9133.899784166922
 30
0.0
  0
POINT
  5
49E27
330
45738
100
AcDbEntity
  8
DEFPOINTS
 62
     0
440
 16777216
100
AcDbPoint
 10
8511.54276304604
 20
9133.899784166922
 30
0.0
  0
ENDBLK
  5
45743
330
45738
100
AcDbEntity
  8
0
100
AcDbBlockEnd
  0
BLOCK
  5
45751
330
45745
100
AcDbEntity
  8
0
100
AcDbBlockBegin
  2
*D15
 70
     1
 10
0.0
 20
0.0
 30
0.0
  3
*D15
  1

  0
LINE
  5
49E3A
330
45745
100
AcDbEntity
  8
D-BGD-DIM
 62
     0
440
 16777216
370
    13
100
AcDbLine
 10
8024.04276304604
 20
9133.899784166922
 30
0.0
 11
8536.542763046041
 21
9133.899784166922
 31
0.0
  0
LINE
  5
49E3B
330
45745
100
AcDbEntity
  8
D-BGD-DIM
 62
     0
440
 16777216
370
    13
100
AcDbLine
 10
8024.04276304604
 20
9123.899784166923
 30
0.0
 11
8536.542763046041
 21
9123.899784166923
 31
0.0
  0
LINE
  5
49E3C
330
45745
100
AcDbEntity
  8
D-BGD-DIM
 62
     0
440
 16777216
370
    13
100
AcDbLine
 10
8511.54276304604
 20
9173.899784166923
 30
0.0
 11
8511.54276304604
 21
9213.899784166923
 31
0.0
  0
LINE
  5
49E3D
330
45745
100
AcDbEntity
  8
D-BGD-DIM
 62
     0
440
 16777216
370
    13
100
AcDbLine
 10
8511.54276304604
 20
9083.899784166922
 30
0.0
 11
8511.54276304604
 21
9043.899784166923
 31
0.0
  0
LINE
  5
49E3E
330
45745
100
AcDbEntity
  8
D-BGD-DIM
 62
     0
440
 16777216
370
    13
100
AcDbLine
 10
8511.54276304604
 20
9133.899784166922
 30
0.0
 11
8511.54276304604
 21
9123.899784166923
 31
0.0
  0
INSERT
  5
49E3F
330
45745
100
AcDbEntity
  8
D-BGD-DIM
 62
     0
440
 16777216
370
    13
100
AcDbBlockReference
  2
_OPEN
 10
8511.54276304604
 20
9133.899784166922
 30
0.0
 41
40.0
 42
40.0
 43
40.0
 50
270.0
  0
INSERT
  5
49E40
330
45745
100
AcDbEntity
  8
D-BGD-DIM
 62
     0
440
 16777216
370
    13
100
AcDbBlockReference
  2
_OPEN
 10
8511.54276304604
 20
9123.899784166923
 30
0.0
 41
40.0
 42
40.0
 43
40.0
 50
90.0
  0
MTEXT
  5
49E41
330
45745
100
AcDbEntity
  8
D-BGD-DIM
 62
     0
440
 16777216
100
AcDbMText
 10
8464.042763046037
 20
9128.899784166923
 30
0.0
 40
70.0
 41
0.0
 46
0.0
 71
     5
 72
     1
  1
10
 11
0.0000000000000001
 21
1.0
 31
0.0
 73
     1
 44
1.0
  0
POINT
  5
49E42
330
45745
100
AcDbEntity
  8
DEFPOINTS
 62
     0
440
 16777216
100
AcDbPoint
 10
8011.54276304604
 20
9133.899784166922
 30
0.0
  0
POINT
  5
49E43
330
45745
100
AcDbEntity
  8
DEFPOINTS
 62
     0
440
 16777216
100
AcDbPoint
 10
8011.54276304604
 20
9123.899784166923
 30
0.0
  0
POINT
  5
49E44
330
45745
100
AcDbEntity
  8
DEFPOINTS
 62
     0
440
 16777216
100
AcDbPoint
 10
8511.54276304604
 20
9123.899784166923
 30
0.0
  0
ENDBLK
  5
45752
330
45745
100
AcDbEntity
  8
0
100
AcDbBlockEnd
  0
BLOCK
  5
45793
330
45789
100
AcDbEntity
  8
0
100
AcDbBlockBegin
  2
*D16
 70
     1
 10
0.0
 20
0.0
 30
0.0
  3
*D16
  1

  0
LINE
  5
49E16
330
45789
100
AcDbEntity
  8
D-BGD-DIM
 62
     0
440
 16777216
370
    13
100
AcDbLine
 10
6249.04276304604
 20
11120.89978416692
 30
0.0
 11
5336.542763046041
 21
11120.89978416692
 31
0.0
  0
LINE
  5
49E17
330
45789
100
AcDbEntity
  8
D-BGD-DIM
 62
     0
440
 16777216
370
    13
100
AcDbLine
 10
6249.04276304604
 20
9123.899784166923
 30
0.0
 11
5336.54276304604
 21
9123.899784166923
 31
0.0
  0
LINE
  5
49E18
330
45789
100
AcDbEntity
  8
D-BGD-DIM
 62
     0
440
 16777216
370
    13
100
AcDbLine
 10
5361.542763046041
 20
11080.89978416692
 30
0.0
 11
5361.54276304604
 21
9163.899784166922
 31
0.0
  0
INSERT
  5
49E19
330
45789
100
AcDbEntity
  8
D-BGD-DIM
 62
     0
440
 16777216
370
    13
100
AcDbBlockReference
  2
_OPEN
 10
5361.542763046041
 20
11120.89978416692
 30
0.0
 41
40.0
 42
40.0
 43
40.0
 50
90.0
  0
INSERT
  5
49E1A
330
45789
100
AcDbEntity
  8
D-BGD-DIM
 62
     0
440
 16777216
370
    13
100
AcDbBlockReference
  2
_OPEN
 10
5361.54276304604
 20
9123.899784166923
 30
0.0
 41
40.0
 42
40.0
 43
40.0
 50
270.0
  0
MTEXT
  5
49E1B
330
45789
100
AcDbEntity
  8
D-BGD-DIM
 62
     0
440
 16777216
100
AcDbMText
 10
5314.042763046039
 20
10122.39978416692
 30
0.0
 40
70.0
 41
0.0
 46
0.0
 71
     5
 72
     1
  1
1997
 11
0.0000000000000001
 21
1.0
 31
0.0
 73
     1
 44
1.0
  0
POINT
  5
49E1C
330
45789
100
AcDbEntity
  8
DEFPOINTS
 62
     0
440
 16777216
100
AcDbPoint
 10
6261.54276304604
 20
11120.89978416692
 30
0.0
  0
POINT
  5
49E1D
330
45789
100
AcDbEntity
  8
DEFPOINTS
 62
     0
440
 16777216
100
AcDbPoint
 10
6261.54276304604
 20
9123.899784166923
 30
0.0
  0
POINT
  5
49E1E
330
45789
100
AcDbEntity
  8
DEFPOINTS
 62
     0
440
 16777216
100
AcDbPoint
 10
5361.54276304604
 20
9123.899784166923
 30
0.0
  0
ENDBLK
  5
45794
330
45789
100
AcDbEntity
  8
0
100
AcDbBlockEnd
  0
BLOCK
  5
4583F
330
45835
100
AcDbEntity
  8
0
100
AcDbBlockBegin
  2
*D17
 70
     1
 10
0.0
 20
0.0
 30
0.0
  3
*D17
  1

  0
LINE
  5
49E31
330
45835
100
AcDbEntity
  8
D-BGD-DIM
 62
     0
440
 16777216
370
    13
100
AcDbLine
 10
6261.54276304604
 20
9111.399784166923
 30
0.0
 11
6261.54276304604
 21
8598.899784166922
 31
0.0
  0
LINE
  5
49E32
330
45835
100
AcDbEntity
  8
D-BGD-DIM
 62
     0
440
 16777216
370
    13
100
AcDbLine
 10
6696.542763046039
 20
9111.399784166918
 30
0.0
 11
6696.542763046039
 21
8598.899784166922
 31
0.0
  0
LINE
  5
49E33
330
45835
100
AcDbEntity
  8
D-BGD-DIM
 62
     0
440
 16777216
370
    13
100
AcDbLine
 10
6301.54276304604
 20
8623.899784166923
 30
0.0
 11
6656.54276304604
 21
8623.899784166923
 31
0.0
  0
INSERT
  5
49E34
330
45835
100
AcDbEntity
  8
D-BGD-DIM
 62
     0
440
 16777216
370
    13
100
AcDbBlockReference
  2
_OPEN
 10
6261.54276304604
 20
8623.899784166923
 30
0.0
 41
40.0
 42
40.0
 43
40.0
 50
180.0
  0
INSERT
  5
49E35
330
45835
100
AcDbEntity
  8
D-BGD-DIM
 62
     0
440
 16777216
370
    13
100
AcDbBlockReference
  2
_OPEN
 10
6696.542763046039
 20
8623.899784166923
 30
0.0
 41
40.0
 42
40.0
 43
40.0
  0
MTEXT
  5
49E36
330
45835
100
AcDbEntity
  8
D-BGD-DIM
 62
     0
440
 16777216
100
AcDbMText
 10
6479.04276304604
 20
8671.399784166922
 30
0.0
 40
70.0
 41
0.0
 46
0.0
 71
     5
 72
     1
  1
435
 73
     1
 44
1.0
  0
POINT
  5
49E37
330
45835
100
AcDbEntity
  8
DEFPOINTS
 62
     0
440
 16777216
100
AcDbPoint
 10
6261.54276304604
 20
9123.899784166923
 30
0.0
  0
POINT
  5
49E38
330
45835
100
AcDbEntity
  8
DEFPOINTS
 62
     0
440
 16777216
100
AcDbPoint
 10
6696.542763046039
 20
9123.899784166919
 30
0.0
  0
POINT
  5
49E39
330
45835
100
AcDbEntity
  8
DEFPOINTS
 62
     0
440
 16777216
100
AcDbPoint
 10
6696.542763046039
 20
8623.899784166923
 30
0.0
  0
ENDBLK
  5
45840
330
45835
100
AcDbEntity
  8
0
100
AcDbBlockEnd
  0
BLOCK
  5
4584C
330
45842
100
AcDbEntity
  8
0
100
AcDbBlockBegin
  2
*D18
 70
     1
 10
0.0
 20
0.0
 30
0.0
  3
*D18
  1

  0
LINE
  5
49E28
330
45842
100
AcDbEntity
  8
D-BGD-DIM
 62
     0
440
 16777216
370
    13
100
AcDbLine
 10
6696.542763046039
 20
9111.399784166918
 30
0.0
 11
6696.542763046039
 21
8598.899784166922
 31
0.0
  0
LINE
  5
49E29
330
45842
100
AcDbEntity
  8
D-BGD-DIM
 62
     0
440
 16777216
370
    13
100
AcDbLine
 10
8011.54276304604
 20
9111.399784166923
 30
0.0
 11
8011.54276304604
 21
8598.899784166922
 31
0.0
  0
LINE
  5
49E2A
330
45842
100
AcDbEntity
  8
D-BGD-DIM
 62
     0
440
 16777216
370
    13
100
AcDbLine
 10
6736.54276304604
 20
8623.899784166923
 30
0.0
 11
7971.54276304604
 21
8623.899784166923
 31
0.0
  0
INSERT
  5
49E2B
330
45842
100
AcDbEntity
  8
D-BGD-DIM
 62
     0
440
 16777216
370
    13
100
AcDbBlockReference
  2
_OPEN
 10
6696.542763046039
 20
8623.899784166923
 30
0.0
 41
40.0
 42
40.0
 43
40.0
 50
180.0
  0
INSERT
  5
49E2C
330
45842
100
AcDbEntity
  8
D-BGD-DIM
 62
     0
440
 16777216
370
    13
100
AcDbBlockReference
  2
_OPEN
 10
8011.54276304604
 20
8623.899784166923
 30
0.0
 41
40.0
 42
40.0
 43
40.0
  0
MTEXT
  5
49E2D
330
45842
100
AcDbEntity
  8
D-BGD-DIM
 62
     0
440
 16777216
100
AcDbMText
 10
7354.04276304604
 20
8671.399784166922
 30
0.0
 40
70.0
 41
0.0
 46
0.0
 71
     5
 72
     1
  1
1315
 73
     1
 44
1.0
  0
POINT
  5
49E2E
330
45842
100
AcDbEntity
  8
DEFPOINTS
 62
     0
440
 16777216
100
AcDbPoint
 10
6696.542763046039
 20
9123.899784166919
 30
0.0
  0
POINT
  5
49E2F
330
45842
100
AcDbEntity
  8
DEFPOINTS
 62
     0
440
 16777216
100
AcDbPoint
 10
8011.54276304604
 20
9123.899784166923
 30
0.0
  0
POINT
  5
49E30
330
45842
100
AcDbEntity
  8
DEFPOINTS
 62
     0
440
 16777216
100
AcDbPoint
 10
8011.54276304604
 20
8623.899784166923
 30
0.0
  0
ENDBLK
  5
4584D
330
45842
100
AcDbEntity
  8
0
100
AcDbBlockEnd
  0
BLOCK
  5
458D0
330
458C6
100
AcDbEntity
  8
0
100
AcDbBlockBegin
  2
*D19
 70
     1
 10
0.0
 20
0.0
 30
0.0
  3
*D19
  1

  0
LINE
  5
49F98
330
458C6
100
AcDbEntity
  8
D-BGD-DIM
 62
     0
440
 16777216
370
    13
100
AcDbLine
 10
8999.042763046039
 20
15120.89978416692
 30
0.0
 11
8586.54276304604
 21
15120.89978416692
 31
0.0
  0
LINE
  5
49F99
330
458C6
100
AcDbEntity
  8
D-BGD-DIM
 62
     0
440
 16777216
370
    13
100
AcDbLine
 10
8999.042763046039
 20
12620.89978416692
 30
0.0
 11
8586.54276304604
 21
12620.89978416692
 31
0.0
  0
LINE
  5
49F9A
330
458C6
100
AcDbEntity
  8
D-BGD-DIM
 62
     0
440
 16777216
370
    13
100
AcDbLine
 10
8611.54276304604
 20
15080.89978416692
 30
0.0
 11
8611.54276304604
 21
12660.89978416692
 31
0.0
  0
INSERT
  5
49F9B
330
458C6
100
AcDbEntity
  8
D-BGD-DIM
 62
     0
440
 16777216
370
    13
100
AcDbBlockReference
  2
_OPEN
 10
8611.54276304604
 20
15120.89978416692
 30
0.0
 41
40.0
 42
40.0
 43
40.0
 50
90.0
  0
INSERT
  5
49F9C
330
458C6
100
AcDbEntity
  8
D-BGD-DIM
 62
     0
440
 16777216
370
    13
100
AcDbBlockReference
  2
_OPEN
 10
8611.54276304604
 20
12620.89978416692
 30
0.0
 41
40.0
 42
40.0
 43
40.0
 50
270.0
  0
MTEXT
  5
49F9D
330
458C6
100
AcDbEntity
  8
D-BGD-DIM
 62
     0
440
 16777216
100
AcDbMText
 10
8564.042763046037
 20
13870.89978416692
 30
0.0
 40
70.0
 41
0.0
 46
0.0
 71
     5
 72
     1
  1
2500
 11
0.0000000000000001
 21
1.0
 31
0.0
 73
     1
 44
1.0
  0
POINT
  5
49F9E
330
458C6
100
AcDbEntity
  8
DEFPOINTS
 62
     0
440
 16777216
100
AcDbPoint
 10
9011.54276304604
 20
15120.89978416692
 30
0.0
  0
POINT
  5
49F9F
330
458C6
100
AcDbEntity
  8
DEFPOINTS
 62
     0
440
 16777216
100
AcDbPoint
 10
9011.54276304604
 20
12620.89978416692
 30
0.0
  0
POINT
  5
49FA0
330
458C6
100
AcDbEntity
  8
DEFPOINTS
 62
     0
440
 16777216
100
AcDbPoint
 10
8611.54276304604
 20
12620.89978416692
 30
0.0
  0
ENDBLK
  5
458D1
330
458C6
100
AcDbEntity
  8
0
100
AcDbBlockEnd
  0
BLOCK
  5
458DD
330
458D3
100
AcDbEntity
  8
0
100
AcDbBlockBegin
  2
*D20
 70
     1
 10
0.0
 20
0.0
 30
0.0
  3
*D20
  1

  0
LINE
  5
49F8F
330
458D3
100
AcDbEntity
  8
D-BGD-DIM
 62
     0
440
 16777216
370
    13
100
AcDbLine
 10
9011.54276304604
 20
15133.39978416692
 30
0.0
 11
9011.54276304604
 21
15745.89978416692
 31
0.0
  0
LINE
  5
49F90
330
458D3
100
AcDbEntity
  8
D-BGD-DIM
 62
     0
440
 16777216
370
    13
100
AcDbLine
 10
11008.54276304604
 20
15133.39978416692
 30
0.0
 11
11008.54276304604
 21
15745.89978416692
 31
0.0
  0
LINE
  5
49F91
330
458D3
100
AcDbEntity
  8
D-BGD-DIM
 62
     0
440
 16777216
370
    13
100
AcDbLine
 10
9051.54276304604
 20
15720.89978416692
 30
0.0
 11
10968.54276304604
 21
15720.89978416692
 31
0.0
  0
INSERT
  5
49F92
330
458D3
100
AcDbEntity
  8
D-BGD-DIM
 62
     0
440
 16777216
370
    13
100
AcDbBlockReference
  2
_OPEN
 10
9011.54276304604
 20
15720.89978416692
 30
0.0
 41
40.0
 42
40.0
 43
40.0
 50
180.0
  0
INSERT
  5
49F93
330
458D3
100
AcDbEntity
  8
D-BGD-DIM
 62
     0
440
 16777216
370
    13
100
AcDbBlockReference
  2
_OPEN
 10
11008.54276304604
 20
15720.89978416692
 30
0.0
 41
40.0
 42
40.0
 43
40.0
  0
MTEXT
  5
49F94
330
458D3
100
AcDbEntity
  8
D-BGD-DIM
 62
     0
440
 16777216
100
AcDbMText
 10
10010.04276304604
 20
15768.39978416692
 30
0.0
 40
70.0
 41
0.0
 46
0.0
 71
     5
 72
     1
  1
1997
 73
     1
 44
1.0
  0
POINT
  5
49F95
330
458D3
100
AcDbEntity
  8
DEFPOINTS
 62
     0
440
 16777216
100
AcDbPoint
 10
9011.54276304604
 20
15120.89978416692
 30
0.0
  0
POINT
  5
49F96
330
458D3
100
AcDbEntity
  8
DEFPOINTS
 62
     0
440
 16777216
100
AcDbPoint
 10
11008.54276304604
 20
15120.89978416692
 30
0.0
  0
POINT
  5
49F97
330
458D3
100
AcDbEntity
  8
DEFPOINTS
 62
     0
440
 16777216
100
AcDbPoint
 10
11008.54276304604
 20
15720.89978416692
 30
0.0
  0
ENDBLK
  5
458DE
330
458D3
100
AcDbEntity
  8
0
100
AcDbBlockEnd
  0
BLOCK
  5
45920
330
45916
100
AcDbEntity
  8
0
100
AcDbBlockBegin
  2
*D21
 70
     1
 10
0.0
 20
0.0
 30
0.0
  3
*D21
  1

  0
LINE
  5
4A12E
330
45916
100
AcDbEntity
  8
D-BGD-DIM
 62
     0
440
 16777216
370
    13
100
AcDbLine
 10
10010.04276304604
 20
15333.39978416692
 30
0.0
 11
10010.04276304604
 21
15445.89978416692
 31
0.0
  0
LINE
  5
4A12F
330
45916
100
AcDbEntity
  8
D-BGD-DIM
 62
     0
440
 16777216
370
    13
100
AcDbLine
 10
10760.04276304604
 20
15133.39978416692
 30
0.0
 11
10760.04276304604
 21
15445.89978416692
 31
0.0
  0
LINE
  5
4A130
330
45916
100
AcDbEntity
  8
D-BGD-DIM
 62
     0
440
 16777216
370
    13
100
AcDbLine
 10
10050.04276304604
 20
15420.89978416692
 30
0.0
 11
10720.04276304604
 21
15420.89978416692
 31
0.0
  0
INSERT
  5
4A131
330
45916
100
AcDbEntity
  8
D-BGD-DIM
 62
     0
440
 16777216
370
    13
100
AcDbBlockReference
  2
_OPEN
 10
10010.04276304604
 20
15420.89978416692
 30
0.0
 41
40.0
 42
40.0
 43
40.0
 50
180.0
  0
INSERT
  5
4A132
330
45916
100
AcDbEntity
  8
D-BGD-DIM
 62
     0
440
 16777216
370
    13
100
AcDbBlockReference
  2
_OPEN
 10
10760.04276304604
 20
15420.89978416692
 30
0.0
 41
40.0
 42
40.0
 43
40.0
  0
MTEXT
  5
4A133
330
45916
100
AcDbEntity
  8
D-BGD-DIM
 62
     0
440
 16777216
100
AcDbMText
 10
10385.04276304604
 20
15472.79978416692
 30
0.0
 40
70.0
 41
0.0
 46
0.0
 71
     5
 72
     1
  1
3@250=750
 73
     1
 44
1.0
  0
POINT
  5
4A134
330
45916
100
AcDbEntity
  8
DEFPOINTS
 62
     0
440
 16777216
100
AcDbPoint
 10
10010.04276304604
 20
15320.89978416692
 30
0.0
  0
POINT
  5
4A135
330
45916
100
AcDbEntity
  8
DEFPOINTS
 62
     0
440
 16777216
100
AcDbPoint
 10
10760.04276304604
 20
15120.89978416692
 30
0.0
  0
POINT
  5
4A136
330
45916
100
AcDbEntity
  8
DEFPOINTS
 62
     0
440
 16777216
100
AcDbPoint
 10
10760.04276304604
 20
15420.89978416692
 30
0.0
  0
ENDBLK
  5
45921
330
45916
100
AcDbEntity
  8
0
100
AcDbBlockEnd
  0
BLOCK
  5
4592D
330
45923
100
AcDbEntity
  8
0
100
AcDbBlockBegin
  2
*D22
 70
     1
 10
0.0
 20
0.0
 30
0.0
  3
*D22
  1

  0
LINE
  5
49FF3
330
45923
100
AcDbEntity
  8
D-BGD-DIM
 62
     0
440
 16777216
370
    13
100
AcDbLine
 10
10760.04276304604
 20
15133.39978416692
 30
0.0
 11
10760.04276304604
 21
15445.89978416692
 31
0.0
  0
LINE
  5
49FF4
330
45923
100
AcDbEntity
  8
D-BGD-DIM
 62
     0
440
 16777216
370
    13
100
AcDbLine
 10
11008.54276304604
 20
15133.39978416692
 30
0.0
 11
11008.54276304604
 21
15445.89978416692
 31
0.0
  0
LINE
  5
49FF5
330
45923
100
AcDbEntity
  8
D-BGD-DIM
 62
     0
440
 16777216
370
    13
100
AcDbLine
 10
10720.04276304604
 20
15420.89978416692
 30
0.0
 11
10680.04276304604
 21
15420.89978416692
 31
0.0
  0
LINE
  5
49FF6
330
45923
100
AcDbEntity
  8
D-BGD-DIM
 62
     0
440
 16777216
370
    13
100
AcDbLine
 10
11048.54276304604
 20
15420.89978416692
 30
0.0
 11
11088.54276304604
 21
15420.89978416692
 31
0.0
  0
LINE
  5
49FF7
330
45923
100
AcDbEntity
  8
D-BGD-DIM
 62
     0
440
 16777216
370
    13
100
AcDbLine
 10
10760.04276304604
 20
15420.89978416692
 30
0.0
 11
11008.54276304604
 21
15420.89978416692
 31
0.0
  0
INSERT
  5
49FF8
330
45923
100
AcDbEntity
  8
D-BGD-DIM
 62
     0
440
 16777216
370
    13
100
AcDbBlockReference
  2
_OPEN
 10
10760.04276304604
 20
15420.89978416692
 30
0.0
 41
40.0
 42
40.0
 43
40.0
  0
INSERT
  5
49FF9
330
45923
100
AcDbEntity
  8
D-BGD-DIM
 62
     0
440
 16777216
370
    13
100
AcDbBlockReference
  2
_OPEN
 10
11008.54276304604
 20
15420.89978416692
 30
0.0
 41
40.0
 42
40.0
 43
40.0
 50
180.0
  0
MTEXT
  5
49FFA
330
45923
100
AcDbEntity
  8
D-BGD-DIM
 62
     0
440
 16777216
100
AcDbMText
 10
10884.29276304604
 20
15468.39978416692
 30
0.0
 40
70.0
 41
0.0
 46
0.0
 71
     5
 72
     1
  1
248.5
 73
     1
 44
1.0
  0
POINT
  5
49FFB
330
45923
100
AcDbEntity
  8
DEFPOINTS
 62
     0
440
 16777216
100
AcDbPoint
 10
10760.04276304604
 20
15120.89978416692
 30
0.0
  0
POINT
  5
49FFC
330
45923
100
AcDbEntity
  8
DEFPOINTS
 62
     0
440
 16777216
100
AcDbPoint
 10
11008.54276304604
 20
15120.89978416692
 30
0.0
  0
POINT
  5
49FFD
330
45923
100
AcDbEntity
  8
DEFPOINTS
 62
     0
440
 16777216
100
AcDbPoint
 10
11008.54276304604
 20
15420.89978416692
 30
0.0
  0
ENDBLK
  5
4592E
330
45923
100
AcDbEntity
  8
0
100
AcDbBlockEnd
  0
BLOCK
  5
4594E
330
45944
100
AcDbEntity
  8
0
100
AcDbBlockBegin
  2
*D23
 70
     1
 10
0.0
 20
0.0
 30
0.0
  3
*D23
  1

  0
LINE
  5
49FD9
330
45944
100
AcDbEntity
  8
D-BGD-DIM
 62
     0
440
 16777216
370
    13
100
AcDbLine
 10
11021.04276304604
 20
15120.89978416692
 30
0.0
 11
11333.54276304604
 21
15120.89978416692
 31
0.0
  0
LINE
  5
49FDA
330
45944
100
AcDbEntity
  8
D-BGD-DIM
 62
     0
440
 16777216
370
    13
100
AcDbLine
 10
11021.04276304604
 20
13420.89978416692
 30
0.0
 11
11333.54276304604
 21
13420.89978416692
 31
0.0
  0
LINE
  5
49FDB
330
45944
100
AcDbEntity
  8
D-BGD-DIM
 62
     0
440
 16777216
370
    13
100
AcDbLine
 10
11308.54276304604
 20
15080.89978416692
 30
0.0
 11
11308.54276304604
 21
13460.89978416692
 31
0.0
  0
INSERT
  5
49FDC
330
45944
100
AcDbEntity
  8
D-BGD-DIM
 62
     0
440
 16777216
370
    13
100
AcDbBlockReference
  2
_OPEN
 10
11308.54276304604
 20
15120.89978416692
 30
0.0
 41
40.0
 42
40.0
 43
40.0
 50
90.0
  0
INSERT
  5
49FDD
330
45944
100
AcDbEntity
  8
D-BGD-DIM
 62
     0
440
 16777216
370
    13
100
AcDbBlockReference
  2
_OPEN
 10
11308.54276304604
 20
13420.89978416692
 30
0.0
 41
40.0
 42
40.0
 43
40.0
 50
270.0
  0
MTEXT
  5
49FDE
330
45944
100
AcDbEntity
  8
D-BGD-DIM
 62
     0
440
 16777216
100
AcDbMText
 10
11261.04276304603
 20
14270.89978416692
 30
0.0
 40
70.0
 41
0.0
 46
0.0
 71
     5
 72
     1
  1
1700
 11
0.0000000000000001
 21
1.0
 31
0.0
 73
     1
 44
1.0
  0
POINT
  5
49FDF
330
45944
100
AcDbEntity
  8
DEFPOINTS
 62
     0
440
 16777216
100
AcDbPoint
 10
11008.54276304604
 20
15120.89978416692
 30
0.0
  0
POINT
  5
49FE0
330
45944
100
AcDbEntity
  8
DEFPOINTS
 62
     0
440
 16777216
100
AcDbPoint
 10
11008.54276304604
 20
13420.89978416692
 30
0.0
  0
POINT
  5
49FE1
330
45944
100
AcDbEntity
  8
DEFPOINTS
 62
     0
440
 16777216
100
AcDbPoint
 10
11308.54276304604
 20
13420.89978416692
 30
0.0
  0
ENDBLK
  5
4594F
330
45944
100
AcDbEntity
  8
0
100
AcDbBlockEnd
  0
BLOCK
  5
4595B
330
45951
100
AcDbEntity
  8
0
100
AcDbBlockBegin
  2
*D24
 70
     1
 10
0.0
 20
0.0
 30
0.0
  3
*D24
  1

  0
LINE
  5
49FA1
330
45951
100
AcDbEntity
  8
D-BGD-DIM
 62
     0
440
 16777216
370
    13
100
AcDbLine
 10
11021.04276304604
 20
13420.89978416692
 30
0.0
 11
11333.54276304604
 21
13420.89978416692
 31
0.0
  0
LINE
  5
49FA2
330
45951
100
AcDbEntity
  8
D-BGD-DIM
 62
     0
440
 16777216
370
    13
100
AcDbLine
 10
11021.04276304604
 20
12620.89978416692
 30
0.0
 11
11333.54276304604
 21
12620.89978416692
 31
0.0
  0
LINE
  5
49FA3
330
45951
100
AcDbEntity
  8
D-BGD-DIM
 62
     0
440
 16777216
370
    13
100
AcDbLine
 10
11308.54276304604
 20
13380.89978416692
 30
0.0
 11
11308.54276304604
 21
12660.89978416692
 31
0.0
  0
INSERT
  5
49FA4
330
45951
100
AcDbEntity
  8
D-BGD-DIM
 62
     0
440
 16777216
370
    13
100
AcDbBlockReference
  2
_OPEN
 10
11308.54276304604
 20
13420.89978416692
 30
0.0
 41
40.0
 42
40.0
 43
40.0
 50
90.0
  0
INSERT
  5
49FA5
330
45951
100
AcDbEntity
  8
D-BGD-DIM
 62
     0
440
 16777216
370
    13
100
AcDbBlockReference
  2
_OPEN
 10
11308.54276304604
 20
12620.89978416692
 30
0.0
 41
40.0
 42
40.0
 43
40.0
 50
270.0
  0
MTEXT
  5
49FA6
330
45951
100
AcDbEntity
  8
D-BGD-DIM
 62
     0
440
 16777216
100
AcDbMText
 10
11261.04276304603
 20
13020.89978416692
 30
0.0
 40
70.0
 41
0.0
 46
0.0
 71
     5
 72
     1
  1
800
 11
0.0000000000000001
 21
1.0
 31
0.0
 73
     1
 44
1.0
  0
POINT
  5
49FA7
330
45951
100
AcDbEntity
  8
DEFPOINTS
 62
     0
440
 16777216
100
AcDbPoint
 10
11008.54276304604
 20
13420.89978416692
 30
0.0
  0
POINT
  5
49FA8
330
45951
100
AcDbEntity
  8
DEFPOINTS
 62
     0
440
 16777216
100
AcDbPoint
 10
11008.54276304604
 20
12620.89978416692
 30
0.0
  0
POINT
  5
49FA9
330
45951
100
AcDbEntity
  8
DEFPOINTS
 62
     0
440
 16777216
100
AcDbPoint
 10
11308.54276304604
 20
12620.89978416692
 30
0.0
  0
ENDBLK
  5
4595C
330
45951
100
AcDbEntity
  8
0
100
AcDbBlockEnd
  0
BLOCK
  5
45ACE
330
45AC2
100
AcDbEntity
  8
0
100
AcDbBlockBegin
  2
*D25
 70
     1
 10
0.0
 20
0.0
 30
0.0
  3
*D25
  1

  0
LINE
  5
4963D
330
45AC2
100
AcDbEntity
  8
D-STR-DIM
 62
     0
440
 16777216
370
    13
100
AcDbLine
 10
12970.55988147332
 20
15133.39978416692
 30
0.0
 11
12970.55988147332
 21
15445.89978416692
 31
0.0
  0
LINE
  5
4963E
330
45AC2
100
AcDbEntity
  8
D-STR-DIM
 62
     0
440
 16777216
370
    13
100
AcDbLine
 10
13080.55988147332
 20
15133.39978416692
 30
0.0
 11
13080.55988147332
 21
15445.89978416692
 31
0.0
  0
LINE
  5
4963F
330
45AC2
100
AcDbEntity
  8
D-STR-DIM
 62
     0
440
 16777216
370
    13
100
AcDbLine
 10
12930.55988147332
 20
15420.89978416692
 30
0.0
 11
12890.55988147332
 21
15420.89978416692
 31
0.0
  0
LINE
  5
49640
330
45AC2
100
AcDbEntity
  8
D-STR-DIM
 62
     0
440
 16777216
370
    13
100
AcDbLine
 10
13120.55988147332
 20
15420.89978416692
 30
0.0
 11
13160.55988147332
 21
15420.89978416692
 31
0.0
  0
LINE
  5
49641
330
45AC2
100
AcDbEntity
  8
D-STR-DIM
 62
     0
440
 16777216
370
    13
100
AcDbLine
 10
12970.55988147332
 20
15420.89978416692
 30
0.0
 11
13080.55988147332
 21
15420.89978416692
 31
0.0
  0
INSERT
  5
49642
330
45AC2
100
AcDbEntity
  8
D-STR-DIM
 62
     0
440
 16777216
370
    13
100
AcDbBlockReference
  2
_OPEN
 10
12970.55988147332
 20
15420.89978416692
 30
0.0
 41
40.0
 42
40.0
 43
40.0
  0
INSERT
  5
49643
330
45AC2
100
AcDbEntity
  8
D-STR-DIM
 62
     0
440
 16777216
370
    13
100
AcDbBlockReference
  2
_OPEN
 10
13080.55988147332
 20
15420.89978416692
 30
0.0
 41
40.0
 42
40.0
 43
40.0
 50
180.0
  0
MTEXT
  5
49644
330
45AC2
100
AcDbEntity
  8
D-STR-DIM
 62
     0
440
 16777216
100
AcDbMText
 10
13025.55988147332
 20
15468.39978416692
 30
0.0
 40
70.0
 41
0.0
 46
0.0
 71
     5
 72
     1
  1
110
 73
     1
 44
1.0
  0
POINT
  5
49645
330
45AC2
100
AcDbEntity
  8
DEFPOINTS
 62
     0
440
 16777216
100
AcDbPoint
 10
12970.55988147332
 20
15120.89978416692
 30
0.0
  0
POINT
  5
49646
330
45AC2
100
AcDbEntity
  8
DEFPOINTS
 62
     0
440
 16777216
100
AcDbPoint
 10
13080.55988147332
 20
15120.89978416692
 30
0.0
  0
POINT
  5
49647
330
45AC2
100
AcDbEntity
  8
DEFPOINTS
 62
     0
440
 16777216
100
AcDbPoint
 10
13080.55988147332
 20
15420.89978416692
 30
0.0
  0
ENDBLK
  5
45ACF
330
45AC2
100
AcDbEntity
  8
0
100
AcDbBlockEnd
  0
BLOCK
  5
45ADD
330
45AD1
100
AcDbEntity
  8
0
100
AcDbBlockBegin
  2
*D26
 70
     1
 10
0.0
 20
0.0
 30
0.0
  3
*D26
  1

  0
LINE
  5
4996B
330
45AD1
100
AcDbEntity
  8
D-STR-DIM
 62
     0
440
 16777216
370
    13
100
AcDbLine
 10
14733.05988147332
 20
12730.89978416692
 30
0.0
 11
15045.55988147332
 21
12730.89978416692
 31
0.0
  0
LINE
  5
4996C
330
45AD1
100
AcDbEntity
  8
D-STR-DIM
 62
     0
440
 16777216
370
    13
100
AcDbLine
 10
14733.05988147332
 20
12620.89978416692
 30
0.0
 11
15045.55988147332
 21
12620.89978416692
 31
0.0
  0
LINE
  5
4996D
330
45AD1
100
AcDbEntity
  8
D-STR-DIM
 62
     0
440
 16777216
370
    13
100
AcDbLine
 10
15020.55988147332
 20
12690.89978416692
 30
0.0
 11
15020.55988147332
 21
12660.89978416692
 31
0.0
  0
MTEXT
  5
4996E
330
45AD1
100
AcDbEntity
  8
D-STR-DIM
 62
     0
440
 16777216
100
AcDbMText
 10
14973.05988147332
 20
12645.89978416692
 30
0.0
 40
70.0
 41
0.0
 46
0.0
 71
     5
 72
     1
  1
110
 11
0.0000000000000001
 21
1.0
 31
0.0
 73
     1
 44
1.0
  0
INSERT
  5
4996F
330
45AD1
100
AcDbEntity
  8
D-STR-DIM
 62
     0
440
 16777216
370
    13
100
AcDbBlockReference
  2
_OPEN
 10
15020.55988147332
 20
12730.89978416692
 30
0.0
 41
40.0
 42
40.0
 43
40.0
 50
90.0
  0
INSERT
  5
49970
330
45AD1
100
AcDbEntity
  8
D-STR-DIM
 62
     0
440
 16777216
370
    13
100
AcDbBlockReference
  2
_OPEN
 10
15020.55988147332
 20
12620.89978416692
 30
0.0
 41
40.0
 42
40.0
 43
40.0
 50
270.0
  0
POINT
  5
49971
330
45AD1
100
AcDbEntity
  8
DEFPOINTS
 62
     0
440
 16777216
100
AcDbPoint
 10
14720.55988147332
 20
12730.89978416692
 30
0.0
  0
POINT
  5
49972
330
45AD1
100
AcDbEntity
  8
DEFPOINTS
 62
     0
440
 16777216
100
AcDbPoint
 10
14720.55988147332
 20
12620.89978416692
 30
0.0
  0
POINT
  5
49973
330
45AD1
100
AcDbEntity
  8
DEFPOINTS
 62
     0
440
 16777216
100
AcDbPoint
 10
15020.55988147332
 20
12620.89978416692
 30
0.0
  0
ENDBLK
  5
45ADE
330
45AD1
100
AcDbEntity
  8
0
100
AcDbBlockEnd
  0
BLOCK
  5
45AEA
330
45AE0
100
AcDbEntity
  8
0
100
AcDbBlockBegin
  2
*D27
 70
     1
 10
0.0
 20
0.0
 30
0.0
  3
*D27
  1

  0
LINE
  5
49648
330
45AE0
100
AcDbEntity
  8
D-STR-DIM1
 62
     0
440
 16777216
370
    13
100
AcDbLine
 10
12958.05988147332
 20
15120.89978416692
 30
0.0
 11
12645.55988147332
 21
15120.89978416692
 31
0.0
  0
LINE
  5
49649
330
45AE0
100
AcDbEntity
  8
D-STR-DIM1
 62
     0
440
 16777216
370
    13
100
AcDbLine
 10
12958.05988147332
 20
14620.87417246688
 30
0.0
 11
12645.55988147332
 21
14620.87417246688
 31
0.0
  0
LINE
  5
4964A
330
45AE0
100
AcDbEntity
  8
D-STR-DIM1
 62
     0
440
 16777216
370
    13
100
AcDbLine
 10
12670.55988147332
 20
15080.89978416692
 30
0.0
 11
12670.55988147332
 21
14660.87417246688
 31
0.0
  0
INSERT
  5
4964B
330
45AE0
100
AcDbEntity
  8
D-STR-DIM1
 62
     0
440
 16777216
370
    13
100
AcDbBlockReference
  2
_OPEN
 10
12670.55988147332
 20
15120.89978416692
 30
0.0
 41
40.0
 42
40.0
 43
40.0
 50
90.0
  0
INSERT
  5
4964C
330
45AE0
100
AcDbEntity
  8
D-STR-DIM1
 62
     0
440
 16777216
370
    13
100
AcDbBlockReference
  2
_OPEN
 10
12670.55988147332
 20
14620.87417246688
 30
0.0
 41
40.0
 42
40.0
 43
40.0
 50
270.0
  0
MTEXT
  5
4964D
330
45AE0
100
AcDbEntity
  8
D-STR-DIM1
 62
     0
440
 16777216
100
AcDbMText
 10
12623.05988147332
 20
14870.88697831691
 30
0.0
 40
70.0
 41
0.0
 46
0.0
 71
     5
 72
     1
  1
500
 11
0.0000000000000001
 21
1.0
 31
0.0
 73
     1
 44
1.0
  0
POINT
  5
4964E
330
45AE0
100
AcDbEntity
  8
DEFPOINTS
 62
     0
440
 16777216
100
AcDbPoint
 10
12970.55988147332
 20
15120.89978416692
 30
0.0
  0
POINT
  5
4964F
330
45AE0
100
AcDbEntity
  8
DEFPOINTS
 62
     0
440
 16777216
100
AcDbPoint
 10
12970.55988147332
 20
14620.87417246688
 30
0.0
  0
POINT
  5
49650
330
45AE0
100
AcDbEntity
  8
DEFPOINTS
 62
     0
440
 16777216
100
AcDbPoint
 10
12670.55988147332
 20
14620.87417246688
 30
0.0
  0
ENDBLK
  5
45AEB
330
45AE0
100
AcDbEntity
  8
0
100
AcDbBlockEnd
  0
BLOCK
  5
45AF7
330
45AED
100
AcDbEntity
  8
0
100
AcDbBlockBegin
  2
*D28
 70
     1
 10
0.0
 20
0.0
 30
0.0
  3
*D28
  1

  0
LINE
  5
48D17
330
45AED
100
AcDbEntity
  8
D-STR-DIM1
 62
     0
440
 16777216
370
    13
100
AcDbLine
 10
12958.05988147332
 20
14620.87417246688
 30
0.0
 11
12645.55988147332
 21
14620.87417246688
 31
0.0
  0
LINE
  5
48D18
330
45AED
100
AcDbEntity
  8
D-STR-DIM1
 62
     0
440
 16777216
370
    13
100
AcDbLine
 10
12958.05988147332
 20
13120.89978416692
 30
0.0
 11
12645.55988147332
 21
13120.89978416692
 31
0.0
  0
LINE
  5
48D19
330
45AED
100
AcDbEntity
  8
D-STR-DIM1
 62
     0
440
 16777216
370
    13
100
AcDbLine
 10
12670.55988147332
 20
14580.87417246688
 30
0.0
 11
12670.55988147332
 21
13160.89978416692
 31
0.0
  0
INSERT
  5
48D1A
330
45AED
100
AcDbEntity
  8
D-STR-DIM1
 62
     0
440
 16777216
370
    13
100
AcDbBlockReference
  2
_OPEN
 10
12670.55988147332
 20
14620.87417246688
 30
0.0
 41
40.0
 42
40.0
 43
40.0
 50
90.0
  0
INSERT
  5
48D1B
330
45AED
100
AcDbEntity
  8
D-STR-DIM1
 62
     0
440
 16777216
370
    13
100
AcDbBlockReference
  2
_OPEN
 10
12670.55988147332
 20
13120.89978416692
 30
0.0
 41
40.0
 42
40.0
 43
40.0
 50
270.0
  0
MTEXT
  5
48D1C
330
45AED
100
AcDbEntity
  8
D-STR-DIM1
 62
     0
440
 16777216
100
AcDbMText
 10
12623.05988147332
 20
13870.8869783169
 30
0.0
 40
70.0
 41
0.0
 46
0.0
 71
     5
 72
     1
  1
1500
 11
0.0000000000000001
 21
1.0
 31
0.0
 73
     1
 44
1.0
  0
POINT
  5
48D1D
330
45AED
100
AcDbEntity
  8
DEFPOINTS
 62
     0
440
 16777216
100
AcDbPoint
 10
12970.55988147332
 20
14620.87417246688
 30
0.0
  0
POINT
  5
48D1E
330
45AED
100
AcDbEntity
  8
DEFPOINTS
 62
     0
440
 16777216
100
AcDbPoint
 10
12970.55988147332
 20
13120.89978416692
 30
0.0
  0
POINT
  5
48D1F
330
45AED
100
AcDbEntity
  8
DEFPOINTS
 62
     0
440
 16777216
100
AcDbPoint
 10
12670.55988147332
 20
13120.89978416692
 30
0.0
  0
ENDBLK
  5
45AF8
330
45AED
100
AcDbEntity
  8
0
100
AcDbBlockEnd
  0
BLOCK
  5
45B04
330
45AFA
100
AcDbEntity
  8
0
100
AcDbBlockBegin
  2
*D29
 70
     1
 10
0.0
 20
0.0
 30
0.0
  3
*D29
  1

  0
LINE
  5
48D29
330
45AFA
100
AcDbEntity
  8
D-STR-DIM1
 62
     0
440
 16777216
370
    13
100
AcDbLine
 10
12958.05988147332
 20
13120.89978416692
 30
0.0
 11
12645.55988147332
 21
13120.89978416692
 31
0.0
  0
LINE
  5
48D2A
330
45AFA
100
AcDbEntity
  8
D-STR-DIM1
 62
     0
440
 16777216
370
    13
100
AcDbLine
 10
12958.05988147332
 20
12620.89978416692
 30
0.0
 11
12645.55988147332
 21
12620.89978416692
 31
0.0
  0
LINE
  5
48D2B
330
45AFA
100
AcDbEntity
  8
D-STR-DIM1
 62
     0
440
 16777216
370
    13
100
AcDbLine
 10
12670.55988147332
 20
13080.89978416692
 30
0.0
 11
12670.55988147332
 21
12660.89978416692
 31
0.0
  0
INSERT
  5
48D2C
330
45AFA
100
AcDbEntity
  8
D-STR-DIM1
 62
     0
440
 16777216
370
    13
100
AcDbBlockReference
  2
_OPEN
 10
12670.55988147332
 20
13120.89978416692
 30
0.0
 41
40.0
 42
40.0
 43
40.0
 50
90.0
  0
INSERT
  5
48D2D
330
45AFA
100
AcDbEntity
  8
D-STR-DIM1
 62
     0
440
 16777216
370
    13
100
AcDbBlockReference
  2
_OPEN
 10
12670.55988147332
 20
12620.89978416692
 30
0.0
 41
40.0
 42
40.0
 43
40.0
 50
270.0
  0
MTEXT
  5
48D2E
330
45AFA
100
AcDbEntity
  8
D-STR-DIM1
 62
     0
440
 16777216
100
AcDbMText
 10
12623.05988147332
 20
12870.89978416692
 30
0.0
 40
70.0
 41
0.0
 46
0.0
 71
     5
 72
     1
  1
500
 11
0.0000000000000001
 21
1.0
 31
0.0
 73
     1
 44
1.0
  0
POINT
  5
48D2F
330
45AFA
100
AcDbEntity
  8
DEFPOINTS
 62
     0
440
 16777216
100
AcDbPoint
 10
12970.55988147332
 20
13120.89978416692
 30
0.0
  0
POINT
  5
48D30
330
45AFA
100
AcDbEntity
  8
DEFPOINTS
 62
     0
440
 16777216
100
AcDbPoint
 10
12970.55988147332
 20
12620.89978416692
 30
0.0
  0
POINT
  5
48D31
330
45AFA
100
AcDbEntity
  8
DEFPOINTS
 62
     0
440
 16777216
100
AcDbPoint
 10
12670.55988147332
 20
12620.89978416692
 30
0.0
  0
ENDBLK
  5
45B05
330
45AFA
100
AcDbEntity
  8
0
100
AcDbBlockEnd
  0
BLOCK
  5
45B35
330
45B2B
100
AcDbEntity
  8
0
100
AcDbBlockBegin
  2
*D30
 70
     1
 10
0.0
 20
0.0
 30
0.0
  3
*D30
  1

  0
LINE
  5
49634
330
45B2B
100
AcDbEntity
  8
D-STR-DIM
 62
     0
440
 16777216
370
    13
100
AcDbLine
 10
12958.05988147332
 20
15120.89978416692
 30
0.0
 11
12345.55988147332
 21
15120.89978416692
 31
0.0
  0
LINE
  5
49635
330
45B2B
100
AcDbEntity
  8
D-STR-DIM
 62
     0
440
 16777216
370
    13
100
AcDbLine
 10
12958.05988147332
 20
12620.89978416692
 30
0.0
 11
12345.55988147332
 21
12620.89978416692
 31
0.0
  0
LINE
  5
49636
330
45B2B
100
AcDbEntity
  8
D-STR-DIM
 62
     0
440
 16777216
370
    13
100
AcDbLine
 10
12370.55988147332
 20
15080.89978416692
 30
0.0
 11
12370.55988147332
 21
12660.89978416692
 31
0.0
  0
INSERT
  5
49637
330
45B2B
100
AcDbEntity
  8
D-STR-DIM
 62
     0
440
 16777216
370
    13
100
AcDbBlockReference
  2
_OPEN
 10
12370.55988147332
 20
15120.89978416692
 30
0.0
 41
40.0
 42
40.0
 43
40.0
 50
90.0
  0
INSERT
  5
49638
330
45B2B
100
AcDbEntity
  8
D-STR-DIM
 62
     0
440
 16777216
370
    13
100
AcDbBlockReference
  2
_OPEN
 10
12370.55988147332
 20
12620.89978416692
 30
0.0
 41
40.0
 42
40.0
 43
40.0
 50
270.0
  0
MTEXT
  5
49639
330
45B2B
100
AcDbEntity
  8
D-STR-DIM
 62
     0
440
 16777216
100
AcDbMText
 10
12323.05988147332
 20
13870.89978416692
 30
0.0
 40
70.0
 41
0.0
 46
0.0
 71
     5
 72
     1
  1
2500
 11
0.0000000000000001
 21
1.0
 31
0.0
 73
     1
 44
1.0
  0
POINT
  5
4963A
330
45B2B
100
AcDbEntity
  8
DEFPOINTS
 62
     0
440
 16777216
100
AcDbPoint
 10
12970.55988147332
 20
15120.89978416692
 30
0.0
  0
POINT
  5
4963B
330
45B2B
100
AcDbEntity
  8
DEFPOINTS
 62
     0
440
 16777216
100
AcDbPoint
 10
12970.55988147332
 20
12620.89978416692
 30
0.0
  0
POINT
  5
4963C
330
45B2B
100
AcDbEntity
  8
DEFPOINTS
 62
     0
440
 16777216
100
AcDbPoint
 10
12370.55988147332
 20
12620.89978416692
 30
0.0
  0
ENDBLK
  5
45B36
330
45B2B
100
AcDbEntity
  8
0
100
AcDbBlockEnd
  0
BLOCK
  5
45B44
330
45B3A
100
AcDbEntity
  8
0
100
AcDbBlockBegin
  2
*D31
 70
     1
 10
0.0
 20
0.0
 30
0.0
  3
*D31
  1

  0
LINE
  5
496B2
330
45B3A
100
AcDbEntity
  8
D-STR-DIM
 62
     0
440
 16777216
370
    13
100
AcDbLine
 10
12970.55988147332
 20
12608.39978416692
 30
0.0
 11
12970.55988147332
 21
12295.89978416692
 31
0.0
  0
LINE
  5
496B3
330
45B3A
100
AcDbEntity
  8
D-STR-DIM
 62
     0
440
 16777216
370
    13
100
AcDbLine
 10
13405.55988147332
 20
12608.39978416692
 30
0.0
 11
13405.55988147332
 21
12295.89978416692
 31
0.0
  0
LINE
  5
496B4
330
45B3A
100
AcDbEntity
  8
D-STR-DIM
 62
     0
440
 16777216
370
    13
100
AcDbLine
 10
13010.55988147332
 20
12320.89978416692
 30
0.0
 11
13365.55988147332
 21
12320.89978416692
 31
0.0
  0
INSERT
  5
496B5
330
45B3A
100
AcDbEntity
  8
D-STR-DIM
 62
     0
440
 16777216
370
    13
100
AcDbBlockReference
  2
_OPEN
 10
12970.55988147332
 20
12320.89978416692
 30
0.0
 41
40.0
 42
40.0
 43
40.0
 50
180.0
  0
INSERT
  5
496B6
330
45B3A
100
AcDbEntity
  8
D-STR-DIM
 62
     0
440
 16777216
370
    13
100
AcDbBlockReference
  2
_OPEN
 10
13405.55988147332
 20
12320.89978416692
 30
0.0
 41
40.0
 42
40.0
 43
40.0
  0
MTEXT
  5
496B7
330
45B3A
100
AcDbEntity
  8
D-STR-DIM
 62
     0
440
 16777216
100
AcDbMText
 10
13188.05988147332
 20
12368.39978416692
 30
0.0
 40
70.0
 41
0.0
 46
0.0
 71
     5
 72
     1
  1
435
 73
     1
 44
1.0
  0
POINT
  5
496B8
330
45B3A
100
AcDbEntity
  8
DEFPOINTS
 62
     0
440
 16777216
100
AcDbPoint
 10
12970.55988147332
 20
12620.89978416692
 30
0.0
  0
POINT
  5
496B9
330
45B3A
100
AcDbEntity
  8
DEFPOINTS
 62
     0
440
 16777216
100
AcDbPoint
 10
13405.55988147332
 20
12620.89978416692
 30
0.0
  0
POINT
  5
496BA
330
45B3A
100
AcDbEntity
  8
DEFPOINTS
 62
     0
440
 16777216
100
AcDbPoint
 10
13405.55988147332
 20
12320.89978416692
 30
0.0
  0
ENDBLK
  5
45B45
330
45B3A
100
AcDbEntity
  8
0
100
AcDbBlockEnd
  0
BLOCK
  5
45B51
330
45B47
100
AcDbEntity
  8
0
100
AcDbBlockBegin
  2
*D32
 70
     1
 10
0.0
 20
0.0
 30
0.0
  3
*D32
  1

  0
LINE
  5
496BB
330
45B47
100
AcDbEntity
  8
D-STR-DIM
 62
     0
440
 16777216
370
    13
100
AcDbLine
 10
13405.55988147332
 20
12608.39978416692
 30
0.0
 11
13405.55988147332
 21
12295.89978416692
 31
0.0
  0
LINE
  5
496BC
330
45B47
100
AcDbEntity
  8
D-STR-DIM
 62
     0
440
 16777216
370
    13
100
AcDbLine
 10
14720.55988147332
 20
12608.39978416692
 30
0.0
 11
14720.55988147332
 21
12295.89978416692
 31
0.0
  0
LINE
  5
496BD
330
45B47
100
AcDbEntity
  8
D-STR-DIM
 62
     0
440
 16777216
370
    13
100
AcDbLine
 10
13445.55988147332
 20
12320.89978416692
 30
0.0
 11
14680.55988147332
 21
12320.89978416692
 31
0.0
  0
INSERT
  5
496BE
330
45B47
100
AcDbEntity
  8
D-STR-DIM
 62
     0
440
 16777216
370
    13
100
AcDbBlockReference
  2
_OPEN
 10
13405.55988147332
 20
12320.89978416692
 30
0.0
 41
40.0
 42
40.0
 43
40.0
 50
180.0
  0
INSERT
  5
496BF
330
45B47
100
AcDbEntity
  8
D-STR-DIM
 62
     0
440
 16777216
370
    13
100
AcDbBlockReference
  2
_OPEN
 10
14720.55988147332
 20
12320.89978416692
 30
0.0
 41
40.0
 42
40.0
 43
40.0
  0
MTEXT
  5
496C0
330
45B47
100
AcDbEntity
  8
D-STR-DIM
 62
     0
440
 16777216
100
AcDbMText
 10
14063.05988147332
 20
12368.39978416692
 30
0.0
 40
70.0
 41
0.0
 46
0.0
 71
     5
 72
     1
  1
1315
 73
     1
 44
1.0
  0
POINT
  5
496C1
330
45B47
100
AcDbEntity
  8
DEFPOINTS
 62
     0
440
 16777216
100
AcDbPoint
 10
13405.55988147332
 20
12620.89978416692
 30
0.0
  0
POINT
  5
496C2
330
45B47
100
AcDbEntity
  8
DEFPOINTS
 62
     0
440
 16777216
100
AcDbPoint
 10
14720.55988147332
 20
12620.89978416692
 30
0.0
  0
POINT
  5
496C3
330
45B47
100
AcDbEntity
  8
DEFPOINTS
 62
     0
440
 16777216
100
AcDbPoint
 10
14720.55988147332
 20
12320.89978416692
 30
0.0
  0
ENDBLK
  5
45B52
330
45B47
100
AcDbEntity
  8
0
100
AcDbBlockEnd
  0
BLOCK
  5
45B5E
330
45B54
100
AcDbEntity
  8
0
100
AcDbBlockBegin
  2
*D33
 70
     1
 10
0.0
 20
0.0
 30
0.0
  3
*D33
  1

  0
LINE
  5
49680
330
45B54
100
AcDbEntity
  8
D-STR-DIM
 62
     0
440
 16777216
370
    13
100
AcDbLine
 10
12970.55988147332
 20
12608.39978416692
 30
0.0
 11
12970.55988147332
 21
11995.89978416692
 31
0.0
  0
LINE
  5
49681
330
45B54
100
AcDbEntity
  8
D-STR-DIM
 62
     0
440
 16777216
370
    13
100
AcDbLine
 10
14720.55988147332
 20
12608.39978416692
 30
0.0
 11
14720.55988147332
 21
11995.89978416692
 31
0.0
  0
LINE
  5
49682
330
45B54
100
AcDbEntity
  8
D-STR-DIM
 62
     0
440
 16777216
370
    13
100
AcDbLine
 10
13010.55988147332
 20
12020.89978416692
 30
0.0
 11
14680.55988147332
 21
12020.89978416692
 31
0.0
  0
INSERT
  5
49683
330
45B54
100
AcDbEntity
  8
D-STR-DIM
 62
     0
440
 16777216
370
    13
100
AcDbBlockReference
  2
_OPEN
 10
12970.55988147332
 20
12020.89978416692
 30
0.0
 41
40.0
 42
40.0
 43
40.0
 50
180.0
  0
INSERT
  5
49684
330
45B54
100
AcDbEntity
  8
D-STR-DIM
 62
     0
440
 16777216
370
    13
100
AcDbBlockReference
  2
_OPEN
 10
14720.55988147332
 20
12020.89978416692
 30
0.0
 41
40.0
 42
40.0
 43
40.0
  0
MTEXT
  5
49685
330
45B54
100
AcDbEntity
  8
D-STR-DIM
 62
     0
440
 16777216
100
AcDbMText
 10
13845.55988147332
 20
12068.39978416692
 30
0.0
 40
70.0
 41
0.0
 46
0.0
 71
     5
 72
     1
  1
1750
 73
     1
 44
1.0
  0
POINT
  5
49686
330
45B54
100
AcDbEntity
  8
DEFPOINTS
 62
     0
440
 16777216
100
AcDbPoint
 10
12970.55988147332
 20
12620.89978416692
 30
0.0
  0
POINT
  5
49687
330
45B54
100
AcDbEntity
  8
DEFPOINTS
 62
     0
440
 16777216
100
AcDbPoint
 10
14720.55988147332
 20
12620.89978416692
 30
0.0
  0
POINT
  5
49688
330
45B54
100
AcDbEntity
  8
DEFPOINTS
 62
     0
440
 16777216
100
AcDbPoint
 10
14720.55988147332
 20
12020.89978416692
 30
0.0
  0
ENDBLK
  5
45B5F
330
45B54
100
AcDbEntity
  8
0
100
AcDbBlockEnd
  0
BLOCK
  5
498CE
330
498C4
100
AcDbEntity
  8
0
100
AcDbBlockBegin
  2
*D34
 70
     1
 10
0.0
 20
0.0
 30
0.0
  3
*D34
  1

  0
LINE
  5
49907
330
498C4
100
AcDbEntity
  8
D-STR-DIM
 62
     0
440
 16777216
370
    13
100
AcDbLine
 10
15870.55988147332
 20
15133.39978416692
 30
0.0
 11
15870.55988147332
 21
15445.89978416692
 31
0.0
  0
LINE
  5
49908
330
498C4
100
AcDbEntity
  8
D-STR-DIM
 62
     0
440
 16777216
370
    13
100
AcDbLine
 10
17870.55988147332
 20
15133.39978416692
 30
0.0
 11
17870.55988147332
 21
15445.89978416692
 31
0.0
  0
LINE
  5
49909
330
498C4
100
AcDbEntity
  8
D-STR-DIM
 62
     0
440
 16777216
370
    13
100
AcDbLine
 10
15910.55988147332
 20
15420.89978416692
 30
0.0
 11
17830.55988147332
 21
15420.89978416692
 31
0.0
  0
INSERT
  5
4990A
330
498C4
100
AcDbEntity
  8
D-STR-DIM
 62
     0
440
 16777216
370
    13
100
AcDbBlockReference
  2
_OPEN
 10
15870.55988147332
 20
15420.89978416692
 30
0.0
 41
40.0
 42
40.0
 43
40.0
 50
180.0
  0
INSERT
  5
4990B
330
498C4
100
AcDbEntity
  8
D-STR-DIM
 62
     0
440
 16777216
370
    13
100
AcDbBlockReference
  2
_OPEN
 10
17870.55988147332
 20
15420.89978416692
 30
0.0
 41
40.0
 42
40.0
 43
40.0
  0
MTEXT
  5
4990C
330
498C4
100
AcDbEntity
  8
D-STR-DIM
 62
     0
440
 16777216
100
AcDbMText
 10
16870.55988147332
 20
15468.39978416692
 30
0.0
 40
70.0
 41
0.0
 46
0.0
 71
     5
 72
     1
  1
2000
 73
     1
 44
1.0
  0
POINT
  5
4990D
330
498C4
100
AcDbEntity
  8
DEFPOINTS
 62
     0
440
 16777216
100
AcDbPoint
 10
15870.55988147332
 20
15120.89978416692
 30
0.0
  0
POINT
  5
4990E
330
498C4
100
AcDbEntity
  8
DEFPOINTS
 62
     0
440
 16777216
100
AcDbPoint
 10
17870.55988147332
 20
15120.89978416692
 30
0.0
  0
POINT
  5
4990F
330
498C4
100
AcDbEntity
  8
DEFPOINTS
 62
     0
440
 16777216
100
AcDbPoint
 10
17870.55988147332
 20
15420.89978416692
 30
0.0
  0
ENDBLK
  5
498CF
330
498C4
100
AcDbEntity
  8
0
100
AcDbBlockEnd
  0
BLOCK
  5
498DA
330
498D0
100
AcDbEntity
  8
0
100
AcDbBlockBegin
  2
*D35
 70
     1
 10
0.0
 20
0.0
 30
0.0
  3
*D35
  1

  0
LINE
  5
49924
330
498D0
100
AcDbEntity
  8
D-STR-DIM
 62
     0
440
 16777216
370
    13
100
AcDbLine
 10
15608.05988147332
 20
15120.89903416692
 30
0.0
 11
15295.55988147332
 21
15120.89903416692
 31
0.0
  0
LINE
  5
49925
330
498D0
100
AcDbEntity
  8
D-STR-DIM
 62
     0
440
 16777216
370
    13
100
AcDbLine
 10
15608.05988147332
 20
13995.89903416692
 30
0.0
 11
15295.55988147332
 21
13995.89903416692
 31
0.0
  0
LINE
  5
49926
330
498D0
100
AcDbEntity
  8
D-STR-DIM
 62
     0
440
 16777216
370
    13
100
AcDbLine
 10
15320.55988147332
 20
15080.89903416692
 30
0.0
 11
15320.55988147332
 21
14035.89903416692
 31
0.0
  0
INSERT
  5
49927
330
498D0
100
AcDbEntity
  8
D-STR-DIM
 62
     0
440
 16777216
370
    13
100
AcDbBlockReference
  2
_OPEN
 10
15320.55988147332
 20
15120.89903416692
 30
0.0
 41
40.0
 42
40.0
 43
40.0
 50
90.0
  0
INSERT
  5
49928
330
498D0
100
AcDbEntity
  8
D-STR-DIM
 62
     0
440
 16777216
370
    13
100
AcDbBlockReference
  2
_OPEN
 10
15320.55988147332
 20
13995.89903416692
 30
0.0
 41
40.0
 42
40.0
 43
40.0
 50
270.0
  0
MTEXT
  5
49929
330
498D0
100
AcDbEntity
  8
D-STR-DIM
 62
     0
440
 16777216
100
AcDbMText
 10
15273.05988147332
 20
14558.39903416692
 30
0.0
 40
70.0
 41
0.0
 46
0.0
 71
     5
 72
     1
  1
1125
 11
0.0000000000000001
 21
1.0
 31
0.0
 73
     1
 44
1.0
  0
POINT
  5
4992A
330
498D0
100
AcDbEntity
  8
DEFPOINTS
 62
     0
440
 16777216
100
AcDbPoint
 10
15620.55988147332
 20
15120.89903416692
 30
0.0
  0
POINT
  5
4992B
330
498D0
100
AcDbEntity
  8
DEFPOINTS
 62
     0
440
 16777216
100
AcDbPoint
 10
15620.55988147332
 20
13995.89903416692
 30
0.0
  0
POINT
  5
4992C
330
498D0
100
AcDbEntity
  8
DEFPOINTS
 62
     0
440
 16777216
100
AcDbPoint
 10
15320.55988147332
 20
13995.89903416692
 30
0.0
  0
ENDBLK
  5
498DB
330
498D0
100
AcDbEntity
  8
0
100
AcDbBlockEnd
  0
BLOCK
  5
498E8
330
498DC
100
AcDbEntity
  8
0
100
AcDbBlockBegin
  2
*D36
 70
     1
 10
0.0
 20
0.0
 30
0.0
  3
*D36
  1

  0
LINE
  5
4994F
330
498DC
100
AcDbEntity
  8
D-STR-DIM1
 62
     0
440
 16777216
370
    13
100
AcDbLine
 10
15795.55663147332
 20
14578.39853416692
 30
0.0
 11
15795.55663147332
 21
14365.89853416692
 31
0.0
  0
LINE
  5
49950
330
498DC
100
AcDbEntity
  8
D-STR-DIM1
 62
     0
440
 16777216
370
    13
100
AcDbLine
 10
15945.55663147333
 20
14578.39853416692
 30
0.0
 11
15945.55663147333
 21
14365.89853416692
 31
0.0
  0
LINE
  5
49951
330
498DC
100
AcDbEntity
  8
D-STR-DIM1
 62
     0
440
 16777216
370
    13
100
AcDbLine
 10
15755.55663147332
 20
14390.89853416692
 30
0.0
 11
15715.55663147332
 21
14390.89853416692
 31
0.0
  0
LINE
  5
49952
330
498DC
100
AcDbEntity
  8
D-STR-DIM1
 62
     0
440
 16777216
370
    13
100
AcDbLine
 10
15985.55663147332
 20
14390.89853416692
 30
0.0
 11
16025.55663147333
 21
14390.89853416692
 31
0.0
  0
LINE
  5
49953
330
498DC
100
AcDbEntity
  8
D-STR-DIM1
 62
     0
440
 16777216
370
    13
100
AcDbLine
 10
15795.55663147332
 20
14390.89853416692
 30
0.0
 11
15945.55663147333
 21
14390.89853416692
 31
0.0
  0
INSERT
  5
49954
330
498DC
100
AcDbEntity
  8
D-STR-DIM1
 62
     0
440
 16777216
370
    13
100
AcDbBlockReference
  2
_OPEN
 10
15795.55663147332
 20
14390.89853416692
 30
0.0
 41
40.0
 42
40.0
 43
40.0
  0
INSERT
  5
49955
330
498DC
100
AcDbEntity
  8
D-STR-DIM1
 62
     0
440
 16777216
370
    13
100
AcDbBlockReference
  2
_OPEN
 10
15945.55663147333
 20
14390.89853416692
 30
0.0
 41
40.0
 42
40.0
 43
40.0
 50
180.0
  0
MTEXT
  5
49956
330
498DC
100
AcDbEntity
  8
D-STR-DIM1
 62
     0
440
 16777216
100
AcDbMText
 10
15870.55663147332
 20
14438.39853416692
 30
0.0
 40
70.0
 41
0.0
 46
0.0
 71
     5
 72
     1
  1
150
 73
     1
 44
1.0
  0
POINT
  5
49957
330
498DC
100
AcDbEntity
  8
DEFPOINTS
 62
     0
440
 16777216
100
AcDbPoint
 10
15795.55663147332
 20
14590.89853416692
 30
0.0
  0
POINT
  5
49958
330
498DC
100
AcDbEntity
  8
DEFPOINTS
 62
     0
440
 16777216
100
AcDbPoint
 10
15945.55663147333
 20
14590.89853416692
 30
0.0
  0
POINT
  5
49959
330
498DC
100
AcDbEntity
  8
DEFPOINTS
 62
     0
440
 16777216
100
AcDbPoint
 10
15945.55663147333
 20
14390.89853416692
 30
0.0
  0
ENDBLK
  5
498E9
330
498DC
100
AcDbEntity
  8
0
100
AcDbBlockEnd
  0
BLOCK
  5
4A331
330
4A327
100
AcDbEntity
  8
0
100
AcDbBlockBegin
  2
*D37
 70
     1
 10
0.0
 20
0.0
 30
0.0
  3
*D37
  1

  0
LINE
  5
4A341
330
4A327
100
AcDbEntity
  8
D-BGD-DIM
 62
     0
440
 16777216
370
    13
100
AcDbLine
 10
10010.04276304604
 20
15333.39978416692
 30
0.0
 11
10010.04276304604
 21
15445.89978416692
 31
0.0
  0
LINE
  5
4A342
330
4A327
100
AcDbEntity
  8
D-BGD-DIM
 62
     0
440
 16777216
370
    13
100
AcDbLine
 10
9260.04276304604
 20
15133.39978416692
 30
0.0
 11
9260.04276304604
 21
15445.89978416692
 31
0.0
  0
LINE
  5
4A343
330
4A327
100
AcDbEntity
  8
D-BGD-DIM
 62
     0
440
 16777216
370
    13
100
AcDbLine
 10
9970.042763046039
 20
15420.89978416692
 30
0.0
 11
9300.042763046041
 21
15420.89978416692
 31
0.0
  0
INSERT
  5
4A344
330
4A327
100
AcDbEntity
  8
D-BGD-DIM
 62
     0
440
 16777216
370
    13
100
AcDbBlockReference
  2
_OPEN
 10
10010.04276304604
 20
15420.89978416692
 30
0.0
 41
40.0
 42
40.0
 43
40.0
  0
INSERT
  5
4A345
330
4A327
100
AcDbEntity
  8
D-BGD-DIM
 62
     0
440
 16777216
370
    13
100
AcDbBlockReference
  2
_OPEN
 10
9260.04276304604
 20
15420.89978416692
 30
0.0
 41
40.0
 42
40.0
 43
40.0
 50
180.0
  0
MTEXT
  5
4A346
330
4A327
100
AcDbEntity
  8
D-BGD-DIM
 62
     0
440
 16777216
100
AcDbMText
 10
9635.04276304604
 20
15472.79978416692
 30
0.0
 40
70.0
 41
0.0
 46
0.0
 71
     5
 72
     1
  1
3@250=750
 73
     1
 44
1.0
  0
POINT
  5
4A347
330
4A327
100
AcDbEntity
  8
DEFPOINTS
 62
     0
440
 16777216
100
AcDbPoint
 10
10010.04276304604
 20
15320.89978416692
 30
0.0
  0
POINT
  5
4A348
330
4A327
100
AcDbEntity
  8
DEFPOINTS
 62
     0
440
 16777216
100
AcDbPoint
 10
9260.04276304604
 20
15120.89978416692
 30
0.0
  0
POINT
  5
4A349
330
4A327
100
AcDbEntity
  8
DEFPOINTS
 62
     0
440
 16777216
100
AcDbPoint
 10
9260.04276304604
 20
15420.89978416692
 30
0.0
  0
ENDBLK
  5
4A332
330
4A327
100
AcDbEntity
  8
0
100
AcDbBlockEnd
  0
BLOCK
  5
4A33F
330
4A333
100
AcDbEntity
  8
0
100
AcDbBlockBegin
  2
*D38
 70
     1
 10
0.0
 20
0.0
 30
0.0
  3
*D38
  1

  0
LINE
  5
4A34A
330
4A333
100
AcDbEntity
  8
D-BGD-DIM
 62
     0
440
 16777216
370
    13
100
AcDbLine
 10
9260.04276304604
 20
15133.39978416692
 30
0.0
 11
9260.04276304604
 21
15445.89978416692
 31
0.0
  0
LINE
  5
4A34B
330
4A333
100
AcDbEntity
  8
D-BGD-DIM
 62
     0
440
 16777216
370
    13
100
AcDbLine
 10
9011.54276304604
 20
15133.39978416692
 30
0.0
 11
9011.54276304604
 21
15445.89978416692
 31
0.0
  0
LINE
  5
4A34C
330
4A333
100
AcDbEntity
  8
D-BGD-DIM
 62
     0
440
 16777216
370
    13
100
AcDbLine
 10
9300.042763046041
 20
15420.89978416692
 30
0.0
 11
9340.04276304604
 21
15420.89978416692
 31
0.0
  0
LINE
  5
4A34D
330
4A333
100
AcDbEntity
  8
D-BGD-DIM
 62
     0
440
 16777216
370
    13
100
AcDbLine
 10
8971.54276304604
 20
15420.89978416692
 30
0.0
 11
8931.54276304604
 21
15420.89978416692
 31
0.0
  0
LINE
  5
4A34E
330
4A333
100
AcDbEntity
  8
D-BGD-DIM
 62
     0
440
 16777216
370
    13
100
AcDbLine
 10
9260.04276304604
 20
15420.89978416692
 30
0.0
 11
9011.54276304604
 21
15420.89978416692
 31
0.0
  0
INSERT
  5
4A34F
330
4A333
100
AcDbEntity
  8
D-BGD-DIM
 62
     0
440
 16777216
370
    13
100
AcDbBlockReference
  2
_OPEN
 10
9260.04276304604
 20
15420.89978416692
 30
0.0
 41
40.0
 42
40.0
 43
40.0
 50
180.0
  0
INSERT
  5
4A350
330
4A333
100
AcDbEntity
  8
D-BGD-DIM
 62
     0
440
 16777216
370
    13
100
AcDbBlockReference
  2
_OPEN
 10
9011.54276304604
 20
15420.89978416692
 30
0.0
 41
40.0
 42
40.0
 43
40.0
  0
MTEXT
  5
4A351
330
4A333
100
AcDbEntity
  8
D-BGD-DIM
 62
     0
440
 16777216
100
AcDbMText
 10
9135.792763046039
 20
15468.39978416692
 30
0.0
 40
70.0
 41
0.0
 46
0.0
 71
     5
 72
     1
  1
248.5
 73
     1
 44
1.0
  0
POINT
  5
4A352
330
4A333
100
AcDbEntity
  8
DEFPOINTS
 62
     0
440
 16777216
100
AcDbPoint
 10
9260.04276304604
 20
15120.89978416692
 30
0.0
  0
POINT
  5
4A353
330
4A333
100
AcDbEntity
  8
DEFPOINTS
 62
     0
440
 16777216
100
AcDbPoint
 10
9011.54276304604
 20
15120.89978416692
 30
0.0
  0
POINT
  5
4A354
330
4A333
100
AcDbEntity
  8
DEFPOINTS
 62
     0
440
 16777216
100
AcDbPoint
 10
9011.54276304604
 20
15420.89978416692
 30
0.0
  0
ENDBLK
  5
4A340
330
4A333
100
AcDbEntity
  8
0
100
AcDbBlockEnd
  0
ENDSEC
  0
SECTION
  2
ENTITIES
  0
LINE
  5
454FA
330
1F
100
AcDbEntity
  8
D-BGD
100
AcDbLine
 10
6261.54276304604
 20
15120.89978416692
 30
0.0
 11
6371.54276304604
 21
15120.89978416692
 31
0.0
  0
LINE
  5
454FB
330
1F
100
AcDbEntity
  8
D-BGD
100
AcDbLine
 10
6261.54276304604
 20
15120.89978416692
 30
0.0
 11
6261.54276304604
 21
12620.89978416692
 31
0.0
  0
LINE
  5
454FC
330
1F
100
AcDbEntity
  8
D-BGD
100
AcDbLine
 10
6261.54276304604
 20
12620.89978416692
 30
0.0
 11
8011.54276304604
 21
12620.89978416692
 31
0.0
  0
LINE
  5
454FD
330
1F
100
AcDbEntity
  8
D-BGD
100
AcDbLine
 10
8011.54276304604
 20
12620.89978416692
 30
0.0
 11
8011.542763046042
 21
12730.89978416692
 31
0.0
  0
TEXT
  5
4557F
330
1F
100
AcDbEntity
  8
D-STR-HTXT
100
AcDbText
 10
6621.968034849863
 20
12917.99749349882
 30
0.0
 40
70.0
  1
R=250
 50
45.0
 72
     4
 11
6688.294650925161
 21
13032.69021340728
 31
0.0
100
AcDbText
  0
DIMENSION
  5
4558E
330
1F
100
AcDbEntity
  8
D-BGD-DIM
100
AcDbDimension
280
     0
  2
*D1
 10
6371.54276304604
 20
15420.89978416692
 30
0.0
 11
6316.54276304604
 21
15468.39978416692
 31
0.0
 70
    32
 71
     5
 42
110.0
 73
     0
 74
     0
 75
     0
  3
SXF-20
100
AcDbAlignedDimension
 13
6261.54276304604
 23
15120.89978416692
 33
0.0
 14
6371.54276304604
 24
15120.89978416692
 34
0.0
100
AcDbRotatedDimension
  0
DIMENSION
  5
4559E
330
1F
100
AcDbEntity
  8
D-STR-DIM
100
AcDbDimension
280
     0
  2
*D2
 10
5961.54276304604
 20
12755.74016054112
 30
0.0
 11
6031.542763046038
 21
12780.81997235402
 31
0.0
 70
    32
 71
     5
 42
50.15962362579921
 73
     0
 74
     0
 75
     0
  3
SXF-20
100
AcDbAlignedDimension
 13
6261.54276304604
 23
12805.89978416692
 33
0.0
 14
6261.54276304604
 24
12755.74016054112
 34
0.0
 50
90.0
100
AcDbRotatedDimension
1001
ACAD
1000
DSTYLE
1002
{
1070
    77
1070
     0
1070
   145
1040
-1.0
1002
}
  0
DIMENSION
  5
455AD
330
1F
100
AcDbEntity
  8
D-STR-DIM
100
AcDbDimension
280
     0
  2
*D3
 10
5961.54276304604
 20
12620.89978416692
 30
0.0
 11
5914.042763046038
 21
12658.31997235402
 31
0.0
 70
   160
 71
     5
 42
134.8403763741971
 73
     0
 74
     0
 75
     0
  3
SXF-20
100
AcDbAlignedDimension
 13
6261.54276304604
 23
12755.74016054112
 33
0.0
 14
6261.54276304604
 24
12620.89978416692
 34
0.0
 50
90.0
100
AcDbRotatedDimension
  0
DIMENSION
  5
455D9
330
1F
100
AcDbEntity
  8
D-BGD-DIM
100
AcDbDimension
280
     0
  2
*D4
 10
5661.54276304604
 20
12620.89978416692
 30
0.0
 11
5614.042763046038
 21
12713.39978416692
 31
0.0
 70
    32
 71
     5
 42
184.9999999999963
 73
     0
 74
     0
 75
     0
  3
SXF-20
100
AcDbAlignedDimension
 13
6261.54276304604
 23
12805.89978416692
 33
0.0
 14
6261.54276304604
 24
12620.89978416692
 34
0.0
 50
90.0
100
AcDbRotatedDimension
  0
DIMENSION
  5
455E6
330
1F
100
AcDbEntity
  8
D-BGD-DIM
100
AcDbDimension
280
     0
  2
*D5
 10
5361.54276304604
 20
12620.89978416692
 30
0.0
 11
5314.042763046038
 21
13870.89978416692
 31
0.0
 70
    32
 71
     5
 42
2500.0
 73
     0
 74
     0
 75
     0
  3
SXF-20
100
AcDbAlignedDimension
 13
6261.54276304604
 23
15120.89978416692
 33
0.0
 14
6261.54276304604
 24
12620.89978416692
 34
0.0
 50
90.0
100
AcDbRotatedDimension
  0
DIMENSION
  5
45601
330
1F
100
AcDbEntity
  8
D-STR-DIM
100
AcDbDimension
280
     0
  2
*D6
 10
6396.419081433604
 20
12320.89978416692
 30
0.0
 11
6298.980922239821
 21
12368.39978416692
 31
0.0
 70
   160
 71
     5
 42
134.8763183875644
 73
     0
 74
     0
 75
     0
  3
SXF-20
100
AcDbAlignedDimension
 13
6261.54276304604
 23
12620.89978416692
 33
0.0
 14
6396.419081433604
 24
12620.89978416692
 34
0.0
100
AcDbRotatedDimension
  0
DIMENSION
  5
45617
330
1F
100
AcDbEntity
  8
D-STR-DIM
100
AcDbDimension
280
     0
  2
*D7
 10
6446.542763046043
 20
12320.89978416692
 30
0.0
 11
6421.480922239823
 21
12250.89978416692
 31
0.0
 70
    32
 71
     5
 42
50.12368161243739
 73
     0
 74
     0
 75
     0
  3
SXF-20
100
AcDbAlignedDimension
 13
6396.419081433604
 23
12620.89978416692
 33
0.0
 14
6446.542763046043
 24
12620.89978416692
 34
0.0
100
AcDbRotatedDimension
1001
ACAD
1000
DSTYLE
1002
{
1070
    77
1070
     0
1070
   145
1040
-1.0
1002
}
  0
DIMENSION
  5
45626
330
1F
100
AcDbEntity
  8
D-BGD-DIM
100
AcDbDimension
280
     0
  2
*D8
 10
6446.542763046043
 20
12020.89978416692
 30
0.0
 11
6354.042763046041
 21
12068.39978416692
 31
0.0
 70
    32
 71
     5
 42
185.0000000000018
 73
     0
 74
     0
 75
     0
  3
SXF-20
100
AcDbAlignedDimension
 13
6261.54276304604
 23
12620.89978416692
 33
0.0
 14
6446.542763046043
 24
12620.89978416692
 34
0.0
100
AcDbRotatedDimension
  0
DIMENSION
  5
4565D
330
1F
100
AcDbEntity
  8
D-BGD-DIM
100
AcDbDimension
280
     0
  2
*D9
 10
8011.54276304604
 20
11720.89978416692
 30
0.0
 11
7136.54276304604
 21
11768.39978416692
 31
0.0
 70
    32
 71
     5
 42
1750.0
 73
     0
 74
     0
 75
     0
  3
SXF-20
100
AcDbAlignedDimension
 13
6261.54276304604
 23
12620.89978416692
 33
0.0
 14
8011.54276304604
 24
12620.89978416692
 34
0.0
100
AcDbRotatedDimension
  0
DIMENSION
  5
4566B
330
1F
100
AcDbEntity
  8
D-BGD-DIM
100
AcDbDimension
280
     0
  2
*D10
 10
8311.542763046039
 20
12620.89978416692
 30
0.0
 11
8264.042763046036
 21
12645.89978416692
 31
0.0
 70
   160
 71
     5
 42
110.0
 73
     0
 74
     0
 75
     0
  3
SXF-20
100
AcDbAlignedDimension
 13
8011.542763046042
 23
12730.89978416692
 33
0.0
 14
8011.54276304604
 24
12620.89978416692
 34
0.0
 50
90.0
100
AcDbRotatedDimension
  0
LINE
  5
4567B
330
1F
100
AcDbEntity
  8
D-BGD
100
AcDbLine
 10
8011.54276304604
 20
11110.89978416692
 30
0.0
 11
6696.542763046038
 21
11110.89978416692
 31
0.0
  0
LINE
  5
4567C
330
1F
100
AcDbEntity
  8
D-BGD
100
AcDbLine
 10
6261.54276304604
 20
11120.89978416692
 30
0.0
 11
6261.54276304604
 21
9123.899784166923
 31
0.0
  0
LINE
  5
4567D
330
1F
100
AcDbEntity
  8
D-BGD
100
AcDbLine
 10
6696.542763046039
 20
11120.89978416692
 30
0.0
 11
6696.542763046039
 21
11110.89978416692
 31
0.0
  0
LINE
  5
4567E
330
1F
100
AcDbEntity
  8
D-BGD
100
AcDbLine
 10
6261.54276304604
 20
11120.89978416692
 30
0.0
 11
6696.542763046039
 21
11120.89978416691
 31
0.0
  0
LINE
  5
4567F
330
1F
100
AcDbEntity
  8
D-BGD
100
AcDbLine
 10
8011.54276304604
 20
9133.899784166922
 30
0.0
 11
6696.542763046038
 21
9133.899784166922
 31
0.0
  0
LINE
  5
45680
330
1F
100
AcDbEntity
  8
D-BGD
100
AcDbLine
 10
6261.54276304604
 20
9123.899784166923
 30
0.0
 11
6696.542763046041
 21
9123.899784166919
 31
0.0
  0
LINE
  5
45681
330
1F
100
AcDbEntity
  8
D-BGD
100
AcDbLine
 10
6696.542763046039
 20
9123.899784166923
 30
0.0
 11
6696.542763046039
 21
9133.899784166922
 31
0.0
  0
LINE
  5
45682
330
1F
100
AcDbEntity
  8
D-BGD
100
AcDbLine
 10
8011.54276304604
 20
11110.89978416692
 30
0.0
 11
8011.54276304604
 21
9133.899784166922
 31
0.0
  0
LINE
  5
45683
330
1F
100
AcDbEntity
  8
D-BMK
100
AcDbLine
 10
8211.54276304604
 20
10122.39978416692
 30
0.0
 11
6061.54276304604
 21
10122.39978416692
 31
0.0
  0
TEXT
  5
45684
330
1F
100
AcDbEntity
  8
D-BMK
100
AcDbText
 10
6198.869150807919
 20
10093.42517673273
 30
0.0
 40
70.0
  1
C
 50
90.0
100
AcDbText
  0
TEXT
  5
45685
330
1F
100
AcDbEntity
  8
D-BMK
100
AcDbText
 10
6225.26788817282
 20
10104.82590125329
 30
0.0
 40
70.0
  1
L
 50
90.0
100
AcDbText
  0
LINE
  5
45688
330
1F
100
AcDbEntity
  8
D-BGD
100
AcDbLine
 10
6371.54276304604
 20
11120.89978416692
 30
0.0
 11
6371.542763046039
 21
9123.899784166921
 31
0.0
  0
CIRCLE
  5
456A6
330
1F
100
AcDbEntity
  8
D-STR-STR1
  6
Continuous
100
AcDbCircle
 10
7251.542763046039
 20
10122.39978416692
 30
0.0
 40
30.7999995
  0
DIMENSION
  5
456DB
330
1F
100
AcDbEntity
  8
D-STR-DIM1
100
AcDbDimension
280
     0
  2
*D11
 10
7251.542763046039
 20
11420.89978416692
 30
0.0
 11
6756.542763046041
 21
11468.39978416692
 31
0.0
 70
    32
 71
     5
 42
990.0
 73
     0
 74
     0
 75
     0
  3
SXF-20
100
AcDbAlignedDimension
 13
6261.54276304604
 23
11120.89978416692
 33
0.0
 14
7251.542763046039
 24
11120.89978416692
 34
0.0
100
AcDbRotatedDimension
  0
DIMENSION
  5
456F1
330
1F
100
AcDbEntity
  8
D-STR-DIM1
100
AcDbDimension
280
     0
  2
*D12
 10
8011.54276304604
 20
11420.89978416692
 30
0.0
 11
7631.542763046041
 21
11468.39978416692
 31
0.0
 70
    32
 71
     5
 42
760.0
 73
     0
 74
     0
 75
     0
  3
SXF-20
100
AcDbAlignedDimension
 13
7251.542763046039
 23
11120.89978416692
 33
0.0
 14
8011.54276304604
 24
11120.89978416692
 34
0.0
100
AcDbRotatedDimension
  0
DIMENSION
  5
45728
330
1F
100
AcDbEntity
  8
D-BGD-DIM
100
AcDbDimension
280
     0
  2
*D13
 10
8511.54276304604
 20
11110.89978416692
 30
0.0
 11
8464.042763046037
 21
11115.89978416692
 31
0.0
 70
    32
 71
     5
 42
10.0
 73
     0
 74
     0
 75
     0
  3
SXF-20
100
AcDbAlignedDimension
 13
8011.54276304604
 23
11120.89978416692
 33
0.0
 14
8011.54276304604
 24
11110.89978416692
 34
0.0
 50
90.0
100
AcDbRotatedDimension
  0
DIMENSION
  5
45737
330
1F
100
AcDbEntity
  8
D-BGD-DIM
100
AcDbDimension
280
     0
  2
*D14
 10
8511.54276304604
 20
9133.899784166922
 30
0.0
 11
8464.042763046037
 21
10122.39978416692
 31
0.0
 70
    32
 71
     5
 42
1977.0
 73
     0
 74
     0
 75
     0
  3
SXF-20
100
AcDbAlignedDimension
 13
8011.54276304604
 23
11110.89978416692
 33
0.0
 14
8011.54276304604
 24
9133.899784166922
 34
0.0
 50
90.0
100
AcDbRotatedDimension
  0
DIMENSION
  5
45744
330
1F
100
AcDbEntity
  8
D-BGD-DIM
100
AcDbDimension
280
     0
  2
*D15
 10
8511.54276304604
 20
9123.899784166923
 30
0.0
 11
8464.042763046037
 21
9128.899784166923
 31
0.0
 70
    32
 71
     5
 42
10.0
 73
     0
 74
     0
 75
     0
  3
SXF-20
100
AcDbAlignedDimension
 13
8011.54276304604
 23
9133.899784166922
 33
0.0
 14
8011.54276304604
 24
9123.899784166923
 34
0.0
 50
90.0
100
AcDbRotatedDimension
  0
DIMENSION
  5
45788
330
1F
100
AcDbEntity
  8
D-BGD-DIM
100
AcDbDimension
280
     0
  2
*D16
 10
5361.54276304604
 20
9123.899784166923
 30
0.0
 11
5314.042763046039
 21
10122.39978416692
 31
0.0
 70
    32
 71
     5
 42
1997.0
 73
     0
 74
     0
 75
     0
  3
SXF-20
100
AcDbAlignedDimension
 13
6261.54276304604
 23
11120.89978416692
 33
0.0
 14
6261.54276304604
 24
9123.899784166923
 34
0.0
 50
90.0
100
AcDbRotatedDimension
  0
DIMENSION
  5
45834
330
1F
100
AcDbEntity
  8
D-BGD-DIM
100
AcDbDimension
280
     0
  2
*D17
 10
6696.542763046039
 20
8623.899784166923
 30
0.0
 11
6479.04276304604
 21
8671.399784166922
 31
0.0
 70
    32
 71
     5
 42
435.0
 73
     0
 74
     0
 75
     0
  3
SXF-20
100
AcDbAlignedDimension
 13
6261.54276304604
 23
9123.899784166923
 33
0.0
 14
6696.542763046039
 24
9123.899784166919
 34
0.0
100
AcDbRotatedDimension
  0
DIMENSION
  5
45841
330
1F
100
AcDbEntity
  8
D-BGD-DIM
100
AcDbDimension
280
     0
  2
*D18
 10
8011.54276304604
 20
8623.899784166923
 30
0.0
 11
7354.04276304604
 21
8671.399784166922
 31
0.0
 70
    32
 71
     5
 42
1315.0
 73
     0
 74
     0
 75
     0
  3
SXF-20
100
AcDbAlignedDimension
 13
6696.542763046039
 23
9123.899784166919
 33
0.0
 14
8011.54276304604
 24
9123.899784166923
 34
0.0
100
AcDbRotatedDimension
  0
LINE
  5
4584F
330
1F
100
AcDbEntity
  8
D-BGD
100
AcDbLine
 10
9011.54276304604
 20
12620.89978416692
 30
0.0
 11
9011.54276304604
 21
15120.89978416692
 31
0.0
  0
LINE
  5
45850
330
1F
100
AcDbEntity
  8
D-BGD
100
AcDbLine
 10
9011.54276304604
 20
15120.89978416692
 30
0.0
 11
11008.54276304604
 21
15120.89978416692
 31
0.0
  0
LINE
  5
45851
330
1F
100
AcDbEntity
  8
D-BGD
100
AcDbLine
 10
11008.54276304604
 20
15120.89978416692
 30
0.0
 11
11008.54276304604
 21
12620.89978416692
 31
0.0
  0
LINE
  5
45852
330
1F
100
AcDbEntity
  8
D-BGD
100
AcDbLine
 10
9011.54276304604
 20
12620.89978416692
 30
0.0
 11
11008.54276304604
 21
12620.89978416692
 31
0.0
  0
LINE
  5
45853
330
1F
100
AcDbEntity
  8
D-BMK
100
AcDbLine
 10
10010.04276304604
 20
15320.89978416692
 30
0.0
 11
10010.04276304604
 21
12420.89978416692
 31
0.0
  0
LINE
  5
4587E
330
1F
100
AcDbEntity
  8
D-BGD
100
AcDbLine
 10
10990.04276304604
 20
15120.89978416692
 30
0.0
 11
10990.04276304604
 21
12620.89978416692
 31
0.0
  0
LINE
  5
45884
330
1F
100
AcDbEntity
  8
D-BGD
100
AcDbLine
 10
10030.04276304604
 20
15120.89978416692
 30
0.0
 11
10030.04276304604
 21
12620.89978416692
 31
0.0
  0
LINE
  5
45887
330
1F
100
AcDbEntity
  8
D-BGD
100
AcDbLine
 10
10260.04276304604
 20
15120.89978416692
 30
0.0
 11
10260.04276304604
 21
12620.89978416692
 31
0.0
  0
LINE
  5
45888
330
1F
100
AcDbEntity
  8
D-BGD
100
AcDbLine
 10
10275.04276304604
 20
15120.89978416692
 30
0.0
 11
10275.04276304604
 21
12620.89978416692
 31
0.0
  0
DIMENSION
  5
458C5
330
1F
100
AcDbEntity
  8
D-BGD-DIM
100
AcDbDimension
280
     0
  2
*D19
 10
8611.54276304604
 20
12620.89978416692
 30
0.0
 11
8564.042763046037
 21
13870.89978416692
 31
0.0
 70
    32
 71
     5
 42
2500.0
 73
     0
 74
     0
 75
     0
  3
SXF-20
100
AcDbAlignedDimension
 13
9011.54276304604
 23
15120.89978416692
 33
0.0
 14
9011.54276304604
 24
12620.89978416692
 34
0.0
 50
90.0
100
AcDbRotatedDimension
  0
DIMENSION
  5
458D2
330
1F
100
AcDbEntity
  8
D-BGD-DIM
100
AcDbDimension
280
     0
  2
*D20
 10
11008.54276304604
 20
15720.89978416692
 30
0.0
 11
10010.04276304604
 21
15768.39978416692
 31
0.0
 70
    32
 71
     5
 42
1997.0
 73
     0
 74
     0
 75
     0
  3
SXF-20
100
AcDbAlignedDimension
 13
9011.54276304604
 23
15120.89978416692
 33
0.0
 14
11008.54276304604
 24
15120.89978416692
 34
0.0
100
AcDbRotatedDimension
  0
DIMENSION
  5
45915
330
1F
100
AcDbEntity
  8
D-BGD-DIM
100
AcDbDimension
280
     0
  2
*D21
 10
10760.04276304604
 20
15420.89978416692
 30
0.0
 11
10385.04276304604
 21
15472.79978416692
 31
0.0
 70
    32
  1
3@250=<>
 71
     5
 42
750.0
 73
     0
 74
     0
 75
     0
  3
SXF-20
100
AcDbAlignedDimension
 13
10010.04276304604
 23
15320.89978416692
 33
0.0
 14
10760.04276304604
 24
15120.89978416692
 34
0.0
100
AcDbRotatedDimension
  0
DIMENSION
  5
45922
330
1F
100
AcDbEntity
  8
D-BGD-DIM
100
AcDbDimension
280
     0
  2
*D22
 10
11008.54276304604
 20
15420.89978416692
 30
0.0
 11
10884.29276304604
 21
15468.39978416692
 31
0.0
 70
    32
 71
     5
 42
248.5
 73
     0
 74
     0
 75
     0
  3
SXF-20
100
AcDbAlignedDimension
 13
10760.04276304604
 23
15120.89978416692
 33
0.0
 14
11008.54276304604
 24
15120.89978416692
 34
0.0
100
AcDbRotatedDimension
1001
ACAD
1000
DSTYLE
1002
{
1070
   271
1070
     1
1002
}
  0
LINE
  5
4592F
330
1F
100
AcDbEntity
  8
D-BGD
100
AcDbLine
 10
10752.54276304604
 20
15120.89978416692
 30
0.0
 11
10752.54276304604
 21
12620.89978416692
 31
0.0
  0
LINE
  5
45930
330
1F
100
AcDbEntity
  8
D-BGD
100
AcDbLine
 10
10767.54276304604
 20
15120.89978416692
 30
0.0
 11
10767.54276304604
 21
12620.89978416692
 31
0.0
  0
DIMENSION
  5
45943
330
1F
100
AcDbEntity
  8
D-BGD-DIM
100
AcDbDimension
280
     0
  2
*D23
 10
11308.54276304604
 20
13420.89978416692
 30
0.0
 11
11261.04276304603
 21
14270.89978416692
 31
0.0
 70
    32
 71
     5
 42
1700.0
 73
     0
 74
     0
 75
     0
  3
SXF-20
100
AcDbAlignedDimension
 13
11008.54276304604
 23
15120.89978416692
 33
0.0
 14
11008.54276304604
 24
13420.89978416692
 34
0.0
 50
90.0
100
AcDbRotatedDimension
  0
DIMENSION
  5
45950
330
1F
100
AcDbEntity
  8
D-BGD-DIM
100
AcDbDimension
280
     0
  2
*D24
 10
11308.54276304604
 20
12620.89978416692
 30
0.0
 11
11261.04276304603
 21
13020.89978416692
 31
0.0
 70
    32
 71
     5
 42
800.0
 73
     0
 74
     0
 75
     0
  3
SXF-20
100
AcDbAlignedDimension
 13
11008.54276304604
 23
13420.89978416692
 33
0.0
 14
11008.54276304604
 24
12620.89978416692
 34
0.0
 50
90.0
100
AcDbRotatedDimension
  0
LINE
  5
45A84
330
1F
100
AcDbEntity
  8
D-STR
100
AcDbLine
 10
12970.55988147332
 20
15120.89978416692
 30
0.0
 11
13080.55988147332
 21
15120.89978416692
 31
0.0
  0
LINE
  5
45A85
330
1F
100
AcDbEntity
  8
D-STR
100
AcDbLine
 10
12970.55988147332
 20
15120.89978416692
 30
0.0
 11
12970.55988147332
 21
12620.89978416692
 31
0.0
  0
LINE
  5
45A87
330
1F
100
AcDbEntity
  8
D-STR
100
AcDbLine
 10
12970.55988147332
 20
12620.89978416692
 30
0.0
 11
14720.55988147332
 21
12620.89978416692
 31
0.0
  0
LINE
  5
45A8A
330
1F
100
AcDbEntity
  8
D-STR
100
AcDbLine
 10
14720.55988147332
 20
12620.89978416692
 30
0.0
 11
14720.55988147332
 21
12730.89978416692
 31
0.0
  0
DIMENSION
  5
45AC1
330
1F
100
AcDbEntity
  8
D-STR-DIM
100
AcDbDimension
280
     0
  2
*D25
 10
13080.55988147332
 20
15420.89978416692
 30
0.0
 11
13025.55988147332
 21
15468.39978416692
 31
0.0
 70
    32
 71
     5
 42
110.0
 73
     0
 74
     0
 75
     0
  3
SXF-20
100
AcDbAlignedDimension
 13
12970.55988147332
 23
15120.89978416692
 33
0.0
 14
13080.55988147332
 24
15120.89978416692
 34
0.0
100
AcDbRotatedDimension
  0
DIMENSION
  5
45AD0
330
1F
100
AcDbEntity
  8
D-STR-DIM
100
AcDbDimension
280
     0
  2
*D26
 10
15020.55988147332
 20
12620.89978416692
 30
0.0
 11
14973.05988147332
 21
12645.89978416692
 31
0.0
 70
   160
 71
     5
 42
110.0
 73
     0
 74
     0
 75
     0
  3
SXF-20
100
AcDbAlignedDimension
 13
14720.55988147332
 23
12730.89978416692
 33
0.0
 14
14720.55988147332
 24
12620.89978416692
 34
0.0
 50
90.0
100
AcDbRotatedDimension
  0
DIMENSION
  5
45ADF
330
1F
100
AcDbEntity
  8
D-STR-DIM1
100
AcDbDimension
280
     0
  2
*D27
 10
12670.55988147332
 20
14620.87417246688
 30
0.0
 11
12623.05988147332
 21
14870.88697831691
 31
0.0
 70
    32
 71
     5
 42
500.0256117000372
 73
     0
 74
     0
 75
     0
  3
SXF-20
100
AcDbAlignedDimension
 13
12970.55988147332
 23
15120.89978416692
 33
0.0
 14
12970.55988147332
 24
14620.87417246688
 34
0.0
 50
90.0
100
AcDbRotatedDimension
  0
DIMENSION
  5
45AEC
330
1F
100
AcDbEntity
  8
D-STR-DIM1
100
AcDbDimension
280
     0
  2
*D28
 10
12670.55988147332
 20
13120.89978416692
 30
0.0
 11
12623.05988147332
 21
13870.8869783169
 31
0.0
 70
    32
 71
     5
 42
1499.974388299962
 73
     0
 74
     0
 75
     0
  3
SXF-20
100
AcDbAlignedDimension
 13
12970.55988147332
 23
14620.87417246688
 33
0.0
 14
12970.55988147332
 24
13120.89978416692
 34
0.0
 50
90.0
100
AcDbRotatedDimension
  0
DIMENSION
  5
45AF9
330
1F
100
AcDbEntity
  8
D-STR-DIM1
100
AcDbDimension
280
     0
  2
*D29
 10
12670.55988147332
 20
12620.89978416692
 30
0.0
 11
12623.05988147332
 21
12870.89978416692
 31
0.0
 70
    32
 71
     5
 42
500.0
 73
     0
 74
     0
 75
     0
  3
SXF-20
100
AcDbAlignedDimension
 13
12970.55988147332
 23
13120.89978416692
 33
0.0
 14
12970.55988147332
 24
12620.89978416692
 34
0.0
 50
90.0
100
AcDbRotatedDimension
  0
DIMENSION
  5
45B2A
330
1F
100
AcDbEntity
  8
D-STR-DIM
100
AcDbDimension
280
     0
  2
*D30
 10
12370.55988147332
 20
12620.89978416692
 30
0.0
 11
12323.05988147332
 21
13870.89978416692
 31
0.0
 70
    32
 71
     5
 42
2500.0
 73
     0
 74
     0
 75
     0
  3
SXF-20
100
AcDbAlignedDimension
 13
12970.55988147332
 23
15120.89978416692
 33
0.0
 14
12970.55988147332
 24
12620.89978416692
 34
0.0
 50
90.0
100
AcDbRotatedDimension
  0
DIMENSION
  5
45B39
330
1F
100
AcDbEntity
  8
D-STR-DIM
100
AcDbDimension
280
     0
  2
*D31
 10
13405.55988147332
 20
12320.89978416692
 30
0.0
 11
13188.05988147332
 21
12368.39978416692
 31
0.0
 70
    32
 71
     5
 42
435.0
 73
     0
 74
     0
 75
     0
  3
SXF-20
100
AcDbAlignedDimension
 13
12970.55988147332
 23
12620.89978416692
 33
0.0
 14
13405.55988147332
 24
12620.89978416692
 34
0.0
100
AcDbRotatedDimension
  0
DIMENSION
  5
45B46
330
1F
100
AcDbEntity
  8
D-STR-DIM
100
AcDbDimension
280
     0
  2
*D32
 10
14720.55988147332
 20
12320.89978416692
 30
0.0
 11
14063.05988147332
 21
12368.39978416692
 31
0.0
 70
    32
 71
     5
 42
1315.0
 73
     0
 74
     0
 75
     0
  3
SXF-20
100
AcDbAlignedDimension
 13
13405.55988147332
 23
12620.89978416692
 33
0.0
 14
14720.55988147332
 24
12620.89978416692
 34
0.0
100
AcDbRotatedDimension
  0
DIMENSION
  5
45B53
330
1F
100
AcDbEntity
  8
D-STR-DIM
100
AcDbDimension
280
     0
  2
*D33
 10
14720.55988147332
 20
12020.89978416692
 30
0.0
 11
13845.55988147332
 21
12068.39978416692
 31
0.0
 70
    32
 71
     5
 42
1750.0
 73
     0
 74
     0
 75
     0
  3
SXF-20
100
AcDbAlignedDimension
 13
12970.55988147332
 23
12620.89978416692
 33
0.0
 14
14720.55988147332
 24
12620.89978416692
 34
0.0
100
AcDbRotatedDimension
  0
TEXT
  5
45B61
330
1F
100
AcDbEntity
  8
D-STR-HTXT
100
AcDbText
 10
13315.45863737219
 20
12908.46841982121
 30
0.0
 40
70.0
  1
R=250
 50
45.0
 72
     4
 11
13381.78525344749
 21
13023.16113972967
 31
0.0
100
AcDbText
  0
LINE
  5
463E0
330
1F
100
AcDbEntity
  8
D-STR-STR1
  6
Continuous
100
AcDbLine
 10
13116.18458290332
 20
14608.09130887139
 30
0.0
 11
13115.3273681835
 21
14634.55318902448
 31
0.0
  0
LINE
  5
463E1
330
1F
100
AcDbEntity
  8
D-STR-STR1
  6
Continuous
100
AcDbLine
 10
13103.57113610639
 20
14595.9127289449
 30
0.0
 11
13101.95233094836
 21
14645.88683938894
 31
0.0
  0
ARC
  5
463E2
330
1F
100
AcDbEntity
  8
D-STR-STR1
  6
Continuous
100
AcDbCircle
 10
13106.48217901976
 20
14634.26535611657
 30
0.0
 40
8.844741499999999
100
AcDbArc
 50
325.5462294308779
 51
38.16390143090191
  0
LINE
  5
463E3
330
1F
100
AcDbEntity
  8
D-STR-STR1
  6
Continuous
100
AcDbLine
 10
13103.35385896021
 20
14602.44928789853
 30
0.0
 11
13114.62961028486
 21
14602.81472368603
 31
0.0
  0
LINE
  5
463E4
330
1F
100
AcDbEntity
  8
D-STR-STR1
  6
Continuous
100
AcDbLine
 10
13097.56994324924
 20
14595.73439750118
 30
0.0
 11
13103.567216162
 21
14595.92868815967
 31
0.0
  0
LINE
  5
463E5
330
1F
100
AcDbEntity
  8
D-STR-STR1
  6
Continuous
100
AcDbLine
 10
13102.49863083381
 20
14628.91243925049
 30
0.0
 11
13113.77513743343
 21
14629.27738304235
 31
0.0
  0
LINE
  5
463E6
330
1F
100
AcDbEntity
  8
D-STR-STR1
  6
Continuous
100
AcDbLine
 10
13103.01523047894
 20
14612.92052881719
 30
0.0
 11
13114.29098712097
 21
14613.28546463298
 31
0.0
  0
ARC
  5
463E7
330
1F
100
AcDbEntity
  8
D-STR-STR1
  6
Continuous
100
AcDbCircle
 10
13107.3419015743
 20
14607.80275259284
 30
0.0
 40
8.84278575
100
AcDbArc
 50
325.5332794308839
 51
38.1842284309005
  0
ARC
  5
463E8
330
1F
100
AcDbEntity
  8
D-STR-STR1
  6
Continuous
100
AcDbCircle
 10
13096.2744723381
 20
14620.69003171709
 30
0.0
 40
19.48605625
100
AcDbArc
 50
337.6117294308936
 51
26.08965543094383
  0
LINE
  5
463E9
330
1F
100
AcDbEntity
  8
D-STR-STR1
  6
Continuous
100
AcDbLine
 10
13102.15851573084
 20
14639.38241428768
 30
0.0
 11
13113.43452501742
 21
14639.74710277629
 31
0.0
  0
LINE
  5
463EA
330
1F
100
AcDbEntity
  8
D-STR-STR1
  6
Continuous
100
AcDbLine
 10
13095.94988018581
 20
14645.70924460933
 30
0.0
 11
13101.94690311271
 21
14645.90353260912
 31
0.0
  0
LINE
  5
47160
330
1F
100
AcDbEntity
  8
D-BGD-DIM
100
AcDbLine
 10
6261.54276304604
 20
11702.14978416692
 30
0.0
 11
6261.54276304604
 21
11439.64978416692
 31
0.0
  0
LINE
  5
47161
330
1F
100
AcDbEntity
  8
D-BGD-DIM
100
AcDbLine
 10
8011.54276304604
 20
11702.14978416692
 30
0.0
 11
8011.54276304604
 21
11439.64978416692
 31
0.0
  0
TEXT
  5
472D1
330
1F
100
AcDbEntity
  8
D-BMK
100
AcDbText
 10
8175.26788817282
 20
10104.82590125329
 30
0.0
 40
70.0
  1
L
 50
90.0
100
AcDbText
  0
TEXT
  5
472D2
330
1F
100
AcDbEntity
  8
D-BMK
100
AcDbText
 10
8148.869150807918
 20
10093.42517673273
 30
0.0
 40
70.0
  1
C
 50
90.0
100
AcDbText
  0
TEXT
  5
47546
330
1F
100
AcDbEntity
  8
D-BMK
100
AcDbText
 10
9981.068155611845
 20
12483.57339640504
 30
0.0
 40
70.0
  1
C
100
AcDbText
  0
TEXT
  5
47547
330
1F
100
AcDbEntity
  8
D-BMK
100
AcDbText
 10
9992.468880132408
 20
12457.17465904015
 30
0.0
 40
70.0
  1
L
100
AcDbText
  0
TEXT
  5
47548
330
1F
100
AcDbEntity
  8
D-BMK
100
AcDbText
 10
9992.468880132408
 20
15157.17465904014
 30
0.0
 40
70.0
  1
L
100
AcDbText
  0
TEXT
  5
47549
330
1F
100
AcDbEntity
  8
D-BMK
100
AcDbText
 10
9981.068155611845
 20
15183.57339640505
 30
0.0
 40
70.0
  1
C
100
AcDbText
  0
LINE
  5
47570
330
1F
100
AcDbEntity
  8
D-BGD
100
AcDbLine
 10
10530.04276304604
 20
15120.89978416692
 30
0.0
 11
10530.04276304604
 21
12620.89978416692
 31
0.0
  0
LINE
  5
47571
330
1F
100
AcDbEntity
  8
D-BGD
100
AcDbLine
 10
10490.04276304604
 20
15120.89978416692
 30
0.0
 11
10490.04276304604
 21
12620.89978416692
 31
0.0
  0
LEADER
  5
475D7
330
1F
100
AcDbEntity
  8
D-STR-HTXT
100
AcDbLeader
  3
SXF-20
 76
     2
 10
13220.7388175678
 20
12869.38615500612
 30
0.0
 10
13282.86375514723
 20
12931.51109258554
 30
0.0
1001
ACAD
1000
DSTYLE
1002
{
1070
   147
1040
0.625
1070
    77
1070
     0
1002
}
  0
LINE
  5
48A36
330
1F
100
AcDbEntity
  8
D-BGD
100
AcDbLine
 10
8011.542763046042
 20
12730.89978416692
 30
0.0
 11
6675.309284979753
 21
12794.02608925686
 31
0.0
  0
LINE
  5
48A37
330
1F
100
AcDbEntity
  8
D-BGD
100
AcDbLine
 10
6371.54276304604
 20
15120.89978416692
 30
0.0
 11
6438.424657984167
 21
13034.83034691176
 31
0.0
  0
LEADER
  5
48AFD
330
1F
100
AcDbEntity
  8
D-STR-HTXT
100
AcDbLeader
  3
SXF-20
 76
     2
 10
6510.491146264428
 20
12869.09347209823
 30
0.0
 10
6583.899428624592
 20
12942.50175445839
 30
0.0
  0
ARC
  5
49315
330
1F
100
AcDbEntity
  8
D-BGD
100
AcDbCircle
 10
6688.267620819964
 20
13043.69002644494
 30
0.0
 40
250.0
100
AcDbArc
 50
182.0309142368531
 51
267.0288367380494
  0
LINE
  5
4969F
330
1F
100
AcDbEntity
  8
D-STR
100
AcDbLine
 10
13080.55988147332
 20
15120.89978416692
 30
0.0
 11
13148.0898409079
 21
13036.47503628618
 31
0.0
  0
LINE
  5
496A0
330
1F
100
AcDbEntity
  8
D-STR
100
AcDbLine
 10
14720.55988147332
 20
12730.89978416692
 30
0.0
 11
13385.99164862263
 21
12794.85672823325
 31
0.0
  0
ARC
  5
496A1
330
1F
100
AcDbEntity
  8
D-STR
100
AcDbCircle
 10
13397.95874508941
 20
13044.57014117327
 30
0.0
 40
250.0
100
AcDbArc
 50
181.8555857363653
 51
267.2562950237765
  0
LINE
  5
496A6
330
1F
100
AcDbEntity
  8
D-STR-STR1
  6
Continuous
100
AcDbLine
 10
13151.92448828274
 20
13103.23586280949
 30
0.0
 11
13163.20023960738
 21
13103.60129859699
 31
0.0
  0
LINE
  5
496A7
330
1F
100
AcDbEntity
  8
D-STR-STR1
  6
Continuous
100
AcDbLine
 10
13151.06926015633
 20
13129.69901416145
 30
0.0
 11
13162.34576675595
 21
13130.06395795331
 31
0.0
  0
LINE
  5
496A8
330
1F
100
AcDbEntity
  8
D-STR-STR1
  6
Continuous
100
AcDbLine
 10
13151.58585980147
 20
13113.70710372814
 30
0.0
 11
13162.86161644349
 21
13114.07203954394
 31
0.0
  0
LINE
  5
496A9
330
1F
100
AcDbEntity
  8
D-STR-STR1
  6
Continuous
100
AcDbLine
 10
13150.72914505336
 20
13140.16898919864
 30
0.0
 11
13162.00515433995
 21
13140.53367768725
 31
0.0
  0
LINE
  5
496AA
330
1F
100
AcDbEntity
  8
D-STR-STR1
  6
Continuous
100
AcDbLine
 10
13152.14176542891
 20
13096.69930385586
 30
0.0
 11
13150.52296027088
 21
13146.6734142999
 31
0.0
  0
LINE
  5
496AB
330
1F
100
AcDbEntity
  8
D-STR-STR1
  6
Continuous
100
AcDbLine
 10
13146.14057257176
 20
13096.52097241214
 30
0.0
 11
13152.13784548452
 21
13096.71526307063
 31
0.0
  0
LINE
  5
496AC
330
1F
100
AcDbEntity
  8
D-STR-STR1
  6
Continuous
100
AcDbLine
 10
13144.52050950833
 20
13146.49581952029
 30
0.0
 11
13150.51753243523
 21
13146.69010752008
 31
0.0
  0
LINE
  5
496AD
330
1F
100
AcDbEntity
  8
D-STR-STR1
  6
Continuous
100
AcDbLine
 10
13164.75521222584
 20
13108.87788378235
 30
0.0
 11
13163.89799750602
 21
13135.33976393544
 31
0.0
  0
ARC
  5
496AE
330
1F
100
AcDbEntity
  8
D-STR-STR1
  6
Continuous
100
AcDbCircle
 10
13155.05280834229
 20
13135.05193102753
 30
0.0
 40
8.844741499999999
100
AcDbArc
 50
325.5462294308779
 51
38.16390143090191
  0
ARC
  5
496AF
330
1F
100
AcDbEntity
  8
D-STR-STR1
  6
Continuous
100
AcDbCircle
 10
13155.91253089683
 20
13108.58932750379
 30
0.0
 40
8.84278575
100
AcDbArc
 50
325.5332794308839
 51
38.1842284309005
  0
ARC
  5
496B0
330
1F
100
AcDbEntity
  8
D-STR-STR1
  6
Continuous
100
AcDbCircle
 10
13144.84510166062
 20
13121.47660662805
 30
0.0
 40
19.48605625
100
AcDbArc
 50
337.6117294308936
 51
26.08965543094383
  0
LINE
  5
496B1
330
1F
100
AcDbEntity
  8
D-STR
100
AcDbLine
 10
13405.55988147332
 20
12793.91895349599
 30
0.0
 11
13405.55988147332
 21
12620.89978416692
 31
0.0
  0
LINE
  5
4988C
330
1F
100
AcDbEntity
  8
D-STR
100
AcDbLine
 10
17870.55988147332
 20
13090.89853416692
 30
0.0
 11
17870.55988147332
 21
12620.89903416692
 31
0.0
  0
LINE
  5
4988D
330
1F
100
AcDbEntity
  8
D-STR
  6
SXF_一点鎖線
100
AcDbLine
 10
18120.55988147332
 20
15120.89978416692
 30
0.0
 11
18120.55988147332
 21
12620.89903416692
 31
0.0
  0
LINE
  5
4988E
330
1F
100
AcDbEntity
  8
D-STR
100
AcDbLine
 10
15870.55988147332
 20
13090.89853416692
 30
0.0
 11
15870.55988147332
 21
12620.89903416692
 31
0.0
  0
LINE
  5
4988F
330
1F
100
AcDbEntity
  8
D-STR
  6
SXF_一点鎖線
100
AcDbLine
 10
15620.55988147332
 20
15120.89978416692
 30
0.0
 11
15620.55988147332
 21
12620.89903416692
 31
0.0
  0
LINE
  5
49890
330
1F
100
AcDbEntity
  8
D-STR
100
AcDbLine
 10
15620.55988147332
 20
12730.89903416692
 30
0.0
 11
18120.55988147332
 21
12730.89903416692
 31
0.0
  0
LINE
  5
49891
330
1F
100
AcDbEntity
  8
D-STR
100
AcDbLine
 10
15620.55988147332
 20
12620.89903416692
 30
0.0
 11
18120.55988147332
 21
12620.89903416692
 31
0.0
  0
DIMENSION
  5
49892
330
1F
100
AcDbEntity
  8
D-STR-DIM
100
AcDbDimension
280
     0
  2
*D34
 10
17870.55988147332
 20
15420.89978416692
 30
0.0
 11
16870.55988147332
 21
15468.39978416692
 31
0.0
 70
    32
 71
     5
 42
2000.0
 73
     0
 74
     0
 75
     0
  3
SXF-20
100
AcDbAlignedDimension
 13
15870.55988147332
 23
15120.89978416692
 33
0.0
 14
17870.55988147332
 24
15120.89978416692
 34
0.0
100
AcDbRotatedDimension
  0
LINE
  5
49893
330
1F
100
AcDbEntity
  8
D-STR
100
AcDbLine
 10
15620.55988147332
 20
15120.89903416692
 30
0.0
 11
18120.55988147332
 21
15120.89903416692
 31
0.0
  0
MTEXT
  5
49894
330
1F
100
AcDbEntity
  8
D-STR-HTXT
100
AcDbMText
 10
15976.5015487335
 20
12944.77903262589
 30
0.0
 40
70.0
 41
0.0
 46
0.0
 71
     7
 72
     1
  1
連結金具
 73
     1
 44
1.0
  0
LEADER
  5
49895
330
1F
100
AcDbEntity
  8
D-STR-HTXT
100
AcDbLeader
  3
SXF-20
 76
     3
 10
15870.55663147332
 20
13090.89853416692
 30
0.0
 10
15962.38443551557
 20
12931.84811201828
 30
0.0
 10
16414.43687948727
 20
12931.84811201828
 30
0.0
1001
ACAD
1000
DSTYLE
1002
{
1070
   147
1040
0.625
1070
    77
1070
     0
1002
}
  0
DIMENSION
  5
49896
330
1F
100
AcDbEntity
  8
D-STR-DIM
100
AcDbDimension
280
     0
  2
*D35
 10
15320.55988147332
 20
13995.89903416692
 30
0.0
 11
15273.05988147332
 21
14558.39903416692
 31
0.0
 70
    32
 71
     5
 42
1125.0
 73
     0
 74
     0
 75
     0
  3
SXF-20
100
AcDbAlignedDimension
 13
15620.55988147332
 23
15120.89903416692
 33
0.0
 14
15620.55988147332
 24
13995.89903416692
 34
0.0
 50
90.0
100
AcDbRotatedDimension
  0
LINE
  5
49897
330
1F
100
AcDbEntity
  8
D-STR
100
AcDbLine
 10
15870.55988147332
 20
14590.89853416692
 30
0.0
 11
15870.55988147332
 21
13150.89853416692
 31
0.0
  0
CIRCLE
  5
49898
330
1F
100
AcDbEntity
  8
D-STR-STR1
100
AcDbCircle
 10
15795.55663147332
 20
13120.89903416692
 30
0.0
 40
15.99999975
  0
LINE
  5
49899
330
1F
100
AcDbEntity
  8
D-STR-STR1
100
AcDbLine
 10
15970.55663147332
 20
13150.89853416692
 30
0.0
 11
15770.55663147332
 21
13150.89853416692
 31
0.0
  0
LINE
  5
4989A
330
1F
100
AcDbEntity
  8
D-STR-STR1
100
AcDbLine
 10
15970.55663147332
 20
13090.89853416692
 30
0.0
 11
15770.55663147332
 21
13090.89853416692
 31
0.0
  0
LINE
  5
4989B
330
1F
100
AcDbEntity
  8
D-STR-STR1
100
AcDbLine
 10
15770.55663147332
 20
13150.89928416692
 30
0.0
 11
15770.55663147332
 21
13090.89953416692
 31
0.0
  0
LINE
  5
4989C
330
1F
100
AcDbEntity
  8
D-STR-STR1
100
AcDbLine
 10
15970.55663147332
 20
13150.89928416692
 30
0.0
 11
15970.55663147332
 21
13090.89953416692
 31
0.0
  0
CIRCLE
  5
4989D
330
1F
100
AcDbEntity
  8
D-STR-STR1
100
AcDbCircle
 10
15945.55663147333
 20
13120.89903416692
 30
0.0
 40
15.99999975
  0
DIMENSION
  5
4989E
330
1F
100
AcDbEntity
  8
D-STR-DIM1
100
AcDbDimension
280
     0
  2
*D36
 10
15945.55663147333
 20
14390.89853416692
 30
0.0
 11
15870.55663147332
 21
14438.39853416692
 31
0.0
 70
    32
 71
     5
 42
150.0
 73
     0
 74
     0
 75
     0
  3
SXF-20
100
AcDbAlignedDimension
 13
15795.55663147332
 23
14590.89853416692
 33
0.0
 14
15945.55663147333
 24
14590.89853416692
 34
0.0
100
AcDbRotatedDimension
  0
CIRCLE
  5
4989F
330
1F
100
AcDbEntity
  8
D-STR-STR1
100
AcDbCircle
 10
15795.55663147332
 20
14620.89903416692
 30
0.0
 40
15.99999975
  0
LINE
  5
498A0
330
1F
100
AcDbEntity
  8
D-STR-STR1
100
AcDbLine
 10
15970.55663147332
 20
14650.89853416692
 30
0.0
 11
15770.55663147332
 21
14650.89853416692
 31
0.0
  0
LINE
  5
498A1
330
1F
100
AcDbEntity
  8
D-STR-STR1
100
AcDbLine
 10
15970.55663147332
 20
14590.89853416692
 30
0.0
 11
15770.55663147332
 21
14590.89853416692
 31
0.0
  0
LINE
  5
498A2
330
1F
100
AcDbEntity
  8
D-STR-STR1
100
AcDbLine
 10
15770.55663147332
 20
14650.89928416692
 30
0.0
 11
15770.55663147332
 21
14590.89953416692
 31
0.0
  0
LINE
  5
498A3
330
1F
100
AcDbEntity
  8
D-STR-STR1
100
AcDbLine
 10
15970.55663147332
 20
14650.89928416692
 30
0.0
 11
15970.55663147332
 21
14590.89953416692
 31
0.0
  0
CIRCLE
  5
498A4
330
1F
100
AcDbEntity
  8
D-STR-STR1
100
AcDbCircle
 10
15945.55663147333
 20
14620.89903416692
 30
0.0
 40
15.99999975
  0
LINE
  5
498A5
330
1F
100
AcDbEntity
  8
D-STR
100
AcDbLine
 10
15870.55988147332
 20
15120.89978416692
 30
0.0
 11
15870.55988147332
 21
14650.89853416692
 31
0.0
  0
LINE
  5
498A6
330
1F
100
AcDbEntity
  8
D-BMK
100
AcDbLine
 10
17369.05738147332
 20
14046.69903416692
 30
0.0
 11
17369.05738147332
 21
13945.09903416692
 31
0.0
  0
CIRCLE
  5
498A7
330
1F
100
AcDbEntity
  8
D-STR
100
AcDbCircle
 10
17369.05738147332
 20
13995.89903416692
 30
0.0
 40
30.8
  0
LINE
  5
498A8
330
1F
100
AcDbEntity
  8
D-BMK
100
AcDbLine
 10
16372.06238147332
 20
14046.69903416692
 30
0.0
 11
16372.06238147332
 21
13945.09903416692
 31
0.0
  0
CIRCLE
  5
498A9
330
1F
100
AcDbEntity
  8
D-STR
100
AcDbCircle
 10
16372.06238147332
 20
13995.89903416692
 30
0.0
 40
30.8
  0
MTEXT
  5
498AA
330
1F
100
AcDbEntity
  8
D-STR-HTXT
100
AcDbMText
 10
16477.9990487335
 20
13849.78516179102
 30
0.0
 40
70.0
 41
0.0
 46
0.0
 71
     7
 72
     1
  1
dehaアンカー
 73
     1
 44
1.0
  0
LEADER
  5
498AB
330
1F
100
AcDbEntity
  8
D-STR-HTXT
100
AcDbLeader
  3
SXF-20
 76
     3
 10
16372.05413147332
 20
13995.90466333205
 30
0.0
 10
16463.88193551557
 20
13836.8542411834
 30
0.0
 10
17084.77730157848
 20
13836.8542411834
 30
0.0
1001
ACAD
1000
DSTYLE
1002
{
1070
   147
1040
0.625
1070
    77
1070
     0
1002
}
  0
LINE
  5
498AC
330
1F
100
AcDbEntity
  8
D-BMK
100
AcDbLine
 10
16372.06238147332
 20
13363.39903416692
 30
0.0
 11
16372.06238147332
 21
13478.39903416692
 31
0.0
  0
CIRCLE
  5
498AD
330
1F
100
AcDbEntity
  8
D-STR
100
AcDbCircle
 10
16372.06238147332
 20
13420.89903416692
 30
0.0
 40
37.5
  0
LEADER
  5
498AE
330
1F
100
AcDbEntity
  8
D-STR-HTXT
100
AcDbLeader
  3
SXF-20
 76
     3
 10
16372.05413147332
 20
13420.90466333205
 30
0.0
 10
16463.88193551557
 20
13261.8542411834
 30
0.0
 10
16791.28922354082
 20
13261.8542411834
 30
0.0
1001
ACAD
1000
DSTYLE
1002
{
1070
   147
1040
0.625
1070
    77
1070
     0
1002
}
  0
MTEXT
  5
498AF
330
1F
100
AcDbEntity
  8
D-STR-HTXT
100
AcDbMText
 10
16477.9990487335
 20
13274.78516179102
 30
0.0
 40
70.0
 41
0.0
 46
0.0
 71
     7
 72
     1
  1
水抜穴
 73
     1
 44
1.0
  0
LINE
  5
498B0
330
1F
100
AcDbEntity
  8
D-BMK
100
AcDbLine
 10
16314.56238147332
 20
13420.89903416692
 30
0.0
 11
16429.56238147332
 21
13420.89903416692
 31
0.0
  0
LINE
  5
498B1
330
1F
100
AcDbEntity
  8
D-BMK
100
AcDbLine
 10
16422.86238147332
 20
13995.89903416692
 30
0.0
 11
16321.26238147332
 21
13995.89903416692
 31
0.0
  0
LINE
  5
498B2
330
1F
100
AcDbEntity
  8
D-BMK
100
AcDbLine
 10
17369.05738147332
 20
13363.39903416692
 30
0.0
 11
17369.05738147332
 21
13478.39903416692
 31
0.0
  0
CIRCLE
  5
498B3
330
1F
100
AcDbEntity
  8
D-STR
100
AcDbCircle
 10
17369.05738147332
 20
13420.89903416692
 30
0.0
 40
37.5
  0
LINE
  5
498B4
330
1F
100
AcDbEntity
  8
D-BMK
100
AcDbLine
 10
17426.55738147333
 20
13420.89903416692
 30
0.0
 11
17311.55738147333
 21
13420.89903416692
 31
0.0
  0
LINE
  5
498B5
330
1F
100
AcDbEntity
  8
D-BMK
100
AcDbLine
 10
17318.25738147333
 20
13995.89903416692
 30
0.0
 11
17419.85738147332
 21
13995.89903416692
 31
0.0
  0
LINE
  5
498B6
330
1F
100
AcDbEntity
  8
D-STR
100
AcDbLine
 10
17870.55988147332
 20
14590.89853416692
 30
0.0
 11
17870.55988147332
 21
13150.89853416692
 31
0.0
  0
LINE
  5
498B7
330
1F
100
AcDbEntity
  8
D-STR-STR1
100
AcDbLine
 10
17970.55663147332
 20
13150.89853416692
 30
0.0
 11
17770.55663147332
 21
13150.89853416692
 31
0.0
  0
LINE
  5
498B8
330
1F
100
AcDbEntity
  8
D-STR-STR1
100
AcDbLine
 10
17970.55663147332
 20
13090.89853416692
 30
0.0
 11
17770.55663147332
 21
13090.89853416692
 31
0.0
  0
LINE
  5
498B9
330
1F
100
AcDbEntity
  8
D-STR-STR1
100
AcDbLine
 10
17770.55663147332
 20
13150.89928416692
 30
0.0
 11
17770.55663147332
 21
13090.89953416692
 31
0.0
  0
CIRCLE
  5
498BA
330
1F
100
AcDbEntity
  8
D-STR-STR1
100
AcDbCircle
 10
17795.55663147332
 20
13120.89903416692
 30
0.0
 40
15.99999975
  0
LINE
  5
498BB
330
1F
100
AcDbEntity
  8
D-STR-STR1
100
AcDbLine
 10
17970.55663147332
 20
13150.89928416692
 30
0.0
 11
17970.55663147332
 21
13090.89953416692
 31
0.0
  0
CIRCLE
  5
498BC
330
1F
100
AcDbEntity
  8
D-STR-STR1
100
AcDbCircle
 10
17945.55663147332
 20
13120.89903416692
 30
0.0
 40
15.99999975
  0
LINE
  5
498BD
330
1F
100
AcDbEntity
  8
D-STR-STR1
100
AcDbLine
 10
17970.55663147332
 20
14650.89853416692
 30
0.0
 11
17770.55663147332
 21
14650.89853416692
 31
0.0
  0
LINE
  5
498BE
330
1F
100
AcDbEntity
  8
D-STR-STR1
100
AcDbLine
 10
17970.55663147332
 20
14590.89853416692
 30
0.0
 11
17770.55663147332
 21
14590.89853416692
 31
0.0
  0
LINE
  5
498BF
330
1F
100
AcDbEntity
  8
D-STR
100
AcDbLine
 10
17870.55988147332
 20
15120.89978416692
 30
0.0
 11
17870.55988147332
 21
14650.89853416692
 31
0.0
  0
CIRCLE
  5
498C0
330
1F
100
AcDbEntity
  8
D-STR-STR1
100
AcDbCircle
 10
17795.55663147332
 20
14620.89903416692
 30
0.0
 40
15.99999975
  0
LINE
  5
498C1
330
1F
100
AcDbEntity
  8
D-STR-STR1
100
AcDbLine
 10
17770.55663147332
 20
14650.89928416692
 30
0.0
 11
17770.55663147332
 21
14590.89953416692
 31
0.0
  0
CIRCLE
  5
498C2
330
1F
100
AcDbEntity
  8
D-STR-STR1
100
AcDbCircle
 10
17945.55663147332
 20
14620.89903416692
 30
0.0
 40
15.99999975
  0
LINE
  5
498C3
330
1F
100
AcDbEntity
  8
D-STR-STR1
100
AcDbLine
 10
17970.55663147332
 20
14650.89928416692
 30
0.0
 11
17970.55663147332
 21
14590.89953416692
 31
0.0
  0
LWPOLYLINE
  5
4997B
330
1F
100
AcDbEntity
  8
D-TTL-TXT
100
AcDbPolyline
 90
        4
 70
     1
 43
0.0
 10
13671.41702433045
 20
15939.64264130977
 10
12970.55988147333
 20
15939.64264130977
 10
12970.55988147333
 20
15720.89978416692
 10
13671.41702433045
 20
15720.89978416692
  0
TEXT
  5
4997C
330
1F
100
AcDbEntity
  8
D-TTL-TXT
100
AcDbText
 10
13032.13567931104
 20
15778.84701057606
 30
0.0
 40
100.0
  1
構 造 図
 72
     4
 11
13324.70710788247
 21
15830.27558200463
 31
0.0
100
AcDbText
  0
MTEXT
  5
49C2F
330
1F
100
AcDbEntity
  8
D-STR-HTXT
100
AcDbMText
 10
10548.99964930131
 20
13503.62212837906
 30
0.0
 40
70.0
 41
0.0
 46
0.0
 71
     7
 72
     1
  1
φ75
 73
     1
 44
1.0
  0
LINE
  5
49C30
330
1F
100
AcDbEntity
  8
D-BMK
100
AcDbLine
 10
10452.54276004604
 20
13420.89978416692
 30
0.0
 11
10567.54276604604
 21
13420.89978416692
 31
0.0
  0
CIRCLE
  5
49C31
330
1F
100
AcDbEntity
  8
D-BGD
  6
Continuous
100
AcDbCircle
 10
10510.04276304604
 20
13420.89978416692
 30
0.0
 40
37.500003
  0
LINE
  5
49C32
330
1F
100
AcDbEntity
  8
D-BMK
100
AcDbLine
 10
9510.04276304604
 20
13363.39978116692
 30
0.0
 11
9510.04276304604
 21
13478.39978716692
 31
0.0
  0
CIRCLE
  5
49C33
330
1F
100
AcDbEntity
  8
D-BGD
  6
Continuous
100
AcDbCircle
 10
9510.04276304604
 20
13420.89978416692
 30
0.0
 40
37.500003
  0
LINE
  5
49C34
330
1F
100
AcDbEntity
  8
D-BMK
100
AcDbLine
 10
9567.54276604604
 20
13420.89978416692
 30
0.0
 11
9452.542760046041
 21
13420.89978416692
 31
0.0
  0
LINE
  5
49C35
330
1F
100
AcDbEntity
  8
D-BMK
100
AcDbLine
 10
10510.04276304604
 20
13363.39978116692
 30
0.0
 11
10510.04276304604
 21
13478.39978716692
 31
0.0
  0
LINE
  5
49C36
330
1F
100
AcDbEntity
  8
D-STR-HTXT
100
AcDbLine
 10
10570.16829067036
 20
13495.89978416692
 30
0.0
 11
10754.37145746324
 21
13495.89978416692
 31
0.0
1001
ACAD
1000
DSTYLE
1002
{
1070
   147
1040
0.625
1070
    77
1070
     0
1002
}
  0
INSERT
  5
49C37
330
1F
100
AcDbEntity
  8
D-STR-HTXT
100
AcDbBlockReference
  2
_OPEN
 10
10539.79068293507
 20
13443.28422415701
 30
0.0
 41
40.00000000000013
 42
40.00000000000013
 43
40.00000000000013
 50
240.0000000000002
1001
ACAD
1000
DSTYLE
1002
{
1070
   147
1040
0.625
1070
    77
1070
     0
1002
}
  0
LINE
  5
49C38
330
1F
100
AcDbEntity
  8
D-STR-HTXT
100
AcDbLine
 10
10559.79068293507
 20
13477.92524030839
 30
0.0
 11
10570.16829067036
 21
13495.89978416692
 31
0.0
1001
ACAD
1000
DSTYLE
1002
{
1070
   147
1040
0.625
1070
    77
1070
     0
1002
}
  0
MTEXT
  5
49C54
330
1F
100
AcDbEntity
  8
D-STR-HTXT
100
AcDbMText
 10
7141.770733540614
 20
10334.36292491789
 30
0.0
 40
70.0
 41
0.0
 46
0.0
 71
     7
 72
     1
  1
dehaアンカー
 73
     1
 44
1.0
  0
LINE
  5
49C55
330
1F
100
AcDbEntity
  8
D-STR-HTXT
100
AcDbLine
 10
7127.029474670765
 20
10322.39978416692
 30
0.0
 11
7769.858347903194
 21
10322.39978416692
 31
0.0
  0
LINE
  5
49C56
330
1F
100
AcDbEntity
  8
D-STR-HTXT
100
AcDbLine
 10
7209.866505357462
 20
10178.92183826942
 30
0.0
 11
7127.029474670765
 21
10322.39978416692
 31
0.0
  0
INSERT
  5
49C57
330
1F
100
AcDbEntity
  8
D-STR-HTXT
100
AcDbBlockReference
  2
_OPEN
 10
7229.866505357462
 20
10144.28082211804
 30
0.0
 41
-40.00000000000013
 42
40.0
 43
40.0
 50
119.9999999999999
  0
LINE
  5
49C58
330
1F
100
AcDbEntity
  8
D-BMK
100
AcDbLine
 10
7251.542763046039
 20
10173.19978366692
 30
0.0
 11
7251.542763046039
 21
10071.59978466692
 31
0.0
  0
LWPOLYLINE
  5
4A1AD
330
1F
100
AcDbEntity
  8
D-TTL-TXT
100
AcDbPolyline
 90
        4
 70
     1
 43
0.0
 10
5961.54276304604
 20
15636.81406988119
 10
5271.685620188895
 20
15636.81406988119
 10
5271.685620188895
 20
15420.89978416692
 10
5961.54276304604
 20
15420.89978416692
  0
TEXT
  5
4A1AE
330
1F
100
AcDbEntity
  8
D-TTL-TXT
100
AcDbText
 10
5323.189932956051
 20
15478.86123979121
 30
0.0
 40
100.0
  1
断 面 図
 72
     4
 11
5615.761361527479
 21
15528.86123979121
 31
0.0
100
AcDbText
  0
LINE
  5
4A31C
330
1F
100
AcDbEntity
  8
D-BGD
100
AcDbLine
 10
9030.042763046042
 20
15120.89978416692
 30
0.0
 11
9030.042763046042
 21
12620.89978416692
 31
0.0
  0
LINE
  5
4A31D
330
1F
100
AcDbEntity
  8
D-BGD
100
AcDbLine
 10
9530.042763046042
 20
15120.89978416692
 30
0.0
 11
9530.042763046042
 21
12620.89978416692
 31
0.0
  0
LINE
  5
4A31E
330
1F
100
AcDbEntity
  8
D-BGD
100
AcDbLine
 10
9490.042763046041
 20
15120.89978416692
 30
0.0
 11
9490.042763046041
 21
12620.89978416692
 31
0.0
  0
LINE
  5
4A31F
330
1F
100
AcDbEntity
  8
D-BGD
100
AcDbLine
 10
9252.542763046042
 20
15120.89978416692
 30
0.0
 11
9252.542763046042
 21
12620.89978416692
 31
0.0
  0
LINE
  5
4A320
330
1F
100
AcDbEntity
  8
D-BGD
100
AcDbLine
 10
9267.542763046042
 20
15120.89978416692
 30
0.0
 11
9267.542763046042
 21
12620.89978416692
 31
0.0
  0
LINE
  5
4A321
330
1F
100
AcDbEntity
  8
D-BGD
100
AcDbLine
 10
9745.042763046043
 20
15120.89978416692
 30
0.0
 11
9745.042763046043
 21
12620.89978416692
 31
0.0
  0
LINE
  5
4A322
330
1F
100
AcDbEntity
  8
D-BGD
100
AcDbLine
 10
9760.042763046042
 20
15120.89978416692
 30
0.0
 11
9760.042763046042
 21
12620.89978416692
 31
0.0
  0
LINE
  5
4A323
330
1F
100
AcDbEntity
  8
D-BGD
100
AcDbLine
 10
9990.042763046041
 20
15120.89978416692
 30
0.0
 11
9990.042763046041
 21
12620.89978416692
 31
0.0
  0
DIMENSION
  5
4A325
330
1F
100
AcDbEntity
  8
D-BGD-DIM
100
AcDbDimension
280
     0
  2
*D38
 10
9011.54276304604
 20
15420.89978416692
 30
0.0
 11
9135.792763046039
 21
15468.39978416692
 31
0.0
 70
    32
 71
     5
 42
248.5
 73
     0
 74
     0
 75
     0
  3
SXF-20
100
AcDbAlignedDimension
 13
9260.04276304604
 23
15120.89978416692
 33
0.0
 14
9011.54276304604
 24
15120.89978416692
 34
0.0
 50
180.0
100
AcDbRotatedDimension
1001
ACAD
1000
DSTYLE
1002
{
1070
   271
1070
     1
1002
}
  0
DIMENSION
  5
4A326
330
1F
100
AcDbEntity
  8
D-BGD-DIM
100
AcDbDimension
280
     0
  2
*D37
 10
9260.04276304604
 20
15420.89978416692
 30
0.0
 11
9635.04276304604
 21
15472.79978416692
 31
0.0
 70
    32
  1
3@250=<>
 71
     5
 42
750.0
 73
     0
 74
     0
 75
     0
  3
SXF-20
100
AcDbAlignedDimension
 13
10010.04276304604
 23
15320.89978416692
 33
0.0
 14
9260.04276304604
 24
15120.89978416692
 34
0.0
 50
180.0
100
AcDbRotatedDimension
  0
LWPOLYLINE
  5
4A35F
330
1F
100
AcDbEntity
  8
D-TTL-TXT
100
AcDbPolyline
 90
        4
 70
     1
 43
0.0
 10
8696.138304485707
 20
15636.81406988119
 10
8006.281161628562
 20
15636.81406988119
 10
8006.281161628562
 20
15420.89978416692
 10
8696.138304485707
 20
15420.89978416692
  0
TEXT
  5
4A360
330
1F
100
AcDbEntity
  8
D-TTL-TXT
100
AcDbText
 10
8057.785474395718
 20
15478.57552550549
 30
0.0
 40
100.0
  1
側 面 図
 72
     4
 11
8350.356902967146
 21
15528.86123979121
 31
0.0
100
AcDbText
  0
LWPOLYLINE
  5
4A361
330
1F
100
AcDbEntity
  8
D-TTL-TXT
100
AcDbPolyline
 90
        4
 70
     1
 43
0.0
 10
5961.542763046039
 20
11700.44367256663
 10
5271.685620188894
 20
11700.44367256663
 10
5271.685620188894
 20
11484.52938685236
 10
5961.542763046039
 20
11484.52938685236
  0
TEXT
  5
4A362
330
1F
100
AcDbEntity
  8
D-TTL-TXT
100
AcDbText
 10
5323.189932956049
 20
11543.06227104808
 30
0.0
 40
100.0
  1
平 面 図
 72
     4
 11
5615.761361527478
 21
11592.49084247665
 31
0.0
100
AcDbText
  0
VIEWPORT
  5
214E2
330
214E1
100
AcDbEntity
 67
     1
  8
0
100
AcDbViewport
 10
420.5000039163311
 20
317.6954415278665
 30
0.0
 40
1017.70372737027
 41
614.2824687489045
 68
     1
 69
     1
 12
420.5000039163311
 22
317.6954415278665
 13
0.0
 23
0.0
 14
10.0
 24
10.0
 15
10.0
 25
10.0
 16
0.0
 26
0.0
 36
1.0
 17
0.0
 27
0.0
 37
0.0
 42
50.0
 43
0.0
 44
0.0
 45
614.2824687489045
 50
0.0
 51
0.0
 72
   100
 90
    32800
  1

281
     0
 71
     1
 74
     0
110
0.0
120
0.0
130
0.0
111
1.0
121
0.0
131
0.0
112
0.0
122
1.0
132
0.0
 79
     0
146
0.0
170
     0
 61
     5
348
4A390
292
     1
282
     1
141
0.0
142
0.0
 63
   250
421
  3355443
  0
TEXT
  5
37D0C
330
214E1
100
AcDbEntity
 67
     1
  8
0
 62
     7
370
     0
100
AcDbText
 10
304.7990235012664
 20
-492.9645257403233
 30
0.0
 40
3.185536336889355
  1

  7
WMF-ＭＳ 明朝0
100
AcDbText
  0
TEXT
  5
37D0D
330
214E1
100
AcDbEntity
 67
     1
  8
0
 62
     7
370
     0
100
AcDbText
 10
418.3428929349463
 20
-492.9645257403233
 30
0.0
 40
3.185536336889355
  1

  7
WMF-ＭＳ 明朝0
100
AcDbText
  0
TEXT
  5
37D10
330
214E1
100
AcDbEntity
 67
     1
  8
0
 62
     7
370
     0
100
AcDbText
 10
367.2481516897903
 20
-396.925336177669
 30
0.0
 40
3.185536336889355
  1

  7
WMF-ＭＳ 明朝0
100
AcDbText
  0
TEXT
  5
37D11
330
214E1
100
AcDbEntity
 67
     1
  8
0
 62
     7
370
     0
100
AcDbText
 10
321.8306039163184
 20
-492.9645257403233
 30
0.0
 40
3.185536336889355
  1

  7
WMF-ＭＳ 明朝0
100
AcDbText
  0
TEXT
  5
37D12
330
214E1
100
AcDbEntity
 67
     1
  8
0
 62
     7
370
     0
100
AcDbText
 10
344.5393778030544
 20
-492.9645257403233
 30
0.0
 40
3.185536336889355
  1

  7
WMF-ＭＳ 明朝0
100
AcDbText
  0
TEXT
  5
37D13
330
214E1
100
AcDbEntity
 67
     1
  8
0
 62
     7
370
     0
100
AcDbText
 10
367.2481516897903
 20
-492.9645257403233
 30
0.0
 40
3.185536336889355
  1

  7
WMF-ＭＳ 明朝0
100
AcDbText
  0
TEXT
  5
37D14
330
214E1
100
AcDbEntity
 67
     1
  8
0
 62
     7
370
     0
100
AcDbText
 10
395.6341190482104
 20
-492.9645257403233
 30
0.0
 40
3.185536336889355
  1

  7
WMF-ＭＳ 明朝0
100
AcDbText
  0
TEXT
  5
37D15
330
214E1
100
AcDbEntity
 67
     1
  8
0
 62
     7
370
     0
100
AcDbText
 10
287.7674430862144
 20
-492.9645257403233
 30
0.0
 40
3.185536336889355
  1

  7
WMF-ＭＳ 明朝0
100
AcDbText
  0
TEXT
  5
37D1A
330
214E1
100
AcDbEntity
 67
     1
  8
0
 62
     7
370
     0
100
AcDbText
 10
287.7674430862144
 20
-486.1045836287051
 30
0.0
 40
3.185536336889355
  1

  7
WMF-ＭＳ 明朝0
100
AcDbText
  0
TEXT
  5
37D20
330
214E1
100
AcDbEntity
 67
     1
  8
0
 62
     7
370
     0
100
AcDbText
 10
304.7990235012664
 20
-396.925336177669
 30
0.0
 40
3.185536336889355
  1

  7
WMF-ＭＳ 明朝0
100
AcDbText
  0
TEXT
  5
37D22
330
214E1
100
AcDbEntity
 67
     1
  8
0
 62
     7
370
     0
100
AcDbText
 10
287.7674430862144
 20
-410.6452204009054
 30
0.0
 40
3.185536336889355
  1

  7
WMF-ＭＳ 明朝0
100
AcDbText
  0
TEXT
  5
37D27
330
214E1
100
AcDbEntity
 67
     1
  8
0
 62
     7
370
     0
100
AcDbText
 10
287.7674430862144
 20
-396.925336177669
 30
0.0
 40
3.185536336889355
  1

  7
WMF-ＭＳ 明朝0
100
AcDbText
  0
TEXT
  5
37D28
330
214E1
100
AcDbEntity
 67
     1
  8
0
 62
     7
370
     0
100
AcDbText
 10
304.7990235012664
 20
-410.6452204009054
 30
0.0
 40
3.185536336889355
  1

  7
WMF-ＭＳ 明朝0
100
AcDbText
  0
TEXT
  5
37D33
330
214E1
100
AcDbEntity
 67
     1
  8
0
 62
     7
370
     0
100
AcDbText
 10
304.7990235012664
 20
-486.1045836287051
 30
0.0
 40
3.185536336889355
  1

  7
WMF-ＭＳ 明朝0
100
AcDbText
  0
TEXT
  5
37D34
330
214E1
100
AcDbEntity
 67
     1
  8
0
 62
     7
370
     0
100
AcDbText
 10
321.8306039163184
 20
-410.6452204009054
 30
0.0
 40
3.185536336889355
  1

  7
WMF-ＭＳ 明朝0
100
AcDbText
  0
TEXT
  5
37D36
330
214E1
100
AcDbEntity
 67
     1
  8
0
 62
     7
370
     0
100
AcDbText
 10
321.8306039163184
 20
-424.3651046241416
 30
0.0
 40
3.185536336889355
  1

  7
WMF-ＭＳ 明朝0
100
AcDbText
  0
TEXT
  5
37D40
330
214E1
100
AcDbEntity
 67
     1
  8
0
 62
     7
370
     0
100
AcDbText
 10
321.8306039163184
 20
-438.084988847378
 30
0.0
 40
3.185536336889355
  1

  7
WMF-ＭＳ 明朝0
100
AcDbText
  0
TEXT
  5
37D47
330
214E1
100
AcDbEntity
 67
     1
  8
0
 62
     7
370
     0
100
AcDbText
 10
344.5393778030544
 20
-424.3651046241416
 30
0.0
 40
3.185536336889355
  1

  7
WMF-ＭＳ 明朝0
100
AcDbText
  0
TEXT
  5
37D49
330
214E1
100
AcDbEntity
 67
     1
  8
0
 62
     7
370
     0
100
AcDbText
 10
344.5393778030544
 20
-438.084988847378
 30
0.0
 40
3.185536336889355
  1

  7
WMF-ＭＳ 明朝0
100
AcDbText
  0
TEXT
  5
37D4B
330
214E1
100
AcDbEntity
 67
     1
  8
0
 62
     7
370
     0
100
AcDbText
 10
344.5393778030544
 20
-396.925336177669
 30
0.0
 40
3.185536336889355
  1

  7
WMF-ＭＳ 明朝0
100
AcDbText
  0
TEXT
  5
37D4C
330
214E1
100
AcDbEntity
 67
     1
  8
0
 62
     7
370
     0
100
AcDbText
 10
344.5393778030544
 20
-410.6452204009054
 30
0.0
 40
3.185536336889355
  1

  7
WMF-ＭＳ 明朝0
100
AcDbText
  0
TEXT
  5
37D4D
330
214E1
100
AcDbEntity
 67
     1
  8
0
 62
     7
370
     0
100
AcDbText
 10
344.5393778030544
 20
-403.7852782892872
 30
0.0
 40
3.185536336889355
  1

  7
WMF-ＭＳ 明朝0
100
AcDbText
  0
TEXT
  5
37D4F
330
214E1
100
AcDbEntity
 67
     1
  8
0
 62
     7
370
     0
100
AcDbText
 10
367.2481516897903
 20
-410.6452204009054
 30
0.0
 40
3.185536336889355
  1

  7
WMF-ＭＳ 明朝0
100
AcDbText
  0
TEXT
  5
37D50
330
214E1
100
AcDbEntity
 67
     1
  8
0
 62
     7
370
     0
100
AcDbText
 10
367.2481516897903
 20
-403.7852782892872
 30
0.0
 40
3.185536336889355
  1

  7
WMF-ＭＳ 明朝0
100
AcDbText
  0
TEXT
  5
37D54
330
214E1
100
AcDbEntity
 67
     1
  8
0
 62
     7
370
     0
100
AcDbText
 10
367.2481516897903
 20
-424.3651046241416
 30
0.0
 40
3.185536336889355
  1

  7
WMF-ＭＳ 明朝0
100
AcDbText
  0
TEXT
  5
37D56
330
214E1
100
AcDbEntity
 67
     1
  8
0
 62
     7
370
     0
100
AcDbText
 10
367.2481516897903
 20
-438.084988847378
 30
0.0
 40
3.185536336889355
  1

  7
WMF-ＭＳ 明朝0
100
AcDbText
  0
TEXT
  5
37D5E
330
214E1
100
AcDbEntity
 67
     1
  8
0
 62
     7
370
     0
100
AcDbText
 10
395.6341190482104
 20
-431.2250467357598
 30
0.0
 40
3.185536336889355
  1

  7
WMF-ＭＳ 明朝0
100
AcDbText
  0
TEXT
  5
37D60
330
214E1
100
AcDbEntity
 67
     1
  8
0
 62
     7
370
     0
100
AcDbText
 10
395.6341190482104
 20
-438.084988847378
 30
0.0
 40
3.185536336889355
  1

  7
WMF-ＭＳ 明朝0
100
AcDbText
  0
TEXT
  5
37D61
330
214E1
100
AcDbEntity
 67
     1
  8
0
 62
     7
370
     0
100
AcDbText
 10
395.6341190482104
 20
-444.9449309589962
 30
0.0
 40
3.185536336889355
  1

  7
WMF-ＭＳ 明朝0
100
AcDbText
  0
TEXT
  5
37D62
330
214E1
100
AcDbEntity
 67
     1
  8
0
 62
     7
370
     0
100
AcDbText
 10
418.3428929349463
 20
-438.084988847378
 30
0.0
 40
3.185536336889355
  1

  7
WMF-ＭＳ 明朝0
100
AcDbText
  0
TEXT
  5
37D65
330
214E1
100
AcDbEntity
 67
     1
  8
0
 62
     7
370
     0
100
AcDbText
 10
395.6341190482104
 20
-410.6452204009054
 30
0.0
 40
3.185536336889355
  1

  7
WMF-ＭＳ 明朝0
100
AcDbText
  0
TEXT
  5
37D66
330
214E1
100
AcDbEntity
 67
     1
  8
0
 62
     7
370
     0
100
AcDbText
 10
395.6341190482104
 20
-417.5051625125234
 30
0.0
 40
3.185536336889355
  1

  7
WMF-ＭＳ 明朝0
100
AcDbText
  0
TEXT
  5
37D67
330
214E1
100
AcDbEntity
 67
     1
  8
0
 62
     7
370
     0
100
AcDbText
 10
418.3428929349463
 20
-410.6452204009054
 30
0.0
 40
3.185536336889355
  1

  7
WMF-ＭＳ 明朝0
100
AcDbText
  0
TEXT
  5
37D69
330
214E1
100
AcDbEntity
 67
     1
  8
0
 62
     7
370
     0
100
AcDbText
 10
418.3428929349463
 20
-424.3651046241416
 30
0.0
 40
3.185536336889355
  1

  7
WMF-ＭＳ 明朝0
100
AcDbText
  0
TEXT
  5
37D6B
330
214E1
100
AcDbEntity
 67
     1
  8
0
 62
     7
370
     0
100
AcDbText
 10
395.6341190482104
 20
-424.3651046241416
 30
0.0
 40
3.185536336889355
  1

  7
WMF-ＭＳ 明朝0
100
AcDbText
  0
TEXT
  5
37D6C
330
214E1
100
AcDbEntity
 67
     1
  8
0
 62
     7
370
     0
100
AcDbText
 10
395.6341190482104
 20
-472.3846994054688
 30
0.0
 40
3.185536336889355
  1

  7
WMF-ＭＳ 明朝0
100
AcDbText
  0
TEXT
  5
37D6D
330
214E1
100
AcDbEntity
 67
     1
  8
0
 62
     7
370
     0
100
AcDbText
 10
395.6341190482104
 20
-479.244641517087
 30
0.0
 40
3.185536336889355
  1

  7
WMF-ＭＳ 明朝0
100
AcDbText
  0
TEXT
  5
37D6E
330
214E1
100
AcDbEntity
 67
     1
  8
0
 62
     7
370
     0
100
AcDbText
 10
395.6341190482104
 20
-486.1045836287051
 30
0.0
 40
3.185536336889355
  1

  7
WMF-ＭＳ 明朝0
100
AcDbText
  0
TEXT
  5
37D6F
330
214E1
100
AcDbEntity
 67
     1
  8
0
 62
     7
370
     0
100
AcDbText
 10
395.6341190482104
 20
-451.8048730706143
 30
0.0
 40
3.185536336889355
  1

  7
WMF-ＭＳ 明朝0
100
AcDbText
  0
TEXT
  5
37D70
330
214E1
100
AcDbEntity
 67
     1
  8
0
 62
     7
370
     0
100
AcDbText
 10
395.6341190482104
 20
-458.6648151822324
 30
0.0
 40
3.185536336889355
  1

  7
WMF-ＭＳ 明朝0
100
AcDbText
  0
TEXT
  5
37D71
330
214E1
100
AcDbEntity
 67
     1
  8
0
 62
     7
370
     0
100
AcDbText
 10
395.6341190482104
 20
-465.5247572938506
 30
0.0
 40
3.185536336889355
  1

  7
WMF-ＭＳ 明朝0
100
AcDbText
  0
TEXT
  5
37D77
330
214E1
100
AcDbEntity
 67
     1
  8
0
 62
     7
370
     0
100
AcDbText
 10
389.9569255765264
 20
-527.2642362984141
 30
0.0
 40
3.185536336889355
  1

  7
WMF-ＭＳ 明朝0
100
AcDbText
  0
TEXT
  5
37D78
330
214E1
100
AcDbEntity
 67
     1
  8
0
 62
     7
370
     0
100
AcDbText
 10
293.4446365578984
 20
-540.9841205216505
 30
0.0
 40
3.185536336889355
  1

  7
WMF-ＭＳ 明朝0
100
AcDbText
  0
TEXT
  5
37D7D
330
214E1
100
AcDbEntity
 67
     1
  8
0
 62
     7
370
     0
100
AcDbText
 10
304.7990235012664
 20
-540.9841205216505
 30
0.0
 40
3.185536336889355
  1

  7
WMF-ＭＳ 明朝0
100
AcDbText
  0
TEXT
  5
37D7F
330
214E1
100
AcDbEntity
 67
     1
  8
0
 62
     7
370
     0
100
AcDbText
 10
418.3428929349463
 20
-486.1045836287051
 30
0.0
 40
3.185536336889355
  1

  7
WMF-ＭＳ 明朝0
100
AcDbText
  0
TEXT
  5
37D87
330
214E1
100
AcDbEntity
 67
     1
  8
0
 62
     7
370
     0
100
AcDbText
 10
367.2481516897903
 20
-486.1045836287051
 30
0.0
 40
3.185536336889355
  1

  7
WMF-ＭＳ 明朝0
100
AcDbText
  0
TEXT
  5
37D88
330
214E1
100
AcDbEntity
 67
     1
  8
0
 62
     7
370
     0
100
AcDbText
 10
344.5393778030544
 20
-486.1045836287051
 30
0.0
 40
3.185536336889355
  1

  7
WMF-ＭＳ 明朝0
100
AcDbText
  0
TEXT
  5
37D89
330
214E1
100
AcDbEntity
 67
     1
  8
0
 62
     7
370
     0
100
AcDbText
 10
321.8306039163184
 20
-486.1045836287051
 30
0.0
 40
3.185536336889355
  1

  7
WMF-ＭＳ 明朝0
100
AcDbText
  0
TEXT
  5
37D8A
330
214E1
100
AcDbEntity
 67
     1
  8
0
 62
     7
370
     0
100
AcDbText
 10
412.6656994632623
 20
-506.6844099635597
 30
0.0
 40
3.185536336889355
  1

  7
WMF-ＭＳ 明朝0
100
AcDbText
  0
TEXT
  5
37D8B
330
214E1
100
AcDbEntity
 67
     1
  8
0
 62
     7
370
     0
100
AcDbText
 10
287.7674430862144
 20
-403.7852782892872
 30
0.0
 40
3.185536336889355
  1

  7
WMF-ＭＳ 明朝0
100
AcDbText
  0
TEXT
  5
37D8C
330
214E1
100
AcDbEntity
 67
     1
  8
0
 62
     7
370
     0
100
AcDbText
 10
304.7990235012664
 20
-403.7852782892872
 30
0.0
 40
3.185536336889355
  1

  7
WMF-ＭＳ 明朝0
100
AcDbText
  0
TEXT
  5
37D8D
330
214E1
100
AcDbEntity
 67
     1
  8
0
 62
     7
370
     0
100
AcDbText
 10
321.8306039163184
 20
-403.7852782892872
 30
0.0
 40
3.185536336889355
  1

  7
WMF-ＭＳ 明朝0
100
AcDbText
  0
TEXT
  5
37D8E
330
214E1
100
AcDbEntity
 67
     1
  8
0
 62
     7
370
     0
100
AcDbText
 10
321.8306039163184
 20
-396.925336177669
 30
0.0
 40
3.185536336889355
  1

  7
WMF-ＭＳ 明朝0
100
AcDbText
  0
TEXT
  5
37D91
330
214E1
100
AcDbEntity
 67
     1
  8
0
 62
     7
370
     0
100
AcDbText
 10
395.6341190482104
 20
-383.2054519544327
 30
0.0
 40
3.185536336889355
  1

  7
WMF-ＭＳ 明朝0
100
AcDbText
  0
TEXT
  5
37D92
330
214E1
100
AcDbEntity
 67
     1
  8
0
 62
     7
370
     0
100
AcDbText
 10
418.3428929349463
 20
-403.7852782892872
 30
0.0
 40
3.185536336889355
  1

  7
WMF-ＭＳ 明朝0
100
AcDbText
  0
TEXT
  5
37D94
330
214E1
100
AcDbEntity
 67
     1
  8
0
 62
     7
370
     0
100
AcDbText
 10
395.6341190482104
 20
-390.0653940660509
 30
0.0
 40
3.185536336889355
  1

  7
WMF-ＭＳ 明朝0
100
AcDbText
  0
TEXT
  5
37D95
330
214E1
100
AcDbEntity
 67
     1
  8
0
 62
     7
370
     0
100
AcDbText
 10
395.6341190482104
 20
-396.925336177669
 30
0.0
 40
3.185536336889355
  1

  7
WMF-ＭＳ 明朝0
100
AcDbText
  0
TEXT
  5
37D96
330
214E1
100
AcDbEntity
 67
     1
  8
0
 62
     7
370
     0
100
AcDbText
 10
418.3428929349463
 20
-396.925336177669
 30
0.0
 40
3.185536336889355
  1

  7
WMF-ＭＳ 明朝0
100
AcDbText
  0
TEXT
  5
37D97
330
214E1
100
AcDbEntity
 67
     1
  8
0
 62
     7
370
     0
100
AcDbText
 10
395.6341190482104
 20
-403.7852782892872
 30
0.0
 40
3.185536336889355
  1

  7
WMF-ＭＳ 明朝0
100
AcDbText
  0
TEXT
  5
38151
330
214E1
100
AcDbEntity
 67
     1
  8
0
 62
     7
370
     0
100
AcDbText
 10
307.0302425824479
 20
-390.5899013717108
 30
0.0
 40
1.929729329366315
  1

  7
WMF-ＭＳ 明朝0
100
AcDbText
  0
TEXT
  5
38152
330
214E1
100
AcDbEntity
 67
     1
  8
0
 62
     7
370
     0
100
AcDbText
 10
320.7867288908019
 20
-403.0567170886565
 30
0.0
 40
1.929729329366315
  1

  7
WMF-ＭＳ 明朝0
100
AcDbText
  0
TEXT
  5
38154
330
214E1
100
AcDbEntity
 67
     1
  8
0
 62
     7
370
     0
100
AcDbText
 10
307.0302425824479
 20
-394.7455066106928
 30
0.0
 40
1.929729329366315
  1

  7
WMF-ＭＳ 明朝0
100
AcDbText
  0
TEXT
  5
38155
330
214E1
100
AcDbEntity
 67
     1
  8
0
 62
     7
370
     0
100
AcDbText
 10
307.0302425824479
 20
-398.9011118496747
 30
0.0
 40
1.929729329366315
  1

  7
WMF-ＭＳ 明朝0
100
AcDbText
  0
TEXT
  5
38156
330
214E1
100
AcDbEntity
 67
     1
  8
0
 62
     7
370
     0
100
AcDbText
 10
320.7867288908019
 20
-398.9011118496747
 30
0.0
 40
1.929729329366315
  1

  7
WMF-ＭＳ 明朝0
100
AcDbText
  0
TEXT
  5
38157
330
214E1
100
AcDbEntity
 67
     1
  8
0
 62
     7
370
     0
100
AcDbText
 10
307.0302425824479
 20
-403.0567170886565
 30
0.0
 40
1.929729329366315
  1

  7
WMF-ＭＳ 明朝0
100
AcDbText
  0
TEXT
  5
38159
330
214E1
100
AcDbEntity
 67
     1
  8
0
 62
     7
370
     0
100
AcDbText
 10
241.6869326177668
 20
-403.0567170886565
 30
0.0
 40
1.929729329366315
  1

  7
WMF-ＭＳ 明朝0
100
AcDbText
  0
TEXT
  5
3815A
330
214E1
100
AcDbEntity
 67
     1
  8
0
 62
     7
370
     0
100
AcDbText
 10
252.0042973490323
 20
-403.0567170886565
 30
0.0
 40
1.929729329366315
  1

  7
WMF-ＭＳ 明朝0
100
AcDbText
  0
TEXT
  5
3815B
330
214E1
100
AcDbEntity
 67
     1
  8
0
 62
     7
370
     0
100
AcDbText
 10
262.3216620802977
 20
-403.0567170886565
 30
0.0
 40
1.929729329366315
  1

  7
WMF-ＭＳ 明朝0
100
AcDbText
  0
TEXT
  5
3815C
330
214E1
100
AcDbEntity
 67
     1
  8
0
 62
     7
370
     0
100
AcDbText
 10
262.3216620802977
 20
-398.9011118496747
 30
0.0
 40
1.929729329366315
  1

  7
WMF-ＭＳ 明朝0
100
AcDbText
  0
TEXT
  5
3815D
330
214E1
100
AcDbEntity
 67
     1
  8
0
 62
     7
370
     0
100
AcDbText
 10
320.7867288908019
 20
-452.9239799564396
 30
0.0
 40
1.929729329366315
  1

  7
WMF-ＭＳ 明朝0
100
AcDbText
  0
TEXT
  5
38165
330
214E1
100
AcDbEntity
 67
     1
  8
0
 62
     7
370
     0
100
AcDbText
 10
289.8346346970055
 20
-452.9239799564396
 30
0.0
 40
1.929729329366315
  1

  7
WMF-ＭＳ 明朝0
100
AcDbText
  0
TEXT
  5
38166
330
214E1
100
AcDbEntity
 67
     1
  8
0
 62
     7
370
     0
100
AcDbText
 10
276.0781483886516
 20
-452.9239799564396
 30
0.0
 40
1.929729329366315
  1

  7
WMF-ＭＳ 明朝0
100
AcDbText
  0
TEXT
  5
38167
330
214E1
100
AcDbEntity
 67
     1
  8
0
 62
     7
370
     0
100
AcDbText
 10
262.3216620802977
 20
-452.9239799564396
 30
0.0
 40
1.929729329366315
  1

  7
WMF-ＭＳ 明朝0
100
AcDbText
  0
TEXT
  5
38168
330
214E1
100
AcDbEntity
 67
     1
  8
0
 62
     7
370
     0
100
AcDbText
 10
317.3476073137134
 20
-465.3907956733853
 30
0.0
 40
1.929729329366315
  1

  7
WMF-ＭＳ 明朝0
100
AcDbText
  0
TEXT
  5
3816A
330
214E1
100
AcDbEntity
 67
     1
  8
0
 62
     7
370
     0
100
AcDbText
 10
303.5911210053594
 20
-477.857611390331
 30
0.0
 40
1.929729329366315
  1

  7
WMF-ＭＳ 明朝0
100
AcDbText
  0
TEXT
  5
3816B
330
214E1
100
AcDbEntity
 67
     1
  8
0
 62
     7
370
     0
100
AcDbText
 10
245.1260541948553
 20
-486.1688218682949
 30
0.0
 40
1.929729329366315
  1

  7
WMF-ＭＳ 明朝0
100
AcDbText
  0
TEXT
  5
38170
330
214E1
100
AcDbEntity
 67
     1
  8
0
 62
     7
370
     0
100
AcDbText
 10
252.0042973490323
 20
-486.1688218682949
 30
0.0
 40
1.929729329366315
  1

  7
WMF-ＭＳ 明朝0
100
AcDbText
  0
TEXT
  5
38176
330
214E1
100
AcDbEntity
 67
     1
  8
0
 62
     7
370
     0
100
AcDbText
 10
307.0302425824479
 20
-444.6127694784757
 30
0.0
 40
1.929729329366315
  1

  7
WMF-ＭＳ 明朝0
100
AcDbText
  0
TEXT
  5
38177
330
214E1
100
AcDbEntity
 67
     1
  8
0
 62
     7
370
     0
100
AcDbText
 10
307.0302425824479
 20
-448.7683747174576
 30
0.0
 40
1.929729329366315
  1

  7
WMF-ＭＳ 明朝0
100
AcDbText
  0
TEXT
  5
38178
330
214E1
100
AcDbEntity
 67
     1
  8
0
 62
     7
370
     0
100
AcDbText
 10
307.0302425824479
 20
-452.9239799564396
 30
0.0
 40
1.929729329366315
  1

  7
WMF-ＭＳ 明朝0
100
AcDbText
  0
TEXT
  5
38179
330
214E1
100
AcDbEntity
 67
     1
  8
0
 62
     7
370
     0
100
AcDbText
 10
307.0302425824479
 20
-432.1459537615299
 30
0.0
 40
1.929729329366315
  1

  7
WMF-ＭＳ 明朝0
100
AcDbText
  0
TEXT
  5
3817A
330
214E1
100
AcDbEntity
 67
     1
  8
0
 62
     7
370
     0
100
AcDbText
 10
307.0302425824479
 20
-436.3015590005119
 30
0.0
 40
1.929729329366315
  1

  7
WMF-ＭＳ 明朝0
100
AcDbText
  0
TEXT
  5
3817B
330
214E1
100
AcDbEntity
 67
     1
  8
0
 62
     7
370
     0
100
AcDbText
 10
307.0302425824479
 20
-440.4571642394938
 30
0.0
 40
1.929729329366315
  1

  7
WMF-ＭＳ 明朝0
100
AcDbText
  0
TEXT
  5
3817C
330
214E1
100
AcDbEntity
 67
     1
  8
0
 62
     7
370
     0
100
AcDbText
 10
320.7867288908019
 20
-423.8347432835661
 30
0.0
 40
1.929729329366315
  1

  7
WMF-ＭＳ 明朝0
100
AcDbText
  0
TEXT
  5
3817F
330
214E1
100
AcDbEntity
 67
     1
  8
0
 62
     7
370
     0
100
AcDbText
 10
307.0302425824479
 20
-407.2123223276385
 30
0.0
 40
1.929729329366315
  1

  7
WMF-ＭＳ 明朝0
100
AcDbText
  0
TEXT
  5
38180
330
214E1
100
AcDbEntity
 67
     1
  8
0
 62
     7
370
     0
100
AcDbText
 10
307.0302425824479
 20
-411.3679275666204
 30
0.0
 40
1.929729329366315
  1

  7
WMF-ＭＳ 明朝0
100
AcDbText
  0
TEXT
  5
38181
330
214E1
100
AcDbEntity
 67
     1
  8
0
 62
     7
370
     0
100
AcDbText
 10
320.7867288908019
 20
-407.2123223276385
 30
0.0
 40
1.929729329366315
  1

  7
WMF-ＭＳ 明朝0
100
AcDbText
  0
TEXT
  5
38183
330
214E1
100
AcDbEntity
 67
     1
  8
0
 62
     7
370
     0
100
AcDbText
 10
320.7867288908019
 20
-415.5235328056023
 30
0.0
 40
1.929729329366315
  1

  7
WMF-ＭＳ 明朝0
100
AcDbText
  0
TEXT
  5
38185
330
214E1
100
AcDbEntity
 67
     1
  8
0
 62
     7
370
     0
100
AcDbText
 10
307.0302425824479
 20
-415.5235328056023
 30
0.0
 40
1.929729329366315
  1

  7
WMF-ＭＳ 明朝0
100
AcDbText
  0
TEXT
  5
38186
330
214E1
100
AcDbEntity
 67
     1
  8
0
 62
     7
370
     0
100
AcDbText
 10
307.0302425824479
 20
-419.6791380445842
 30
0.0
 40
1.929729329366315
  1

  7
WMF-ＭＳ 明朝0
100
AcDbText
  0
TEXT
  5
38188
330
214E1
100
AcDbEntity
 67
     1
  8
0
 62
     7
370
     0
100
AcDbText
 10
307.0302425824479
 20
-423.8347432835661
 30
0.0
 40
1.929729329366315
  1

  7
WMF-ＭＳ 明朝0
100
AcDbText
  0
TEXT
  5
38189
330
214E1
100
AcDbEntity
 67
     1
  8
0
 62
     7
370
     0
100
AcDbText
 10
307.0302425824479
 20
-427.9903485225481
 30
0.0
 40
1.929729329366315
  1

  7
WMF-ＭＳ 明朝0
100
AcDbText
  0
TEXT
  5
38191
330
214E1
100
AcDbEntity
 67
     1
  8
0
 62
     7
370
     0
100
AcDbText
 10
289.8346346970055
 20
-407.2123223276385
 30
0.0
 40
1.929729329366315
  1

  7
WMF-ＭＳ 明朝0
100
AcDbText
  0
TEXT
  5
38192
330
214E1
100
AcDbEntity
 67
     1
  8
0
 62
     7
370
     0
100
AcDbText
 10
289.8346346970055
 20
-403.0567170886565
 30
0.0
 40
1.929729329366315
  1

  7
WMF-ＭＳ 明朝0
100
AcDbText
  0
TEXT
  5
38196
330
214E1
100
AcDbEntity
 67
     1
  8
0
 62
     7
370
     0
100
AcDbText
 10
289.8346346970055
 20
-415.5235328056023
 30
0.0
 40
1.929729329366315
  1

  7
WMF-ＭＳ 明朝0
100
AcDbText
  0
TEXT
  5
38198
330
214E1
100
AcDbEntity
 67
     1
  8
0
 62
     7
370
     0
100
AcDbText
 10
289.8346346970055
 20
-423.8347432835661
 30
0.0
 40
1.929729329366315
  1

  7
WMF-ＭＳ 明朝0
100
AcDbText
  0
TEXT
  5
38199
330
214E1
100
AcDbEntity
 67
     1
  8
0
 62
     7
370
     0
100
AcDbText
 10
276.0781483886516
 20
-398.9011118496747
 30
0.0
 40
1.929729329366315
  1

  7
WMF-ＭＳ 明朝0
100
AcDbText
  0
TEXT
  5
3819A
330
214E1
100
AcDbEntity
 67
     1
  8
0
 62
     7
370
     0
100
AcDbText
 10
276.0781483886516
 20
-407.2123223276385
 30
0.0
 40
1.929729329366315
  1

  7
WMF-ＭＳ 明朝0
100
AcDbText
  0
TEXT
  5
3819B
330
214E1
100
AcDbEntity
 67
     1
  8
0
 62
     7
370
     0
100
AcDbText
 10
276.0781483886516
 20
-403.0567170886565
 30
0.0
 40
1.929729329366315
  1

  7
WMF-ＭＳ 明朝0
100
AcDbText
  0
TEXT
  5
3819E
330
214E1
100
AcDbEntity
 67
     1
  8
0
 62
     7
370
     0
100
AcDbText
 10
276.0781483886516
 20
-415.5235328056023
 30
0.0
 40
1.929729329366315
  1

  7
WMF-ＭＳ 明朝0
100
AcDbText
  0
TEXT
  5
381A0
330
214E1
100
AcDbEntity
 67
     1
  8
0
 62
     7
370
     0
100
AcDbText
 10
276.0781483886516
 20
-423.8347432835661
 30
0.0
 40
1.929729329366315
  1

  7
WMF-ＭＳ 明朝0
100
AcDbText
  0
TEXT
  5
381A4
330
214E1
100
AcDbEntity
 67
     1
  8
0
 62
     7
370
     0
100
AcDbText
 10
262.3216620802977
 20
-423.8347432835661
 30
0.0
 40
1.929729329366315
  1

  7
WMF-ＭＳ 明朝0
100
AcDbText
  0
TEXT
  5
381AA
330
214E1
100
AcDbEntity
 67
     1
  8
0
 62
     7
370
     0
100
AcDbText
 10
262.3216620802977
 20
-407.2123223276385
 30
0.0
 40
1.929729329366315
  1

  7
WMF-ＭＳ 明朝0
100
AcDbText
  0
TEXT
  5
381AC
330
214E1
100
AcDbEntity
 67
     1
  8
0
 62
     7
370
     0
100
AcDbText
 10
262.3216620802977
 20
-415.5235328056023
 30
0.0
 40
1.929729329366315
  1

  7
WMF-ＭＳ 明朝0
100
AcDbText
  0
TEXT
  5
381B7
330
214E1
100
AcDbEntity
 67
     1
  8
0
 62
     7
370
     0
100
AcDbText
 10
252.0042973490323
 20
-452.9239799564396
 30
0.0
 40
1.929729329366315
  1

  7
WMF-ＭＳ 明朝0
100
AcDbText
  0
TEXT
  5
381BC
330
214E1
100
AcDbEntity
 67
     1
  8
0
 62
     7
370
     0
100
AcDbText
 10
252.0042973490323
 20
-407.2123223276385
 30
0.0
 40
1.929729329366315
  1

  7
WMF-ＭＳ 明朝0
100
AcDbText
  0
TEXT
  5
381C2
330
214E1
100
AcDbEntity
 67
     1
  8
0
 62
     7
370
     0
100
AcDbText
 10
252.0042973490323
 20
-398.9011118496747
 30
0.0
 40
1.929729329366315
  1

  7
WMF-ＭＳ 明朝0
100
AcDbText
  0
TEXT
  5
381C4
330
214E1
100
AcDbEntity
 67
     1
  8
0
 62
     7
370
     0
100
AcDbText
 10
241.6869326177668
 20
-407.2123223276385
 30
0.0
 40
1.929729329366315
  1

  7
WMF-ＭＳ 明朝0
100
AcDbText
  0
TEXT
  5
381C9
330
214E1
100
AcDbEntity
 67
     1
  8
0
 62
     7
370
     0
100
AcDbText
 10
241.6869326177668
 20
-398.9011118496747
 30
0.0
 40
1.929729329366315
  1

  7
WMF-ＭＳ 明朝0
100
AcDbText
  0
TEXT
  5
381CC
330
214E1
100
AcDbEntity
 67
     1
  8
0
 62
     7
370
     0
100
AcDbText
 10
241.6869326177668
 20
-452.9239799564396
 30
0.0
 40
1.929729329366315
  1

  7
WMF-ＭＳ 明朝0
100
AcDbText
  0
TEXT
  5
381D2
330
214E1
100
AcDbEntity
 67
     1
  8
0
 62
     7
370
     0
100
AcDbText
 10
262.3216620802977
 20
-457.0795851954215
 30
0.0
 40
1.929729329366315
  1

  7
WMF-ＭＳ 明朝0
100
AcDbText
  0
TEXT
  5
381D3
330
214E1
100
AcDbEntity
 67
     1
  8
0
 62
     7
370
     0
100
AcDbText
 10
276.0781483886516
 20
-457.0795851954215
 30
0.0
 40
1.929729329366315
  1

  7
WMF-ＭＳ 明朝0
100
AcDbText
  0
TEXT
  5
381D4
330
214E1
100
AcDbEntity
 67
     1
  8
0
 62
     7
370
     0
100
AcDbText
 10
289.8346346970055
 20
-457.0795851954215
 30
0.0
 40
1.929729329366315
  1

  7
WMF-ＭＳ 明朝0
100
AcDbText
  0
TEXT
  5
381D5
330
214E1
100
AcDbEntity
 67
     1
  8
0
 62
     7
370
     0
100
AcDbText
 10
307.0302425824479
 20
-457.0795851954215
 30
0.0
 40
1.929729329366315
  1

  7
WMF-ＭＳ 明朝0
100
AcDbText
  0
TEXT
  5
381D6
330
214E1
100
AcDbEntity
 67
     1
  8
0
 62
     7
370
     0
100
AcDbText
 10
241.6869326177668
 20
-457.0795851954215
 30
0.0
 40
1.929729329366315
  1

  7
WMF-ＭＳ 明朝0
100
AcDbText
  0
TEXT
  5
381D7
330
214E1
100
AcDbEntity
 67
     1
  8
0
 62
     7
370
     0
100
AcDbText
 10
252.0042973490323
 20
-457.0795851954215
 30
0.0
 40
1.929729329366315
  1

  7
WMF-ＭＳ 明朝0
100
AcDbText
  0
TEXT
  5
381D8
330
214E1
100
AcDbEntity
 67
     1
  8
0
 62
     7
370
     0
100
AcDbText
 10
320.7867288908019
 20
-457.0795851954215
 30
0.0
 40
1.929729329366315
  1

  7
WMF-ＭＳ 明朝0
100
AcDbText
  0
TEXT
  5
381DB
330
214E1
100
AcDbEntity
 67
     1
  8
0
 62
     7
370
     0
100
AcDbText
 10
289.8346346970055
 20
-398.9011118496747
 30
0.0
 40
1.929729329366315
  1

  7
WMF-ＭＳ 明朝0
100
AcDbText
  0
LWPOLYLINE
  5
453BA
330
214E1
100
AcDbEntity
 67
     1
  8
D-TTL
100
AcDbPolyline
 90
        4
 70
     1
 43
0.0
 10
40.0
 20
20.0
 10
821.0
 20
20.00000000000006
 10
821.0
 20
574.0
 10
40.0
 20
574.0
  0
LWPOLYLINE
  5
453BB
330
214E1
100
AcDbEntity
 67
     1
  8
D-TTL
100
AcDbPolyline
 90
        4
 70
     1
 43
0.0
 10
0.0
 20
0.0
 10
840.9999999999998
 20
0.0000000000000568
 10
841.0
 20
594.0
 10
0.0000000000001137
 20
594.0
  0
TEXT
  5
453C6
330
214E1
100
AcDbEntity
 67
     1
  8
D-TTL-TXT
100
AcDbText
 10
448.5505814592366
 20
554.0
 30
0.0
 40
7.0
  1
尺度 1:20
100
AcDbText
  0
TEXT
  5
453C7
330
214E1
100
AcDbEntity
 67
     1
  8
D-TTL-TXT
100
AcDbText
 10
202.9142857142858
 20
554.0
 30
0.0
 40
10.0
  1
SIMPLE-WALL  2,500×1,750×2,000
 72
     1
 11
319.9428571428572
 21
554.0
 31
0.0
100
AcDbText
  0
LINE
  5
45463
330
214E1
100
AcDbEntity
 67
     1
  8
D-MTR-FRAM
100
AcDbLine
 10
661.0
 20
552.0
 30
0.0
 11
811.0
 21
552.0
 31
0.0
  0
LINE
  5
45464
330
214E1
100
AcDbEntity
 67
     1
  8
D-MTR-FRAM
100
AcDbLine
 10
661.0
 20
542.0
 30
0.0
 11
811.0
 21
542.0
 31
0.0
  0
LINE
  5
45465
330
214E1
100
AcDbEntity
 67
     1
  8
D-MTR-FRAM
100
AcDbLine
 10
661.0
 20
531.9999142856254
 30
0.0
 11
811.0
 21
531.9999142856254
 31
0.0
  0
LINE
  5
45466
330
214E1
100
AcDbEntity
 67
     1
  8
D-MTR-FRAM
100
AcDbLine
 10
661.0
 20
564.0
 30
0.0
 11
811.0
 21
564.0
 31
0.0
  0
LINE
  5
45467
330
214E1
100
AcDbEntity
 67
     1
  8
D-MTR-FRAM
100
AcDbLine
 10
661.0
 20
564.0
 30
0.0
 11
661.0
 21
532.0
 31
0.0
  0
TEXT
  5
45468
330
214E1
100
AcDbEntity
 67
     1
  8
D-MTR-TXT
100
AcDbText
 10
715.1020199174807
 20
554.3061187549453
 30
0.0
 40
7.142864286017347
  1
設計条件
 72
     4
 11
736.0
 21
558.0
 31
0.0
100
AcDbText
  0
TEXT
  5
45469
330
214E1
100
AcDbEntity
 67
     1
  8
D-MTR-TXT
100
AcDbText
 10
683.8714139422364
 20
544.5285260998507
 30
0.0
 40
5.000005000212142
  1
設計荷重
 72
     4
 11
698.5
 21
546.9999571428127
 31
0.0
100
AcDbText
  0
TEXT
  5
4546A
330
214E1
100
AcDbEntity
 67
     1
  8
D-MTR-TXT
100
AcDbText
 10
680.2142674277956
 20
534.3999545427023
 30
0.0
 40
5.000005000212142
  1
内部摩擦角
 72
     4
 11
698.5
 21
536.9999571428127
 31
0.0
100
AcDbText
  0
LINE
  5
4546B
330
214E1
100
AcDbEntity
 67
     1
  8
D-MTR-FRAM
100
AcDbLine
 10
736.0
 20
551.9999142856254
 30
0.0
 11
736.0
 21
531.9999142856254
 31
0.0
  0
TEXT
  5
4546C
330
214E1
100
AcDbEntity
 67
     1
  8
D-MTR-TXT
100
AcDbText
 10
768.0142802283386
 20
534.5570975569947
 30
0.0
 40
5.000005000212142
  1
30ﾟ
 72
     4
 11
773.5
 21
536.9999571428127
 31
0.0
100
AcDbText
  0
TEXT
  5
4546D
330
214E1
100
AcDbEntity
 67
     1
  8
D-MTR-TXT
100
AcDbText
 10
753.385694170575
 20
544.6142404712828
 30
0.0
 40
5.000005000212142
  1
q = 10 kN/m
 72
     4
 11
773.5
 21
546.9999571428127
 31
0.0
100
AcDbText
  0
LINE
  5
4546E
330
214E1
100
AcDbEntity
 67
     1
  8
D-MTR-FRAM
100
AcDbLine
 10
811.0
 20
564.0
 30
0.0
 11
811.0
 21
532.0
 31
0.0
  0
TEXT
  5
4546F
330
214E1
100
AcDbEntity
 67
     1
  8
D-MTR-TXT
100
AcDbText
 10
794.2054403436586
 20
547.6923225363673
 30
0.0
 40
3.0
  1
2
 72
     4
 11
795.3025832008015
 21
549.1580368220816
 31
0.0
100
AcDbText
  0
LINE
  5
45487
330
214E1
100
AcDbEntity
 67
     1
  8
D-MTR-FRAM
100
AcDbLine
 10
811.0
 20
100.0000000000001
 30
0.0
 11
601.0
 21
100.0000000000001
 31
0.0
  0
LINE
  5
45488
330
214E1
100
AcDbEntity
 67
     1
  8
D-MTR-FRAM
100
AcDbLine
 10
811.0
 20
90.00000000000017
 30
0.0
 11
651.0
 21
90.00000000000017
 31
0.0
  0
LINE
  5
45489
330
214E1
100
AcDbEntity
 67
     1
  8
D-MTR-FRAM
100
AcDbLine
 10
811.0
 20
60.00000000000017
 30
0.0
 11
601.0
 21
60.00000000000017
 31
0.0
  0
LINE
  5
4548A
330
214E1
100
AcDbEntity
 67
     1
  8
D-MTR-FRAM
100
AcDbLine
 10
811.0
 20
70.00000000000017
 30
0.0
 11
651.0
 21
70.00000000000017
 31
0.0
  0
LINE
  5
4548B
330
214E1
100
AcDbEntity
 67
     1
  8
D-MTR-FRAM
100
AcDbLine
 10
811.0
 20
80.00000000000017
 30
0.0
 11
651.0
 21
80.00000000000017
 31
0.0
  0
LINE
  5
45493
330
214E1
100
AcDbEntity
 67
     1
  8
D-MTR-FRAM
100
AcDbLine
 10
811.0
 20
50.00000000000006
 30
0.0
 11
601.0
 21
50.00000000000006
 31
0.0
  0
LINE
  5
45497
330
214E1
100
AcDbEntity
 67
     1
  8
D-MTR-FRAM
100
AcDbLine
 10
576.0
 20
30.00000000000017
 30
0.0
 11
811.0
 21
30.00000000000006
 31
0.0
  0
LINE
  5
45498
330
214E1
100
AcDbEntity
 67
     1
  8
D-MTR-FRAM
100
AcDbLine
 10
576.0
 20
45.00000000000016
 30
0.0
 11
811.0
 21
45.00000000000006
 31
0.0
  0
TEXT
  5
45499
330
214E1
100
AcDbEntity
 67
     1
  8
D-MTR-TXT
100
AcDbText
 10
671.3714139422364
 20
52.57142614275427
 30
0.0
 40
5.000005000212142
  1
1.2399 m
 72
     4
 11
686.0
 21
55.00000000000017
 31
0.0
100
AcDbText
  0
LINE
  5
4549D
330
214E1
100
AcDbEntity
 67
     1
  8
D-MTR-FRAM
100
AcDbLine
 10
696.0
 20
100.0000000000001
 30
0.0
 11
696.0
 21
60.00000000000017
 31
0.0
  0
LINE
  5
4549E
330
214E1
100
AcDbEntity
 67
     1
  8
D-MTR-FRAM
100
AcDbLine
 10
601.0
 20
100.0000000000001
 30
0.0
 11
601.0
 21
50.00000000000006
 31
0.0
  0
LINE
  5
454A0
330
214E1
100
AcDbEntity
 67
     1
  8
D-MTR-FRAM
100
AcDbLine
 10
651.0
 20
100.0000000000001
 30
0.0
 11
651.0
 21
50.00000000000006
 31
0.0
  0
TEXT
  5
454A1
330
214E1
100
AcDbEntity
 67
     1
  8
D-MTR-TXT
100
AcDbText
 10
666.1857069711182
 20
92.49999749989409
 30
0.0
 40
5.000005000212142
  1
名称
 72
     1
 11
673.5
 21
95.00000000000017
 31
0.0
100
AcDbText
 73
     2
  0
TEXT
  5
454A2
330
214E1
100
AcDbEntity
 67
     1
  8
D-MTR-TXT
100
AcDbText
 10
604.0571209133547
 20
52.39999739988985
 30
0.0
 40
5.000005000212142
  1
コンクリート
 72
     4
 11
626.0
 21
55.00000000000017
 31
0.0
100
AcDbText
  0
LINE
  5
454A3
330
214E1
100
AcDbEntity
 67
     1
  8
D-MTR-FRAM
100
AcDbLine
 10
576.0
 20
45.00000000000016
 30
0.0
 11
576.0
 21
30.00000000000017
 31
0.0
  0
LINE
  5
454A4
330
214E1
100
AcDbEntity
 67
     1
  8
D-MTR-FRAM
100
AcDbLine
 10
596.0
 20
45.00000000000016
 30
0.0
 11
596.0
 21
30.00000000000017
 31
0.0
  0
TEXT
  5
454A5
330
214E1
100
AcDbEntity
 67
     1
  8
D-MTR-TXT
100
AcDbText
 10
578.6857069711182
 20
35.05714041418224
 30
0.0
 40
5.000005000212142
  1
図番
 72
     4
 11
586.0
 21
37.50000000000017
 31
0.0
100
AcDbText
  0
TEXT
  5
454A6
330
214E1
100
AcDbEntity
 67
     1
  8
D-MTR-TXT
100
AcDbText
 10
611.3714139422365
 20
77.41428312846188
 30
0.0
 40
5.000005000212142
  1
連結金具
 72
     4
 11
626.0
 21
80.00000000000017
 31
0.0
100
AcDbText
  0
TEXT
  5
454A7
330
214E1
100
AcDbEntity
 67
     1
  8
D-MTR-TXT
100
AcDbText
 10
612.2285476561344
 20
35.05714041418224
 30
0.0
 40
5.000005000212142
  1
SW2500-0001-S
 72
     4
 11
636.0000000000001
 21
37.50000000000017
 31
0.0
100
AcDbText
  0
LINE
  5
454A8
330
214E1
100
AcDbEntity
 67
     1
  8
D-MTR-FRAM
100
AcDbLine
 10
676.0
 20
45.00000000000016
 30
0.0
 11
676.0
 21
30.00000000000017
 31
0.0
  0
TEXT
  5
454A9
330
214E1
100
AcDbEntity
 67
     1
  8
D-MTR-TXT
100
AcDbText
 10
658.8714139422364
 20
82.49999749989409
 30
0.0
 40
5.000005000212142
  1
プレート
 72
     1
 11
673.5
 21
85.00000000000017
 31
0.0
100
AcDbText
 73
     2
  0
LINE
  5
454BF
330
214E1
100
AcDbEntity
 67
     1
  8
D-MTR-FRAM
100
AcDbLine
 10
781.0
 20
100.0000000000001
 30
0.0
 11
781.0000000000002
 21
60.00000000000017
 31
0.0
  0
LINE
  5
454C0
330
214E1
100
AcDbEntity
 67
     1
  8
D-MTR-FRAM
100
AcDbLine
 10
811.0
 20
100.0000000000001
 30
0.0
 11
811.0
 21
50.00000000000006
 31
0.0
  0
LINE
  5
454C2
330
214E1
100
AcDbEntity
 67
     1
  8
D-MTR-FRAM
100
AcDbLine
 10
720.9999999999999
 20
60.00000000000017
 30
0.0
 11
721.0
 21
50.00000000000006
 31
0.0
  0
TEXT
  5
454C6
330
214E1
100
AcDbEntity
 67
     1
  8
D-MTR-TXT
100
AcDbText
 10
701.1938762448425
 20
54.25510029584451
 30
0.0
 40
3.571432143008673
  1
3
 72
     4
 11
702.5
 21
56.00000000000017
 31
0.0
100
AcDbText
  0
TEXT
  5
454C7
330
214E1
100
AcDbEntity
 67
     1
  8
D-MTR-TXT
100
AcDbText
 10
753.1999871994569
 20
52.57142614275427
 30
0.0
 40
5.000005000212142
  1
3.100 t
 72
     4
 11
766.0
 21
55.00000000000017
 31
0.0
100
AcDbText
  0
LINE
  5
454C8
330
214E1
100
AcDbEntity
 67
     1
  8
D-MTR-FRAM
100
AcDbLine
 10
811.0
 20
45.00000000000006
 30
0.0
 11
811.0
 21
30.00000000000006
 31
0.0
  0
TEXT
  5
454E0
330
214E1
100
AcDbEntity
 67
     1
  8
D-MTR
100
AcDbText
 10
690.3265149381105
 20
103.4693892245523
 30
0.0
 40
7.142864286017347
  1
材料表
 72
     1
 11
706.0
 21
102.0000000000002
 31
0.0
100
AcDbText
 73
     1
  0
TEXT
  5
454E1
330
214E1
100
AcDbEntity
 67
     1
  8
D-MTR-TXT
100
AcDbText
 10
655.2142674277956
 20
72.49999749989409
 30
0.0
 40
5.000005000212142
  1
インサート
 72
     1
 11
673.5
 21
75.00000000000017
 31
0.0
100
AcDbText
 73
     2
  0
LINE
  5
454E2
330
214E1
100
AcDbEntity
 67
     1
  8
D-MTR-FRAM
100
AcDbLine
 10
746.0
 20
100.0000000000001
 30
0.0
 11
746.0
 21
60.00000000000017
 31
0.0
  0
TEXT
  5
454E3
330
214E1
100
AcDbEntity
 67
     1
  8
D-MTR-TXT
100
AcDbText
 10
710.0285604566773
 20
92.49999749989409
 30
0.0
 40
5.000005000212142
  1
呼び名
 72
     1
 11
721.0
 21
95.00000000000017
 31
0.0
100
AcDbText
 73
     2
  0
TEXT
  5
454E4
330
214E1
100
AcDbEntity
 67
     1
  8
D-MTR-TXT
100
AcDbText
 10
699.0571209133547
 20
82.49999749989409
 30
0.0
 40
5.000005000212142
  1
60×4.5×200
 72
     1
 11
721.0
 21
85.00000000000017
 31
0.0
100
AcDbText
 73
     2
  0
TEXT
  5
454E6
330
214E1
100
AcDbEntity
 67
     1
  8
D-MTR-TXT
100
AcDbText
 10
756.1857069711184
 20
92.49999749989409
 30
0.0
 40
5.000005000212142
  1
数量
 72
     1
 11
763.5000000000001
 21
95.00000000000017
 31
0.0
100
AcDbText
 73
     2
  0
TEXT
  5
454E7
330
214E1
100
AcDbEntity
 67
     1
  8
D-MTR-TXT
100
AcDbText
 10
758.0142802283387
 20
82.49999749989409
 30
0.0
 40
5.000005000212142
  1
2枚
 72
     1
 11
763.5000000000001
 21
85.00000000000017
 31
0.0
100
AcDbText
 73
     2
  0
TEXT
  5
454E8
330
214E1
100
AcDbEntity
 67
     1
  8
D-MTR-TXT
100
AcDbText
 10
758.0142802283387
 20
72.49999749989409
 30
0.0
 40
5.000005000212142
  1
4個
 72
     1
 11
763.5000000000001
 21
75.00000000000017
 31
0.0
100
AcDbText
 73
     2
  0
CIRCLE
  5
454E9
330
214E1
100
AcDbEntity
 67
     1
  8
D-STR-STR1
100
AcDbCircle
 10
792.5000000000001
 20
85.00000000000017
 30
0.0
 40
0.5
  0
CIRCLE
  5
454EA
330
214E1
100
AcDbEntity
 67
     1
  8
D-STR-STR1
100
AcDbCircle
 10
795.8785508980855
 20
74.95951696602867
 30
0.0
 40
0.75
  0
CIRCLE
  5
454EB
330
214E1
100
AcDbEntity
 67
     1
  8
D-STR-STR1
100
AcDbCircle
 10
799.5
 20
85.00000000000017
 30
0.0
 40
0.5
  0
LINE
  5
454EC
330
214E1
100
AcDbEntity
 67
     1
  8
D-STR-STR1
100
AcDbLine
 10
791.0000000000001
 20
87.00000000000017
 30
0.0
 11
801.0000000000001
 21
87.00000000000017
 31
0.0
  0
LINE
  5
454ED
330
214E1
100
AcDbEntity
 67
     1
  8
D-STR-STR1
100
AcDbLine
 10
791.0000000000001
 20
83.00000000000016
 30
0.0
 11
801.0000000000001
 21
83.00000000000016
 31
0.0
  0
LINE
  5
454EE
330
214E1
100
AcDbEntity
 67
     1
  8
D-STR-STR1
100
AcDbLine
 10
797.5023638980855
 20
75.89705146602864
 30
0.0
 11
795.8785628980855
 21
76.83455146602864
 31
0.0
  0
LINE
  5
454EF
330
214E1
100
AcDbEntity
 67
     1
  8
D-STR-STR1
100
AcDbLine
 10
797.5023533980856
 20
74.02201696602867
 30
0.0
 11
797.5023533980856
 21
75.89701696602867
 31
0.0
  0
LINE
  5
454F0
330
214E1
100
AcDbEntity
 67
     1
  8
D-STR-STR1
100
AcDbLine
 10
795.8785163980855
 20
73.08454546602866
 30
0.0
 11
797.5023188980855
 21
74.02204546602866
 31
0.0
  0
LINE
  5
454F1
330
214E1
100
AcDbEntity
 67
     1
  8
D-STR-STR1
100
AcDbLine
 10
794.2547603980855
 20
74.02205146602864
 30
0.0
 11
795.8785508980855
 21
73.08455746602868
 31
0.0
  0
LINE
  5
454F2
330
214E1
100
AcDbEntity
 67
     1
  8
D-STR-STR1
100
AcDbLine
 10
794.2547483980855
 20
75.89701696602867
 30
0.0
 11
794.2547483980855
 21
74.02201696602867
 31
0.0
  0
LINE
  5
454F3
330
214E1
100
AcDbEntity
 67
     1
  8
D-STR-STR1
100
AcDbLine
 10
795.8785163980855
 20
76.83456796602865
 30
0.0
 11
794.2547138980856
 21
75.89706796602865
 31
0.0
  0
LINE
  5
454F4
330
214E1
100
AcDbEntity
 67
     1
  8
D-STR-STR1
100
AcDbLine
 10
801.0000000000001
 20
87.00000000000017
 30
0.0
 11
801.0000000000001
 21
83.00000000000016
 31
0.0
  0
LINE
  5
454F5
330
214E1
100
AcDbEntity
 67
     1
  8
D-STR-STR1
100
AcDbLine
 10
791.0000000000001
 20
87.00000000000017
 30
0.0
 11
791.0000000000001
 21
83.00000000000016
 31
0.0
  0
VIEWPORT
  5
45C4A
330
214E1
100
AcDbEntity
 67
     1
  8
DEFPOINTS
100
AcDbViewport
 10
241.6399816683131
 20
327.9341724297924
 30
0.0
 40
333.2799633366262
 41
392.1316551404156
 68
     2
 69
     2
 12
8294.342396412302
 22
12199.58323276277
 13
0.0
 23
0.0
 14
10.0
 24
10.0
 15
10.0
 25
10.0
 16
0.0
 26
0.0
 36
1.0
 17
0.0
 27
0.0
 37
0.0
 42
50.0
 43
0.0
 44
0.0
 45
7842.633102808313
 50
0.0
 51
0.0
 72
   100
 90
    32864
  1

281
     0
 71
     1
 74
     0
110
0.0
120
0.0
130
0.0
111
1.0
121
0.0
131
0.0
112
0.0
122
1.0
132
0.0
 79
     0
146
0.0
170
     0
 61
     5
348
4A390
292
     1
282
     1
141
0.0
142
0.0
 63
   250
421
  3355443
  0
VIEWPORT
  5
45C4C
330
214E1
100
AcDbEntity
 67
     1
  8
DEFPOINTS
100
AcDbViewport
 10
648.943397804872
 20
341.849642364724
 30
0.0
 40
323.7622651521961
 41
228.0582302177107
 68
     3
 69
     3
 12
15129.42783757077
 22
14007.8926314614
 13
0.0
 23
0.0
 14
10.0
 24
10.0
 15
10.0
 25
10.0
 16
0.0
 26
0.0
 36
1.0
 17
0.0
 27
0.0
 37
0.0
 42
50.0
 43
0.0
 44
0.0
 45
4561.164604354215
 50
0.0
 51
0.0
 72
   100
 90
    32864
  1

281
     0
 71
     1
 74
     0
110
0.0
120
0.0
130
0.0
111
1.0
121
0.0
131
0.0
112
0.0
122
1.0
132
0.0
 79
     0
146
0.0
170
     0
 61
     5
348
4A390
292
     1
282
     1
141
0.0
142
0.0
 63
   250
421
  3355443
  0
TEXT
  5
46C44
330
214E1
100
AcDbEntity
 67
     1
  8
D-MTR-TXT
100
AcDbText
 10
788.6857069711183
 20
92.49999749989409
 30
0.0
 40
5.000005000212142
  1
形状
 72
     1
 11
796.0
 21
95.00000000000017
 31
0.0
100
AcDbText
 73
     2
  0
TEXT
  5
4A307
330
214E1
100
AcDbEntity
 67
     1
  8
D-MTR-TXT
100
AcDbText
 10
700.8856941705751
 20
72.49999749989409
 30
0.0
 40
5.000005000212142
  1
JLS-M12×50
 72
     1
 11
721.0
 21
75.00000000000017
 31
0.0
100
AcDbText
 73
     2
  0
TEXT
  5
4A378
330
214E1
100
AcDbEntity
 67
     1
  8
D-MTR-TXT
100
AcDbText
 10
693.8485953370491
 20
34.54286168590715
 30
0.0
 40
5.000005000212142
  1
矢野コンクリート工業株式会社
 72
     4
 11
745.0486465392214
 21
37.14286428601746
 31
0.0
100
AcDbText
  0
ENDSEC
  0
SECTION
  2
OBJECTS
  0
DICTIONARY
  5
C
330
0
100
AcDbDictionary
281
     1
  3
ACAD_CIP_PREVIOUS_PRODUCT_INFO
350
4A3C6
  3
ACAD_COLOR
350
497A3
  3
ACAD_DETAILVIEWSTYLE
350
4A3BB
  3
ACAD_GROUP
350
D
  3
ACAD_LAYOUT
350
1A
  3
ACAD_MATERIAL
350
497A2
  3
ACAD_MLEADERSTYLE
350
4A3B7
  3
ACAD_MLINESTYLE
350
17
  3
ACAD_PLOTSETTINGS
350
19
  3
ACAD_PLOTSTYLENAME
350
7E80
  3
ACAD_SCALELIST
350
4A3A5
  3
ACAD_SECTIONVIEWSTYLE
350
4A3B9
  3
ACAD_TABLESTYLE
350
4A3A3
  3
ACAD_VISUALSTYLE
350
4A38A
  3
AcadDim
350
478CB
  3
ACDB_RECOMPOSE_DATA
350
4A3EF
  3
AcDbVariableDictionary
350
7E86
  0
DICTIONARY
  5
1F315
330
2
100
AcDbDictionary
280
     1
281
     1
  3
ACAD_LAYERFILTERS
360
1F316
  3
ACAD_LAYERSTATES
360
21687
  0
DICTIONARY
  5
4A3C8
330
10
100
AcDbDictionary
280
     1
281
     1
  3
ADSK_XREC_LAYER_RECONCILED
360
4A3C9
  0
DICTIONARY
  5
4A3CA
330
AC
100
AcDbDictionary
280
     1
281
     1
  3
ADSK_XREC_LAYER_RECONCILED
360
4A3CB
  0
DICTIONARY
  5
4A3CC
330
D6
100
AcDbDictionary
280
     1
281
     1
  3
ADSK_XREC_LAYER_RECONCILED
360
4A3CD
  0
DICTIONARY
  5
4A3CE
330
6662
100
AcDbDictionary
280
     1
281
     1
  3
ADSK_XREC_LAYER_RECONCILED
360
4A3CF
  0
DICTIONARY
  5
4A3D0
330
8A66
100
AcDbDictionary
280
     1
281
     1
  3
ADSK_XREC_LAYER_RECONCILED
360
4A3D1
  0
DICTIONARY
  5
4A3D2
330
1408F
100
AcDbDictionary
280
     1
281
     1
  3
ADSK_XREC_LAYER_RECONCILED
360
4A3D3
  0
DICTIONARY
  5
4A3D4
330
1620E
100
AcDbDictionary
280
     1
281
     1
  3
ADSK_XREC_LAYER_RECONCILED
360
4A3D5
  0
DICTIONARY
  5
4A3D6
330
16210
100
AcDbDictionary
280
     1
281
     1
  3
ADSK_XREC_LAYER_RECONCILED
360
4A3D7
  0
DICTIONARY
  5
4A3D8
330
16212
100
AcDbDictionary
280
     1
281
     1
  3
ADSK_XREC_LAYER_RECONCILED
360
4A3D9
  0
DICTIONARY
  5
4A3DA
330
16213
100
AcDbDictionary
280
     1
281
     1
  3
ADSK_XREC_LAYER_RECONCILED
360
4A3DB
  0
DICTIONARY
  5
4A3DC
330
16216
100
AcDbDictionary
280
     1
281
     1
  3
ADSK_XREC_LAYER_RECONCILED
360
4A3DD
  0
DICTIONARY
  5
4A3DE
330
16217
100
AcDbDictionary
280
     1
281
     1
  3
ADSK_XREC_LAYER_RECONCILED
360
4A3DF
  0
DICTIONARY
  5
4A3E0
330
16218
100
AcDbDictionary
280
     1
281
     1
  3
ADSK_XREC_LAYER_RECONCILED
360
4A3E1
  0
DICTIONARY
  5
4A3E2
330
1F32E
100
AcDbDictionary
280
     1
281
     1
  3
ADSK_XREC_LAYER_RECONCILED
360
4A3E3
  0
DICTIONARY
  5
7BCB
330
1F
100
AcDbDictionary
280
     1
281
     1
  3
ACAD_LAYOUTSELFREF
360
7DA3
  0
DICTIONARY
  5
214F4
330
214E1
100
AcDbDictionary
280
     1
281
     1
  3
ACAD_LAYOUTSELFREF
360
214F5
  0
XRECORD
  5
4A3C6
102
{ACAD_REACTORS
330
C
102
}
330
C
100
AcDbXrecord
280
     1
300
ACD
300
2023
300

  0
DICTIONARY
  5
497A3
102
{ACAD_REACTORS
330
C
102
}
330
C
100
AcDbDictionary
281
     1
  0
DICTIONARY
  5
4A3BB
102
{ACAD_REACTORS
330
C
102
}
330
C
100
AcDbDictionary
281
     1
  3
Imperial24
350
4A3BC
  0
DICTIONARY
  5
D
102
{ACAD_REACTORS
330
C
102
}
330
C
100
AcDbDictionary
281
     1
  0
DICTIONARY
  5
1A
102
{ACAD_REACTORS
330
C
102
}
330
C
100
AcDbDictionary
281
     1
  3
H-2500
350
214F8
  3
Model
350
7E82
  0
DICTIONARY
  5
497A2
102
{ACAD_REACTORS
330
C
102
}
330
C
100
AcDbDictionary
281
     1
  3
ByBlock
350
4A382
  3
ByLayer
350
4A37A
  3
Global
350
4A36E
  0
DICTIONARY
  5
4A3B7
102
{ACAD_REACTORS
330
C
102
}
330
C
100
AcDbDictionary
281
     1
  3
Standard
350
4A3B8
  0
DICTIONARY
  5
17
102
{ACAD_REACTORS
330
C
102
}
330
C
100
AcDbDictionary
281
     1
  3
STANDARD
350
18
  0
DICTIONARY
  5
19
102
{ACAD_REACTORS
330
C
102
}
330
C
100
AcDbDictionary
281
     1
  0
ACDBDICTIONARYWDFLT
  5
7E80
102
{ACAD_REACTORS
330
C
102
}
330
C
100
AcDbDictionary
281
     1
  3
Normal
350
7E81
100
AcDbDictionaryWithDefault
340
7E81
  0
DICTIONARY
  5
4A3A5
102
{ACAD_REACTORS
330
C
102
}
330
C
100
AcDbDictionary
281
     1
  3
A0
350
4A3A6
  3
A1
350
4A3A7
  3
A2
350
4A3A8
  3
A3
350
4A3A9
  3
A4
350
4A3AA
  3
A5
350
4A3AB
  3
A6
350
4A3AC
  3
A7
350
4A3AD
  3
A8
350
4A3AE
  3
A9
350
4A3AF
  3
B0
350
4A3B0
  3
B1
350
4A3B1
  3
B2
350
4A3B2
  3
B3
350
4A3B3
  3
B4
350
4A3B4
  3
B5
350
4A3B5
  3
B6
350
4A3B6
  0
DICTIONARY
  5
4A3B9
102
{ACAD_REACTORS
330
C
102
}
330
C
100
AcDbDictionary
281
     1
  3
Imperial24
350
4A3BA
  0
DICTIONARY
  5
4A3A3
102
{ACAD_REACTORS
330
C
102
}
330
C
100
AcDbDictionary
281
     1
  3
Standard
350
4A3A4
  0
DICTIONARY
  5
4A38A
102
{ACAD_REACTORS
330
C
102
}
330
C
100
AcDbDictionary
281
     1
  3
2dWireframe
350
4A390
  3
Basic
350
4A38F
  3
Brighten
350
4A396
  3
ColorChange
350
4A39A
  3
Conceptual
350
4A393
  3
Dim
350
4A395
  3
EdgeColorOff
350
4A3A2
  3
Facepattern
350
4A399
  3
Flat
350
4A38B
  3
FlatWithEdges
350
4A38C
  3
Gouraud
350
4A38D
  3
GouraudWithEdges
350
4A38E
  3
Hidden
350
4A392
  3
JitterOff
350
4A3A0
  3
Linepattern
350
4A398
  3
OverhangOff
350
4A3A1
  3
Realistic
350
4A394
  3
Shaded
350
4A39F
  3
Shaded with edges
350
4A39E
  3
Shades of Gray
350
4A39B
  3
Sketchy
350
4A39C
  3
Thicken
350
4A397
  3
Wireframe
350
4A391
  3
X-Ray
350
4A39D
  0
XRECORD
  5
478CB
102
{ACAD_REACTORS
330
C
102
}
330
C
100
AcDbXrecord
280
     1
 90
   990106
  3

 60
     0
 61
     0
 62
     1
 63
     3
 64
     0
 65
     0
 66
     0
 67
     3
 68
     1
 69
     0
 70
     0
 71
     0
 72
     0
 40
0.0
170
     0
  0
XRECORD
  5
4A3EF
102
{ACAD_REACTORS
330
C
102
}
330
C
100
AcDbXrecord
280
     1
 90
        1
330
4A3A4
  0
DICTIONARY
  5
7E86
102
{ACAD_REACTORS
330
C
102
}
330
C
100
AcDbDictionary
281
     1
  3
CANNOSCALE
350
4A3E9
  3
CMLEADERSTYLE
350
4A3E5
  3
CTABLESTYLE
350
4A3E4
  3
CVIEWDETAILSTYLE
350
4A3E6
  3
CVIEWSECTIONSTYLE
350
4A3E7
  3
DIMASSOC
350
7E87
  3
LAYEREVAL
350
4A3EB
  3
LAYERNOTIFY
350
4A3EC
  3
LIGHTINGUNITS
350
4A3EA
  3
MSLTSCALE
350
4A3E8
  3
PROJECTNAME
350
4A1FB
  3
SORTENTS
350
B6AF
  0
DICTIONARY
  5
1F316
102
{ACAD_REACTORS
330
1F315
102
}
330
1F315
100
AcDbDictionary
280
     1
281
     1
  3
$
360
2C770
  3
-100
360
2C771
  3
-50
360
2C772
  3
0
360
2C773
  3
00
360
2C774
  3
01
360
2C775
  3
05
360
2C776
  3
1
360
2C777
  3
1-1断面
360
383D0
  3
1-交差点処理図（最新1案）
360
383D1
  3
12
360
2C778
  3
19
360
2C779
  3
2
360
2C77A
  3
2-線形図1
360
383D2
  3
21
360
2C77B
  3
250
360
2C77C
  3
3
360
2C77D
  3
3-線形図2
360
383D3
  3
300
360
2C77E
  3
32
360
2C77F
  3
4
360
2C780
  3
5
360
2C781
  3
50
360
1FD5C
  3
6
360
2C782
  3
66-躯体図
360
2C783
  3
66躯体図
360
2C784
  3
7
360
2C785
  3
7-専用部北行
360
383D4
  3
8-ONﾗﾝﾌﾟ
360
383D5
  3
9
360
2C786
  3
9-OFFﾗﾝﾌﾟ
360
383D6
  3
a
360
2C787
  3
A-
360
2C788
  3
aa
360
2C789
  3
AB棟
360
2C78A
  3
AREA
360
2C78B
  3
BASE
360
2C78C
  3
beam
360
2C78D
  3
B北
360
383D7
  3
CALS
360
383D8
  3
cap-0
360
2C78E
  3
cc
360
2C78F
  3
CEL
360
2C790
  3
che
360
2C791
  3
CLG
360
2C792
  3
colu
360
2C793
  3
com
360
2C794
  3
CRG
360
2C795
  3
cyan
360
1FD5D
  3
C打計画図
360
2C796
  3
DIM
360
2C797
  3
D墓地排水
360
2C798
  3
ele
360
2C799
  3
E南
360
383D9
  3
F
360
2C79A
  3
face4
360
2C79B
  3
ff
360
2C79C
  3
fini
360
2C79D
  3
FUSE_00
360
2C79E
  3
GRID
360
2C79F
  3
hi
360
2C7A0
  3
hollywood
360
2C7A1
  3
HOTEL
360
2C7A2
  3
husezu
360
1FD5E
  3
HYOUKI
360
2C7A3
  3
I2
360
2C7A4
  3
i2cl
360
2C7A5
  3
i5
360
2C7A6
  3
i9
360
2C7A7
  3
j0
360
1FD5F
  3
j7
360
1FD60
  3
j8
360
1FD61
  3
j9
360
1FD62
  3
jiku-0
360
2C7A8
  3
k
360
2C7A9
  3
KEN
360
2C7AA
  3
LOCK
360
2C7AB
  3
note
360
2C7AC
  3
NOTPLOT
360
1FD63
  3
OFF
360
2C7AD
  3
ON
360
2C7AE
  3
q
360
2C7AF
  3
S
360
2C7B0
  3
SS
360
2C7B1
  3
TAKASA
360
2C7B2
  3
ten
360
2C7B3
  3
text
360
1FD64
  3
U01平面全体
360
2C7B4
  3
U02平面一般詳細
360
2C7B5
  3
U03平面部分詳細
360
2C7B6
  3
U04天井全体
360
2C7B7
  3
U05天井伏図詳細
360
2C7B8
  3
U06躯体見下全体
360
2C7B9
  3
U07躯体見下詳細
360
2C7BA
  3
U08躯体見上全体
360
2C7BB
  3
U09躯体見上詳細
360
2C7BC
  3
UNROCK
360
2C7BD
  3
usr
360
2C7BE
  3
White
360
21593
  3
X
360
2C7BF
  3
yellow
360
1FD65
  3
z
360
2C7C0
  3
×
360
1FD66
  3
その他
360
1F317
  3
タイトル
360
2C7C9
  3
フリーズ
360
2C7CA
  3
フリーズ解除
360
1FD67
  3
ペーパー空間
360
21597
  3
ラスター
360
1F318
  3
ランプ
360
383DA
  3
ロック解除
360
2C7CB
  3
一般
360
383DB
  3
不要
360
1FD6C
  3
中野
360
2C7EE
  3
人孔構造物
360
1F321
  3
低木植栽平面
360
2C7EF
  3
作図に必要な画層を表示
360
2159A
  3
作業
360
2C7E1
  3
使用中の画層
360
1FD6B
  3
側道
360
1F324
  3
元図面レイヤ
360
21598
  3
全帯
360
383E6
  3
全消去
360
383E5
  3
凡例
360
2C808
  3
副道
360
383EB
  3
割り付け平面図
360
2C7CE
  3
印刷不可
360
383DC
  3
印刷不可画層
360
383DD
  3
図枠・表題欄
360
1F322
  3
土壌改良
360
2C7F8
  3
土留板
360
2159F
  3
土留板取付詳細図
360
215A0
  3
地下埋設物
360
1F325
  3
型枠計画図
360
2C7D7
  3
基準値・数値
360
1F31A
  3
基礎
360
1F31B
  3
変更
360
1FD6D
  3
外部参照の非表示画層
360
383DF
  3
外部参照－建築
360
2C7CD
  3
天井インサート図
360
2C7F1
  3
天井伏図
360
2C7F4
  3
天井伏図詳細
360
2C7F5
  3
天井全体
360
2C7F2
  3
天井総合図
360
2C7F3
  3
寸法
360
2C7EA
  3
寸法ﾚｲﾔ調整
360
2C7EB
  3
専北
360
383E2
  3
専用
360
383E3
  3
山止根切計画図
360
2C7E2
  3
平面一般詳細
360
2C802
  3
平面全体
360
2C804
  3
平面図
360
215A3
  3
平面総合図
360
2C805
  3
平面詳細図
360
2C803
  3
平面部分詳細
360
2C806
  3
建築図
360
2C7DC
  3
建築接地図
360
2C7DD
  3
形状
360
2C7D8
  3
形状以外
360
2C7D9
  3
捨て線
360
1F320
  3
排水
360
2C7FA
  3
排水平面
360
2C7FB
  3
掘削線
360
1F31C
  3
擁壁平面図
360
2C809
  3
支柱取付部
360
2159B
  3
数量表
360
1F323
  3
文字
360
383EC
  3
断面
360
383E7
  3
断面図
360
2159E
  3
新規書き込み
360
2159C
  3
施設平面図
360
2C7E3
  3
旗
360
1FD68
  3
旗上
360
1FD69
  3
旗上げ
360
383E0
  3
本管
360
1F329
  3
本線
360
383ED
  3
杭頭詳細図
360
21599
  3
枠
360
1FD6E
  3
枠Or文字
360
1FD6F
  3
柱状図
360
1F326
  3
植栽
360
2C7E4
  3
植栽低木AB
360
2C7E7
  3
植栽低木CD
360
2C7E8
  3
植栽高木AB
360
2C7E5
  3
植栽高木CD
360
2C7E6
  3
構造物
360
1F31F
  3
横断
360
383DE
  3
機器
360
2C7D0
  3
正面図
360
2159D
  3
法線
360
1F328
  3
流出入管
360
1F32D
  3
潅水平面
360
2C7CF
  3
現況地盤線
360
1F31E
  3
現況平面図-
360
1FD6A
  3
用地境界
360
1F32B
  3
病院提出用非表示
360
2C800
  3
病院提出用非表示（反転）
360
2C801
  3
空調設備図
360
2C7D6
  3
立坑構造物
360
1F32C
  3
継手・副管
360
1F31D
  3
総合仮設図
360
2C7EC
  3
線形
360
383E4
  3
背面図
360
215A1
  3
芯関係
360
2C7E9
  3
薬注
360
1F32A
  3
衛生設備図
360
2C7CC
  3
表示
360
2C7FD
  3
表示2
360
2C7FE
  3
表示・非表示
360
2C7FF
  3
表示画層
360
383EA
  3
見下全体図
360
2C7DE
  3
計画
360
383E1
  3
計画平面
360
2C7DA
  3
計画平面図
360
2C7DB
  3
足場計画図
360
2C7ED
  3
躯体図
360
2C7D5
  3
躯体見上全体
360
2C7D4
  3
躯体見上詳細
360
2C7D3
  3
躯体見下全体
360
2C7D2
  3
躯体見下詳細
360
2C7D1
  3
道路中心線
360
1F327
  3
道路関係図
360
2C7F9
  3
配筋図
360
215A2
  3
配線
360
2C7FC
  3
鉄骨建方計画図
360
2C7F0
  3
開削部
360
1F319
  3
電気設備
360
2C7F6
  3
電気設備図
360
2C7F7
  3
非表示
360
383E8
  3
非表示画層
360
383E9
  3
高さ
360
2C7DF
  3
高木植栽平面
360
2C7E0
  3
鳳文字入力
360
2C807
  3
Ａ断面
360
21594
  3
ＡＢ棟
360
2C7C1
  3
Ｂ断面
360
21595
  3
Ｃ断面
360
21596
  3
ＣＤ棟
360
2C7C2
  3
Ｄ・墓地　施設平面
360
2C7C3
  3
Ｄ低木
360
2C7C7
  3
Ｄ墓地施設平面
360
2C7C8
  3
Ｄ施設平面
360
2C7C6
  3
Ｄ街区低木
360
2C7C4
  3
Ｄ高木植栽
360
2C7C5
  0
DICTIONARY
  5
21687
102
{ACAD_REACTORS
330
1F315
102
}
330
1F315
100
AcDbDictionary
281
     1
  0
XRECORD
  5
4A3C9
102
{ACAD_REACTORS
330
4A3C8
102
}
330
4A3C8
100
AcDbXrecord
280
     1
290
     1
  0
XRECORD
  5
4A3CB
102
{ACAD_REACTORS
330
4A3CA
102
}
330
4A3CA
100
AcDbXrecord
280
     1
290
     1
  0
XRECORD
  5
4A3CD
102
{ACAD_REACTORS
330
4A3CC
102
}
330
4A3CC
100
AcDbXrecord
280
     1
290
     1
  0
XRECORD
  5
4A3CF
102
{ACAD_REACTORS
330
4A3CE
102
}
330
4A3CE
100
AcDbXrecord
280
     1
290
     1
  0
XRECORD
  5
4A3D1
102
{ACAD_REACTORS
330
4A3D0
102
}
330
4A3D0
100
AcDbXrecord
280
     1
290
     1
  0
XRECORD
  5
4A3D3
102
{ACAD_REACTORS
330
4A3D2
102
}
330
4A3D2
100
AcDbXrecord
280
     1
290
     1
  0
XRECORD
  5
4A3D5
102
{ACAD_REACTORS
330
4A3D4
102
}
330
4A3D4
100
AcDbXrecord
280
     1
290
     1
  0
XRECORD
  5
4A3D7
102
{ACAD_REACTORS
330
4A3D6
102
}
330
4A3D6
100
AcDbXrecord
280
     1
290
     1
  0
XRECORD
  5
4A3D9
102
{ACAD_REACTORS
330
4A3D8
102
}
330
4A3D8
100
AcDbXrecord
280
     1
290
     1
  0
XRECORD
  5
4A3DB
102
{ACAD_REACTORS
330
4A3DA
102
}
330
4A3DA
100
AcDbXrecord
280
     1
290
     1
  0
XRECORD
  5
4A3DD
102
{ACAD_REACTORS
330
4A3DC
102
}
330
4A3DC
100
AcDbXrecord
280
     1
290
     1
  0
XRECORD
  5
4A3DF
102
{ACAD_REACTORS
330
4A3DE
102
}
330
4A3DE
100
AcDbXrecord
280
     1
290
     1
  0
XRECORD
  5
4A3E1
102
{ACAD_REACTORS
330
4A3E0
102
}
330
4A3E0
100
AcDbXrecord
280
     1
290
     1
  0
XRECORD
  5
4A3E3
102
{ACAD_REACTORS
330
4A3E2
102
}
330
4A3E2
100
AcDbXrecord
280
     1
290
     1
  0
XRECORD
  5
7DA3
102
{ACAD_REACTORS
330
7BCB
102
}
330
7BCB
100
AcDbXrecord
280
     1
340
1F
  0
XRECORD
  5
214F5
102
{ACAD_REACTORS
330
214F4
102
}
330
214F4
100
AcDbXrecord
280
     1
340
214E1
  0
ACDBDETAILVIEWSTYLE
  5
4A3BC
102
{ACAD_XDICTIONARY
360
4A3F2
102
}
102
{ACAD_REACTORS
330
4A3BB
102
}
330
4A3BB
100
AcDbModelDocViewStyle
 70
     0
  3
Imperial24
290
     0
100
AcDbDetailViewStyle
 70
     0
 71
     0
 90
        3
 71
     1
340
11
 62
   256
 40
0.24
340
0
 62
   256
 40
0.24
300

 40
0.36
280
     3
 71
     2
340
16
 90
       25
 62
   256
 71
     3
340
11
 62
   256
 40
0.24
 90
        1
 40
0.75
 90
        1
300
%<\AcVar ViewType \f "%tc1">% %<\AcVar ViewDetailId>%\PSCALE %<\AcVar ViewScale \f "%sn">%
 71
     4
340
16
 90
       25
 62
   256
340
16
 90
       25
 62
   256
280
     0
  0
LAYOUT
  5
214F8
102
{ACAD_REACTORS
330
1A
102
}
330
1A
100
AcDbPlotSettings
  1

  2
Canon LASER SHOT LBP-1910
  4
A3
  6

 40
5.873749732971191
 41
5.873747825622558
 42
5.873748779296875
 43
5.873748779296875
 44
296.9259948730469
 45
419.9466552734374
 46
-5.91
 47
-6.15
 48
0.0
 49
0.0
140
841.0
141
594.0
142
1.0
143
2.0
 70
   676
 72
     1
 73
     1
 74
     4
  7
CALS.ctb
 75
     0
147
0.5
 76
     1
 77
     2
 78
   300
148
0.0
149
0.0
100
AcDbLayout
  1
H-2500
 70
     1
 71
     1
 10
0.5525024414062507
 20
0.0725005340576175
 11
840.4458129882812
 21
593.9244902801513
 12
0.0
 22
0.0
 32
0.0
 14
0.0
 24
0.0
 34
0.0
 15
841.0
 25
594.0
 35
0.0
146
0.0
 13
0.0
 23
0.0
 33
0.0
 16
1.0
 26
0.0
 36
0.0
 17
0.0
 27
1.0
 37
0.0
 76
     0
330
214E1
331
214E2
  0
LAYOUT
  5
7E82
102
{ACAD_REACTORS
330
1A
102
}
330
1A
100
AcDbPlotSettings
  1

  2
RICOH IPSiO NX730N RPCS◎.pc3
  4
A4
  6

 40
5.873749732971191
 41
5.873747825622558
 42
5.873748779296875
 43
5.873748779296875
 44
209.9733276367187
 45
296.9259948730469
 46
0.0
 47
2.87
 48
7999.999999996275
 49
4000.000000000003
140
164199.9999999963
141
114799.9999999999
142
1.0
143
558.9584389148257
 70
 11964
 72
     1
 73
     1
 74
     4
  7
canon国土交通省.ctb
 75
     0
147
0.0017890417791015
 76
     2
 77
     2
 78
   300
148
-7999.999999996275
149
-4000.000000000003
100
AcDbLayout
  1
Model
 70
     1
 71
     0
 10
0.0
 20
0.0
 11
12.0
 21
9.0
 12
0.0
 22
0.0
 32
0.0
 14
0.0
 24
0.0
 34
0.0
 15
0.0
 25
0.0
 35
0.0
146
0.0
 13
0.0
 23
0.0
 33
0.0
 16
1.0
 26
0.0
 36
0.0
 17
0.0
 27
1.0
 37
0.0
 76
     0
330
1F
  0
MATERIAL
  5
4A382
102
{ACAD_XDICTIONARY
360
4A383
102
}
102
{ACAD_REACTORS
330
497A2
102
}
330
497A2
100
AcDbMaterial
  1
ByBlock
 72
     0
 43
0.0208333333333333
 43
0.0
 43
0.0
 43
0.0
 43
0.0
 43
0.0208333333333333
 43
0.0
 43
0.0
 43
0.0
 43
0.0
 43
1.0
 43
0.0
 43
0.0
 43
0.0
 43
0.0
 43
1.0
 77
     0
 47
0.0208333333333333
 47
0.0
 47
0.0
 47
0.0
 47
0.0
 47
0.0208333333333333
 47
0.0
 47
0.0
 47
0.0
 47
0.0
 47
1.0
 47
0.0
 47
0.0
 47
0.0
 47
0.0
 47
1.0
171
     0
 49
0.0208333333333333
 49
0.0
 49
0.0
 49
0.0
 49
0.0
 49
0.0208333333333333
 49
0.0
 49
0.0
 49
0.0
 49
0.0
 49
1.0
 49
0.0
 49
0.0
 49
0.0
 49
0.0
 49
1.0
175
     0
142
0.0208333333333333
142
0.0
142
0.0
142
0.0
142
0.0
142
0.0208333333333333
142
0.0
142
0.0
142
0.0
142
0.0
142
1.0
142
0.0
142
0.0
142
0.0
142
0.0
142
1.0
179
     0
144
0.0208333333333333
144
0.0
144
0.0
144
0.0
144
0.0
144
0.0208333333333333
144
0.0
144
0.0
144
0.0
144
0.0
144
1.0
144
0.0
144
0.0
144
0.0
144
0.0
144
1.0
147
0.0208333333333333
147
0.0
147
0.0
147
0.0
147
0.0
147
0.0208333333333333
147
0.0
147
0.0
147
0.0
147
0.0
147
1.0
147
0.0
147
0.0
147
0.0
147
0.0
147
1.0
  0
MATERIAL
  5
4A37A
102
{ACAD_XDICTIONARY
360
4A37B
102
}
102
{ACAD_REACTORS
330
497A2
102
}
330
497A2
100
AcDbMaterial
  1
ByLayer
 72
     0
 43
0.0208333333333333
 43
0.0
 43
0.0
 43
0.0
 43
0.0
 43
0.0208333333333333
 43
0.0
 43
0.0
 43
0.0
 43
0.0
 43
1.0
 43
0.0
 43
0.0
 43
0.0
 43
0.0
 43
1.0
 77
     0
 47
0.0208333333333333
 47
0.0
 47
0.0
 47
0.0
 47
0.0
 47
0.0208333333333333
 47
0.0
 47
0.0
 47
0.0
 47
0.0
 47
1.0
 47
0.0
 47
0.0
 47
0.0
 47
0.0
 47
1.0
171
     0
 49
0.0208333333333333
 49
0.0
 49
0.0
 49
0.0
 49
0.0
 49
0.0208333333333333
 49
0.0
 49
0.0
 49
0.0
 49
0.0
 49
1.0
 49
0.0
 49
0.0
 49
0.0
 49
0.0
 49
1.0
175
     0
142
0.0208333333333333
142
0.0
142
0.0
142
0.0
142
0.0
142
0.0208333333333333
142
0.0
142
0.0
142
0.0
142
0.0
142
1.0
142
0.0
142
0.0
142
0.0
142
0.0
142
1.0
179
     0
144
0.0208333333333333
144
0.0
144
0.0
144
0.0
144
0.0
144
0.0208333333333333
144
0.0
144
0.0
144
0.0
144
0.0
144
1.0
144
0.0
144
0.0
144
0.0
144
0.0
144
1.0
147
0.0208333333333333
147
0.0
147
0.0
147
0.0
147
0.0
147
0.0208333333333333
147
0.0
147
0.0
147
0.0
147
0.0
147
1.0
147
0.0
147
0.0
147
0.0
147
0.0
147
1.0
  0
MATERIAL
  5
4A36E
102
{ACAD_REACTORS
330
497A2
102
}
330
497A2
100
AcDbMaterial
  1
Global
 73
     1
 78
     1
172
     1
176
     1
270
     1
274
     1
 94
       63
  0
MLEADERSTYLE
  5
4A3B8
102
{ACAD_REACTORS
330
4A3B7
102
}
330
4A3B7
100
AcDbMLeaderStyle
179
     2
170
     2
171
     1
172
     0
 90
        2
 40
0.0
 41
0.0
173
     1
 91
-1056964608
340
14
 92
       -2
290
     1
 42
0.09
291
     1
 43
0.36
  3
Standard
 44
0.18
300

342
11
174
     1
178
     6
175
     1
176
     0
 93
-1056964608
 45
0.18
292
     0
297
     0
 46
0.18
 94
-1056964608
 47
1.0
 49
1.0
140
1.0
293
     1
141
0.0
294
     1
177
     0
142
1.0
295
     0
296
     0
143
0.125
271
     0
272
     9
273
     9
298
     1
  0
MLINESTYLE
  5
18
102
{ACAD_REACTORS
330
17
102
}
330
17
100
AcDbMlineStyle
  2
STANDARD
 70
     0
  3

 62
   256
 51
90.0
 52
90.0
 71
     2
 49
0.5
 62
   256
  6
BYLAYER
 49
-0.5
 62
   256
  6
BYLAYER
  0
ACDBPLACEHOLDER
  5
7E81
102
{ACAD_REACTORS
330
7E80
102
}
330
7E80
  0
SCALE
  5
4A3A6
102
{ACAD_REACTORS
330
4A3A5
102
}
330
4A3A5
100
AcDbScale
 70
     0
300
1:1
140
1.0
141
1.0
290
     1
  0
SCALE
  5
4A3A7
102
{ACAD_REACTORS
330
4A3A5
102
}
330
4A3A5
100
AcDbScale
 70
     0
300
1/128" = 1'-0"
140
0.0078125
141
12.0
290
     0
  0
SCALE
  5
4A3A8
102
{ACAD_REACTORS
330
4A3A5
102
}
330
4A3A5
100
AcDbScale
 70
     0
300
1/64" = 1'-0"
140
0.015625
141
12.0
290
     0
  0
SCALE
  5
4A3A9
102
{ACAD_REACTORS
330
4A3A5
102
}
330
4A3A5
100
AcDbScale
 70
     0
300
1/32" = 1'-0"
140
0.03125
141
12.0
290
     0
  0
SCALE
  5
4A3AA
102
{ACAD_REACTORS
330
4A3A5
102
}
330
4A3A5
100
AcDbScale
 70
     0
300
1/16" = 1'-0"
140
0.0625
141
12.0
290
     0
  0
SCALE
  5
4A3AB
102
{ACAD_REACTORS
330
4A3A5
102
}
330
4A3A5
100
AcDbScale
 70
     0
300
3/32" = 1'-0"
140
0.09375
141
12.0
290
     0
  0
SCALE
  5
4A3AC
102
{ACAD_REACTORS
330
4A3A5
102
}
330
4A3A5
100
AcDbScale
 70
     0
300
1/8" = 1'-0"
140
0.125
141
12.0
290
     0
  0
SCALE
  5
4A3AD
102
{ACAD_REACTORS
330
4A3A5
102
}
330
4A3A5
100
AcDbScale
 70
     0
300
3/16" = 1'-0"
140
0.1875
141
12.0
290
     0
  0
SCALE
  5
4A3AE
102
{ACAD_REACTORS
330
4A3A5
102
}
330
4A3A5
100
AcDbScale
 70
     0
300
1/4" = 1'-0"
140
0.25
141
12.0
290
     0
  0
SCALE
  5
4A3AF
102
{ACAD_REACTORS
330
4A3A5
102
}
330
4A3A5
100
AcDbScale
 70
     0
300
3/8" = 1'-0"
140
0.375
141
12.0
290
     0
  0
SCALE
  5
4A3B0
102
{ACAD_REACTORS
330
4A3A5
102
}
330
4A3A5
100
AcDbScale
 70
     0
300
1/2" = 1'-0"
140
0.5
141
12.0
290
     0
  0
SCALE
  5
4A3B1
102
{ACAD_REACTORS
330
4A3A5
102
}
330
4A3A5
100
AcDbScale
 70
     0
300
3/4" = 1'-0"
140
0.75
141
12.0
290
     0
  0
SCALE
  5
4A3B2
102
{ACAD_REACTORS
330
4A3A5
102
}
330
4A3A5
100
AcDbScale
 70
     0
300
1" = 1'-0"
140
1.0
141
12.0
290
     0
  0
SCALE
  5
4A3B3
102
{ACAD_REACTORS
330
4A3A5
102
}
330
4A3A5
100
AcDbScale
 70
     0
300
1-1/2" = 1'-0"
140
1.5
141
12.0
290
     0
  0
SCALE
  5
4A3B4
102
{ACAD_REACTORS
330
4A3A5
102
}
330
4A3A5
100
AcDbScale
 70
     0
300
3" = 1'-0"
140
3.0
141
12.0
290
     0
  0
SCALE
  5
4A3B5
102
{ACAD_REACTORS
330
4A3A5
102
}
330
4A3A5
100
AcDbScale
 70
     0
300
6" = 1'-0"
140
6.0
141
12.0
290
     0
  0
SCALE
  5
4A3B6
102
{ACAD_REACTORS
330
4A3A5
102
}
330
4A3A5
100
AcDbScale
 70
     0
300
1'-0" = 1'-0"
140
12.0
141
12.0
290
     0
  0
ACDBSECTIONVIEWSTYLE
  5
4A3BA
102
{ACAD_XDICTIONARY
360
4A3F0
102
}
102
{ACAD_REACTORS
330
4A3B9
102
}
330
4A3B9
100
AcDbModelDocViewStyle
 70
     0
  3
Imperial24
290
     0
100
AcDbSectionViewStyle
 70
     0
 71
     0
 90
       78
 71
     1
340
11
 62
   256
 40
0.24
340
0
340
0
 62
   256
 40
0.24
300
I, O, Q, S, X, Z
 40
0.48
 90
        3
 40
0.18
 90
        1
 71
     2
340
16
 90
       25
 62
   256
340
16
 90
       50
 62
   256
 40
0.24
 40
0.0
 40
0.24
 71
     3
340
11
 62
   256
 40
0.24
 90
        1
 40
0.75
 90
        1
300
%<\AcVar ViewType \f "%tc1">% %<\AcVar ViewSectionStartId>%-%<\AcVar ViewSectionEndId>%\PSCALE %<\AcVar ViewScale \f "%sn">%
 71
     4
 62
   256
 62
   257
300
ANSI31
 40
1.0
 90
        0
290
     0
290
     0
 90
        6
 40
0.0
 40
1.570796326794896
 40
0.2617993877991494
 40
1.308996938995747
 40
-0.2617993877991494
 40
1.832595714594046
  0
TABLESTYLE
  5
4A3A4
102
{ACAD_XDICTIONARY
360
4A3ED
102
}
102
{ACAD_REACTORS
330
4A3A3
102
}
330
4A3A3
100
AcDbTableStyle
280
     0
  3
Standard
 70
     0
 71
     0
 40
0.06
 41
0.06
280
     0
281
     0
  7
STANDARD
140
0.18
170
     2
 62
     0
 63
     7
283
     0
 90
      512
 91
        0
  1

274
    -2
284
     1
 64
     0
275
    -2
285
     1
 65
     0
276
    -2
286
     1
 66
     0
277
    -2
287
     1
 67
     0
278
    -2
288
     1
 68
     0
279
    -2
289
     1
 69
     0
  7
STANDARD
140
0.25
170
     5
 62
     0
 63
     7
283
     0
 90
      512
 91
        0
  1

274
    -2
284
     1
 64
     0
275
    -2
285
     1
 65
     0
276
    -2
286
     1
 66
     0
277
    -2
287
     1
 67
     0
278
    -2
288
     1
 68
     0
279
    -2
289
     1
 69
     0
  7
STANDARD
140
0.18
170
     5
 62
     0
 63
     7
283
     0
 90
      512
 91
        0
  1

274
    -2
284
     1
 64
     0
275
    -2
285
     1
 65
     0
276
    -2
286
     1
 66
     0
277
    -2
287
     1
 67
     0
278
    -2
288
     1
 68
     0
279
    -2
289
     1
 69
     0
  0
VISUALSTYLE
  5
4A390
102
{ACAD_REACTORS
330
4A38A
102
}
330
4A38A
100
AcDbVisualStyle
  2
2dWireframe
 70
     4
177
     3
291
     0
 70
    58
 90
        0
176
     1
 90
        2
176
     1
 90
        0
176
     1
 90
        0
176
     1
 40
0.6
176
     1
 40
30.0
176
     1
 62
     7
420
 16777215
176
     1
 90
        1
176
     1
 90
        4
176
     1
 62
     7
176
     1
 62
   257
176
     1
 90
        1
176
     1
 90
        1
176
     1
 40
1.0
176
     1
 90
        0
176
     1
 62
   257
176
     1
 40
1.0
176
     1
 90
        1
176
     1
 90
        6
176
     1
 90
        2
176
     1
 62
     7
176
     1
 90
        5
176
     1
 90
        0
176
     1
 90
        0
176
     1
290
     0
176
     1
 90
        1
176
     1
 40
0.0
176
     1
 90
        0
176
     1
290
     1
176
     1
290
     1
176
     1
290
     0
176
     1
290
     0
176
     1
290
     0
176
     1
290
     0
176
     1
290
     0
176
     1
290
     0
176
     1
290
     0
176
     1
 90
       50
176
     1
 40
0.0
176
     1
 40
1.0
176
     1
 90
        0
176
     1
 62
    18
420
        0
176
     1
 90
       50
176
     1
 90
        3
176
     1
 62
     5
420
      255
176
     1
290
     0
176
     1
 90
       50
176
     1
 90
       50
176
     1
 90
       50
176
     1
290
     0
176
     1
 90
       50
176
     1
 62
   256
176
     0
 40
1.0
176
     0
 90
        2
176
     1
  1
strokes_ogs.tif
176
     1
290
     0
176
     1
 40
1.0
176
     1
 40
1.0
176
     1
1001
ACAD
1000
AcDbSavedByObjectVersion
1070
     0
  0
VISUALSTYLE
  5
4A38F
102
{ACAD_REACTORS
330
4A38A
102
}
330
4A38A
100
AcDbVisualStyle
  2
Basic
 70
     7
177
     3
291
     1
 70
    58
 90
        1
176
     1
 90
        0
176
     1
 90
        1
176
     1
 90
        0
176
     1
 40
0.6
176
     1
 40
30.0
176
     1
 62
     7
420
 16777215
176
     1
 90
        0
176
     1
 90
        4
176
     1
 62
     7
176
     1
 62
   257
176
     1
 90
        1
176
     1
 90
        1
176
     1
 40
1.0
176
     1
 90
        8
176
     1
 62
     7
176
     1
 40
1.0
176
     1
 90
        1
176
     1
 90
        6
176
     1
 90
        2
176
     1
 62
     7
176
     1
 90
        5
176
     1
 90
        0
176
     1
 90
        0
176
     1
290
     0
176
     1
 90
        1
176
     1
 40
0.0
176
     1
 90
        0
176
     1
290
     0
176
     1
290
     1
176
     1
290
     1
176
     1
290
     0
176
     1
290
     0
176
     1
290
     0
176
     1
290
     0
176
     1
290
     0
176
     1
290
     0
176
     1
 90
       50
176
     1
 40
0.0
176
     1
 40
1.0
176
     1
 90
        0
176
     1
 62
    18
420
        0
176
     1
 90
       50
176
     1
 90
        3
176
     1
 62
     5
420
      255
176
     1
290
     0
176
     1
 90
       50
176
     1
 90
       50
176
     1
 90
       50
176
     1
290
     0
176
     1
 90
       50
176
     1
 62
   256
176
     0
 40
1.0
176
     0
 90
        2
176
     1
  1
strokes_ogs.tif
176
     1
290
     0
176
     1
 40
1.0
176
     1
 40
1.0
176
     1
1001
ACAD
1000
AcDbSavedByObjectVersion
1070
     0
  0
VISUALSTYLE
  5
4A396
102
{ACAD_REACTORS
330
4A38A
102
}
330
4A38A
100
AcDbVisualStyle
  2
Brighten
 70
    12
177
     3
291
     1
 70
    58
 90
        2
176
     1
 90
        2
176
     1
 90
        0
176
     1
 90
        0
176
     1
 40
0.6
176
     1
 40
30.0
176
     1
 62
     7
420
 16777215
176
     1
 90
        1
176
     1
 90
        4
176
     1
 62
     7
176
     1
 62
   257
176
     1
 90
        1
176
     1
 90
        1
176
     1
 40
1.0
176
     1
 90
        8
176
     1
 62
     7
176
     1
 40
1.0
176
     1
 90
        1
176
     1
 90
        6
176
     1
 90
        2
176
     1
 62
     7
176
     1
 90
        5
176
     1
 90
        0
176
     1
 90
        0
176
     1
290
     0
176
     1
 90
        1
176
     1
 40
50.0
176
     1
 90
        0
176
     1
290
     0
176
     1
290
     1
176
     1
290
     1
176
     1
290
     0
176
     1
290
     0
176
     1
290
     0
176
     1
290
     0
176
     1
290
     0
176
     1
290
     0
176
     1
 90
       50
176
     1
 40
0.0
176
     1
 40
1.0
176
     1
 90
        0
176
     1
 62
    18
420
        0
176
     1
 90
       50
176
     1
 90
        3
176
     1
 62
     5
420
      255
176
     1
290
     0
176
     1
 90
       50
176
     1
 90
       50
176
     1
 90
       50
176
     1
290
     0
176
     1
 90
       50
176
     1
 62
   256
176
     0
 40
1.0
176
     0
 90
        2
176
     1
  1
strokes_ogs.tif
176
     1
290
     0
176
     1
 40
1.0
176
     1
 40
1.0
176
     1
1001
ACAD
1000
AcDbSavedByObjectVersion
1070
     0
  0
VISUALSTYLE
  5
4A39A
102
{ACAD_REACTORS
330
4A38A
102
}
330
4A38A
100
AcDbVisualStyle
  2
ColorChange
 70
    16
177
     3
291
     1
 70
    58
 90
        2
176
     1
 90
        2
176
     1
 90
        3
176
     1
 90
        0
176
     1
 40
0.6
176
     1
 40
30.0
176
     1
 62
     8
420
  8421504
176
     1
 90
        1
176
     1
 90
        4
176
     1
 62
     7
176
     1
 62
   257
176
     1
 90
        1
176
     1
 90
        1
176
     1
 40
1.0
176
     1
 90
        8
176
     1
 62
     8
420
  8421504
176
     1
 40
1.0
176
     1
 90
        1
176
     1
 90
        6
176
     1
 90
        2
176
     1
 62
     7
176
     1
 90
        5
176
     1
 90
        0
176
     1
 90
        0
176
     1
290
     0
176
     1
 90
        1
176
     1
 40
0.0
176
     1
 90
        0
176
     1
290
     0
176
     1
290
     1
176
     1
290
     1
176
     1
290
     0
176
     1
290
     0
176
     1
290
     0
176
     1
290
     0
176
     1
290
     0
176
     1
290
     0
176
     1
 90
       50
176
     1
 40
0.0
176
     1
 40
1.0
176
     1
 90
        0
176
     1
 62
    18
420
        0
176
     1
 90
       50
176
     1
 90
        3
176
     1
 62
     5
420
      255
176
     1
290
     0
176
     1
 90
       50
176
     1
 90
       50
176
     1
 90
       50
176
     1
290
     0
176
     1
 90
       50
176
     1
 62
   256
176
     0
 40
1.0
176
     0
 90
        2
176
     1
  1
strokes_ogs.tif
176
     1
290
     0
176
     1
 40
1.0
176
     1
 40
1.0
176
     1
1001
ACAD
1000
AcDbSavedByObjectVersion
1070
     0
  0
VISUALSTYLE
  5
4A393
102
{ACAD_REACTORS
330
4A38A
102
}
330
4A38A
100
AcDbVisualStyle
  2
Conceptual
 70
     9
177
     3
291
     0
 70
    58
 90
        3
176
     1
 90
        2
176
     1
 90
        0
176
     1
 90
        0
176
     1
 40
0.6
176
     1
 40
30.0
176
     1
 62
     7
420
 16777215
176
     1
 90
        2
176
     1
 90
        2
176
     1
 62
     7
176
     1
 62
   257
176
     1
 90
        1
176
     1
 90
        1
176
     1
 40
179.0
176
     1
 90
        8
176
     1
 62
     7
176
     1
 40
1.0
176
     1
 90
        1
176
     1
 90
        6
176
     1
 90
        2
176
     1
 62
     7
176
     1
 90
        3
176
     1
 90
        0
176
     1
 90
        0
176
     1
290
     0
176
     1
 90
        1
176
     1
 40
0.0
176
     1
 90
        0
176
     1
290
     0
176
     1
290
     1
176
     1
290
     1
176
     1
290
     0
176
     1
290
     0
176
     1
290
     0
176
     1
290
     0
176
     1
290
     0
176
     1
290
     0
176
     1
 90
       50
176
     1
 40
0.0
176
     1
 40
1.0
176
     1
 90
        0
176
     1
 62
    18
420
        0
176
     1
 90
       50
176
     1
 90
        3
176
     1
 62
     5
420
      255
176
     1
290
     0
176
     1
 90
       50
176
     1
 90
       50
176
     1
 90
       50
176
     1
290
     0
176
     1
 90
       50
176
     1
 62
   256
176
     0
 40
1.0
176
     0
 90
        2
176
     1
  1
strokes_ogs.tif
176
     1
290
     0
176
     1
 40
1.0
176
     1
 40
1.0
176
     1
1001
ACAD
1000
AcDbSavedByObjectVersion
1070
     0
  0
VISUALSTYLE
  5
4A395
102
{ACAD_REACTORS
330
4A38A
102
}
330
4A38A
100
AcDbVisualStyle
  2
Dim
 70
    11
177
     3
291
     1
 70
    58
 90
        2
176
     1
 90
        2
176
     1
 90
        0
176
     1
 90
        0
176
     1
 40
0.6
176
     1
 40
30.0
176
     1
 62
     7
420
 16777215
176
     1
 90
        1
176
     1
 90
        4
176
     1
 62
     7
176
     1
 62
   257
176
     1
 90
        1
176
     1
 90
        1
176
     1
 40
1.0
176
     1
 90
        8
176
     1
 62
     7
176
     1
 40
1.0
176
     1
 90
        1
176
     1
 90
        6
176
     1
 90
        2
176
     1
 62
     7
176
     1
 90
        5
176
     1
 90
        0
176
     1
 90
        0
176
     1
290
     0
176
     1
 90
        1
176
     1
 40
-50.0
176
     1
 90
        0
176
     1
290
     0
176
     1
290
     1
176
     1
290
     1
176
     1
290
     0
176
     1
290
     0
176
     1
290
     0
176
     1
290
     0
176
     1
290
     0
176
     1
290
     0
176
     1
 90
       50
176
     1
 40
0.0
176
     1
 40
1.0
176
     1
 90
        0
176
     1
 62
    18
420
        0
176
     1
 90
       50
176
     1
 90
        3
176
     1
 62
     5
420
      255
176
     1
290
     0
176
     1
 90
       50
176
     1
 90
       50
176
     1
 90
       50
176
     1
290
     0
176
     1
 90
       50
176
     1
 62
   256
176
     0
 40
1.0
176
     0
 90
        2
176
     1
  1
strokes_ogs.tif
176
     1
290
     0
176
     1
 40
1.0
176
     1
 40
1.0
176
     1
1001
ACAD
1000
AcDbSavedByObjectVersion
1070
     0
  0
VISUALSTYLE
  5
4A3A2
102
{ACAD_REACTORS
330
4A38A
102
}
330
4A38A
100
AcDbVisualStyle
  2
EdgeColorOff
 70
    22
177
     3
291
     1
 70
    58
 90
        2
176
     0
 90
        2
176
     0
 90
        0
176
     0
 90
        0
176
     0
 40
0.6
176
     0
 40
30.0
176
     0
 62
     7
420
 16777215
176
     0
 90
        1
176
     0
 90
        4
176
     0
 62
     7
176
     0
 62
   257
176
     0
 90
        1
176
     0
 90
        1
176
     0
 40
1.0
176
     0
 90
        8
176
     2
 62
     7
176
     0
 40
1.0
176
     0
 90
        1
176
     0
 90
        6
176
     0
 90
        2
176
     0
 62
     7
176
     0
 90
        5
176
     0
 90
        0
176
     0
 90
        0
176
     0
290
     0
176
     0
 90
        1
176
     0
 40
0.0
176
     0
 90
        0
176
     0
290
     0
176
     0
290
     1
176
     0
290
     1
176
     0
290
     0
176
     0
290
     0
176
     0
290
     0
176
     0
290
     0
176
     0
290
     0
176
     0
290
     0
176
     0
 90
       50
176
     0
 40
0.0
176
     0
 40
1.0
176
     0
 90
        0
176
     0
 62
    18
420
        0
176
     0
 90
       50
176
     0
 90
        3
176
     0
 62
     5
420
      255
176
     0
290
     0
176
     0
 90
       50
176
     0
 90
       50
176
     0
 90
       50
176
     0
290
     0
176
     0
 90
       50
176
     0
 62
   256
176
     0
 40
1.0
176
     0
 90
        2
176
     0
  1
strokes_ogs.tif
176
     0
290
     0
176
     0
 40
1.0
176
     0
 40
1.0
176
     0
1001
ACAD
1000
AcDbSavedByObjectVersion
1070
     0
  0
VISUALSTYLE
  5
4A399
102
{ACAD_REACTORS
330
4A38A
102
}
330
4A38A
100
AcDbVisualStyle
  2
Facepattern
 70
    15
177
     3
291
     1
 70
    58
 90
        2
176
     1
 90
        2
176
     1
 90
        0
176
     1
 90
        0
176
     1
 40
0.6
176
     1
 40
30.0
176
     1
 62
     7
420
 16777215
176
     1
 90
        1
176
     1
 90
        4
176
     1
 62
     7
176
     1
 62
   257
176
     1
 90
        1
176
     1
 90
        1
176
     1
 40
1.0
176
     1
 90
        8
176
     1
 62
     7
176
     1
 40
1.0
176
     1
 90
        1
176
     1
 90
        6
176
     1
 90
        2
176
     1
 62
     7
176
     1
 90
        5
176
     1
 90
        0
176
     1
 90
        0
176
     1
290
     0
176
     1
 90
        1
176
     1
 40
0.0
176
     1
 90
        0
176
     1
290
     0
176
     1
290
     1
176
     1
290
     1
176
     1
290
     0
176
     1
290
     0
176
     1
290
     0
176
     1
290
     0
176
     1
290
     0
176
     1
290
     0
176
     1
 90
       50
176
     1
 40
0.0
176
     1
 40
1.0
176
     1
 90
        0
176
     1
 62
    18
420
        0
176
     1
 90
       50
176
     1
 90
        3
176
     1
 62
     5
420
      255
176
     1
290
     0
176
     1
 90
       50
176
     1
 90
       50
176
     1
 90
       50
176
     1
290
     0
176
     1
 90
       50
176
     1
 62
   256
176
     0
 40
1.0
176
     0
 90
        2
176
     1
  1
strokes_ogs.tif
176
     1
290
     0
176
     1
 40
1.0
176
     1
 40
1.0
176
     1
1001
ACAD
1000
AcDbSavedByObjectVersion
1070
     0
  0
VISUALSTYLE
  5
4A38B
102
{ACAD_REACTORS
330
4A38A
102
}
330
4A38A
100
AcDbVisualStyle
  2
Flat
 70
     0
177
     3
291
     1
 70
    58
 90
        2
176
     1
 90
        1
176
     1
 90
        1
176
     1
 90
        2
176
     1
 40
0.6
176
     1
 40
30.0
176
     1
 62
     7
420
 16777215
176
     1
 90
        0
176
     1
 90
        0
176
     1
 62
     7
176
     1
 62
   257
176
     1
 90
        1
176
     1
 90
        1
176
     1
 40
1.0
176
     1
 90
        8
176
     1
 62
     7
176
     1
 40
1.0
176
     1
 90
        1
176
     1
 90
        6
176
     1
 90
        2
176
     1
 62
     7
176
     1
 90
        5
176
     1
 90
        0
176
     1
 90
        0
176
     1
290
     0
176
     1
 90
       13
176
     1
 40
0.0
176
     1
 90
        0
176
     1
290
     0
176
     1
290
     1
176
     1
290
     1
176
     1
290
     0
176
     1
290
     0
176
     1
290
     0
176
     1
290
     0
176
     1
290
     0
176
     1
290
     0
176
     1
 90
       50
176
     1
 40
0.0
176
     1
 40
1.0
176
     1
 90
        0
176
     1
 62
    18
420
        0
176
     1
 90
       50
176
     1
 90
        3
176
     1
 62
     5
420
      255
176
     1
290
     0
176
     1
 90
       50
176
     1
 90
       50
176
     1
 90
       50
176
     1
290
     0
176
     1
 90
       50
176
     1
 62
   256
176
     0
 40
1.0
176
     0
 90
        2
176
     1
  1
strokes_ogs.tif
176
     1
290
     0
176
     1
 40
1.0
176
     1
 40
1.0
176
     1
1001
ACAD
1000
AcDbSavedByObjectVersion
1070
     0
  0
VISUALSTYLE
  5
4A38C
102
{ACAD_REACTORS
330
4A38A
102
}
330
4A38A
100
AcDbVisualStyle
  2
FlatWithEdges
 70
     1
177
     3
291
     1
 70
    58
 90
        2
176
     1
 90
        1
176
     1
 90
        1
176
     1
 90
        2
176
     1
 40
0.6
176
     1
 40
30.0
176
     1
 62
     7
420
 16777215
176
     1
 90
        1
176
     1
 90
        0
176
     1
 62
     7
176
     1
 62
   257
176
     1
 90
        1
176
     1
 90
        1
176
     1
 40
1.0
176
     1
 90
        0
176
     1
 62
   257
176
     1
 40
1.0
176
     1
 90
        1
176
     1
 90
        6
176
     1
 90
        2
176
     1
 62
     7
176
     1
 90
        5
176
     1
 90
        0
176
     1
 90
        0
176
     1
290
     0
176
     1
 90
       13
176
     1
 40
0.0
176
     1
 90
        0
176
     1
290
     0
176
     1
290
     1
176
     1
290
     1
176
     1
290
     0
176
     1
290
     0
176
     1
290
     0
176
     1
290
     0
176
     1
290
     0
176
     1
290
     0
176
     1
 90
       50
176
     1
 40
0.0
176
     1
 40
1.0
176
     1
 90
        0
176
     1
 62
    18
420
        0
176
     1
 90
       50
176
     1
 90
        3
176
     1
 62
     5
420
      255
176
     1
290
     0
176
     1
 90
       50
176
     1
 90
       50
176
     1
 90
       50
176
     1
290
     0
176
     1
 90
       50
176
     1
 62
   256
176
     0
 40
1.0
176
     0
 90
        2
176
     1
  1
strokes_ogs.tif
176
     1
290
     0
176
     1
 40
1.0
176
     1
 40
1.0
176
     1
1001
ACAD
1000
AcDbSavedByObjectVersion
1070
     0
  0
VISUALSTYLE
  5
4A38D
102
{ACAD_REACTORS
330
4A38A
102
}
330
4A38A
100
AcDbVisualStyle
  2
Gouraud
 70
     2
177
     3
291
     1
 70
    58
 90
        2
176
     1
 90
        2
176
     1
 90
        1
176
     1
 90
        2
176
     1
 40
0.6
176
     1
 40
30.0
176
     1
 62
     7
420
 16777215
176
     1
 90
        0
176
     1
 90
        0
176
     1
 62
     7
176
     1
 62
   257
176
     1
 90
        1
176
     1
 90
        1
176
     1
 40
1.0
176
     1
 90
        0
176
     1
 62
     7
176
     1
 40
1.0
176
     1
 90
        1
176
     1
 90
        6
176
     1
 90
        2
176
     1
 62
     7
176
     1
 90
        5
176
     1
 90
        0
176
     1
 90
        0
176
     1
290
     0
176
     1
 90
       13
176
     1
 40
0.0
176
     1
 90
        0
176
     1
290
     0
176
     1
290
     1
176
     1
290
     1
176
     1
290
     0
176
     1
290
     0
176
     1
290
     0
176
     1
290
     0
176
     1
290
     0
176
     1
290
     0
176
     1
 90
       50
176
     1
 40
0.0
176
     1
 40
1.0
176
     1
 90
        0
176
     1
 62
    18
420
        0
176
     1
 90
       50
176
     1
 90
        3
176
     1
 62
     5
420
      255
176
     1
290
     0
176
     1
 90
       50
176
     1
 90
       50
176
     1
 90
       50
176
     1
290
     0
176
     1
 90
       50
176
     1
 62
   256
176
     0
 40
1.0
176
     0
 90
        2
176
     1
  1
strokes_ogs.tif
176
     1
290
     0
176
     1
 40
1.0
176
     1
 40
1.0
176
     1
1001
ACAD
1000
AcDbSavedByObjectVersion
1070
     0
  0
VISUALSTYLE
  5
4A38E
102
{ACAD_REACTORS
330
4A38A
102
}
330
4A38A
100
AcDbVisualStyle
  2
GouraudWithEdges
 70
     3
177
     3
291
     1
 70
    58
 90
        2
176
     1
 90
        2
176
     1
 90
        1
176
     1
 90
        2
176
     1
 40
0.6
176
     1
 40
30.0
176
     1
 62
     7
420
 16777215
176
     1
 90
        1
176
     1
 90
        0
176
     1
 62
     7
176
     1
 62
   257
176
     1
 90
        1
176
     1
 90
        1
176
     1
 40
1.0
176
     1
 90
        0
176
     1
 62
   257
176
     1
 40
1.0
176
     1
 90
        1
176
     1
 90
        6
176
     1
 90
        2
176
     1
 62
     7
176
     1
 90
        5
176
     1
 90
        0
176
     1
 90
        0
176
     1
290
     0
176
     1
 90
       13
176
     1
 40
0.0
176
     1
 90
        0
176
     1
290
     0
176
     1
290
     1
176
     1
290
     1
176
     1
290
     0
176
     1
290
     0
176
     1
290
     0
176
     1
290
     0
176
     1
290
     0
176
     1
290
     0
176
     1
 90
       50
176
     1
 40
0.0
176
     1
 40
1.0
176
     1
 90
        0
176
     1
 62
    18
420
        0
176
     1
 90
       50
176
     1
 90
        3
176
     1
 62
     5
420
      255
176
     1
290
     0
176
     1
 90
       50
176
     1
 90
       50
176
     1
 90
       50
176
     1
290
     0
176
     1
 90
       50
176
     1
 62
   256
176
     0
 40
1.0
176
     0
 90
        2
176
     1
  1
strokes_ogs.tif
176
     1
290
     0
176
     1
 40
1.0
176
     1
 40
1.0
176
     1
1001
ACAD
1000
AcDbSavedByObjectVersion
1070
     0
  0
VISUALSTYLE
  5
4A392
102
{ACAD_REACTORS
330
4A38A
102
}
330
4A38A
100
AcDbVisualStyle
  2
Hidden
 70
     6
177
     3
291
     0
 70
    58
 90
        1
176
     1
 90
        2
176
     1
 90
        2
176
     1
 90
        0
176
     1
 40
0.6
176
     1
 40
30.0
176
     1
 62
     7
420
 16777215
176
     1
 90
        2
176
     1
 90
        2
176
     1
 62
     7
176
     1
 62
   257
176
     1
 90
        2
176
     1
 90
        1
176
     1
 40
40.0
176
     1
 90
        0
176
     1
 62
   257
176
     1
 40
1.0
176
     1
 90
        1
176
     1
 90
        6
176
     1
 90
        2
176
     1
 62
     7
176
     1
 90
        3
176
     1
 90
        0
176
     1
 90
        0
176
     1
290
     0
176
     1
 90
        1
176
     1
 40
0.0
176
     1
 90
        0
176
     1
290
     0
176
     1
290
     1
176
     1
290
     1
176
     1
290
     0
176
     1
290
     0
176
     1
290
     0
176
     1
290
     0
176
     1
290
     0
176
     1
290
     0
176
     1
 90
       50
176
     1
 40
0.0
176
     1
 40
1.0
176
     1
 90
        0
176
     1
 62
    18
420
        0
176
     1
 90
       50
176
     1
 90
        3
176
     1
 62
     5
420
      255
176
     1
290
     0
176
     1
 90
       50
176
     1
 90
       50
176
     1
 90
       50
176
     1
290
     0
176
     1
 90
       50
176
     1
 62
   256
176
     0
 40
1.0
176
     0
 90
        2
176
     1
  1
strokes_ogs.tif
176
     1
290
     0
176
     1
 40
1.0
176
     1
 40
1.0
176
     1
1001
ACAD
1000
AcDbSavedByObjectVersion
1070
     0
  0
VISUALSTYLE
  5
4A3A0
102
{ACAD_REACTORS
330
4A38A
102
}
330
4A38A
100
AcDbVisualStyle
  2
JitterOff
 70
    20
177
     3
291
     1
 70
    58
 90
        2
176
     0
 90
        2
176
     0
 90
        0
176
     0
 90
        0
176
     0
 40
0.6
176
     0
 40
30.0
176
     0
 62
     7
420
 16777215
176
     0
 90
        1
176
     0
 90
        4
176
     0
 62
     7
176
     0
 62
   257
176
     0
 90
        1
176
     0
 90
        1
176
     0
 40
1.0
176
     0
 90
       10
176
     2
 62
     7
176
     0
 40
1.0
176
     0
 90
        1
176
     0
 90
        6
176
     0
 90
        2
176
     0
 62
     7
176
     0
 90
        5
176
     0
 90
        0
176
     0
 90
        0
176
     0
290
     0
176
     0
 90
        1
176
     0
 40
0.0
176
     0
 90
        0
176
     0
290
     0
176
     0
290
     1
176
     0
290
     1
176
     0
290
     0
176
     0
290
     0
176
     0
290
     0
176
     0
290
     0
176
     0
290
     0
176
     0
290
     0
176
     0
 90
       50
176
     0
 40
0.0
176
     0
 40
1.0
176
     0
 90
        0
176
     0
 62
    18
420
        0
176
     0
 90
       50
176
     0
 90
        3
176
     0
 62
     5
420
      255
176
     0
290
     0
176
     0
 90
       50
176
     0
 90
       50
176
     0
 90
       50
176
     0
290
     0
176
     0
 90
       50
176
     0
 62
   256
176
     0
 40
1.0
176
     0
 90
        2
176
     0
  1
strokes_ogs.tif
176
     0
290
     0
176
     0
 40
1.0
176
     0
 40
1.0
176
     0
1001
ACAD
1000
AcDbSavedByObjectVersion
1070
     0
  0
VISUALSTYLE
  5
4A398
102
{ACAD_REACTORS
330
4A38A
102
}
330
4A38A
100
AcDbVisualStyle
  2
Linepattern
 70
    14
177
     3
291
     1
 70
    58
 90
        2
176
     1
 90
        2
176
     1
 90
        0
176
     1
 90
        0
176
     1
 40
0.6
176
     1
 40
30.0
176
     1
 62
     7
420
 16777215
176
     1
 90
        1
176
     1
 90
        4
176
     1
 62
     7
176
     1
 62
   257
176
     1
 90
        7
176
     1
 90
        7
176
     1
 40
1.0
176
     1
 90
        8
176
     1
 62
     7
176
     1
 40
1.0
176
     1
 90
        1
176
     1
 90
        6
176
     1
 90
        2
176
     1
 62
     7
176
     1
 90
        5
176
     1
 90
        0
176
     1
 90
        0
176
     1
290
     0
176
     1
 90
        1
176
     1
 40
0.0
176
     1
 90
        0
176
     1
290
     0
176
     1
290
     1
176
     1
290
     1
176
     1
290
     0
176
     1
290
     0
176
     1
290
     0
176
     1
290
     0
176
     1
290
     0
176
     1
290
     0
176
     1
 90
       50
176
     1
 40
0.0
176
     1
 40
1.0
176
     1
 90
        0
176
     1
 62
    18
420
        0
176
     1
 90
       50
176
     1
 90
        3
176
     1
 62
     5
420
      255
176
     1
290
     0
176
     1
 90
       50
176
     1
 90
       50
176
     1
 90
       50
176
     1
290
     0
176
     1
 90
       50
176
     1
 62
   256
176
     0
 40
1.0
176
     0
 90
        2
176
     1
  1
strokes_ogs.tif
176
     1
290
     0
176
     1
 40
1.0
176
     1
 40
1.0
176
     1
1001
ACAD
1000
AcDbSavedByObjectVersion
1070
     0
  0
VISUALSTYLE
  5
4A3A1
102
{ACAD_REACTORS
330
4A38A
102
}
330
4A38A
100
AcDbVisualStyle
  2
OverhangOff
 70
    21
177
     3
291
     1
 70
    58
 90
        2
176
     0
 90
        2
176
     0
 90
        0
176
     0
 90
        0
176
     0
 40
0.6
176
     0
 40
30.0
176
     0
 62
     7
420
 16777215
176
     0
 90
        1
176
     0
 90
        4
176
     0
 62
     7
176
     0
 62
   257
176
     0
 90
        1
176
     0
 90
        1
176
     0
 40
1.0
176
     0
 90
        9
176
     2
 62
     7
176
     0
 40
1.0
176
     0
 90
        1
176
     0
 90
        6
176
     0
 90
        2
176
     0
 62
     7
176
     0
 90
        5
176
     0
 90
        0
176
     0
 90
        0
176
     0
290
     0
176
     0
 90
        1
176
     0
 40
0.0
176
     0
 90
        0
176
     0
290
     0
176
     0
290
     1
176
     0
290
     1
176
     0
290
     0
176
     0
290
     0
176
     0
290
     0
176
     0
290
     0
176
     0
290
     0
176
     0
290
     0
176
     0
 90
       50
176
     0
 40
0.0
176
     0
 40
1.0
176
     0
 90
        0
176
     0
 62
    18
420
        0
176
     0
 90
       50
176
     0
 90
        3
176
     0
 62
     5
420
      255
176
     0
290
     0
176
     0
 90
       50
176
     0
 90
       50
176
     0
 90
       50
176
     0
290
     0
176
     0
 90
       50
176
     0
 62
   256
176
     0
 40
1.0
176
     0
 90
        2
176
     0
  1
strokes_ogs.tif
176
     0
290
     0
176
     0
 40
1.0
176
     0
 40
1.0
176
     0
1001
ACAD
1000
AcDbSavedByObjectVersion
1070
     0
  0
VISUALSTYLE
  5
4A394
102
{ACAD_REACTORS
330
4A38A
102
}
330
4A38A
100
AcDbVisualStyle
  2
Realistic
 70
     8
177
     3
291
     0
 70
    58
 90
        2
176
     1
 90
        3
176
     1
 90
        0
176
     1
 90
        2
176
     1
 40
0.6
176
     1
 40
30.0
176
     1
 62
     7
420
 16777215
176
     1
 90
        0
176
     1
 90
        0
176
     1
 62
     7
176
     1
 62
   257
176
     1
 90
        1
176
     1
 90
        1
176
     1
 40
1.0
176
     1
 90
        8
176
     1
 62
   257
176
     1
 40
1.0
176
     1
 90
        1
176
     1
 90
        6
176
     1
 90
        2
176
     1
 62
     7
176
     1
 90
        3
176
     1
 90
        0
176
     1
 90
        0
176
     1
290
     0
176
     1
 90
       13
176
     1
 40
0.0
176
     1
 90
        0
176
     1
290
     0
176
     1
290
     1
176
     1
290
     1
176
     1
290
     0
176
     1
290
     0
176
     1
290
     0
176
     1
290
     0
176
     1
290
     0
176
     1
290
     0
176
     1
 90
       50
176
     1
 40
0.0
176
     1
 40
1.0
176
     1
 90
        0
176
     1
 62
    18
420
        0
176
     1
 90
       50
176
     1
 90
        3
176
     1
 62
     5
420
      255
176
     1
290
     0
176
     1
 90
       50
176
     1
 90
       50
176
     1
 90
       50
176
     1
290
     0
176
     1
 90
       50
176
     1
 62
   256
176
     0
 40
1.0
176
     0
 90
        2
176
     1
  1
strokes_ogs.tif
176
     1
290
     0
176
     1
 40
1.0
176
     1
 40
1.0
176
     1
1001
ACAD
1000
AcDbSavedByObjectVersion
1070
     0
  0
VISUALSTYLE
  5
4A39F
102
{ACAD_REACTORS
330
4A38A
102
}
330
4A38A
100
AcDbVisualStyle
  2
Shaded
 70
    27
177
     3
291
     0
 70
    58
 90
        2
176
     1
 90
        2
176
     1
 90
        1
176
     1
 90
        2
176
     1
 40
0.6
176
     1
 40
30.0
176
     1
 62
     7
420
 16777215
176
     1
 90
        0
176
     1
 90
        4
176
     1
 62
     7
176
     1
 62
   257
176
     1
 90
        1
176
     1
 90
        1
176
     1
 40
1.0
176
     1
 90
        8
176
     1
 62
   257
176
     1
 40
1.0
176
     1
 90
        1
176
     1
 90
        6
176
     1
 90
        2
176
     1
 62
     8
420
  7895160
176
     1
 90
        3
176
     1
 90
        0
176
     1
 90
        0
176
     1
290
     0
176
     1
 90
        5
176
     1
 40
0.0
176
     1
 90
        0
176
     1
290
     0
176
     1
290
     1
176
     1
290
     1
176
     1
290
     0
176
     1
290
     0
176
     1
290
     0
176
     1
290
     0
176
     1
290
     0
176
     1
290
     0
176
     1
 90
       50
176
     1
 40
0.0
176
     1
 40
1.0
176
     1
 90
        0
176
     1
 62
    18
420
        0
176
     1
 90
       50
176
     1
 90
        3
176
     1
 62
     5
420
      255
176
     1
290
     0
176
     1
 90
       50
176
     1
 90
       50
176
     1
 90
       50
176
     1
290
     0
176
     1
 90
       50
176
     1
 62
   256
176
     0
 40
1.0
176
     0
 90
        2
176
     1
  1
strokes_ogs.tif
176
     1
290
     0
176
     1
 40
1.0
176
     1
 40
1.0
176
     1
1001
ACAD
1000
AcDbSavedByObjectVersion
1070
     0
  0
VISUALSTYLE
  5
4A39E
102
{ACAD_REACTORS
330
4A38A
102
}
330
4A38A
100
AcDbVisualStyle
  2
Shaded with edges
 70
    26
177
     3
291
     0
 70
    58
 90
        2
176
     1
 90
        2
176
     1
 90
        1
176
     1
 90
        2
176
     1
 40
0.6
176
     1
 40
30.0
176
     1
 62
     7
420
 16777215
176
     1
 90
        1
176
     1
 90
        2
176
     1
 62
     7
176
     1
 62
   257
176
     1
 90
        2
176
     1
 90
        1
176
     1
 40
1.0
176
     1
 90
        8
176
     1
 62
   257
176
     1
 40
1.0
176
     1
 90
        1
176
     1
 90
        6
176
     1
 90
        2
176
     1
 62
     7
176
     1
 90
        3
176
     1
 90
        0
176
     1
 90
        0
176
     1
290
     0
176
     1
 90
        5
176
     1
 40
0.0
176
     1
 90
        0
176
     1
290
     0
176
     1
290
     1
176
     1
290
     1
176
     1
290
     0
176
     1
290
     0
176
     1
290
     0
176
     1
290
     0
176
     1
290
     0
176
     1
290
     0
176
     1
 90
       50
176
     1
 40
0.0
176
     1
 40
1.0
176
     1
 90
        0
176
     1
 62
    18
420
        0
176
     1
 90
       50
176
     1
 90
        3
176
     1
 62
     5
420
      255
176
     1
290
     0
176
     1
 90
       50
176
     1
 90
       50
176
     1
 90
       50
176
     1
290
     0
176
     1
 90
       50
176
     1
 62
   256
176
     0
 40
1.0
176
     0
 90
        2
176
     1
  1
strokes_ogs.tif
176
     1
290
     0
176
     1
 40
1.0
176
     1
 40
1.0
176
     1
1001
ACAD
1000
AcDbSavedByObjectVersion
1070
     0
  0
VISUALSTYLE
  5
4A39B
102
{ACAD_REACTORS
330
4A38A
102
}
330
4A38A
100
AcDbVisualStyle
  2
Shades of Gray
 70
    23
177
     3
291
     0
 70
    58
 90
        2
176
     1
 90
        2
176
     1
 90
        3
176
     1
 90
        0
176
     1
 40
0.6
176
     1
 40
30.0
176
     1
 62
     7
420
 16777215
176
     1
 90
        2
176
     1
 90
        2
176
     1
 62
     7
176
     1
 62
     7
176
     1
 90
        1
176
     1
 90
        1
176
     1
 40
40.0
176
     1
 90
        8
176
     1
 62
     7
176
     1
 40
1.0
176
     1
 90
        1
176
     1
 90
        6
176
     1
 90
        2
176
     1
 62
     7
176
     1
 90
        3
176
     1
 90
        0
176
     1
 90
        0
176
     1
290
     0
176
     1
 90
        1
176
     1
 40
0.0
176
     1
 90
        0
176
     1
290
     0
176
     1
290
     1
176
     1
290
     1
176
     1
290
     0
176
     1
290
     0
176
     1
290
     0
176
     1
290
     0
176
     1
290
     0
176
     1
290
     0
176
     1
 90
       50
176
     1
 40
0.0
176
     1
 40
1.0
176
     1
 90
        0
176
     1
 62
    18
420
        0
176
     1
 90
       50
176
     1
 90
        3
176
     1
 62
     5
420
      255
176
     1
290
     0
176
     1
 90
       50
176
     1
 90
       50
176
     1
 90
       50
176
     1
290
     0
176
     1
 90
       50
176
     1
 62
   256
176
     0
 40
1.0
176
     0
 90
        2
176
     1
  1
strokes_ogs.tif
176
     1
290
     0
176
     1
 40
1.0
176
     1
 40
1.0
176
     1
1001
ACAD
1000
AcDbSavedByObjectVersion
1070
     0
  0
VISUALSTYLE
  5
4A39C
102
{ACAD_REACTORS
330
4A38A
102
}
330
4A38A
100
AcDbVisualStyle
  2
Sketchy
 70
    24
177
     3
291
     0
 70
    58
 90
        1
176
     1
 90
        2
176
     1
 90
        2
176
     1
 90
        0
176
     1
 40
0.6
176
     1
 40
30.0
176
     1
 62
     7
420
 16777215
176
     1
 90
        2
176
     1
 90
        2
176
     1
 62
     7
176
     1
 62
     7
176
     1
 90
        1
176
     1
 90
        1
176
     1
 40
40.0
176
     1
 90
       11
176
     1
 62
     7
176
     1
 40
1.0
176
     1
 90
        1
176
     1
 90
        6
176
     1
 90
        2
176
     1
 62
     7
176
     1
 90
        6
176
     1
 90
        0
176
     1
 90
        0
176
     1
290
     0
176
     1
 90
        1
176
     1
 40
0.0
176
     1
 90
        0
176
     1
290
     0
176
     1
290
     1
176
     1
290
     1
176
     1
290
     0
176
     1
290
     0
176
     1
290
     0
176
     1
290
     0
176
     1
290
     0
176
     1
290
     0
176
     1
 90
       50
176
     1
 40
0.0
176
     1
 40
1.0
176
     1
 90
        0
176
     1
 62
    18
420
        0
176
     1
 90
       50
176
     1
 90
        3
176
     1
 62
     5
420
      255
176
     1
290
     0
176
     1
 90
       50
176
     1
 90
       50
176
     1
 90
       50
176
     1
290
     0
176
     1
 90
       50
176
     1
 62
   256
176
     0
 40
1.0
176
     0
 90
        2
176
     1
  1
strokes_ogs.tif
176
     1
290
     0
176
     1
 40
1.0
176
     1
 40
1.0
176
     1
1001
ACAD
1000
AcDbSavedByObjectVersion
1070
     0
  0
VISUALSTYLE
  5
4A397
102
{ACAD_REACTORS
330
4A38A
102
}
330
4A38A
100
AcDbVisualStyle
  2
Thicken
 70
    13
177
     3
291
     1
 70
    58
 90
        2
176
     1
 90
        2
176
     1
 90
        0
176
     1
 90
        0
176
     1
 40
0.6
176
     1
 40
30.0
176
     1
 62
     7
420
 16777215
176
     1
 90
        1
176
     1
 90
        4
176
     1
 62
     7
176
     1
 62
   257
176
     1
 90
        1
176
     1
 90
        1
176
     1
 40
1.0
176
     1
 90
       12
176
     1
 62
     7
176
     1
 40
1.0
176
     1
 90
        1
176
     1
 90
        6
176
     1
 90
        2
176
     1
 62
     7
176
     1
 90
        5
176
     1
 90
        0
176
     1
 90
        0
176
     1
290
     0
176
     1
 90
        1
176
     1
 40
0.0
176
     1
 90
        0
176
     1
290
     0
176
     1
290
     1
176
     1
290
     1
176
     1
290
     0
176
     1
290
     0
176
     1
290
     0
176
     1
290
     0
176
     1
290
     0
176
     1
290
     0
176
     1
 90
       50
176
     1
 40
0.0
176
     1
 40
1.0
176
     1
 90
        0
176
     1
 62
    18
420
        0
176
     1
 90
       50
176
     1
 90
        3
176
     1
 62
     5
420
      255
176
     1
290
     0
176
     1
 90
       50
176
     1
 90
       50
176
     1
 90
       50
176
     1
290
     0
176
     1
 90
       50
176
     1
 62
   256
176
     0
 40
1.0
176
     0
 90
        2
176
     1
  1
strokes_ogs.tif
176
     1
290
     0
176
     1
 40
1.0
176
     1
 40
1.0
176
     1
1001
ACAD
1000
AcDbSavedByObjectVersion
1070
     0
  0
VISUALSTYLE
  5
4A391
102
{ACAD_REACTORS
330
4A38A
102
}
330
4A38A
100
AcDbVisualStyle
  2
Wireframe
 70
     5
177
     3
291
     0
 70
    58
 90
        0
176
     1
 90
        2
176
     1
 90
        0
176
     1
 90
        0
176
     1
 40
0.6
176
     1
 40
30.0
176
     1
 62
     7
420
 16777215
176
     1
 90
        1
176
     1
 90
        4
176
     1
 62
     7
176
     1
 62
   257
176
     1
 90
        1
176
     1
 90
        1
176
     1
 40
1.0
176
     1
 90
        0
176
     1
 62
   257
176
     1
 40
1.0
176
     1
 90
        1
176
     1
 90
        6
176
     1
 90
        2
176
     1
 62
     7
176
     1
 90
        3
176
     1
 90
        0
176
     1
 90
        0
176
     1
290
     0
176
     1
 90
        1
176
     1
 40
0.0
176
     1
 90
        0
176
     1
290
     0
176
     1
290
     1
176
     1
290
     1
176
     1
290
     0
176
     1
290
     0
176
     1
290
     0
176
     1
290
     0
176
     1
290
     0
176
     1
290
     0
176
     1
 90
       50
176
     1
 40
0.0
176
     1
 40
1.0
176
     1
 90
        0
176
     1
 62
    18
420
        0
176
     1
 90
       50
176
     1
 90
        3
176
     1
 62
     5
420
      255
176
     1
290
     0
176
     1
 90
       50
176
     1
 90
       50
176
     1
 90
       50
176
     1
290
     0
176
     1
 90
       50
176
     1
 62
   256
176
     0
 40
1.0
176
     0
 90
        2
176
     1
  1
strokes_ogs.tif
176
     1
290
     0
176
     1
 40
1.0
176
     1
 40
1.0
176
     1
1001
ACAD
1000
AcDbSavedByObjectVersion
1070
     0
  0
VISUALSTYLE
  5
4A39D
102
{ACAD_REACTORS
330
4A38A
102
}
330
4A38A
100
AcDbVisualStyle
  2
X-Ray
 70
    25
177
     3
291
     0
 70
    58
 90
        2
176
     1
 90
        2
176
     1
 90
        1
176
     1
 90
        1
176
     1
 40
0.5
176
     1
 40
30.0
176
     1
 62
     7
420
 16777215
176
     1
 90
        1
176
     1
 90
        0
176
     1
 62
     7
176
     1
 62
   257
176
     1
 90
        1
176
     1
 90
        1
176
     1
 40
1.0
176
     1
 90
        8
176
     1
 62
     7
176
     1
 40
1.0
176
     1
 90
        1
176
     1
 90
        6
176
     1
 90
        2
176
     1
 62
     7
176
     1
 90
        3
176
     1
 90
        0
176
     1
 90
        0
176
     1
290
     0
176
     1
 90
       13
176
     1
 40
0.0
176
     1
 90
        0
176
     1
290
     0
176
     1
290
     1
176
     1
290
     1
176
     1
290
     0
176
     1
290
     0
176
     1
290
     0
176
     1
290
     0
176
     1
290
     0
176
     1
290
     0
176
     1
 90
       50
176
     1
 40
0.0
176
     1
 40
1.0
176
     1
 90
        0
176
     1
 62
    18
420
        0
176
     1
 90
       50
176
     1
 90
        3
176
     1
 62
     5
420
      255
176
     1
290
     0
176
     1
 90
       50
176
     1
 90
       50
176
     1
 90
       50
176
     1
290
     0
176
     1
 90
       50
176
     1
 62
   256
176
     0
 40
1.0
176
     0
 90
        2
176
     1
  1
strokes_ogs.tif
176
     1
290
     0
176
     1
 40
1.0
176
     1
 40
1.0
176
     1
1001
ACAD
1000
AcDbSavedByObjectVersion
1070
     0
  0
DICTIONARYVAR
  5
4A3E9
102
{ACAD_REACTORS
330
7E86
102
}
330
7E86
100
DictionaryVariables
280
     0
  1
1:1
  0
DICTIONARYVAR
  5
4A3E5
102
{ACAD_REACTORS
330
7E86
102
}
330
7E86
100
DictionaryVariables
280
     0
  1
STANDARD
  0
DICTIONARYVAR
  5
4A3E4
102
{ACAD_REACTORS
330
7E86
102
}
330
7E86
100
DictionaryVariables
280
     0
  1
STANDARD
  0
DICTIONARYVAR
  5
4A3E6
102
{ACAD_REACTORS
330
7E86
102
}
330
7E86
100
DictionaryVariables
280
     0
  1
Imperial24
  0
DICTIONARYVAR
  5
4A3E7
102
{ACAD_REACTORS
330
7E86
102
}
330
7E86
100
DictionaryVariables
280
     0
  1
Imperial24
  0
DICTIONARYVAR
  5
7E87
102
{ACAD_REACTORS
330
7E86
102
}
330
7E86
100
DictionaryVariables
280
     0
  1
1
  0
DICTIONARYVAR
  5
4A3EB
102
{ACAD_REACTORS
330
7E86
102
}
330
7E86
100
DictionaryVariables
280
     0
  1
1
  0
DICTIONARYVAR
  5
4A3EC
102
{ACAD_REACTORS
330
7E86
102
}
330
7E86
100
DictionaryVariables
280
     0
  1
15
  0
DICTIONARYVAR
  5
4A3EA
102
{ACAD_REACTORS
330
7E86
102
}
330
7E86
100
DictionaryVariables
280
     0
  1
0
  0
DICTIONARYVAR
  5
4A3E8
102
{ACAD_REACTORS
330
7E86
102
}
330
7E86
100
DictionaryVariables
280
     0
  1
0
  0
DICTIONARYVAR
  5
4A1FB
102
{ACAD_REACTORS
330
7E86
102
}
330
7E86
100
DictionaryVariables
280
     0
  1

  0
DICTIONARYVAR
  5
B6AF
102
{ACAD_REACTORS
330
7E86
102
}
330
7E86
100
DictionaryVariables
280
     0
  1
112
  0
XRECORD
  5
2C770
102
{ACAD_REACTORS
330
1F316
102
}
330
1F316
100
AcDbXrecord
280
     1
  1
$
  1
*$0$*
  1
*
  1
*
 70
     0
  1
*
  1
*
  0
XRECORD
  5
2C771
102
{ACAD_REACTORS
330
1F316
102
}
330
1F316
100
AcDbXrecord
280
     1
  1
-100
  1
*100*
  1
*
  1
*
 70
     0
  1
*
  1
*
  0
XRECORD
  5
2C772
102
{ACAD_REACTORS
330
1F316
102
}
330
1F316
100
AcDbXrecord
280
     1
  1
-50
  1
*50*
  1
*
  1
*
 70
     0
  1
*
  1
*
  0
XRECORD
  5
2C773
102
{ACAD_REACTORS
330
1F316
102
}
330
1F316
100
AcDbXrecord
280
     1
  1
0
  1
0*
  1
*
  1
*
 70
     0
  1
*
  1
*
  0
XRECORD
  5
2C774
102
{ACAD_REACTORS
330
1F316
102
}
330
1F316
100
AcDbXrecord
280
     1
  1
00
  1
*
  1
*
  1
*
 70
     0
  1
*
  1
*
  0
XRECORD
  5
2C775
102
{ACAD_REACTORS
330
1F316
102
}
330
1F316
100
AcDbXrecord
280
     1
  1
01
  1
*
  1
*
  1
*
 70
     0
  1
*
  1
*
  0
XRECORD
  5
2C776
102
{ACAD_REACTORS
330
1F316
102
}
330
1F316
100
AcDbXrecord
280
     1
  1
05
  1
*05*
  1
*
  1
*
 70
     0
  1
*
  1
*
  0
XRECORD
  5
2C777
102
{ACAD_REACTORS
330
1F316
102
}
330
1F316
100
AcDbXrecord
280
     1
  1
1
  1
*
  1
1
  1
*
 70
     0
  1
*
  1
*
  0
XRECORD
  5
383D0
102
{ACAD_REACTORS
330
1F316
102
}
330
1F316
100
AcDbXrecord
280
     1
  1
1-1断面
  1
*断面
  1
*
  1
*
 70
     0
  1
*
  1
*
  0
XRECORD
  5
383D1
102
{ACAD_REACTORS
330
1F316
102
}
330
1F316
100
AcDbXrecord
280
     1
  1
1-交差点処理図（最新1案）
  1
*交差点処理図（最新1案）*
  1
*
  1
*
 70
     0
  1
*
  1
*
  0
XRECORD
  5
2C778
102
{ACAD_REACTORS
330
1F316
102
}
330
1F316
100
AcDbXrecord
280
     1
  1
12
  1
*
  1
*12
  1
*
 70
     0
  1
*
  1
*
  0
XRECORD
  5
2C779
102
{ACAD_REACTORS
330
1F316
102
}
330
1F316
100
AcDbXrecord
280
     1
  1
19
  1
*19*
  1
*
  1
*
 70
     0
  1
*
  1
*
  0
XRECORD
  5
2C77A
102
{ACAD_REACTORS
330
1F316
102
}
330
1F316
100
AcDbXrecord
280
     1
  1
2
  1
*
  1
2
  1
*
 70
     0
  1
*
  1
*
  0
XRECORD
  5
383D2
102
{ACAD_REACTORS
330
1F316
102
}
330
1F316
100
AcDbXrecord
280
     1
  1
2-線形図1
  1
*線形図1*
  1
*
  1
*
 70
     0
  1
*
  1
*
  0
XRECORD
  5
2C77B
102
{ACAD_REACTORS
330
1F316
102
}
330
1F316
100
AcDbXrecord
280
     1
  1
21
  1
*
  1
21
  1
*
 70
     0
  1
*
  1
*
  0
XRECORD
  5
2C77C
102
{ACAD_REACTORS
330
1F316
102
}
330
1F316
100
AcDbXrecord
280
     1
  1
250
  1
*250*
  1
*
  1
*
 70
     0
  1
*
  1
*
  0
XRECORD
  5
2C77D
102
{ACAD_REACTORS
330
1F316
102
}
330
1F316
100
AcDbXrecord
280
     1
  1
3
  1
*
  1
3
  1
*
 70
     0
  1
*
  1
*
  0
XRECORD
  5
383D3
102
{ACAD_REACTORS
330
1F316
102
}
330
1F316
100
AcDbXrecord
280
     1
  1
3-線形図2
  1
*線形図2*
  1
*
  1
*
 70
     0
  1
*
  1
*
  0
XRECORD
  5
2C77E
102
{ACAD_REACTORS
330
1F316
102
}
330
1F316
100
AcDbXrecord
280
     1
  1
300
  1
*300*
  1
*
  1
*
 70
     0
  1
*
  1
*
  0
XRECORD
  5
2C77F
102
{ACAD_REACTORS
330
1F316
102
}
330
1F316
100
AcDbXrecord
280
     1
  1
32
  1
*
  1
32
  1
*
 70
     0
  1
*
  1
*
  0
XRECORD
  5
2C780
102
{ACAD_REACTORS
330
1F316
102
}
330
1F316
100
AcDbXrecord
280
     1
  1
4
  1
*
  1
4
  1
*
 70
     0
  1
*
  1
*
  0
XRECORD
  5
2C781
102
{ACAD_REACTORS
330
1F316
102
}
330
1F316
100
AcDbXrecord
280
     1
  1
5
  1
*
  1
5
  1
*
 70
     0
  1
*
  1
*
  0
XRECORD
  5
1FD5C
102
{ACAD_REACTORS
330
1F316
102
}
330
1F316
100
AcDbXrecord
280
     1
  1
50
  1
*-50
  1
*
  1
*
 70
     0
  1
*
  1
*
  0
XRECORD
  5
2C782
102
{ACAD_REACTORS
330
1F316
102
}
330
1F316
100
AcDbXrecord
280
     1
  1
6
  1
*
  1
6
  1
*
 70
     0
  1
*
  1
*
  0
XRECORD
  5
2C783
102
{ACAD_REACTORS
330
1F316
102
}
330
1F316
100
AcDbXrecord
280
     1
  1
66-躯体図
  1
0,Defpoints,HOJO,雲マーク,000*,010*,020*,1*,400*,470*,520*,570*,08*
  1
*
  1
*
 70
     0
  1
*
  1
*
  0
XRECORD
  5
2C784
102
{ACAD_REACTORS
330
1F316
102
}
330
1F316
100
AcDbXrecord
280
     1
  1
66躯体図
  1
0,Defpoints,HOJO,雲マーク,000*,010*,020*,1*,400*,470*,520*,570*,08*,6*
  1
*
  1
*
 70
     0
  1
*
  1
*
  0
XRECORD
  5
2C785
102
{ACAD_REACTORS
330
1F316
102
}
330
1F316
100
AcDbXrecord
280
     1
  1
7
  1
*
  1
7
  1
*
 70
     0
  1
*
  1
*
  0
XRECORD
  5
383D4
102
{ACAD_REACTORS
330
1F316
102
}
330
1F316
100
AcDbXrecord
280
     1
  1
7-専用部北行
  1
80*,90*,A0*,B0*,
  1
*
  1
*
 70
     0
  1
*
  1
*
  0
XRECORD
  5
383D5
102
{ACAD_REACTORS
330
1F316
102
}
330
1F316
100
AcDbXrecord
280
     1
  1
8-ONﾗﾝﾌﾟ
  1
70*,90*,A0*,B0*,
  1
*
  1
*
 70
     0
  1
*
  1
*
  0
XRECORD
  5
2C786
102
{ACAD_REACTORS
330
1F316
102
}
330
1F316
100
AcDbXrecord
280
     1
  1
9
  1
*
  1
9
  1
*
 70
     0
  1
*
  1
*
  0
XRECORD
  5
383D6
102
{ACAD_REACTORS
330
1F316
102
}
330
1F316
100
AcDbXrecord
280
     1
  1
9-OFFﾗﾝﾌﾟ
  1
70*,80*,A0*B0*,
  1
*
  1
*
 70
     0
  1
*
  1
*
  0
XRECORD
  5
2C787
102
{ACAD_REACTORS
330
1F316
102
}
330
1F316
100
AcDbXrecord
280
     1
  1
a
  1
a-*
  1
*
  1
*
 70
     0
  1
*
  1
*
  0
XRECORD
  5
2C788
102
{ACAD_REACTORS
330
1F316
102
}
330
1F316
100
AcDbXrecord
280
     1
  1
A-
  1
A-*
  1
*
  1
*
 70
     0
  1
*
  1
*
  0
XRECORD
  5
2C789
102
{ACAD_REACTORS
330
1F316
102
}
330
1F316
100
AcDbXrecord
280
     1
  1
aa
  1
*aa*
  1
*
  1
*
 70
     0
  1
*
  1
*
  0
XRECORD
  5
2C78A
102
{ACAD_REACTORS
330
1F316
102
}
330
1F316
100
AcDbXrecord
280
     1
  1
AB棟
  1
ＡＢ棟*
  1
*
  1
*
 70
     0
  1
*
  1
*
  0
XRECORD
  5
2C78B
102
{ACAD_REACTORS
330
1F316
102
}
330
1F316
100
AcDbXrecord
280
     1
  1
AREA
  1
*AREA*
  1
*
  1
*
 70
     0
  1
*
  1
*
  0
XRECORD
  5
2C78C
102
{ACAD_REACTORS
330
1F316
102
}
330
1F316
100
AcDbXrecord
280
     1
  1
BASE
  1
*I4BASE
  1
*
  1
*
 70
     0
  1
*
  1
*
  0
XRECORD
  5
2C78D
102
{ACAD_REACTORS
330
1F316
102
}
330
1F316
100
AcDbXrecord
280
     1
  1
beam
  1
*beam*
  1
*
  1
*
 70
     0
  1
*
  1
*
  0
XRECORD
  5
383D7
102
{ACAD_REACTORS
330
1F316
102
}
330
1F316
100
AcDbXrecord
280
     1
  1
B北
  1
*B北*
  1
*
  1
*
 70
     0
  1
*
  1
*
  0
XRECORD
  5
383D8
102
{ACAD_REACTORS
330
1F316
102
}
330
1F316
100
AcDbXrecord
280
     1
  1
CALS
  1
*
  1
*
  1
*
 70
     1
  1
*
  1
*
  0
XRECORD
  5
2C78E
102
{ACAD_REACTORS
330
1F316
102
}
330
1F316
100
AcDbXrecord
280
     1
  1
cap-0
  1
*
  1
*
  1
*
 70
     0
  1
*
  1
*
  0
XRECORD
  5
2C78F
102
{ACAD_REACTORS
330
1F316
102
}
330
1F316
100
AcDbXrecord
280
     1
  1
cc
  1
*
  1
*
  1
*
 70
     0
  1
*
  1
*
  0
XRECORD
  5
2C790
102
{ACAD_REACTORS
330
1F316
102
}
330
1F316
100
AcDbXrecord
280
     1
  1
CEL
  1
*
  1
*
  1
*
 70
     0
  1
*
  1
*
  0
XRECORD
  5
2C791
102
{ACAD_REACTORS
330
1F316
102
}
330
1F316
100
AcDbXrecord
280
     1
  1
che
  1
che*
  1
*
  1
*
 70
     0
  1
*
  1
*
  0
XRECORD
  5
2C792
102
{ACAD_REACTORS
330
1F316
102
}
330
1F316
100
AcDbXrecord
280
     1
  1
CLG
  1
*CLG*
  1
*
  1
*
 70
     0
  1
*
  1
*
  0
XRECORD
  5
2C793
102
{ACAD_REACTORS
330
1F316
102
}
330
1F316
100
AcDbXrecord
280
     1
  1
colu
  1
*colu*
  1
*
  1
*
 70
     0
  1
*
  1
*
  0
XRECORD
  5
2C794
102
{ACAD_REACTORS
330
1F316
102
}
330
1F316
100
AcDbXrecord
280
     1
  1
com
  1
com*
  1
*
  1
*
 70
     0
  1
*
  1
*
  0
XRECORD
  5
2C795
102
{ACAD_REACTORS
330
1F316
102
}
330
1F316
100
AcDbXrecord
280
     1
  1
CRG
  1
tca-6f|*CRG*
  1
*
  1
*
 70
     0
  1
*
  1
*
  0
XRECORD
  5
1FD5D
102
{ACAD_REACTORS
330
1F316
102
}
330
1F316
100
AcDbXrecord
280
     1
  1
cyan
  1
*
  1
cyan
  1
*
 70
     0
  1
*
  1
*
  0
XRECORD
  5
2C796
102
{ACAD_REACTORS
330
1F316
102
}
330
1F316
100
AcDbXrecord
280
     1
  1
C打計画図
  1
001*,002*,003*,004*,005*,007*,012*,015*,016*,017*,018*,019*,020*,021*,049*,050*,051*,052*,053*,054*,055*,056*,057*,058*,059*,060*,061*,062*,063*,064*,065*,066*,067*,068*,069*,070*,071*,072*,073*,074*,075*
  1
*
  1
*
 70
     0
  1
*
  1
*
  0
XRECORD
  5
2C797
102
{ACAD_REACTORS
330
1F316
102
}
330
1F316
100
AcDbXrecord
280
     1
  1
DIM
  1
*DIM*
  1
*
  1
*
 70
     0
  1
*
  1
*
  0
XRECORD
  5
2C798
102
{ACAD_REACTORS
330
1F316
102
}
330
1F316
100
AcDbXrecord
280
     1
  1
D墓地排水
  1
*は*
  1
*
  1
*
 70
     0
  1
*
  1
*
  0
XRECORD
  5
2C799
102
{ACAD_REACTORS
330
1F316
102
}
330
1F316
100
AcDbXrecord
280
     1
  1
ele
  1
ele*
  1
*
  1
*
 70
     0
  1
*
  1
*
  0
XRECORD
  5
383D9
102
{ACAD_REACTORS
330
1F316
102
}
330
1F316
100
AcDbXrecord
280
     1
  1
E南
  1
*E*南*
  1
*
  1
*
 70
     0
  1
*
  1
*
  0
XRECORD
  5
2C79A
102
{ACAD_REACTORS
330
1F316
102
}
330
1F316
100
AcDbXrecord
280
     1
  1
F
  1
*
  1
*
  1
*
 70
    12
  1
*
  1
*
  0
XRECORD
  5
2C79B
102
{ACAD_REACTORS
330
1F316
102
}
330
1F316
100
AcDbXrecord
280
     1
  1
face4
  1
*face4*
  1
*
  1
*
 70
     0
  1
*
  1
*
  0
XRECORD
  5
2C79C
102
{ACAD_REACTORS
330
1F316
102
}
330
1F316
100
AcDbXrecord
280
     1
  1
ff
  1
*
  1
*
  1
*
 70
    12
  1
*
  1
*
  0
XRECORD
  5
2C79D
102
{ACAD_REACTORS
330
1F316
102
}
330
1F316
100
AcDbXrecord
280
     1
  1
fini
  1
*fini*
  1
*
  1
*
 70
     0
  1
*
  1
*
  0
XRECORD
  5
2C79E
102
{ACAD_REACTORS
330
1F316
102
}
330
1F316
100
AcDbXrecord
280
     1
  1
FUSE_00
  1
*
  1
*
  1
*
 70
     0
  1
*
  1
*
  0
XRECORD
  5
2C79F
102
{ACAD_REACTORS
330
1F316
102
}
330
1F316
100
AcDbXrecord
280
     1
  1
GRID
  1
G*
  1
*
  1
*
 70
     0
  1
*
  1
*
  0
XRECORD
  5
2C7A0
102
{ACAD_REACTORS
330
1F316
102
}
330
1F316
100
AcDbXrecord
280
     1
  1
hi
  1
*
  1
9
  1
*
 70
     0
  1
*
  1
*
  0
XRECORD
  5
2C7A1
102
{ACAD_REACTORS
330
1F316
102
}
330
1F316
100
AcDbXrecord
280
     1
  1
hollywood
  1
*
  1
*
  1
*
 70
    12
  1
*
  1
*
  0
XRECORD
  5
2C7A2
102
{ACAD_REACTORS
330
1F316
102
}
330
1F316
100
AcDbXrecord
280
     1
  1
HOTEL
  1
*HOT*
  1
*
  1
*
 70
     0
  1
*
  1
*
  0
XRECORD
  5
1FD5E
102
{ACAD_REACTORS
330
1F316
102
}
330
1F316
100
AcDbXrecord
280
     1
  1
husezu
  1
50*
  1
*
  1
*
 70
     0
  1
*
  1
*
  0
XRECORD
  5
2C7A3
102
{ACAD_REACTORS
330
1F316
102
}
330
1F316
100
AcDbXrecord
280
     1
  1
HYOUKI
  1
*
  1
*
  1
*
 70
     0
  1
*
  1
*
  0
XRECORD
  5
2C7A4
102
{ACAD_REACTORS
330
1F316
102
}
330
1F316
100
AcDbXrecord
280
     1
  1
I2
  1
*I2CL*
  1
*
  1
*
 70
     0
  1
*
  1
*
  0
XRECORD
  5
2C7A5
102
{ACAD_REACTORS
330
1F316
102
}
330
1F316
100
AcDbXrecord
280
     1
  1
i2cl
  1
*i2c?*
  1
*
  1
*
 70
     0
  1
*
  1
*
  0
XRECORD
  5
2C7A6
102
{ACAD_REACTORS
330
1F316
102
}
330
1F316
100
AcDbXrecord
280
     1
  1
i5
  1
*i5*
  1
*
  1
*
 70
     0
  1
*
  1
*
  0
XRECORD
  5
2C7A7
102
{ACAD_REACTORS
330
1F316
102
}
330
1F316
100
AcDbXrecord
280
     1
  1
i9
  1
*i9*
  1
*
  1
*
 70
     0
  1
*
  1
*
  0
XRECORD
  5
1FD5F
102
{ACAD_REACTORS
330
1F316
102
}
330
1F316
100
AcDbXrecord
280
     1
  1
j0
  1
*j0*
  1
*
  1
*
 70
     0
  1
*
  1
*
  0
XRECORD
  5
1FD60
102
{ACAD_REACTORS
330
1F316
102
}
330
1F316
100
AcDbXrecord
280
     1
  1
j7
  1
*j7*
  1
*
  1
*
 70
     0
  1
*
  1
*
  0
XRECORD
  5
1FD61
102
{ACAD_REACTORS
330
1F316
102
}
330
1F316
100
AcDbXrecord
280
     1
  1
j8
  1
*j8*
  1
*
  1
*
 70
     0
  1
*
  1
*
  0
XRECORD
  5
1FD62
102
{ACAD_REACTORS
330
1F316
102
}
330
1F316
100
AcDbXrecord
280
     1
  1
j9
  1
*j9*
  1
*
  1
*
 70
     0
  1
*
  1
*
  0
XRECORD
  5
2C7A8
102
{ACAD_REACTORS
330
1F316
102
}
330
1F316
100
AcDbXrecord
280
     1
  1
jiku-0
  1
*
  1
*
  1
*
 70
     0
  1
*
  1
*
  0
XRECORD
  5
2C7A9
102
{ACAD_REACTORS
330
1F316
102
}
330
1F316
100
AcDbXrecord
280
     1
  1
k
  1
*
  1
8
  1
*
 70
     0
  1
*
  1
*
  0
XRECORD
  5
2C7AA
102
{ACAD_REACTORS
330
1F316
102
}
330
1F316
100
AcDbXrecord
280
     1
  1
KEN
  1
*
  1
8
  1
*
 70
     0
  1
*
  1
*
  0
XRECORD
  5
2C7AB
102
{ACAD_REACTORS
330
1F316
102
}
330
1F316
100
AcDbXrecord
280
     1
  1
LOCK
  1
*
  1
*
  1
*
 70
   256
  1
*
  1
*
  0
XRECORD
  5
2C7AC
102
{ACAD_REACTORS
330
1F316
102
}
330
1F316
100
AcDbXrecord
280
     1
  1
note
  1
tca-6f|*note*
  1
*
  1
*
 70
     0
  1
*
  1
*
  0
XRECORD
  5
1FD63
102
{ACAD_REACTORS
330
1F316
102
}
330
1F316
100
AcDbXrecord
280
     1
  1
NOTPLOT
  1
*
  1
*
  1
*
 70
  3072
  1
*
  1
*
  0
XRECORD
  5
2C7AD
102
{ACAD_REACTORS
330
1F316
102
}
330
1F316
100
AcDbXrecord
280
     1
  1
OFF
  1
*
  1
*
  1
*
 70
     3
  1
*
  1
*
  0
XRECORD
  5
2C7AE
102
{ACAD_REACTORS
330
1F316
102
}
330
1F316
100
AcDbXrecord
280
     1
  1
ON
  1
*
  1
*
  1
*
 70
     1
  1
*
  1
*
  0
XRECORD
  5
2C7AF
102
{ACAD_REACTORS
330
1F316
102
}
330
1F316
100
AcDbXrecord
280
     1
  1
q
  1
*
  1
*
  1
*
 70
     4
  1
*
  1
*
  0
XRECORD
  5
2C7B0
102
{ACAD_REACTORS
330
1F316
102
}
330
1F316
100
AcDbXrecord
280
     1
  1
S
  1
S-*
  1
*
  1
*
 70
     0
  1
*
  1
*
  0
XRECORD
  5
2C7B1
102
{ACAD_REACTORS
330
1F316
102
}
330
1F316
100
AcDbXrecord
280
     1
  1
SS
  1
*SS*
  1
*
  1
*
 70
     0
  1
*
  1
*
  0
XRECORD
  5
2C7B2
102
{ACAD_REACTORS
330
1F316
102
}
330
1F316
100
AcDbXrecord
280
     1
  1
TAKASA
  1
*
  1
2
  1
*
 70
     0
  1
*
  1
*
  0
XRECORD
  5
2C7B3
102
{ACAD_REACTORS
330
1F316
102
}
330
1F316
100
AcDbXrecord
280
     1
  1
ten
  1
*ten*
  1
*
  1
*
 70
     0
  1
*
  1
*
  0
XRECORD
  5
1FD64
102
{ACAD_REACTORS
330
1F316
102
}
330
1F316
100
AcDbXrecord
280
     1
  1
text
  1
*TEXT*(
  1
*
  1
*
 70
     0
  1
*
  1
*
  0
XRECORD
  5
2C7B4
102
{ACAD_REACTORS
330
1F316
102
}
330
1F316
100
AcDbXrecord
280
     1
  1
U01平面全体
  1
000*,001*,002*,010*,011*,012*,013*,014*,015*,017*,019*,021*,022*,023*,024*,025*,032*,033*,034*,038*,039*,040*,041*,048*,050*,051*,053*,061*,062*,064*,081*,084*,096*,113*,120*,160*,161*,162*,163*,165*,180*,181*,182*,183*,185*,192*,193*,194*,195*,196*,198*,202*,205*,212*,253*,254*,255
  1
*
  1
*
 70
     0
  1
*
  1
*
  0
XRECORD
  5
2C7B5
102
{ACAD_REACTORS
330
1F316
102
}
330
1F316
100
AcDbXrecord
280
     1
  1
U02平面一般詳細
  1
000*,001*,002*,006*,007*,010*,011*,012*,013*,014*,015*,016*,017*,018*,019*,020*,021*,022*,023*,024*,025*,032*,033*,034*,038*,039*,040*,041*,048*,050*,051*,053*,059*,060*,061*,062*,065*,067*,068*,071*,072*,082*,087*,088*,090*,102*,103*,104*,108*,115*,120*,127*,128*,129*,130*,131*,132*,133*,134*,136*,137*,138*,160*,161*,162*,163*,165*,167*,169*,171*,180*,181*,182*,183*,185*,187*,189*,191*,192*,193*,194*,195*,196*,198*,199*,201*,202*,204*,205*,207*,208*,210*,212*,225*,226*,240*,241*,251*,252*,253*,254*,255*,copy*,elv*,jimu*,kai*,rouka*,wc*,yuwa*,rokka*,rau*,mr*,eps*,tategu*
  1
*
  1
*
 70
     0
  1
*
  1
*
  0
XRECORD
  5
2C7B6
102
{ACAD_REACTORS
330
1F316
102
}
330
1F316
100
AcDbXrecord
280
     1
  1
U03平面部分詳細
  1
000*,001*,002*,006*,007*,010*,011*,012*,013*,014*,015*,016*,017*,018*,019*,020*,021*,022*,023*,024*,025*,032*,033*,034*,038*,039*,040*,041*,048*,050*,051*,053*,059*,060*,061*,062*,066*,080*,095*,120*,127*,128*,129*,130*,131*,132*,133*,134*,136*,137*,138*,160*,161*,162*,163*,165*,180*,181*,182*,183*,185*,187*,189*,191*,192*,193*,194*,195*,196*,198*,199*,202*,204*,205*,207*,208*,210*,212*,240*,241*,251*,252*,253*,254*,255*
  1
*
  1
*
 70
     0
  1
*
  1
*
  0
XRECORD
  5
2C7B7
102
{ACAD_REACTORS
330
1F316
102
}
330
1F316
100
AcDbXrecord
280
     1
  1
U04天井全体
  1
000*,001*,002*,006*,008*,010*,011*,012*,013*,014*,015*,016*,017*,019*,021*,023*,024*,025*,026*,032*,038*,039*,045*,046*,048*,050*,051*,053*,064*,065*,068*,081*,086*,122*,140*,141*,142*,143*,160*,161*,162*,163*,180*,181*,182*,183*,192*,193*,194*,195*,202*,205*,214*,218*,222*,253*,254*,255
  1
*
  1
*
 70
     0
  1
*
  1
*
  0
XRECORD
  5
2C7B8
102
{ACAD_REACTORS
330
1F316
102
}
330
1F316
100
AcDbXrecord
280
     1
  1
U05天井伏図詳細
  1
000*,001*,002*,006*,008*,010*,011*,012*,013*,014*,015*,017*,018*,019*,020*,021*,023*,024*,025*,026*,032*,038*,039*,045*,046*,048*,050*,051*,053*,065*,068*,071*,078*,082*,087*,092*,117*,122*,127*,128*,129*,130*,132*,133*,134*,140*,141*,142*,143*,160*,161*,162*,163*,173*,175*,177*,180*,181*,182*,183*,192*,193*,194*,195*,199*,201*,202*,205*,208*,214*,216*,218*,220*,222*,240*,251*,252*,253*,254*,255*,copy*,elv*,jimu*,kai*,rouka*,wc*,yuwa*,rokka*,rau*,mr*,eps*
  1
*
  1
*
 70
     0
  1
*
  1
*
  0
XRECORD
  5
2C7B9
102
{ACAD_REACTORS
330
1F316
102
}
330
1F316
100
AcDbXrecord
280
     1
  1
U06躯体見下全体
  1
000*,001*,002*,003*,005*,010*,011*,012*,025*,028*,029*,030*,031*,032*,033*,034*,035*,036*,037*,042*,047*,048*,049*,051*,052*,064*,083*,097*,098*,099*,100*,112*,119*,160*,165*,180*,185*,192*,196*,197*,202*,205*,211*,253*,254*,255*
  1
*
  1
*
 70
     0
  1
*
  1
*
  0
XRECORD
  5
2C7BA
102
{ACAD_REACTORS
330
1F316
102
}
330
1F316
100
AcDbXrecord
280
     1
  1
U07躯体見下詳細
  1
000*,001*,002*,003*,005*,010*,011*,012*,025*,028*,029*,030*,031*,032*,033*,034*,035*,036*,037*,042*,047*,048*,049*,051*,052*,065*,067*,068*,069*,070*,073*,074*,075*,076*,087*,088*,089*,103*,104*,105*,106*,107*,108*,114*,119*,124*,125*,128*,129*,131*,160*,164*,165*,166*,168*,170*,180*,184*,185*,186*,188*,190*,192*,196*,197*,199*,200*,202*,203*,205*,206*,208*,209*,211*,241*,242*,243*,245*,246*,251*,252*,253*,254*,255*,s-list*
  1
*
  1
*
 70
     0
  1
*
  1
*
  0
XRECORD
  5
2C7BB
102
{ACAD_REACTORS
330
1F316
102
}
330
1F316
100
AcDbXrecord
280
     1
  1
U08躯体見上全体
  1
000*,001*,002*,004*,010*,011*,012*,025*,032*,035*,043*,044*,047*,048*,049*,051*,052*,064*,085*,116*,121*,160*,180*,192*,202*,205*,213*,217*,221*,253*,254*,255*
  1
*
  1
*
 70
     0
  1
*
  1
*
  0
XRECORD
  5
2C7BC
102
{ACAD_REACTORS
330
1F316
102
}
330
1F316
100
AcDbXrecord
280
     1
  1
U09躯体見上詳細
  1
000*,001*,002*,004*,010*,011*,012*,025*,032*,035*,042*,043*,044*,047*,048*,049*,051*,052*,065*,068*,069*,076*,077*,087*,091*,103*,104*,116*,121*,124*,126*,128*,129*,131*,160*,164*,172*,174*,176*,180*,192*,199*,200*,202*,205*,208*,213*,215*,217*,219*,221*,244*,247*,248*,251*,252*,253*,254*,255*
  1
*
  1
*
 70
     0
  1
*
  1
*
  0
XRECORD
  5
2C7BD
102
{ACAD_REACTORS
330
1F316
102
}
330
1F316
100
AcDbXrecord
280
     1
  1
UNROCK
  1
*
  1
*
  1
*
 70
   768
  1
*
  1
*
  0
XRECORD
  5
2C7BE
102
{ACAD_REACTORS
330
1F316
102
}
330
1F316
100
AcDbXrecord
280
     1
  1
usr
  1
usr*
  1
*
  1
*
 70
     0
  1
*
  1
*
  0
XRECORD
  5
21593
102
{ACAD_REACTORS
330
1F316
102
}
330
1F316
100
AcDbXrecord
280
     1
  1
White
  1
*
  1
*White
  1
*
 70
     0
  1
*
  1
*
  0
XRECORD
  5
2C7BF
102
{ACAD_REACTORS
330
1F316
102
}
330
1F316
100
AcDbXrecord
280
     1
  1
X
  1
*$*$*
  1
*
  1
*
 70
     0
  1
*
  1
*
  0
XRECORD
  5
1FD65
102
{ACAD_REACTORS
330
1F316
102
}
330
1F316
100
AcDbXrecord
280
     1
  1
yellow
  1
*
  1
yellow
  1
*
 70
     0
  1
*
  1
*
  0
XRECORD
  5
2C7C0
102
{ACAD_REACTORS
330
1F316
102
}
330
1F316
100
AcDbXrecord
280
     1
  1
z
  1
z*
  1
*
  1
*
 70
     0
  1
*
  1
*
  0
XRECORD
  5
1FD66
102
{ACAD_REACTORS
330
1F316
102
}
330
1F316
100
AcDbXrecord
280
     1
  1
×
  1
×*
  1
*
  1
*
 70
     4
  1
*
  1
*
  0
XRECORD
  5
1F317
102
{ACAD_REACTORS
330
1F316
102
}
330
1F316
100
AcDbXrecord
280
     1
  1
その他
  1
*OTRS*
  1
*
  1
*
 70
     0
  1
*
  1
*
  0
XRECORD
  5
2C7C9
102
{ACAD_REACTORS
330
1F316
102
}
330
1F316
100
AcDbXrecord
280
     1
  1
タイトル
  1
*タイトル
  1
*
  1
*
 70
     0
  1
*
  1
*
  0
XRECORD
  5
2C7CA
102
{ACAD_REACTORS
330
1F316
102
}
330
1F316
100
AcDbXrecord
280
     1
  1
フリーズ
  1
*z
  1
*
  1
*
 70
     0
  1
*
  1
*
  0
XRECORD
  5
1FD67
102
{ACAD_REACTORS
330
1F316
102
}
330
1F316
100
AcDbXrecord
280
     1
  1
フリーズ解除
  1
*
  1
*
  1
*
 70
    12
  1
*
  1
*
  0
XRECORD
  5
21597
102
{ACAD_REACTORS
330
1F316
102
}
330
1F316
100
AcDbXrecord
280
     1
  1
ペーパー空間
  1
DSTD_FRAME*
  1
*
  1
*
 70
     0
  1
*
  1
*
  0
XRECORD
  5
1F318
102
{ACAD_REACTORS
330
1F316
102
}
330
1F316
100
AcDbXrecord
280
     1
  1
ラスター
  1
*RSTR*
  1
*
  1
*
 70
     0
  1
*
  1
*
  0
XRECORD
  5
383DA
102
{ACAD_REACTORS
330
1F316
102
}
330
1F316
100
AcDbXrecord
280
     1
  1
ランプ
  1
*ランプ*
  1
*
  1
*
 70
     0
  1
*
  1
*
  0
XRECORD
  5
2C7CB
102
{ACAD_REACTORS
330
1F316
102
}
330
1F316
100
AcDbXrecord
280
     1
  1
ロック解除
  1
*
  1
*
  1
*
 70
   768
  1
*
  1
*
  0
XRECORD
  5
383DB
102
{ACAD_REACTORS
330
1F316
102
}
330
1F316
100
AcDbXrecord
280
     1
  1
一般
  1
*般*
  1
*
  1
*
 70
     0
  1
*
  1
*
  0
XRECORD
  5
1FD6C
102
{ACAD_REACTORS
330
1F316
102
}
330
1F316
100
AcDbXrecord
280
     1
  1
不要
  1
4*
  1
*
  1
*
 70
  3335
  1
*
  1
*
  0
XRECORD
  5
2C7EE
102
{ACAD_REACTORS
330
1F316
102
}
330
1F316
100
AcDbXrecord
280
     1
  1
中野
  1
中野*
  1
*
  1
*
 70
     0
  1
*
  1
*
  0
XRECORD
  5
1F321
102
{ACAD_REACTORS
330
1F316
102
}
330
1F316
100
AcDbXrecord
280
     1
  1
人孔構造物
  1
*STRC*
  1
*
  1
*
 70
     0
  1
*
  1
*
  0
XRECORD
  5
2C7EF
102
{ACAD_REACTORS
330
1F316
102
}
330
1F316
100
AcDbXrecord
280
     1
  1
低木植栽平面
  1
*て*
  1
*
  1
*
 70
     0
  1
*
  1
*
  0
XRECORD
  5
2159A
102
{ACAD_REACTORS
330
1F316
102
}
330
1F316
100
AcDbXrecord
280
     1
  1
作図に必要な画層を表示
  1
*
  1
*
  1
*
 70
    12
  1
*
  1
*
  0
XRECORD
  5
2C7E1
102
{ACAD_REACTORS
330
1F316
102
}
330
1F316
100
AcDbXrecord
280
     1
  1
作業
  1
100-*,地区*,
  1
*
  1
*
 70
     1
  1
*
  1
*
  0
XRECORD
  5
1FD6B
102
{ACAD_REACTORS
330
1F316
102
}
330
1F316
100
AcDbXrecord
280
     1
  1
使用中の画層
  1
*
  1
*
  1
*
 70
    12
  1
*
  1
*
  0
XRECORD
  5
1F324
102
{ACAD_REACTORS
330
1F316
102
}
330
1F316
100
AcDbXrecord
280
     1
  1
側道
  1
*FRRD*
  1
*
  1
*
 70
     0
  1
*
  1
*
  0
XRECORD
  5
21598
102
{ACAD_REACTORS
330
1F316
102
}
330
1F316
100
AcDbXrecord
280
     1
  1
元図面レイヤ
  1
*
  1
*
  1
*
 70
   256
  1
*
  1
*
  0
XRECORD
  5
383E6
102
{ACAD_REACTORS
330
1F316
102
}
330
1F316
100
AcDbXrecord
280
     1
  1
全帯
  1
*帯*
  1
*
  1
*
 70
     0
  1
*
  1
*
  0
XRECORD
  5
383E5
102
{ACAD_REACTORS
330
1F316
102
}
330
1F316
100
AcDbXrecord
280
     1
  1
全消去
  1
*
  1
*
  1
*
 70
     3
  1
*
  1
*
  0
XRECORD
  5
2C808
102
{ACAD_REACTORS
330
1F316
102
}
330
1F316
100
AcDbXrecord
280
     1
  1
凡例
  1
*凡例
  1
*
  1
*
 70
     0
  1
*
  1
*
  0
XRECORD
  5
383EB
102
{ACAD_REACTORS
330
1F316
102
}
330
1F316
100
AcDbXrecord
280
     1
  1
副道
  1
*副*
  1
*
  1
*
 70
     0
  1
*
  1
*
  0
XRECORD
  5
2C7CE
102
{ACAD_REACTORS
330
1F316
102
}
330
1F316
100
AcDbXrecord
280
     1
  1
割り付け平面図
  1
*わ*
  1
*
  1
*
 70
     0
  1
*
  1
*
  0
XRECORD
  5
383DC
102
{ACAD_REACTORS
330
1F316
102
}
330
1F316
100
AcDbXrecord
280
     1
  1
印刷不可
  1
*
  1
*
  1
*
 70
  3072
  1
*
  1
*
  0
XRECORD
  5
383DD
102
{ACAD_REACTORS
330
1F316
102
}
330
1F316
100
AcDbXrecord
280
     1
  1
印刷不可画層
  1
*
  1
*
  1
*
 70
  3072
  1
*
  1
*
  0
XRECORD
  5
1F322
102
{ACAD_REACTORS
330
1F316
102
}
330
1F316
100
AcDbXrecord
280
     1
  1
図枠・表題欄
  1
*OTHR*
  1
*
  1
*
 70
     0
  1
*
  1
*
  0
XRECORD
  5
2C7F8
102
{ACAD_REACTORS
330
1F316
102
}
330
1F316
100
AcDbXrecord
280
     1
  1
土壌改良
  1
*ど*
  1
*
  1
*
 70
     0
  1
*
  1
*
  0
XRECORD
  5
2159F
102
{ACAD_REACTORS
330
1F316
102
}
330
1F316
100
AcDbXrecord
280
     1
  1
土留板
  1
*_CONC
  1
*
  1
*
 70
     0
  1
*
  1
*
  0
XRECORD
  5
215A0
102
{ACAD_REACTORS
330
1F316
102
}
330
1F316
100
AcDbXrecord
280
     1
  1
土留板取付詳細図
  1
DSTD_CONC*
  1
*
  1
*
 70
     0
  1
*
  1
*
  0
XRECORD
  5
1F325
102
{ACAD_REACTORS
330
1F316
102
}
330
1F316
100
AcDbXrecord
280
     1
  1
地下埋設物
  1
*LAY*
  1
*
  1
*
 70
     0
  1
*
  1
*
  0
XRECORD
  5
2C7D7
102
{ACAD_REACTORS
330
1F316
102
}
330
1F316
100
AcDbXrecord
280
     1
  1
型枠計画図
  1
001*,002*,003*,004*,005*,006*,007*,010*,012*,050*,051*,055*,056*,057*,058*,059*,060*,061*,062*,063*,064*,065*,066*,067*,068*,069*,070*,071*,072*,073*,074*,075*
  1
*
  1
*
 70
     0
  1
*
  1
*
  0
XRECORD
  5
1F31A
102
{ACAD_REACTORS
330
1F316
102
}
330
1F316
100
AcDbXrecord
280
     1
  1
基準値・数値
  1
*DL*
  1
*
  1
*
 70
     0
  1
*
  1
*
  0
XRECORD
  5
1F31B
102
{ACAD_REACTORS
330
1F316
102
}
330
1F316
100
AcDbXrecord
280
     1
  1
基礎
  1
*BASC*
  1
*
  1
*
 70
     0
  1
*
  1
*
  0
XRECORD
  5
1FD6D
102
{ACAD_REACTORS
330
1F316
102
}
330
1F316
100
AcDbXrecord
280
     1
  1
変更
  1
*
  1
*
  1
*
 70
   781
  1
*
  1
*
  0
XRECORD
  5
383DF
102
{ACAD_REACTORS
330
1F316
102
}
330
1F316
100
AcDbXrecord
280
     1
  1
外部参照の非表示画層
  1
*
  1
*
  1
*
 70
     0
  1
*
  1
*
  0
XRECORD
  5
2C7CD
102
{ACAD_REACTORS
330
1F316
102
}
330
1F316
100
AcDbXrecord
280
     1
  1
外部参照－建築
  1
A*
  1
9
  1
*
 70
     0
  1
*
  1
*
  0
XRECORD
  5
2C7F1
102
{ACAD_REACTORS
330
1F316
102
}
330
1F316
100
AcDbXrecord
280
     1
  1
天井インサート図
  1
001*,002*,004*,010*,022*,023*,024*,025*,026*,027*,028*,029*,037*,042*
  1
*
  1
*
 70
     0
  1
*
  1
*
  0
XRECORD
  5
2C7F4
102
{ACAD_REACTORS
330
1F316
102
}
330
1F316
100
AcDbXrecord
280
     1
  1
天井伏図
  1
001*,002*,004*,010*,022*,023*,024*,025*,026*,027*,028*,029*,033*,039*,044*
  1
*
  1
*
 70
     0
  1
*
  1
*
  0
XRECORD
  5
2C7F5
102
{ACAD_REACTORS
330
1F316
102
}
330
1F316
100
AcDbXrecord
280
     1
  1
天井伏図詳細
  1
000*,001*,002*,006*,008*,010*,011*,012*,013*,014*,015*,017*,018*,019*,020*,021*,023*,024*,025*,026*,032*,038*,039*,045*,046*,048*,050*,051*,053*,065*,068*,071*,078*,082*,087*,092*,117*,122*,127*,128*,129*,130*,132*,133*,134*,140*,141*,142*,143*,160*,161*,162*,163*,173*,175*,177*,180*,181*,182*,183*,192*,193*,194*,195*,199*,201*,202*,205*,208*,214*,216*,218*,220*,222*,240*,251*,252*,253*,254*,255*,copy*,elv*,jimu*,kai*,rouka*,wc*,yuwa*,rokka*,rau*,mr*,eps*
  1
*
  1
*
 70
     0
  1
*
  1
*
  0
XRECORD
  5
2C7F2
102
{ACAD_REACTORS
330
1F316
102
}
330
1F316
100
AcDbXrecord
280
     1
  1
天井全体
  1
000*,001*,002*,006*,008*,010*,011*,012*,013*,014*,015*,016*,017*,019*,021*,023*,024*,025*,026*,032*,038*,039*,045*,046*,048*,050*,051*,053*,064*,065*,068*,081*,086*,122*,140*,141*,142*,143*,160*,161*,162*,163*,180*,181*,182*,183*,192*,193*,194*,195*,202*,205*,214*,218*,222*,253*,254*,255
  1
*
  1
*
 70
     0
  1
*
  1
*
  0
XRECORD
  5
2C7F3
102
{ACAD_REACTORS
330
1F316
102
}
330
1F316
100
AcDbXrecord
280
     1
  1
天井総合図
  1
001*,002*,004*,005*,007*,010*,022*,023*,024*,025*,026*,027*,028*,029*,030*,031*,033*,035*,036*,037*,039*,041*,042*,044*,046*,047*
  1
*
  1
*
 70
     0
  1
*
  1
*
  0
XRECORD
  5
2C7EA
102
{ACAD_REACTORS
330
1F316
102
}
330
1F316
100
AcDbXrecord
280
     1
  1
寸法
  1
*寸法
  1
*
  1
*
 70
     0
  1
*
  1
*
  0
XRECORD
  5
2C7EB
102
{ACAD_REACTORS
330
1F316
102
}
330
1F316
100
AcDbXrecord
280
     1
  1
寸法ﾚｲﾔ調整
  1
001*,002*,010*,065*,068*,071*,077*
  1
*
  1
*
 70
     0
  1
*
  1
*
  0
XRECORD
  5
383E2
102
{ACAD_REACTORS
330
1F316
102
}
330
1F316
100
AcDbXrecord
280
     1
  1
専北
  1
*専北*
  1
*
  1
*
 70
     0
  1
*
  1
*
  0
XRECORD
  5
383E3
102
{ACAD_REACTORS
330
1F316
102
}
330
1F316
100
AcDbXrecord
280
     1
  1
専用
  1
*専*
  1
*
  1
*
 70
     0
  1
*
  1
*
  0
XRECORD
  5
2C7E2
102
{ACAD_REACTORS
330
1F316
102
}
330
1F316
100
AcDbXrecord
280
     1
  1
山止根切計画図
  1
001*,002*,003*,004*,005*,007*,012*,049*,050*,051*,052*,053*,054*,055*,056*,057*,058*,059*,060*,061*,062*,064*,065*,066*,067*,068*,069*,070*,071*,072*,073*,074*,075*
  1
*
  1
*
 70
     0
  1
*
  1
*
  0
XRECORD
  5
2C802
102
{ACAD_REACTORS
330
1F316
102
}
330
1F316
100
AcDbXrecord
280
     1
  1
平面一般詳細
  1
000*,001*,002*,006*,007*,010*,011*,012*,013*,014*,015*,016*,017*,018*,019*,020*,021*,022*,023*,024*,025*,032*,033*,034*,038*,039*,040*,041*,048*,050*,051*,053*,059*,060*,061*,062*,065*,067*,068*,071*,072*,082*,087*,088*,090*,102*,103*,108*,115*,120*,127*,128*,129*,130*,131*,132*,133*,134*,136*,137*,138*,160*,161*,162*,163*,165*,167*,169*,171*,180*,181*,182*,183*,185*,187*,189*,191*,192*,193*,194*,195*,196*,198*,199*,201*,202*,204*,205*,207*,208*,210*,212*,240*,241*,251*,252*,253*,254*,255*
  1
*
  1
*
 70
     0
  1
*
  1
*
  0
XRECORD
  5
2C804
102
{ACAD_REACTORS
330
1F316
102
}
330
1F316
100
AcDbXrecord
280
     1
  1
平面全体
  1
000*,001*,002*,006*,010*,011*,012*,013*,014*,015*,017*,019*,021*,022*,023*,024*,025*,032*,033*,034*,038*,039*,040*,041*,048*,050*,051*,053*,061*,062*,064*,081*,084*,096*,113*,120*,160*,161*,162*,163*,165*,180*,181*,182*,183*,185*,192*,193*,194*,195*,196*,198*,202*,205*,212*,253*,254*,255
  1
*
  1
*
 70
     0
  1
*
  1
*
  0
XRECORD
  5
215A3
102
{ACAD_REACTORS
330
1F316
102
}
330
1F316
100
AcDbXrecord
280
     1
  1
平面図
  1
DSTD_PLN*
  1
*
  1
*
 70
     0
  1
*
  1
*
  0
XRECORD
  5
2C805
102
{ACAD_REACTORS
330
1F316
102
}
330
1F316
100
AcDbXrecord
280
     1
  1
平面総合図
  1
001*,002*,004*,010*,013*,014*,015*,016*,017*,018*,019*,020*,021*,030*,031*,034*,040*,045*
  1
*
  1
*
 70
     0
  1
*
  1
*
  0
XRECORD
  5
2C803
102
{ACAD_REACTORS
330
1F316
102
}
330
1F316
100
AcDbXrecord
280
     1
  1
平面詳細図
  1
001*,002*,004*,007*,010*,013*,014*,015*,016*,017*,018*,019*,020*,021*,030*,034*,040*,045*
  1
*
  1
*
 70
     0
  1
*
  1
*
  0
XRECORD
  5
2C806
102
{ACAD_REACTORS
330
1F316
102
}
330
1F316
100
AcDbXrecord
280
     1
  1
平面部分詳細
  1
000*,001*,002*,006*,007*,010*,011*,012*,013*,014*,015*,016*,017*,018*,019*,020*,021*,022*,023*,024*,025*,032*,033*,034*,038*,039*,040*,041*,048*,050*,051*,053*,059*,060*,061*,062*,066*,080*,095*,120*,127*,128*,129*,130*,131*,132*,133*,134*,136*,137*,138*,160*,161*,162*,163*,165*,180*,181*,182*,183*,185*,187*,189*,191*,192*,193*,194*,195*,196*,198*,199*,202*,204*,205*,207*,208*,210*,212*,240*,241*,251*,252*,253*,254*,255*
  1
*
  1
*
 70
     0
  1
*
  1
*
  0
XRECORD
  5
2C7DC
102
{ACAD_REACTORS
330
1F316
102
}
330
1F316
100
AcDbXrecord
280
     1
  1
建築図
  1
*
  1
9
  1
*
 70
     0
  1
*
  1
*
  0
XRECORD
  5
2C7DD
102
{ACAD_REACTORS
330
1F316
102
}
330
1F316
100
AcDbXrecord
280
     1
  1
建築接地図
  1
A01*
  1
*
  1
*
 70
     0
  1
*
  1
*
  0
XRECORD
  5
2C7D8
102
{ACAD_REACTORS
330
1F316
102
}
330
1F316
100
AcDbXrecord
280
     1
  1
形状
  1
pen1,pen3,pen4,up,dia,low
  1
*
  1
*
 70
     0
  1
*
  1
*
  0
XRECORD
  5
2C7D9
102
{ACAD_REACTORS
330
1F316
102
}
330
1F316
100
AcDbXrecord
280
     1
  1
形状以外
  1
dim,cen,text,sakuzu1,sakuzu2,siten,defpoints,0
  1
*
  1
*
 70
     0
  1
*
  1
*
  0
XRECORD
  5
1F320
102
{ACAD_REACTORS
330
1F316
102
}
330
1F316
100
AcDbXrecord
280
     1
  1
捨て線
  1
*WORK*
  1
*
  1
*
 70
     0
  1
*
  1
*
  0
XRECORD
  5
2C7FA
102
{ACAD_REACTORS
330
1F316
102
}
330
1F316
100
AcDbXrecord
280
     1
  1
排水
  1
*は*
  1
*
  1
*
 70
     0
  1
*
  1
*
  0
XRECORD
  5
2C7FB
102
{ACAD_REACTORS
330
1F316
102
}
330
1F316
100
AcDbXrecord
280
     1
  1
排水平面
  1
*は*
  1
*
  1
*
 70
     0
  1
*
  1
*
  0
XRECORD
  5
1F31C
102
{ACAD_REACTORS
330
1F316
102
}
330
1F316
100
AcDbXrecord
280
     1
  1
掘削線
  1
*EXC*
  1
*
  1
*
 70
     0
  1
*
  1
*
  0
XRECORD
  5
2C809
102
{ACAD_REACTORS
330
1F316
102
}
330
1F316
100
AcDbXrecord
280
     1
  1
擁壁平面図
  1
*よ*
  1
*
  1
*
 70
     0
  1
*
  1
*
  0
XRECORD
  5
2159B
102
{ACAD_REACTORS
330
1F316
102
}
330
1F316
100
AcDbXrecord
280
     1
  1
支柱取付部
  1
DSTD_COLMN-DET*
  1
*
  1
*
 70
     0
  1
*
  1
*
  0
XRECORD
  5
1F323
102
{ACAD_REACTORS
330
1F316
102
}
330
1F316
100
AcDbXrecord
280
     1
  1
数量表
  1
*TABL*
  1
*
  1
*
 70
     0
  1
*
  1
*
  0
XRECORD
  5
383EC
102
{ACAD_REACTORS
330
1F316
102
}
330
1F316
100
AcDbXrecord
280
     1
  1
文字
  1
*字
  1
*
  1
*
 70
     0
  1
*
  1
*
  0
XRECORD
  5
383E7
102
{ACAD_REACTORS
330
1F316
102
}
330
1F316
100
AcDbXrecord
280
     1
  1
断面
  1
*断面*
  1
*
  1
*
 70
     0
  1
*
  1
*
  0
XRECORD
  5
2159E
102
{ACAD_REACTORS
330
1F316
102
}
330
1F316
100
AcDbXrecord
280
     1
  1
断面図
  1
DSTD_SECT*
  1
*
  1
*
 70
     0
  1
*
  1
*
  0
XRECORD
  5
2159C
102
{ACAD_REACTORS
330
1F316
102
}
330
1F316
100
AcDbXrecord
280
     1
  1
新規書き込み
  1
*
  1
*
  1
*
 70
   768
  1
*
  1
*
  0
XRECORD
  5
2C7E3
102
{ACAD_REACTORS
330
1F316
102
}
330
1F316
100
AcDbXrecord
280
     1
  1
施設平面図
  1
*し*
  1
*
  1
*
 70
     0
  1
*
  1
*
  0
XRECORD
  5
1FD68
102
{ACAD_REACTORS
330
1F316
102
}
330
1F316
100
AcDbXrecord
280
     1
  1
旗
  1
占用物件平面図|*旗*
  1
*
  1
*
 70
     0
  1
*
  1
*
  0
XRECORD
  5
1FD69
102
{ACAD_REACTORS
330
1F316
102
}
330
1F316
100
AcDbXrecord
280
     1
  1
旗上
  1
*旗上*
  1
*
  1
*
 70
    12
  1
*
  1
*
  0
XRECORD
  5
383E0
102
{ACAD_REACTORS
330
1F316
102
}
330
1F316
100
AcDbXrecord
280
     1
  1
旗上げ
  1
旗上げ
  1
*
  1
*
 70
     0
  1
*
  1
*
  0
XRECORD
  5
1F329
102
{ACAD_REACTORS
330
1F316
102
}
330
1F316
100
AcDbXrecord
280
     1
  1
本管
  1
*PIPE*
  1
*
  1
*
 70
     0
  1
*
  1
*
  0
XRECORD
  5
383ED
102
{ACAD_REACTORS
330
1F316
102
}
330
1F316
100
AcDbXrecord
280
     1
  1
本線
  1
*
  1
*
  1
*
 70
     0
  1
*
  1
*
  0
XRECORD
  5
21599
102
{ACAD_REACTORS
330
1F316
102
}
330
1F316
100
AcDbXrecord
280
     1
  1
杭頭詳細図
  1
DSTD_PILE*
  1
*
  1
*
 70
     0
  1
*
  1
*
  0
XRECORD
  5
1FD6E
102
{ACAD_REACTORS
330
1F316
102
}
330
1F316
100
AcDbXrecord
280
     1
  1
枠
  1
*枠*
  1
*
  1
*
 70
     0
  1
*
  1
*
  0
XRECORD
  5
1FD6F
102
{ACAD_REACTORS
330
1F316
102
}
330
1F316
100
AcDbXrecord
280
     1
  1
枠Or文字
  1
*枠*,*文字*
  1
*
  1
*
 70
     0
  1
*
  1
*
  0
XRECORD
  5
1F326
102
{ACAD_REACTORS
330
1F316
102
}
330
1F316
100
AcDbXrecord
280
     1
  1
柱状図
  1
*BOUL*
  1
*
  1
*
 70
     0
  1
*
  1
*
  0
XRECORD
  5
2C7E4
102
{ACAD_REACTORS
330
1F316
102
}
330
1F316
100
AcDbXrecord
280
     1
  1
植栽
  1
*木*
  1
*
  1
*
 70
     0
  1
*
  1
*
  0
XRECORD
  5
2C7E7
102
{ACAD_REACTORS
330
1F316
102
}
330
1F316
100
AcDbXrecord
280
     1
  1
植栽低木AB
  1
*γ*
  1
*
  1
*
 70
     0
  1
*
  1
*
  0
XRECORD
  5
2C7E8
102
{ACAD_REACTORS
330
1F316
102
}
330
1F316
100
AcDbXrecord
280
     1
  1
植栽低木CD
  1
*Θ*
  1
*
  1
*
 70
     0
  1
*
  1
*
  0
XRECORD
  5
2C7E5
102
{ACAD_REACTORS
330
1F316
102
}
330
1F316
100
AcDbXrecord
280
     1
  1
植栽高木AB
  1
*α*
  1
*
  1
*
 70
     0
  1
*
  1
*
  0
XRECORD
  5
2C7E6
102
{ACAD_REACTORS
330
1F316
102
}
330
1F316
100
AcDbXrecord
280
     1
  1
植栽高木CD
  1
*β*
  1
*
  1
*
 70
     0
  1
*
  1
*
  0
XRECORD
  5
1F31F
102
{ACAD_REACTORS
330
1F316
102
}
330
1F316
100
AcDbXrecord
280
     1
  1
構造物
  1
*STRC*
  1
*
  1
*
 70
     0
  1
*
  1
*
  0
XRECORD
  5
383DE
102
{ACAD_REACTORS
330
1F316
102
}
330
1F316
100
AcDbXrecord
280
     1
  1
横断
  1
横断*
  1
*
  1
*
 70
     0
  1
*
  1
*
  0
XRECORD
  5
2C7D0
102
{ACAD_REACTORS
330
1F316
102
}
330
1F316
100
AcDbXrecord
280
     1
  1
機器
  1
*機器
  1
*
  1
*
 70
     0
  1
*
  1
*
  0
XRECORD
  5
2159D
102
{ACAD_REACTORS
330
1F316
102
}
330
1F316
100
AcDbXrecord
280
     1
  1
正面図
  1
DSTD_FRONT*
  1
*
  1
*
 70
     0
  1
*
  1
*
  0
XRECORD
  5
1F328
102
{ACAD_REACTORS
330
1F316
102
}
330
1F316
100
AcDbXrecord
280
     1
  1
法線
  1
*SLPE*
  1
*
  1
*
 70
     0
  1
*
  1
*
  0
XRECORD
  5
1F32D
102
{ACAD_REACTORS
330
1F316
102
}
330
1F316
100
AcDbXrecord
280
     1
  1
流出入管
  1
*PIPE*
  1
*
  1
*
 70
     0
  1
*
  1
*
  0
XRECORD
  5
2C7CF
102
{ACAD_REACTORS
330
1F316
102
}
330
1F316
100
AcDbXrecord
280
     1
  1
潅水平面
  1
*か*
  1
*
  1
*
 70
     0
  1
*
  1
*
  0
XRECORD
  5
1F31E
102
{ACAD_REACTORS
330
1F316
102
}
330
1F316
100
AcDbXrecord
280
     1
  1
現況地盤線
  1
*EXST*
  1
*
  1
*
 70
     0
  1
*
  1
*
  0
XRECORD
  5
1FD6A
102
{ACAD_REACTORS
330
1F316
102
}
330
1F316
100
AcDbXrecord
280
     1
  1
現況平面図-
  1
現況平面図-*
  1
*
  1
*
 70
     0
  1
*
  1
*
  0
XRECORD
  5
1F32B
102
{ACAD_REACTORS
330
1F316
102
}
330
1F316
100
AcDbXrecord
280
     1
  1
用地境界
  1
*ROW*
  1
*
  1
*
 70
     0
  1
*
  1
*
  0
XRECORD
  5
2C800
102
{ACAD_REACTORS
330
1F316
102
}
330
1F316
100
AcDbXrecord
280
     1
  1
病院提出用非表示
  1
52,53,54,56,58,61,62,67,68,70,71,191
  1
*
  1
*
 70
     0
  1
*
  1
*
  0
XRECORD
  5
2C801
102
{ACAD_REACTORS
330
1F316
102
}
330
1F316
100
AcDbXrecord
280
     1
  1
病院提出用非表示（反転）
  1
52,53,54,56,58,61,62,67,68,70,71,191
  1
*
  1
*
 70
     0
  1
*
  1
*
  0
XRECORD
  5
2C7D6
102
{ACAD_REACTORS
330
1F316
102
}
330
1F316
100
AcDbXrecord
280
     1
  1
空調設備図
  1
001*,002*,004*,005*,007*,010*,033*,034*,035*,036*,037*,038*
  1
*
  1
*
 70
     0
  1
*
  1
*
  0
XRECORD
  5
1F32C
102
{ACAD_REACTORS
330
1F316
102
}
330
1F316
100
AcDbXrecord
280
     1
  1
立坑構造物
  1
*STRC*
  1
*
  1
*
 70
     0
  1
*
  1
*
  0
XRECORD
  5
1F31D
102
{ACAD_REACTORS
330
1F316
102
}
330
1F316
100
AcDbXrecord
280
     1
  1
継手・副管
  1
*JOIN*
  1
*
  1
*
 70
     0
  1
*
  1
*
  0
XRECORD
  5
2C7EC
102
{ACAD_REACTORS
330
1F316
102
}
330
1F316
100
AcDbXrecord
280
     1
  1
総合仮設図
  1
001*,002*,003*,004*,005*,007*,012*,015*,016*,017*,018*,019*,020*,021*,049*,050*,051*,052*,053*,054*,055*,056*,057*,058*,059*,060*,061*,062*,063*,064*,065*,066*,067*,068*,069*,070*,071*,072*,073*,074*,075*
  1
*
  1
*
 70
     0
  1
*
  1
*
  0
XRECORD
  5
383E4
102
{ACAD_REACTORS
330
1F316
102
}
330
1F316
100
AcDbXrecord
280
     1
  1
線形
  1
*線形*
  1
*
  1
*
 70
     0
  1
*
  1
*
  0
XRECORD
  5
215A1
102
{ACAD_REACTORS
330
1F316
102
}
330
1F316
100
AcDbXrecord
280
     1
  1
背面図
  1
DSTD_BACK*
  1
*
  1
*
 70
     0
  1
*
  1
*
  0
XRECORD
  5
2C7E9
102
{ACAD_REACTORS
330
1F316
102
}
330
1F316
100
AcDbXrecord
280
     1
  1
芯関係
  1
001*,002*,032*
  1
*
  1
*
 70
     0
  1
*
  1
*
  0
XRECORD
  5
1F32A
102
{ACAD_REACTORS
330
1F316
102
}
330
1F316
100
AcDbXrecord
280
     1
  1
薬注
  1
*CGS*
  1
*
  1
*
 70
     0
  1
*
  1
*
  0
XRECORD
  5
2C7CC
102
{ACAD_REACTORS
330
1F316
102
}
330
1F316
100
AcDbXrecord
280
     1
  1
衛生設備図
  1
001*,002*,004*,005*,007*,010*,039*,040*,041*,042*,043*
  1
*
  1
*
 70
     0
  1
*
  1
*
  0
XRECORD
  5
2C7FD
102
{ACAD_REACTORS
330
1F316
102
}
330
1F316
100
AcDbXrecord
280
     1
  1
表示
  1
*
  1
*
  1
*
 70
     1
  1
*
  1
*
  0
XRECORD
  5
2C7FE
102
{ACAD_REACTORS
330
1F316
102
}
330
1F316
100
AcDbXrecord
280
     1
  1
表示2
  1
*
  1
*
  1
*
 70
   257
  1
*
  1
*
  0
XRECORD
  5
2C7FF
102
{ACAD_REACTORS
330
1F316
102
}
330
1F316
100
AcDbXrecord
280
     1
  1
表示・非表示
  1
*
  1
*
  1
*
 70
     1
  1
*
  1
*
  0
XRECORD
  5
383EA
102
{ACAD_REACTORS
330
1F316
102
}
330
1F316
100
AcDbXrecord
280
     1
  1
表示画層
  1
*
  1
*
  1
*
 70
     1
  1
*
  1
*
  0
XRECORD
  5
2C7DE
102
{ACAD_REACTORS
330
1F316
102
}
330
1F316
100
AcDbXrecord
280
     1
  1
見下全体図
  1
000*,001*,002*,003*,005*,010*,011*,012*,025*,028*,029*,030*,031*,032*,033*,034*,035*,036*,037*,042*,047*,048*,049*,051*,052*,064*,083*,097*,098*,099*,100*,112*,119*,160*,165*,180*,185*,192*,196*,197*,202*,205*,211*,253*,254*,255*
  1
*
  1
*
 70
     0
  1
*
  1
*
  0
XRECORD
  5
383E1
102
{ACAD_REACTORS
330
1F316
102
}
330
1F316
100
AcDbXrecord
280
     1
  1
計画
  1
計画*
  1
*
  1
*
 70
     0
  1
*
  1
*
  0
XRECORD
  5
2C7DA
102
{ACAD_REACTORS
330
1F316
102
}
330
1F316
100
AcDbXrecord
280
     1
  1
計画平面
  1
*け*
  1
*
  1
*
 70
     0
  1
*
  1
*
  0
XRECORD
  5
2C7DB
102
{ACAD_REACTORS
330
1F316
102
}
330
1F316
100
AcDbXrecord
280
     1
  1
計画平面図
  1
*け*
  1
*
  1
*
 70
     0
  1
*
  1
*
  0
XRECORD
  5
2C7ED
102
{ACAD_REACTORS
330
1F316
102
}
330
1F316
100
AcDbXrecord
280
     1
  1
足場計画図
  1
001*,002*,003*,004*,005*,007*,012*,015*,049*,050*,051*,055*,056*,057*,058*,059*,060*,061*,062*,064*,065*,066*,067*,068*,069*,070*,071*,072*,073*,074*,075*
  1
*
  1
*
 70
     0
  1
*
  1
*
  0
XRECORD
  5
2C7D5
102
{ACAD_REACTORS
330
1F316
102
}
330
1F316
100
AcDbXrecord
280
     1
  1
躯体図
  1
001*,002*,003*,004*,005*,006*,007*,008*,009*,010*,011*,012*,027*
  1
*
  1
*
 70
     0
  1
*
  1
*
  0
XRECORD
  5
2C7D4
102
{ACAD_REACTORS
330
1F316
102
}
330
1F316
100
AcDbXrecord
280
     1
  1
躯体見上全体
  1
000*,001*,002*,004*,010*,011*,012*,025*,032*,035*,043*,044*,047*,048*,049*,051*,052*,064*,085*,116*,121*,160*,180*,192*,202*,205*,213*,217*,221*,253*,254*,255*
  1
*
  1
*
 70
     0
  1
*
  1
*
  0
XRECORD
  5
2C7D3
102
{ACAD_REACTORS
330
1F316
102
}
330
1F316
100
AcDbXrecord
280
     1
  1
躯体見上詳細
  1
000*,001*,002*,004*,010*,011*,012*,025*,032*,035*,042*,043*,044*,047*,048*,049*,051*,052*,065*,068*,069*,076*,077*,087*,091*,103*,104*,116*,121*,124*,126*,128*,129*,131*,160*,164*,172*,174*,176*,180*,192*,199*,200*,202*,205*,208*,213*,215*,217*,219*,221*,244*,247*,248*,251*,252*,253*,254*,255*
  1
*
  1
*
 70
     0
  1
*
  1
*
  0
XRECORD
  5
2C7D2
102
{ACAD_REACTORS
330
1F316
102
}
330
1F316
100
AcDbXrecord
280
     1
  1
躯体見下全体
  1
000*,001*,002*,003*,005*,010*,011*,012*,025*,028*,029*,030*,031*,032*,033*,034*,035*,036*,037*,042*,047*,048*,049*,051*,052*,064*,083*,097*,098*,099*,100*,112*,119*,160*,165*,180*,185*,192*,196*,197*,202*,205*,211*,253*,254*,255*
  1
*
  1
*
 70
     0
  1
*
  1
*
  0
XRECORD
  5
2C7D1
102
{ACAD_REACTORS
330
1F316
102
}
330
1F316
100
AcDbXrecord
280
     1
  1
躯体見下詳細
  1
000*,001*,002*,003*,005*,010*,011*,012*,025*,028*,029*,030*,031*,032*,033*,034*,035*,036*,037*,042*,047*,048*,049*,051*,052*,065*,067*,068*,069*,070*,073*,074*,075*,076*,087*,088*,089*,103*,104*,105*,106*,107*,108*,114*,119*,124*,125*,128*,129*,131*,160*,164*,165*,166*,168*,170*,180*,184*,185*,186*,188*,190*,192*,196*,197*,199*,200*,202*,203*,205*,206*,208*,209*,211*,242*,243*,245*,246*,251*,252*,253*,254*,255*
  1
*
  1
*
 70
     0
  1
*
  1
*
  0
XRECORD
  5
1F327
102
{ACAD_REACTORS
330
1F316
102
}
330
1F316
100
AcDbXrecord
280
     1
  1
道路中心線
  1
*D-CNTR
  1
*
  1
*
 70
     0
  1
*
  1
*
  0
XRECORD
  5
2C7F9
102
{ACAD_REACTORS
330
1F316
102
}
330
1F316
100
AcDbXrecord
280
     1
  1
道路関係図
  1
001*,002*,003*,004*,007*,012*,015*,016*,017*,018*,019*,020*,021*,049*,050*,051*,052*,053*,054*,055*,056*,057*,058*,059*,060*,061*,062*,063*,064*,065*,066*,067*,068*,069*,070*,071*,072*,073*,074*,075*
  1
*
  1
*
 70
     0
  1
*
  1
*
  0
XRECORD
  5
215A2
102
{ACAD_REACTORS
330
1F316
102
}
330
1F316
100
AcDbXrecord
280
     1
  1
配筋図
  1
DSTD_STEEL*
  1
*
  1
*
 70
     0
  1
*
  1
*
  0
XRECORD
  5
2C7FC
102
{ACAD_REACTORS
330
1F316
102
}
330
1F316
100
AcDbXrecord
280
     1
  1
配線
  1
*配線
  1
*
  1
*
 70
     0
  1
*
  1
*
  0
XRECORD
  5
2C7F0
102
{ACAD_REACTORS
330
1F316
102
}
330
1F316
100
AcDbXrecord
280
     1
  1
鉄骨建方計画図
  1
001*,002*,003*,004*,005*,007*,012*,013*,049*,050*,051*,052*,053*,054*,055*,056*,057*,058*,059*,060*,061*,062*,063*,064*,065*,066*,067*,068*,069*,070*,071*,072*,073*,074*,075*
  1
*
  1
*
 70
     0
  1
*
  1
*
  0
XRECORD
  5
1F319
102
{ACAD_REACTORS
330
1F316
102
}
330
1F316
100
AcDbXrecord
280
     1
  1
開削部
  1
*EXCA*
  1
*
  1
*
 70
     0
  1
*
  1
*
  0
XRECORD
  5
2C7F6
102
{ACAD_REACTORS
330
1F316
102
}
330
1F316
100
AcDbXrecord
280
     1
  1
電気設備
  1
U*
  1
*
  1
*
 70
     0
  1
*
  1
*
  0
XRECORD
  5
2C7F7
102
{ACAD_REACTORS
330
1F316
102
}
330
1F316
100
AcDbXrecord
280
     1
  1
電気設備図
  1
001*,002*,004*,005*,007*,010*,030*,031*,044*,045*,046*,047*,048*
  1
*
  1
*
 70
     0
  1
*
  1
*
  0
XRECORD
  5
383E8
102
{ACAD_REACTORS
330
1F316
102
}
330
1F316
100
AcDbXrecord
280
     1
  1
非表示
  1
z*
  1
*
  1
*
 70
     0
  1
*
  1
*
  0
XRECORD
  5
383E9
102
{ACAD_REACTORS
330
1F316
102
}
330
1F316
100
AcDbXrecord
280
     1
  1
非表示画層
  1
*
  1
*
  1
*
 70
     3
  1
*
  1
*
  0
XRECORD
  5
2C7DF
102
{ACAD_REACTORS
330
1F316
102
}
330
1F316
100
AcDbXrecord
280
     1
  1
高さ
  1
204-TEXT,東西道路*
  1
*
  1
*
 70
     0
  1
*
  1
*
  0
XRECORD
  5
2C7E0
102
{ACAD_REACTORS
330
1F316
102
}
330
1F316
100
AcDbXrecord
280
     1
  1
高木植栽平面
  1
*こ*
  1
*
  1
*
 70
     0
  1
*
  1
*
  0
XRECORD
  5
2C807
102
{ACAD_REACTORS
330
1F316
102
}
330
1F316
100
AcDbXrecord
280
     1
  1
鳳文字入力
  1
*
  1
*
  1
*
 70
     0
  1
*
  1
*
  0
XRECORD
  5
21594
102
{ACAD_REACTORS
330
1F316
102
}
330
1F316
100
AcDbXrecord
280
     1
  1
Ａ断面
  1
DSTD_SECT-A*
  1
*
  1
*
 70
     0
  1
*
  1
*
  0
XRECORD
  5
2C7C1
102
{ACAD_REACTORS
330
1F316
102
}
330
1F316
100
AcDbXrecord
280
     1
  1
ＡＢ棟
  1
ＡＢ棟*
  1
*
  1
*
 70
     0
  1
*
  1
*
  0
XRECORD
  5
21595
102
{ACAD_REACTORS
330
1F316
102
}
330
1F316
100
AcDbXrecord
280
     1
  1
Ｂ断面
  1
DSTD_SECT-B*
  1
*
  1
*
 70
     0
  1
*
  1
*
  0
XRECORD
  5
21596
102
{ACAD_REACTORS
330
1F316
102
}
330
1F316
100
AcDbXrecord
280
     1
  1
Ｃ断面
  1
DSTD_SECT-C*
  1
*
  1
*
 70
     0
  1
*
  1
*
  0
XRECORD
  5
2C7C2
102
{ACAD_REACTORS
330
1F316
102
}
330
1F316
100
AcDbXrecord
280
     1
  1
ＣＤ棟
  1
T15-*
  1
*
  1
*
 70
     0
  1
*
  1
*
  0
XRECORD
  5
2C7C3
102
{ACAD_REACTORS
330
1F316
102
}
330
1F316
100
AcDbXrecord
280
     1
  1
Ｄ・墓地　施設平面
  1
*も*
  1
*
  1
*
 70
     0
  1
*
  1
*
  0
XRECORD
  5
2C7C7
102
{ACAD_REACTORS
330
1F316
102
}
330
1F316
100
AcDbXrecord
280
     1
  1
Ｄ低木
  1
*て*
  1
*
  1
*
 70
     0
  1
*
  1
*
  0
XRECORD
  5
2C7C8
102
{ACAD_REACTORS
330
1F316
102
}
330
1F316
100
AcDbXrecord
280
     1
  1
Ｄ墓地施設平面
  1
*も*
  1
*
  1
*
 70
     0
  1
*
  1
*
  0
XRECORD
  5
2C7C6
102
{ACAD_REACTORS
330
1F316
102
}
330
1F316
100
AcDbXrecord
280
     1
  1
Ｄ施設平面
  1
*し*
  1
*
  1
*
 70
     0
  1
*
  1
*
  0
XRECORD
  5
2C7C4
102
{ACAD_REACTORS
330
1F316
102
}
330
1F316
100
AcDbXrecord
280
     1
  1
Ｄ街区低木
  1
*て*
  1
*
  1
*
 70
     0
  1
*
  1
*
  0
XRECORD
  5
2C7C5
102
{ACAD_REACTORS
330
1F316
102
}
330
1F316
100
AcDbXrecord
280
     1
  1
Ｄ高木植栽
  1
*こ*
  1
*
  1
*
 70
     0
  1
*
  1
*
  0
DICTIONARY
  5
4A3F2
330
4A3BC
100
AcDbDictionary
280
     1
281
     1
  3
ACAD_XREC_ROUNDTRIP
360
4A3F3
  0
DICTIONARY
  5
4A383
330
4A382
100
AcDbDictionary
280
     1
281
     1
  3
BUMPTILE
360
4A385
  3
DIFFUSETILE
360
4A384
  3
OPACITYTILE
360
4A388
  3
REFLECTIONTILE
360
4A387
  3
REFRACTIONTILE
360
4A389
  3
SPECULARTILE
360
4A386
  0
DICTIONARY
  5
4A37B
330
4A37A
100
AcDbDictionary
280
     1
281
     1
  3
BUMPTILE
360
4A37D
  3
DIFFUSETILE
360
4A37C
  3
OPACITYTILE
360
4A380
  3
REFLECTIONTILE
360
4A37F
  3
REFRACTIONTILE
360
4A381
  3
SPECULARTILE
360
4A37E
  0
DICTIONARY
  5
4A3F0
330
4A3BA
100
AcDbDictionary
280
     1
281
     1
  3
ACAD_XREC_ROUNDTRIP
360
4A3F1
  0
DICTIONARY
  5
4A3ED
330
4A3A4
100
AcDbDictionary
280
     1
281
     1
  3
ACAD_ROUNDTRIP_2008_TABLESTYLE_CELLSTYLEMAP
360
4A3EE
  0
XRECORD
  5
4A3F3
102
{ACAD_REACTORS
330
4A3F2
102
}
330
4A3F2
100
AcDbXrecord
280
     1
102
DISPLAYNAME
  1
Imperial24
102
FLAGS
 90
        0
  0
XRECORD
  5
4A385
102
{ACAD_REACTORS
330
4A383
102
}
330
4A383
100
AcDbXrecord
280
     1
270
     1
271
     1
  0
XRECORD
  5
4A384
102
{ACAD_REACTORS
330
4A383
102
}
330
4A383
100
AcDbXrecord
280
     1
270
     1
271
     1
  0
XRECORD
  5
4A388
102
{ACAD_REACTORS
330
4A383
102
}
330
4A383
100
AcDbXrecord
280
     1
270
     1
271
     1
  0
XRECORD
  5
4A387
102
{ACAD_REACTORS
330
4A383
102
}
330
4A383
100
AcDbXrecord
280
     1
270
     1
271
     1
  0
XRECORD
  5
4A389
102
{ACAD_REACTORS
330
4A383
102
}
330
4A383
100
AcDbXrecord
280
     1
270
     1
271
     1
  0
XRECORD
  5
4A386
102
{ACAD_REACTORS
330
4A383
102
}
330
4A383
100
AcDbXrecord
280
     1
270
     1
271
     1
  0
XRECORD
  5
4A37D
102
{ACAD_REACTORS
330
4A37B
102
}
330
4A37B
100
AcDbXrecord
280
     1
270
     1
271
     1
  0
XRECORD
  5
4A37C
102
{ACAD_REACTORS
330
4A37B
102
}
330
4A37B
100
AcDbXrecord
280
     1
270
     1
271
     1
  0
XRECORD
  5
4A380
102
{ACAD_REACTORS
330
4A37B
102
}
330
4A37B
100
AcDbXrecord
280
     1
270
     1
271
     1
  0
XRECORD
  5
4A37F
102
{ACAD_REACTORS
330
4A37B
102
}
330
4A37B
100
AcDbXrecord
280
     1
270
     1
271
     1
  0
XRECORD
  5
4A381
102
{ACAD_REACTORS
330
4A37B
102
}
330
4A37B
100
AcDbXrecord
280
     1
270
     1
271
     1
  0
XRECORD
  5
4A37E
102
{ACAD_REACTORS
330
4A37B
102
}
330
4A37B
100
AcDbXrecord
280
     1
270
     1
271
     1
  0
XRECORD
  5
4A3F1
102
{ACAD_REACTORS
330
4A3F0
102
}
330
4A3F0
100
AcDbXrecord
280
     1
102
DISPLAYNAME
  1
Imperial24
102
FLAGS
 90
        0
  0
CELLSTYLEMAP
  5
4A3EE
102
{ACAD_REACTORS
330
4A3ED
102
}
330
4A3ED
100
AcDbCellStyleMap
 90
        3
300
CELLSTYLE
  1
TABLEFORMAT_BEGIN
 90
        5
170
     1
 91
        0
 92
    32768
 62
   257
 93
        1
300
CONTENTFORMAT
  1
CONTENTFORMAT_BEGIN
 90
        0
 91
        0
 92
      512
 93
        0
300

 40
0.0
140
1.0
 94
        5
 62
     0
340
11
144
0.25
309
CONTENTFORMAT_END
171
     0
 94
        0
309
TABLEFORMAT_END
  1
CELLSTYLE_BEGIN
 90
        1
 91
        1
300
_TITLE
309
CELLSTYLE_END
300
CELLSTYLE
  1
TABLEFORMAT_BEGIN
 90
        5
170
     1
 91
        0
 92
        0
 62
   257
 93
        1
300
CONTENTFORMAT
  1
CONTENTFORMAT_BEGIN
 90
        0
 91
        0
 92
      512
 93
        0
300

 40
0.0
140
1.0
 94
        5
 62
     0
340
11
144
0.18
309
CONTENTFORMAT_END
171
     0
 94
        0
309
TABLEFORMAT_END
  1
CELLSTYLE_BEGIN
 90
        2
 91
        1
300
_HEADER
309
CELLSTYLE_END
300
CELLSTYLE
  1
TABLEFORMAT_BEGIN
 90
        5
170
     1
 91
        0
 92
        0
 62
   257
 93
        1
300
CONTENTFORMAT
  1
CONTENTFORMAT_BEGIN
 90
        0
 91
        0
 92
      512
 93
        0
300

 40
0.0
140
1.0
 94
        2
 62
     0
340
11
144
0.18
309
CONTENTFORMAT_END
171
     0
 94
        0
309
TABLEFORMAT_END
  1
CELLSTYLE_BEGIN
 90
        3
 91
        2
300
_DATA
309
CELLSTYLE_END
  0
ENDSEC
  0
EOF
