  0
SECTION
  2
HEADER
  9
$ACADVER
  1
AC1015
  9
$ACADMAINTVER
 70
    20
  9
$DWGCODEPAGE
  3
ANSI_932
  9
$INSBASE
 10
0.0
 20
0.0
 30
0.0
  9
$EXTMIN
 10
0.0
 20
0.0
 30
0.0
  9
$EXTMAX
 10
16820.0
 20
11880.0
 30
0.0
  9
$LIMMIN
 10
0.0
 20
0.0
  9
$LIMMAX
 10
841.0
 20
594.0
  9
$ORTHOMODE
 70
     0
  9
$REGENMODE
 70
     1
  9
$FILLMODE
 70
     1
  9
$QTEXTMODE
 70
     0
  9
$MIRRTEXT
 70
     0
  9
$LTSCALE
 40
1.0
  9
$ATTMODE
 70
     1
  9
$TEXTSIZE
 40
3.5
  9
$TRACEWID
 40
1.0
  9
$TEXTSTYLE
  7
Standard
  9
$CLAYER
  8
0
  9
$CELTYPE
  6
ByLayer
  9
$CECOLOR
 62
   256
  9
$CELTSCALE
 40
1.0
  9
$DISPSILH
 70
     0
  9
$DIMSCALE
 40
20.0
  9
$DIMASZ
 40
2.0
  9
$DIMEXO
 40
0.625
  9
$DIMDLI
 40
3.75
  9
$DIMRND
 40
0.0
  9
$DIMDLE
 40
0.0
  9
$DIMEXE
 40
1.25
  9
$DIMTP
 40
0.0
  9
$DIMTM
 40
0.0
  9
$DIMTXT
 40
3.5
  9
$DIMCEN
 40
2.5
  9
$DIMTSZ
 40
0.0
  9
$DIMTOL
 70
     0
  9
$DIMLIM
 70
     0
  9
$DIMTIH
 70
     0
  9
$DIMTOH
 70
     0
  9
$DIMSE1
 70
     0
  9
$DIMSE2
 70
     0
  9
$DIMTAD
 70
     1
  9
$DIMZIN
 70
     1
  9
$DIMBLK
  1
OPEN
  9
$DIMASO
 70
     1
  9
$DIMSHO
 70
     1
  9
$DIMPOST
  1

  9
$DIMAPOST
  1

  9
$DIMALT
 70
     0
  9
$DIMALTD
 70
     3
  9
$DIMALTF
 40
0.03937007874016
  9
$DIMLFAC
 40
1.0
  9
$DIMTOFL
 70
     1
  9
$DIMTVP
 40
0.0
  9
$DIMTIX
 70
     1
  9
$DIMSOXD
 70
     0
  9
$DIMSAH
 70
     0
  9
$DIMBLK1
  1

  9
$DIMBLK2
  1

  9
$DIMSTYLE
  2
SXF-20
  9
$DIMCLRD
 70
     0
  9
$DIMCLRE
 70
     0
  9
$DIMCLRT
 70
     0
  9
$DIMTFAC
 40
1.0
  9
$DIMGAP
 40
0.625
  9
$DIMJUST
 70
     0
  9
$DIMSD1
 70
     0
  9
$DIMSD2
 70
     0
  9
$DIMTOLJ
 70
     0
  9
$DIMTZIN
 70
     8
  9
$DIMALTZ
 70
     0
  9
$DIMALTTZ
 70
     0
  9
$DIMUPT
 70
     0
  9
$DIMDEC
 70
     0
  9
$DIMTDEC
 70
     0
  9
$DIMALTU
 70
     2
  9
$DIMALTTD
 70
     3
  9
$DIMTXSTY
  7
Standard
  9
$DIMAUNIT
 70
     1
  9
$DIMADEC
 70
     4
  9
$DIMALTRND
 40
0.0
  9
$DIMAZIN
 70
     0
  9
$DIMDSEP
 70
    46
  9
$DIMATFIT
 70
     3
  9
$DIMFRAC
 70
     0
  9
$DIMLDRBLK
  1
OPEN
  9
$DIMLUNIT
 70
     2
  9
$DIMLWD
 70
    13
  9
$DIMLWE
 70
    13
  9
$DIMTMOVE
 70
     2
  9
$LUNITS
 70
     2
  9
$LUPREC
 70
     4
  9
$SKETCHINC
 40
1.0
  9
$FILLETRAD
 40
0.0
  9
$AUNITS
 70
     0
  9
$AUPREC
 70
     0
  9
$MENU
  1
.
  9
$ELEVATION
 40
0.0
  9
$PELEVATION
 40
0.0
  9
$THICKNESS
 40
0.0
  9
$LIMCHECK
 70
     0
  9
$CHAMFERA
 40
150.0
  9
$CHAMFERB
 40
150.0
  9
$CHAMFERC
 40
0.0
  9
$CHAMFERD
 40
0.0
  9
$SKPOLY
 70
     0
  9
$TDCREATE
 40
2453251.491933588
  9
$TDUCREATE
 40
2453251.116933588
  9
$TDUPDATE
 40
2454744.363450880
  9
$TDUUPDATE
 40
2454743.988450880
  9
$TDINDWG
 40
0.6346012963
  9
$TDUSRTIMER
 40
0.6346012963
  9
$USRTIMER
 70
     1
  9
$ANGBASE
 50
0.0
  9
$ANGDIR
 70
     0
  9
$PDMODE
 70
     0
  9
$PDSIZE
 40
0.0
  9
$PLINEWID
 40
0.0
  9
$SPLFRAME
 70
     0
  9
$SPLINETYPE
 70
     6
  9
$SPLINESEGS
 70
     8
  9
$HANDSEED
  5
62B9D
  9
$SURFTAB1
 70
     6
  9
$SURFTAB2
 70
     6
  9
$SURFTYPE
 70
     6
  9
$SURFU
 70
     6
  9
$SURFV
 70
     6
  9
$UCSBASE
  2

  9
$UCSNAME
  2

  9
$UCSORG
 10
0.0
 20
0.0
 30
0.0
  9
$UCSXDIR
 10
1.0
 20
0.0
 30
0.0
  9
$UCSYDIR
 10
0.0
 20
1.0
 30
0.0
  9
$UCSORTHOREF
  2

  9
$UCSORTHOVIEW
 70
     0
  9
$UCSORGTOP
 10
0.0
 20
0.0
 30
0.0
  9
$UCSORGBOTTOM
 10
0.0
 20
0.0
 30
0.0
  9
$UCSORGLEFT
 10
0.0
 20
0.0
 30
0.0
  9
$UCSORGRIGHT
 10
0.0
 20
0.0
 30
0.0
  9
$UCSORGFRONT
 10
0.0
 20
0.0
 30
0.0
  9
$UCSORGBACK
 10
0.0
 20
0.0
 30
0.0
  9
$PUCSBASE
  2

  9
$PUCSNAME
  2

  9
$PUCSORG
 10
0.0
 20
0.0
 30
0.0
  9
$PUCSXDIR
 10
1.0
 20
0.0
 30
0.0
  9
$PUCSYDIR
 10
0.0
 20
1.0
 30
0.0
  9
$PUCSORTHOREF
  2

  9
$PUCSORTHOVIEW
 70
     0
  9
$PUCSORGTOP
 10
0.0
 20
0.0
 30
0.0
  9
$PUCSORGBOTTOM
 10
0.0
 20
0.0
 30
0.0
  9
$PUCSORGLEFT
 10
0.0
 20
0.0
 30
0.0
  9
$PUCSORGRIGHT
 10
0.0
 20
0.0
 30
0.0
  9
$PUCSORGFRONT
 10
0.0
 20
0.0
 30
0.0
  9
$PUCSORGBACK
 10
0.0
 20
0.0
 30
0.0
  9
$USERI1
 70
     0
  9
$USERI2
 70
     0
  9
$USERI3
 70
     0
  9
$USERI4
 70
     0
  9
$USERI5
 70
     0
  9
$USERR1
 40
0.0
  9
$USERR2
 40
0.0
  9
$USERR3
 40
0.0
  9
$USERR4
 40
0.0
  9
$USERR5
 40
0.0
  9
$WORLDVIEW
 70
     1
  9
$SHADEDGE
 70
     3
  9
$SHADEDIF
 70
    70
  9
$TILEMODE
 70
     1
  9
$MAXACTVP
 70
    64
  9
$PINSBASE
 10
0.0
 20
0.0
 30
0.0
  9
$PLIMCHECK
 70
     0
  9
$PEXTMIN
 10
0.0
 20
-0.0000000000000568
 30
0.0
  9
$PEXTMAX
 10
841.0000000000001
 20
594.0
 30
0.0
  9
$PLIMMIN
 10
-0.0012473732247784
 20
0.0299966691688409
  9
$PLIMMAX
 10
840.9927101463065
 20
593.9666421769813
  9
$UNITMODE
 70
     0
  9
$VISRETAIN
 70
     1
  9
$PLINEGEN
 70
     0
  9
$PSLTSCALE
 70
     1
  9
$TREEDEPTH
 70
  3020
  9
$CMLSTYLE
  2
Standard
  9
$CMLJUST
 70
     0
  9
$CMLSCALE
 40
20.0
  9
$PROXYGRAPHICS
 70
     1
  9
$MEASUREMENT
 70
     1
  9
$CELWEIGHT
370
    -1
  9
$ENDCAPS
280
     0
  9
$JOINSTYLE
280
     0
  9
$LWDISPLAY
290
     0
  9
$INSUNITS
 70
     4
  9
$HYPERLINKBASE
  1

  9
$STYLESHEET
  1
CALS.ctb
  9
$XEDIT
290
     1
  9
$CEPSNTYPE
380
     0
  9
$PSTYLEMODE
290
     1
  9
$FINGERPRINTGUID
  2
{FDEAD578-A652-11D2-9A35-0060089B3A3F}
  9
$VERSIONGUID
  2
{18FB33F5-FF90-4FC0-B183-C49B5D7E904F}
  9
$EXTNAMES
290
     1
  9
$PSVPSCALE
 40
0.0
  9
$OLESTARTUP
290
     0
  0
ENDSEC
  0
SECTION
  2
CLASSES
  0
CLASS
  1
ACDBDICTIONARYWDFLT
  2
AcDbDictionaryWithDefault
  3
ObjectDBX Classes
 90
        0
280
     0
281
     0
  0
CLASS
  1
ACDBPLACEHOLDER
  2
AcDbPlaceHolder
  3
ObjectDBX Classes
 90
        0
280
     0
281
     0
  0
CLASS
  1
LAYOUT
  2
AcDbLayout
  3
ObjectDBX Classes
 90
        0
280
     0
281
     0
  0
CLASS
  1
DICTIONARYVAR
  2
AcDbDictionaryVar
  3
ObjectDBX Classes
 90
        0
280
     0
281
     0
  0
CLASS
  1
WIPEOUT
  2
AcDbWipeout
  3
"WipeOut|Product Desc: Object Enabler for WipeOut entity^I^I^I^I^I^I|Company: Autodesk, Inc.^I^I^I^I^I^I|WEB Address: www.autodesk.com"
 90
    32895
280
     0
281
     1
  0
CLASS
  1
SORTENTSTABLE
  2
AcDbSortentsTable
  3
ObjectDBX Classes
 90
    32768
280
     0
281
     0
  0
CLASS
  1
WIPEOUTVARIABLES
  2
AcDbWipeoutVariables
  3
"WipeOut|Product Desc:     WipeOut Dbx Application|Company:          Autodesk, Inc.|WEB Address:      www.autodesk.com"
 90
        0
280
     0
281
     0
  0
CLASS
  1
DIMASSOC
  2
AcDbDimAssoc
  3
"AcDbDimAssoc|Product Desc:     AcDim ARX App For Dimension|Company:          Autodesk, Inc.|WEB Address:      www.autodesk.com"
 90
    32768
280
     0
281
     0
  0
CLASS
  1
TABLESTYLE
  2
AcDbTableStyle
  3
ObjectDBX Classes
 90
     2047
280
     0
281
     0
  0
ENDSEC
  0
SECTION
  2
TABLES
  0
TABLE
  2
VPORT
  5
8
330
0
100
AcDbSymbolTable
 70
     2
  0
VPORT
  5
62B92
330
8
100
AcDbSymbolTableRecord
100
AcDbViewportTableRecord
  2
*Active
 70
     0
 10
0.0
 20
0.0
 11
1.0
 21
1.0
 12
8528.560945624835
 22
5940.000027660278
 13
0.0
 23
0.0
 14
10.0
 24
10.0
 15
10.0
 25
10.0
 16
0.0
 26
0.0
 36
1.0
 17
0.0
 27
0.0
 37
0.0
 40
12000.12936999536
 41
1.786538461538461
 42
50.0
 43
0.0
 44
0.0
 50
0.0
 51
0.0
 71
     0
 72
  1000
 73
     1
 74
     3
 75
     0
 76
     1
 77
     0
 78
     0
281
     0
 65
     1
110
0.0
120
0.0
130
0.0
111
1.0
121
0.0
131
0.0
112
0.0
122
1.0
132
0.0
 79
     0
146
0.0
  0
ENDTAB
  0
TABLE
  2
LTYPE
  5
5
330
0
100
AcDbSymbolTable
 70
     3
  0
LTYPE
  5
14
330
5
100
AcDbSymbolTableRecord
100
AcDbLinetypeTableRecord
  2
ByBlock
 70
     0
  3

 72
    65
 73
     0
 40
0.0
  0
LTYPE
  5
15
330
5
100
AcDbSymbolTableRecord
100
AcDbLinetypeTableRecord
  2
ByLayer
 70
     0
  3

 72
    65
 73
     0
 40
0.0
  0
LTYPE
  5
16
330
5
100
AcDbSymbolTableRecord
100
AcDbLinetypeTableRecord
  2
Continuous
 70
     0
  3
Solid line
 72
    65
 73
     0
 40
0.0
  0
LTYPE
  5
95
330
5
100
AcDbSymbolTableRecord
100
AcDbLinetypeTableRecord
  2
SXF_一点鎖線
 70
     0
  3
08 chain ---- - --- - --- - ---
 72
    65
 73
     4
 40
18.5
 49
12.0
 74
     0
 49
-1.5
 74
     0
 49
3.5
 74
     0
 49
-1.5
 74
     0
  0
LTYPE
  5
54872
330
5
100
AcDbSymbolTableRecord
100
AcDbLinetypeTableRecord
  2
SXF_破線
 70
     0
  3
02 dashed -- -- -- -- -- --
 72
    65
 73
     2
 40
7.5
 49
6.0
 74
     0
 49
-1.5
 74
     0
  0
ENDTAB
  0
TABLE
  2
LAYER
  5
2
102
{ACAD_XDICTIONARY
360
68D
102
}
330
0
100
AcDbSymbolTable
 70
    11
  0
LAYER
  5
10
330
2
100
AcDbSymbolTableRecord
100
AcDbLayerTableRecord
  2
0
 70
     0
 62
     7
  6
Continuous
370
    -3
390
F
  0
LAYER
  5
B5
330
2
100
AcDbSymbolTableRecord
100
AcDbLayerTableRecord
  2
DEFPOINTS
 70
     0
 62
     7
  6
Continuous
290
     0
370
    -3
390
F
  0
LAYER
  5
1F5
330
2
100
AcDbSymbolTableRecord
100
AcDbLayerTableRecord
  2
D-TTL
 70
     0
 62
     2
  6
Continuous
370
   140
390
F
  0
LAYER
  5
1F8
330
2
100
AcDbSymbolTableRecord
100
AcDbLayerTableRecord
  2
D-TTL-TXT
 70
     0
 62
     7
  6
Continuous
370
    13
390
F
  0
LAYER
  5
69D
330
2
100
AcDbSymbolTableRecord
100
AcDbLayerTableRecord
  2
D-BGD
 70
     0
 62
     7
  6
Continuous
370
    13
390
F
  0
LAYER
  5
6A1
330
2
100
AcDbSymbolTableRecord
100
AcDbLayerTableRecord
  2
D-BMK
 70
     0
 62
     2
  6
SXF_一点鎖線
370
    13
390
F
  0
LAYER
  5
6A4
330
2
100
AcDbSymbolTableRecord
100
AcDbLayerTableRecord
  2
D-MTR-FRAM
 70
     0
 62
     7
  6
Continuous
370
    13
390
F
  0
LAYER
  5
6A5
330
2
100
AcDbSymbolTableRecord
100
AcDbLayerTableRecord
  2
D-MTR-TXT
 70
     0
 62
     7
  6
Continuous
370
    13
390
F
  0
LAYER
  5
6A6
330
2
100
AcDbSymbolTableRecord
100
AcDbLayerTableRecord
  2
D-STR
 70
     0
 62
     1
  6
Continuous
370
    25
390
F
  0
LAYER
  5
6A7
330
2
100
AcDbSymbolTableRecord
100
AcDbLayerTableRecord
  2
D-STR-DIM
 70
     0
 62
     7
  6
Continuous
370
    13
390
F
  0
LAYER
  5
6A8
330
2
100
AcDbSymbolTableRecord
100
AcDbLayerTableRecord
  2
D-STR-HTXT
 70
     0
 62
     7
  6
Continuous
370
    13
390
F
  0
ENDTAB
  0
TABLE
  2
STYLE
  5
3
330
0
100
AcDbSymbolTable
 70
     1
  0
STYLE
  5
11
330
3
100
AcDbSymbolTableRecord
100
AcDbTextStyleTableRecord
  2
Standard
 70
     0
 40
0.0
 41
1.0
 50
0.0
 71
     0
 42
3.5
  3
MS Gothic.ttf
  4

1001
ACAD
1000
MS Gothic
1071
    32817
  0
ENDTAB
  0
TABLE
  2
VIEW
  5
6
330
0
100
AcDbSymbolTable
 70
     0
  0
ENDTAB
  0
TABLE
  2
UCS
  5
7
330
0
100
AcDbSymbolTable
 70
     0
  0
ENDTAB
  0
TABLE
  2
APPID
  5
9
330
0
100
AcDbSymbolTable
 70
     7
  0
APPID
  5
12
330
9
100
AcDbSymbolTableRecord
100
AcDbRegAppTableRecord
  2
ACAD
 70
     0
  0
APPID
  5
89
330
9
100
AcDbSymbolTableRecord
100
AcDbRegAppTableRecord
  2
DCO15
 70
     0
  0
APPID
  5
8B
330
9
100
AcDbSymbolTableRecord
100
AcDbRegAppTableRecord
  2
ADE
 70
     0
  0
APPID
  5
AD
330
9
100
AcDbSymbolTableRecord
100
AcDbRegAppTableRecord
  2
KKE_SXF_XDATA
 70
     0
  0
APPID
  5
B6
330
9
100
AcDbSymbolTableRecord
100
AcDbRegAppTableRecord
  2
CDSET
 70
     0
  0
APPID
  5
B7
330
9
100
AcDbSymbolTableRecord
100
AcDbRegAppTableRecord
  2
KKE_SXF_DIMDIST_XDATA
 70
     0
  0
APPID
  5
217
330
9
100
AcDbSymbolTableRecord
100
AcDbRegAppTableRecord
  2
JASPER
 70
     0
  0
ENDTAB
  0
TABLE
  2
DIMSTYLE
  5
A
330
0
100
AcDbSymbolTable
 70
     2
100
AcDbDimStyleTable
 71
     2
340
624
340
135E
  0
DIMSTYLE
105
624
102
{ACAD_REACTORS
330
5C9B1
330
5C9B2
330
5C9BB
330
5C9D3
330
5C9D4
330
5C9DD
330
5C9F6
330
5C9F7
330
5C9FF
330
5CC4E
330
5CC4F
330
5CC50
330
5CC5F
330
5CC60
330
5CC6C
330
5CC6D
330
5CC6E
330
5CC6F
330
5CC7D
330
5CC7E
330
5CC7F
330
5CC80
330
5CCCE
330
5CCCF
330
5CCD0
330
5CCDF
330
5CCE0
330
5CCEC
330
5CCED
330
5CCEE
330
5CCEF
330
5CCFD
330
5CCFE
330
5CCFF
330
5CD00
330
5CD52
330
5CD53
330
5CD54
330
5CD63
330
5CD64
330
5CD70
330
5CD71
330
5CD72
330
5CD73
330
5CD81
330
5CD82
330
5CD83
330
5CD84
102
}
330
A
100
AcDbSymbolTableRecord
100
AcDbDimStyleTableRecord
  2
SXF-20
 70
     0
 40
20.0
 41
2.0
 42
0.625
 43
3.75
 44
1.25
 73
     0
 74
     0
 77
     1
 78
     1
140
3.5
141
2.5
143
0.03937007874016
147
0.625
171
     3
172
     1
174
     1
179
     4
271
     0
272
     0
274
     3
275
     1
279
     2
283
     0
284
     8
340
11
341
618
342
618
371
    13
372
    13
  0
DIMSTYLE
105
135E
330
A
100
AcDbSymbolTableRecord
100
AcDbDimStyleTableRecord
  2
Standard
 70
     0
340
11
  0
ENDTAB
  0
TABLE
  2
BLOCK_RECORD
  5
1
330
0
100
AcDbSymbolTable
 70
    49
  0
BLOCK_RECORD
  5
1F
330
1
100
AcDbSymbolTableRecord
100
AcDbBlockTableRecord
  2
*Model_Space
340
22
  0
BLOCK_RECORD
  5
62AFD
330
1
100
AcDbSymbolTableRecord
100
AcDbBlockTableRecord
  2
*Paper_Space
340
62B02
  0
BLOCK_RECORD
  5
618
330
1
100
AcDbSymbolTableRecord
100
AcDbBlockTableRecord
  2
_OPEN
340
0
310
2800000020000000200000000100080000000000000400000000000000000000000000000000000000000000000080000080000000808000800000008000800080800000C0C0C000C0DCC000F0CAA6000020400000206000002080000020A0000020C0000020E00000400000004020000040400000406000004080000040A0
310
000040C0000040E00000600000006020000060400000606000006080000060A0000060C0000060E00000800000008020000080400000806000008080000080A0000080C0000080E00000A0000000A0200000A0400000A0600000A0800000A0A00000A0C00000A0E00000C0000000C0200000C0400000C0600000C0800000C0
310
A00000C0C00000C0E00000E0000000E0200000E0400000E0600000E0800000E0A00000E0C00000E0E00040000000400020004000400040006000400080004000A0004000C0004000E00040200000402020004020400040206000402080004020A0004020C0004020E000404000004040200040404000404060004040800040
310
40A0004040C0004040E00040600000406020004060400040606000406080004060A0004060C0004060E00040800000408020004080400040806000408080004080A0004080C0004080E00040A0000040A0200040A0400040A0600040A0800040A0A00040A0C00040A0E00040C0000040C0200040C0400040C0600040C08000
310
40C0A00040C0C00040C0E00040E0000040E0200040E0400040E0600040E0800040E0A00040E0C00040E0E00080000000800020008000400080006000800080008000A0008000C0008000E00080200000802020008020400080206000802080008020A0008020C0008020E00080400000804020008040400080406000804080
310
008040A0008040C0008040E00080600000806020008060400080606000806080008060A0008060C0008060E00080800000808020008080400080806000808080008080A0008080C0008080E00080A0000080A0200080A0400080A0600080A0800080A0A00080A0C00080A0E00080C0000080C0200080C0400080C0600080C0
310
800080C0A00080C0C00080C0E00080E0000080E0200080E0400080E0600080E0800080E0A00080E0C00080E0E000C0000000C0002000C0004000C0006000C0008000C000A000C000C000C000E000C0200000C0202000C0204000C0206000C0208000C020A000C020C000C020E000C0400000C0402000C0404000C0406000C0
310
408000C040A000C040C000C040E000C0600000C0602000C0604000C0606000C0608000C060A000C060C000C060E000C0800000C0802000C0804000C0806000C0808000C080A000C080C000C080E000C0A00000C0A02000C0A04000C0A06000C0A08000C0A0A000C0A0C000C0A0E000C0C00000C0C02000C0C04000C0C06000
310
C0C08000C0C0A000F0FBFF00A4A0A000808080000000FF0000FF000000FFFF00FF000000FF00FF00FFFF0000FFFFFF0000000000000000000000000000000000000000000000000000000000000000000000000000000000000000000000000000000000000000000000000000000000000000000000000000000000000000
310
00000000000000000000000000000000000000000000000000000000000000000000000000000000000000000000000000000000000000000000000000000000000000000000000000000000000000000000000000000000000000000000000000000000000000000000000000000000000000000000000000000000000000
310
00000000000000000000000000000000000000000000000000000000000000000000000000000000000000000000000000000000000000000000000000000000000000000000000000000000000000000000000000000000000000000000000000000000000000000000000000000000000000000000000000000000000000
310
0000000000000000000000000000000000000000FFFFFF0000000000000000000000000000000000000000000000000000000000000000FFFFFFFFFFFF0000000000000000000000000000000000000000000000000000000000000000FFFFFFFFFFFF00000000000000000000000000000000000000000000000000000000
310
00000000FFFFFFFFFFFF0000000000000000000000000000000000000000000000000000000000000000FFFFFFFFFFFF0000000000FFFFFFFFFFFFFFFFFFFFFFFFFFFFFFFFFFFFFFFFFFFFFFFFFFFFFFFFFFFF000000000000000000000000000000000000000000FFFFFFFFFFFFFF00000000000000000000000000000000
310
00FFFFFFFFFFFFFFFF0000000000000000000000000000000000FFFFFFFFFFFFFF000000000000000000000000000000000000000000FFFFFFFF000000000000000000000000000000000000000000000000000000000000000000000000000000000000000000000000000000000000000000000000000000000000000000
310
00000000000000000000000000000000000000000000000000000000000000000000000000000000000000000000000000000000000000000000000000000000000000000000000000000000000000000000000000000000000000000000000000000000000000000000000000000000000000000000000000000000000000
310
00000000000000000000000000000000000000000000000000000000000000000000000000000000000000000000000000000000000000000000000000000000000000000000000000000000000000000000000000000000000000000000000000000000000000000000000000000000000000000000000000000000000000
310
0000000000000000000000000000000000000000000000000000000000000000000000000000000000000000000000000000000000000000
102
{BLKREFS
331
617B3
331
617B4
331
617BE
331
617BF
331
617C7
331
617C8
331
617D0
331
617D1
331
617DB
331
617DC
331
617E4
331
617E5
331
617EF
331
617F0
331
617F8
331
617F9
331
61801
331
61802
331
6180A
331
6180B
331
61813
331
61814
331
6181E
331
6181F
331
61829
331
6182A
331
61834
331
61835
331
6183F
331
61840
331
61848
331
61849
331
61851
331
61852
331
6185C
331
6185D
331
61865
331
61866
331
61870
331
61871
331
61879
331
6187A
331
61882
331
61883
331
6188B
331
6188C
331
61894
331
61895
331
6189F
331
618A0
331
618AA
331
618AB
331
618B5
331
618B6
331
618C0
331
618C1
331
618C9
331
618CA
331
618D2
331
618D3
331
618DD
331
618DE
331
618E6
331
618E7
331
618F1
331
618F2
331
618FA
331
618FB
331
61903
331
61904
331
6190C
331
6190D
331
61915
331
61916
331
61920
331
61921
331
6192B
331
6192C
331
61A66
331
61A67
331
61A6F
331
61A70
331
61A78
331
61A79
331
61A81
331
61A82
331
61A8A
331
61A8B
331
61A93
331
61A94
331
61A9C
331
61A9D
331
61AA5
331
61AA6
331
61AAE
331
61AAF
102
}
  0
BLOCK_RECORD
  5
5D780
330
1
100
AcDbSymbolTableRecord
100
AcDbBlockTableRecord
  2
*D1
340
0
  0
BLOCK_RECORD
  5
5D78C
330
1
100
AcDbSymbolTableRecord
100
AcDbBlockTableRecord
  2
*D2
340
0
  0
BLOCK_RECORD
  5
5D798
330
1
100
AcDbSymbolTableRecord
100
AcDbBlockTableRecord
  2
*D3
340
0
  0
BLOCK_RECORD
  5
5D7A4
330
1
100
AcDbSymbolTableRecord
100
AcDbBlockTableRecord
  2
*D4
340
0
  0
BLOCK_RECORD
  5
5D7B0
330
1
100
AcDbSymbolTableRecord
100
AcDbBlockTableRecord
  2
*D5
340
0
  0
BLOCK_RECORD
  5
5D7BC
330
1
100
AcDbSymbolTableRecord
100
AcDbBlockTableRecord
  2
*D6
340
0
  0
BLOCK_RECORD
  5
5D7C8
330
1
100
AcDbSymbolTableRecord
100
AcDbBlockTableRecord
  2
*D7
340
0
  0
BLOCK_RECORD
  5
5D7D4
330
1
100
AcDbSymbolTableRecord
100
AcDbBlockTableRecord
  2
*D8
340
0
  0
BLOCK_RECORD
  5
5D7E0
330
1
100
AcDbSymbolTableRecord
100
AcDbBlockTableRecord
  2
*D9
340
0
  0
BLOCK_RECORD
  5
5D984
330
1
100
AcDbSymbolTableRecord
100
AcDbBlockTableRecord
  2
*D10
340
0
  0
BLOCK_RECORD
  5
5D992
330
1
100
AcDbSymbolTableRecord
100
AcDbBlockTableRecord
  2
*D11
340
0
  0
BLOCK_RECORD
  5
5D9A0
330
1
100
AcDbSymbolTableRecord
100
AcDbBlockTableRecord
  2
*D12
340
0
  0
BLOCK_RECORD
  5
5D9AC
330
1
100
AcDbSymbolTableRecord
100
AcDbBlockTableRecord
  2
*D13
340
0
  0
BLOCK_RECORD
  5
5D9B8
330
1
100
AcDbSymbolTableRecord
100
AcDbBlockTableRecord
  2
*D14
340
0
  0
BLOCK_RECORD
  5
5D9C4
330
1
100
AcDbSymbolTableRecord
100
AcDbBlockTableRecord
  2
*D15
340
0
  0
BLOCK_RECORD
  5
5D9D0
330
1
100
AcDbSymbolTableRecord
100
AcDbBlockTableRecord
  2
*D16
340
0
  0
BLOCK_RECORD
  5
5D9DE
330
1
100
AcDbSymbolTableRecord
100
AcDbBlockTableRecord
  2
*D17
340
0
  0
BLOCK_RECORD
  5
5D9EA
330
1
100
AcDbSymbolTableRecord
100
AcDbBlockTableRecord
  2
*D18
340
0
  0
BLOCK_RECORD
  5
5D9F8
330
1
100
AcDbSymbolTableRecord
100
AcDbBlockTableRecord
  2
*D19
340
0
  0
BLOCK_RECORD
  5
5DA04
330
1
100
AcDbSymbolTableRecord
100
AcDbBlockTableRecord
  2
*D20
340
0
  0
BLOCK_RECORD
  5
5DA10
330
1
100
AcDbSymbolTableRecord
100
AcDbBlockTableRecord
  2
*D21
340
0
  0
BLOCK_RECORD
  5
5DA1E
330
1
100
AcDbSymbolTableRecord
100
AcDbBlockTableRecord
  2
*D22
340
0
  0
BLOCK_RECORD
  5
5DA2C
330
1
100
AcDbSymbolTableRecord
100
AcDbBlockTableRecord
  2
*D23
340
0
  0
BLOCK_RECORD
  5
5DA3A
330
1
100
AcDbSymbolTableRecord
100
AcDbBlockTableRecord
  2
*D24
340
0
  0
BLOCK_RECORD
  5
5DA48
330
1
100
AcDbSymbolTableRecord
100
AcDbBlockTableRecord
  2
*D25
340
0
  0
BLOCK_RECORD
  5
5DA54
330
1
100
AcDbSymbolTableRecord
100
AcDbBlockTableRecord
  2
*D26
340
0
  0
BLOCK_RECORD
  5
5DA60
330
1
100
AcDbSymbolTableRecord
100
AcDbBlockTableRecord
  2
*D27
340
0
  0
BLOCK_RECORD
  5
5DA6C
330
1
100
AcDbSymbolTableRecord
100
AcDbBlockTableRecord
  2
*D28
340
0
  0
BLOCK_RECORD
  5
5DA78
330
1
100
AcDbSymbolTableRecord
100
AcDbBlockTableRecord
  2
*D29
340
0
  0
BLOCK_RECORD
  5
5DA86
330
1
100
AcDbSymbolTableRecord
100
AcDbBlockTableRecord
  2
*D30
340
0
  0
BLOCK_RECORD
  5
5DA92
330
1
100
AcDbSymbolTableRecord
100
AcDbBlockTableRecord
  2
*D31
340
0
  0
BLOCK_RECORD
  5
5DAA0
330
1
100
AcDbSymbolTableRecord
100
AcDbBlockTableRecord
  2
*D32
340
0
  0
BLOCK_RECORD
  5
5DAAC
330
1
100
AcDbSymbolTableRecord
100
AcDbBlockTableRecord
  2
*D33
340
0
  0
BLOCK_RECORD
  5
5DAB8
330
1
100
AcDbSymbolTableRecord
100
AcDbBlockTableRecord
  2
*D34
340
0
  0
BLOCK_RECORD
  5
5DAC6
330
1
100
AcDbSymbolTableRecord
100
AcDbBlockTableRecord
  2
*D35
340
0
  0
BLOCK_RECORD
  5
5DAD4
330
1
100
AcDbSymbolTableRecord
100
AcDbBlockTableRecord
  2
*D36
340
0
  0
BLOCK_RECORD
  5
5DAE2
330
1
100
AcDbSymbolTableRecord
100
AcDbBlockTableRecord
  2
*D37
340
0
  0
BLOCK_RECORD
  5
5DAF0
330
1
100
AcDbSymbolTableRecord
100
AcDbBlockTableRecord
  2
*D38
340
0
  0
BLOCK_RECORD
  5
5DAFC
330
1
100
AcDbSymbolTableRecord
100
AcDbBlockTableRecord
  2
*D39
340
0
  0
BLOCK_RECORD
  5
5DB08
330
1
100
AcDbSymbolTableRecord
100
AcDbBlockTableRecord
  2
*D40
340
0
  0
BLOCK_RECORD
  5
5DB14
330
1
100
AcDbSymbolTableRecord
100
AcDbBlockTableRecord
  2
*D41
340
0
  0
BLOCK_RECORD
  5
5DB20
330
1
100
AcDbSymbolTableRecord
100
AcDbBlockTableRecord
  2
*D42
340
0
  0
BLOCK_RECORD
  5
5DB2E
330
1
100
AcDbSymbolTableRecord
100
AcDbBlockTableRecord
  2
*D43
340
0
  0
BLOCK_RECORD
  5
5DB3A
330
1
100
AcDbSymbolTableRecord
100
AcDbBlockTableRecord
  2
*D44
340
0
  0
BLOCK_RECORD
  5
5DB48
330
1
100
AcDbSymbolTableRecord
100
AcDbBlockTableRecord
  2
*D45
340
0
  0
BLOCK_RECORD
  5
5DB54
330
1
100
AcDbSymbolTableRecord
100
AcDbBlockTableRecord
  2
*D46
340
0
  0
BLOCK_RECORD
  5
5DB60
330
1
100
AcDbSymbolTableRecord
100
AcDbBlockTableRecord
  2
*D47
340
0
  0
BLOCK_RECORD
  5
5DB6E
330
1
100
AcDbSymbolTableRecord
100
AcDbBlockTableRecord
  2
*D48
340
0
  0
ENDTAB
  0
ENDSEC
  0
SECTION
  2
BLOCKS
  0
BLOCK
  5
20
330
1F
100
AcDbEntity
  8
0
100
AcDbBlockBegin
  2
*Model_Space
 70
     0
 10
0.0
 20
0.0
 30
0.0
  3
*Model_Space
  1

  0
ENDBLK
  5
21
330
1F
100
AcDbEntity
  8
0
100
AcDbBlockEnd
  0
BLOCK
  5
62AFE
330
62AFD
100
AcDbEntity
 67
     1
  8
0
100
AcDbBlockBegin
  2
*Paper_Space
 70
     0
 10
0.0
 20
0.0
 30
0.0
  3
*Paper_Space
  1

  0
ENDBLK
  5
62B01
330
62AFD
100
AcDbEntity
 67
     1
  8
0
100
AcDbBlockEnd
  0
BLOCK
  5
619
330
618
100
AcDbEntity
  8
0
100
AcDbBlockBegin
  2
_OPEN
 70
     0
 10
0.0
 20
0.0
 30
0.0
  3
_OPEN
  1

  0
LINE
  5
61A
330
618
100
AcDbEntity
  8
0
  6
ByBlock
 62
     0
100
AcDbLine
 10
-1.0
 20
0.1666666666666666
 30
0.0
 11
0.0
 21
0.0
 31
0.0
  0
LINE
  5
61B
330
618
100
AcDbEntity
  8
0
  6
ByBlock
 62
     0
100
AcDbLine
 10
-1.0
 20
-0.1666666666666666
 30
0.0
 11
0.0
 21
0.0
 31
0.0
  0
LINE
  5
61C
330
618
100
AcDbEntity
  8
0
  6
ByBlock
 62
     0
100
AcDbLine
 10
0.0
 20
0.0
 30
0.0
 11
-1.0
 21
0.0
 31
0.0
  0
ENDBLK
  5
61D
330
618
100
AcDbEntity
  8
0
100
AcDbBlockEnd
  0
BLOCK
  5
5D78A
330
5D780
100
AcDbEntity
  8
0
100
AcDbBlockBegin
  2
*D1
 70
     1
 10
0.0
 20
0.0
 30
0.0
  3
*D1
  1

  0
LINE
  5
61AAB
330
5D780
100
AcDbEntity
  8
D-STR-DIM
 62
     0
370
    13
100
AcDbLine
 10
12560.0
 20
9014.000000000153
 30
0.0
 11
12560.0
 21
9326.500000000233
 31
0.0
  0
LINE
  5
61AAC
330
5D780
100
AcDbEntity
  8
D-STR-DIM
 62
     0
370
    13
100
AcDbLine
 10
12960.0
 20
8714.000000000153
 30
0.0
 11
12960.0
 21
9326.500000000233
 31
0.0
  0
LINE
  5
61AAD
330
5D780
100
AcDbEntity
  8
D-STR-DIM
 62
     0
370
    13
100
AcDbLine
 10
12600.0
 20
9301.500000000233
 30
0.0
 11
12920.0
 21
9301.500000000233
 31
0.0
  0
INSERT
  5
61AAE
330
5D780
100
AcDbEntity
  8
D-STR-DIM
 62
     0
370
    13
100
AcDbBlockReference
  2
_OPEN
 10
12560.0
 20
9301.500000000233
 30
0.0
 41
40.0
 42
40.0
 43
40.0
 50
180.0
  0
INSERT
  5
61AAF
330
5D780
100
AcDbEntity
  8
D-STR-DIM
 62
     0
370
    13
100
AcDbBlockReference
  2
_OPEN
 10
12960.0
 20
9301.500000000233
 30
0.0
 41
40.0
 42
40.0
 43
40.0
  0
MTEXT
  5
61AB0
330
5D780
100
AcDbEntity
  8
D-STR-DIM
 62
     0
100
AcDbMText
 10
12760.0
 20
9349.000000000232
 30
0.0
 40
70.0
 41
0.0
 71
     5
 72
     1
  1
400
 73
     1
 44
1.0
1001
ACAD
1000
MTEXTBEGIN
1070
    73
1070
     1
1070
    44
1040
1.0
1070
    74
1070
     0
1000
MTEXTEND
  0
POINT
  5
61AB1
330
5D780
100
AcDbEntity
  8
DEFPOINTS
 62
     0
100
AcDbPoint
 10
12560.0
 20
9001.500000000154
 30
0.0
  0
POINT
  5
61AB2
330
5D780
100
AcDbEntity
  8
DEFPOINTS
 62
     0
100
AcDbPoint
 10
12960.0
 20
8701.500000000153
 30
0.0
  0
POINT
  5
61AB3
330
5D780
100
AcDbEntity
  8
DEFPOINTS
 62
     0
100
AcDbPoint
 10
12960.0
 20
9301.500000000233
 30
0.0
  0
ENDBLK
  5
5D78B
330
5D780
100
AcDbEntity
  8
0
100
AcDbBlockEnd
  0
BLOCK
  5
5D796
330
5D78C
100
AcDbEntity
  8
0
100
AcDbBlockBegin
  2
*D2
 70
     1
 10
0.0
 20
0.0
 30
0.0
  3
*D2
  1

  0
LINE
  5
61AA2
330
5D78C
100
AcDbEntity
  8
D-STR-DIM
 62
     0
370
    13
100
AcDbLine
 10
12572.5
 20
9001.500000000154
 30
0.0
 11
13285.00000000012
 21
9001.500000000154
 31
0.0
  0
LINE
  5
61AA3
330
5D78C
100
AcDbEntity
  8
D-STR-DIM
 62
     0
370
    13
100
AcDbLine
 10
12972.5
 20
8701.500000000153
 30
0.0
 11
13285.00000000012
 21
8701.500000000153
 31
0.0
  0
LINE
  5
61AA4
330
5D78C
100
AcDbEntity
  8
D-STR-DIM
 62
     0
370
    13
100
AcDbLine
 10
13260.00000000012
 20
8961.500000000153
 30
0.0
 11
13260.00000000012
 21
8741.500000000153
 31
0.0
  0
INSERT
  5
61AA5
330
5D78C
100
AcDbEntity
  8
D-STR-DIM
 62
     0
370
    13
100
AcDbBlockReference
  2
_OPEN
 10
13260.00000000012
 20
9001.500000000154
 30
0.0
 41
40.0
 42
40.0
 43
40.0
 50
90.0
  0
INSERT
  5
61AA6
330
5D78C
100
AcDbEntity
  8
D-STR-DIM
 62
     0
370
    13
100
AcDbBlockReference
  2
_OPEN
 10
13260.00000000012
 20
8701.500000000153
 30
0.0
 41
40.0
 42
40.0
 43
40.0
 50
270.0
  0
MTEXT
  5
61AA7
330
5D78C
100
AcDbEntity
  8
D-STR-DIM
 62
     0
100
AcDbMText
 10
13212.50000000012
 20
8851.500000000156
 30
0.0
 40
70.0
 41
0.0
 71
     5
 72
     1
  1
300
 11
0.0000000000000001
 21
1.0
 31
0.0
 73
     1
 44
1.0
1001
ACAD
1000
MTEXTBEGIN
1070
    73
1070
     1
1070
    44
1040
1.0
1070
    74
1070
     0
1000
MTEXTEND
  0
POINT
  5
61AA8
330
5D78C
100
AcDbEntity
  8
DEFPOINTS
 62
     0
100
AcDbPoint
 10
12560.0
 20
9001.500000000154
 30
0.0
  0
POINT
  5
61AA9
330
5D78C
100
AcDbEntity
  8
DEFPOINTS
 62
     0
100
AcDbPoint
 10
12960.0
 20
8701.500000000153
 30
0.0
  0
POINT
  5
61AAA
330
5D78C
100
AcDbEntity
  8
DEFPOINTS
 62
     0
100
AcDbPoint
 10
13260.00000000012
 20
8701.500000000153
 30
0.0
  0
ENDBLK
  5
5D797
330
5D78C
100
AcDbEntity
  8
0
100
AcDbBlockEnd
  0
BLOCK
  5
5D7A2
330
5D798
100
AcDbEntity
  8
0
100
AcDbBlockBegin
  2
*D3
 70
     1
 10
0.0
 20
0.0
 30
0.0
  3
*D3
  1

  0
LINE
  5
61A99
330
5D798
100
AcDbEntity
  8
D-STR-DIM
 62
     0
370
    13
100
AcDbLine
 10
12972.5
 20
8701.500000000153
 30
0.0
 11
13285.00000000008
 21
8701.500000000153
 31
0.0
  0
LINE
  5
61A9A
330
5D798
100
AcDbEntity
  8
D-STR-DIM
 62
     0
370
    13
100
AcDbLine
 10
12972.5
 20
6801.500000000153
 30
0.0
 11
13285.00000000008
 21
6801.500000000153
 31
0.0
  0
LINE
  5
61A9B
330
5D798
100
AcDbEntity
  8
D-STR-DIM
 62
     0
370
    13
100
AcDbLine
 10
13260.00000000008
 20
8661.500000000152
 30
0.0
 11
13260.00000000008
 21
6841.500000000152
 31
0.0
  0
INSERT
  5
61A9C
330
5D798
100
AcDbEntity
  8
D-STR-DIM
 62
     0
370
    13
100
AcDbBlockReference
  2
_OPEN
 10
13260.00000000008
 20
8701.500000000153
 30
0.0
 41
40.0
 42
40.0
 43
40.0
 50
90.0
  0
INSERT
  5
61A9D
330
5D798
100
AcDbEntity
  8
D-STR-DIM
 62
     0
370
    13
100
AcDbBlockReference
  2
_OPEN
 10
13260.00000000008
 20
6801.500000000153
 30
0.0
 41
40.0
 42
40.0
 43
40.0
 50
270.0
  0
MTEXT
  5
61A9E
330
5D798
100
AcDbEntity
  8
D-STR-DIM
 62
     0
100
AcDbMText
 10
13212.50000000008
 20
7751.500000000156
 30
0.0
 40
70.0
 41
0.0
 71
     5
 72
     1
  1
1900
 11
0.0000000000000001
 21
1.0
 31
0.0
 73
     1
 44
1.0
1001
ACAD
1000
MTEXTBEGIN
1070
    73
1070
     1
1070
    44
1040
1.0
1070
    74
1070
     0
1000
MTEXTEND
  0
POINT
  5
61A9F
330
5D798
100
AcDbEntity
  8
DEFPOINTS
 62
     0
100
AcDbPoint
 10
12960.0
 20
8701.500000000153
 30
0.0
  0
POINT
  5
61AA0
330
5D798
100
AcDbEntity
  8
DEFPOINTS
 62
     0
100
AcDbPoint
 10
12960.0
 20
6801.500000000153
 30
0.0
  0
POINT
  5
61AA1
330
5D798
100
AcDbEntity
  8
DEFPOINTS
 62
     0
100
AcDbPoint
 10
13260.00000000008
 20
6801.500000000153
 30
0.0
  0
ENDBLK
  5
5D7A3
330
5D798
100
AcDbEntity
  8
0
100
AcDbBlockEnd
  0
BLOCK
  5
5D7AE
330
5D7A4
100
AcDbEntity
  8
0
100
AcDbBlockBegin
  2
*D4
 70
     1
 10
0.0
 20
0.0
 30
0.0
  3
*D4
  1

  0
LINE
  5
61A90
330
5D7A4
100
AcDbEntity
  8
D-STR-DIM
 62
     0
370
    13
100
AcDbLine
 10
7560.0
 20
9014.000000000153
 30
0.0
 11
7560.0
 21
9326.500000000233
 31
0.0
  0
LINE
  5
61A91
330
5D7A4
100
AcDbEntity
  8
D-STR-DIM
 62
     0
370
    13
100
AcDbLine
 10
7960.0
 20
8714.000000000153
 30
0.0
 11
7960.0
 21
9326.500000000233
 31
0.0
  0
LINE
  5
61A92
330
5D7A4
100
AcDbEntity
  8
D-STR-DIM
 62
     0
370
    13
100
AcDbLine
 10
7600.0
 20
9301.500000000233
 30
0.0
 11
7920.0
 21
9301.500000000233
 31
0.0
  0
INSERT
  5
61A93
330
5D7A4
100
AcDbEntity
  8
D-STR-DIM
 62
     0
370
    13
100
AcDbBlockReference
  2
_OPEN
 10
7560.0
 20
9301.500000000233
 30
0.0
 41
40.0
 42
40.0
 43
40.0
 50
180.0
  0
INSERT
  5
61A94
330
5D7A4
100
AcDbEntity
  8
D-STR-DIM
 62
     0
370
    13
100
AcDbBlockReference
  2
_OPEN
 10
7960.0
 20
9301.500000000233
 30
0.0
 41
40.0
 42
40.0
 43
40.0
  0
MTEXT
  5
61A95
330
5D7A4
100
AcDbEntity
  8
D-STR-DIM
 62
     0
100
AcDbMText
 10
7760.0
 20
9349.000000000232
 30
0.0
 40
70.0
 41
0.0
 71
     5
 72
     1
  1
400
 73
     1
 44
1.0
1001
ACAD
1000
MTEXTBEGIN
1070
    73
1070
     1
1070
    44
1040
1.0
1070
    74
1070
     0
1000
MTEXTEND
  0
POINT
  5
61A96
330
5D7A4
100
AcDbEntity
  8
DEFPOINTS
 62
     0
100
AcDbPoint
 10
7560.0
 20
9001.500000000154
 30
0.0
  0
POINT
  5
61A97
330
5D7A4
100
AcDbEntity
  8
DEFPOINTS
 62
     0
100
AcDbPoint
 10
7960.0
 20
8701.500000000153
 30
0.0
  0
POINT
  5
61A98
330
5D7A4
100
AcDbEntity
  8
DEFPOINTS
 62
     0
100
AcDbPoint
 10
7960.0
 20
9301.500000000233
 30
0.0
  0
ENDBLK
  5
5D7AF
330
5D7A4
100
AcDbEntity
  8
0
100
AcDbBlockEnd
  0
BLOCK
  5
5D7BA
330
5D7B0
100
AcDbEntity
  8
0
100
AcDbBlockBegin
  2
*D5
 70
     1
 10
0.0
 20
0.0
 30
0.0
  3
*D5
  1

  0
LINE
  5
61A87
330
5D7B0
100
AcDbEntity
  8
D-STR-DIM
 62
     0
370
    13
100
AcDbLine
 10
7572.500000000001
 20
9001.500000000154
 30
0.0
 11
8285.000000000115
 21
9001.500000000154
 31
0.0
  0
LINE
  5
61A88
330
5D7B0
100
AcDbEntity
  8
D-STR-DIM
 62
     0
370
    13
100
AcDbLine
 10
7972.500000000001
 20
8701.500000000153
 30
0.0
 11
8285.000000000115
 21
8701.500000000153
 31
0.0
  0
LINE
  5
61A89
330
5D7B0
100
AcDbEntity
  8
D-STR-DIM
 62
     0
370
    13
100
AcDbLine
 10
8260.000000000117
 20
8961.500000000153
 30
0.0
 11
8260.000000000117
 21
8741.500000000153
 31
0.0
  0
INSERT
  5
61A8A
330
5D7B0
100
AcDbEntity
  8
D-STR-DIM
 62
     0
370
    13
100
AcDbBlockReference
  2
_OPEN
 10
8260.000000000117
 20
9001.500000000154
 30
0.0
 41
40.0
 42
40.0
 43
40.0
 50
90.0
  0
INSERT
  5
61A8B
330
5D7B0
100
AcDbEntity
  8
D-STR-DIM
 62
     0
370
    13
100
AcDbBlockReference
  2
_OPEN
 10
8260.000000000117
 20
8701.500000000153
 30
0.0
 41
40.0
 42
40.0
 43
40.0
 50
270.0
  0
MTEXT
  5
61A8C
330
5D7B0
100
AcDbEntity
  8
D-STR-DIM
 62
     0
100
AcDbMText
 10
8212.500000000115
 20
8851.500000000156
 30
0.0
 40
70.0
 41
0.0
 71
     5
 72
     1
  1
300
 11
0.0000000000000001
 21
1.0
 31
0.0
 73
     1
 44
1.0
1001
ACAD
1000
MTEXTBEGIN
1070
    73
1070
     1
1070
    44
1040
1.0
1070
    74
1070
     0
1000
MTEXTEND
  0
POINT
  5
61A8D
330
5D7B0
100
AcDbEntity
  8
DEFPOINTS
 62
     0
100
AcDbPoint
 10
7560.0
 20
9001.500000000154
 30
0.0
  0
POINT
  5
61A8E
330
5D7B0
100
AcDbEntity
  8
DEFPOINTS
 62
     0
100
AcDbPoint
 10
7960.0
 20
8701.500000000153
 30
0.0
  0
POINT
  5
61A8F
330
5D7B0
100
AcDbEntity
  8
DEFPOINTS
 62
     0
100
AcDbPoint
 10
8260.000000000117
 20
8701.500000000153
 30
0.0
  0
ENDBLK
  5
5D7BB
330
5D7B0
100
AcDbEntity
  8
0
100
AcDbBlockEnd
  0
BLOCK
  5
5D7C6
330
5D7BC
100
AcDbEntity
  8
0
100
AcDbBlockBegin
  2
*D6
 70
     1
 10
0.0
 20
0.0
 30
0.0
  3
*D6
  1

  0
LINE
  5
61A7E
330
5D7BC
100
AcDbEntity
  8
D-STR-DIM
 62
     0
370
    13
100
AcDbLine
 10
7972.500000000001
 20
8701.500000000153
 30
0.0
 11
8285.000000000072
 21
8701.500000000153
 31
0.0
  0
LINE
  5
61A7F
330
5D7BC
100
AcDbEntity
  8
D-STR-DIM
 62
     0
370
    13
100
AcDbLine
 10
7972.500000000001
 20
7001.500000000153
 30
0.0
 11
8285.000000000072
 21
7001.500000000153
 31
0.0
  0
LINE
  5
61A80
330
5D7BC
100
AcDbEntity
  8
D-STR-DIM
 62
     0
370
    13
100
AcDbLine
 10
8260.000000000074
 20
8661.500000000152
 30
0.0
 11
8260.000000000074
 21
7041.500000000152
 31
0.0
  0
INSERT
  5
61A81
330
5D7BC
100
AcDbEntity
  8
D-STR-DIM
 62
     0
370
    13
100
AcDbBlockReference
  2
_OPEN
 10
8260.000000000074
 20
8701.500000000153
 30
0.0
 41
40.0
 42
40.0
 43
40.0
 50
90.0
  0
INSERT
  5
61A82
330
5D7BC
100
AcDbEntity
  8
D-STR-DIM
 62
     0
370
    13
100
AcDbBlockReference
  2
_OPEN
 10
8260.000000000074
 20
7001.500000000153
 30
0.0
 41
40.0
 42
40.0
 43
40.0
 50
270.0
  0
MTEXT
  5
61A83
330
5D7BC
100
AcDbEntity
  8
D-STR-DIM
 62
     0
100
AcDbMText
 10
8212.500000000071
 20
7851.500000000154
 30
0.0
 40
70.0
 41
0.0
 71
     5
 72
     1
  1
1700
 11
0.0000000000000001
 21
1.0
 31
0.0
 73
     1
 44
1.0
1001
ACAD
1000
MTEXTBEGIN
1070
    73
1070
     1
1070
    44
1040
1.0
1070
    74
1070
     0
1000
MTEXTEND
  0
POINT
  5
61A84
330
5D7BC
100
AcDbEntity
  8
DEFPOINTS
 62
     0
100
AcDbPoint
 10
7960.0
 20
8701.500000000153
 30
0.0
  0
POINT
  5
61A85
330
5D7BC
100
AcDbEntity
  8
DEFPOINTS
 62
     0
100
AcDbPoint
 10
7960.0
 20
7001.500000000153
 30
0.0
  0
POINT
  5
61A86
330
5D7BC
100
AcDbEntity
  8
DEFPOINTS
 62
     0
100
AcDbPoint
 10
8260.000000000074
 20
7001.500000000153
 30
0.0
  0
ENDBLK
  5
5D7C7
330
5D7BC
100
AcDbEntity
  8
0
100
AcDbBlockEnd
  0
BLOCK
  5
5D7D2
330
5D7C8
100
AcDbEntity
  8
0
100
AcDbBlockBegin
  2
*D7
 70
     1
 10
0.0
 20
0.0
 30
0.0
  3
*D7
  1

  0
LINE
  5
61A75
330
5D7C8
100
AcDbEntity
  8
D-STR-DIM
 62
     0
370
    13
100
AcDbLine
 10
2585.0
 20
9014.000000000153
 30
0.0
 11
2585.0
 21
9326.500000000233
 31
0.0
  0
LINE
  5
61A76
330
5D7C8
100
AcDbEntity
  8
D-STR-DIM
 62
     0
370
    13
100
AcDbLine
 10
2985.0
 20
8714.000000000153
 30
0.0
 11
2985.0
 21
9326.500000000233
 31
0.0
  0
LINE
  5
61A77
330
5D7C8
100
AcDbEntity
  8
D-STR-DIM
 62
     0
370
    13
100
AcDbLine
 10
2625.0
 20
9301.500000000233
 30
0.0
 11
2945.0
 21
9301.500000000233
 31
0.0
  0
INSERT
  5
61A78
330
5D7C8
100
AcDbEntity
  8
D-STR-DIM
 62
     0
370
    13
100
AcDbBlockReference
  2
_OPEN
 10
2585.0
 20
9301.500000000233
 30
0.0
 41
40.0
 42
40.0
 43
40.0
 50
180.0
  0
INSERT
  5
61A79
330
5D7C8
100
AcDbEntity
  8
D-STR-DIM
 62
     0
370
    13
100
AcDbBlockReference
  2
_OPEN
 10
2985.0
 20
9301.500000000233
 30
0.0
 41
40.0
 42
40.0
 43
40.0
  0
MTEXT
  5
61A7A
330
5D7C8
100
AcDbEntity
  8
D-STR-DIM
 62
     0
100
AcDbMText
 10
2785.0
 20
9349.000000000232
 30
0.0
 40
70.0
 41
0.0
 71
     5
 72
     1
  1
400
 73
     1
 44
1.0
1001
ACAD
1000
MTEXTBEGIN
1070
    73
1070
     1
1070
    44
1040
1.0
1070
    74
1070
     0
1000
MTEXTEND
  0
POINT
  5
61A7B
330
5D7C8
100
AcDbEntity
  8
DEFPOINTS
 62
     0
100
AcDbPoint
 10
2585.0
 20
9001.500000000154
 30
0.0
  0
POINT
  5
61A7C
330
5D7C8
100
AcDbEntity
  8
DEFPOINTS
 62
     0
100
AcDbPoint
 10
2985.0
 20
8701.500000000153
 30
0.0
  0
POINT
  5
61A7D
330
5D7C8
100
AcDbEntity
  8
DEFPOINTS
 62
     0
100
AcDbPoint
 10
2985.0
 20
9301.500000000233
 30
0.0
  0
ENDBLK
  5
5D7D3
330
5D7C8
100
AcDbEntity
  8
0
100
AcDbBlockEnd
  0
BLOCK
  5
5D7DE
330
5D7D4
100
AcDbEntity
  8
0
100
AcDbBlockBegin
  2
*D8
 70
     1
 10
0.0
 20
0.0
 30
0.0
  3
*D8
  1

  0
LINE
  5
61A6C
330
5D7D4
100
AcDbEntity
  8
D-STR-DIM
 62
     0
370
    13
100
AcDbLine
 10
2597.5
 20
9001.500000000154
 30
0.0
 11
3310.000000000117
 21
9001.500000000154
 31
0.0
  0
LINE
  5
61A6D
330
5D7D4
100
AcDbEntity
  8
D-STR-DIM
 62
     0
370
    13
100
AcDbLine
 10
2997.5
 20
8701.500000000153
 30
0.0
 11
3310.000000000117
 21
8701.500000000153
 31
0.0
  0
LINE
  5
61A6E
330
5D7D4
100
AcDbEntity
  8
D-STR-DIM
 62
     0
370
    13
100
AcDbLine
 10
3285.000000000117
 20
8961.500000000153
 30
0.0
 11
3285.000000000117
 21
8741.500000000153
 31
0.0
  0
INSERT
  5
61A6F
330
5D7D4
100
AcDbEntity
  8
D-STR-DIM
 62
     0
370
    13
100
AcDbBlockReference
  2
_OPEN
 10
3285.000000000117
 20
9001.500000000154
 30
0.0
 41
40.0
 42
40.0
 43
40.0
 50
90.0
  0
INSERT
  5
61A70
330
5D7D4
100
AcDbEntity
  8
D-STR-DIM
 62
     0
370
    13
100
AcDbBlockReference
  2
_OPEN
 10
3285.000000000117
 20
8701.500000000153
 30
0.0
 41
40.0
 42
40.0
 43
40.0
 50
270.0
  0
MTEXT
  5
61A71
330
5D7D4
100
AcDbEntity
  8
D-STR-DIM
 62
     0
100
AcDbMText
 10
3237.500000000115
 20
8851.500000000154
 30
0.0
 40
70.0
 41
0.0
 71
     5
 72
     1
  1
300
 11
0.0000000000000001
 21
1.0
 31
0.0
 73
     1
 44
1.0
1001
ACAD
1000
MTEXTBEGIN
1070
    73
1070
     1
1070
    44
1040
1.0
1070
    74
1070
     0
1000
MTEXTEND
  0
POINT
  5
61A72
330
5D7D4
100
AcDbEntity
  8
DEFPOINTS
 62
     0
100
AcDbPoint
 10
2585.0
 20
9001.500000000154
 30
0.0
  0
POINT
  5
61A73
330
5D7D4
100
AcDbEntity
  8
DEFPOINTS
 62
     0
100
AcDbPoint
 10
2985.0
 20
8701.500000000153
 30
0.0
  0
POINT
  5
61A74
330
5D7D4
100
AcDbEntity
  8
DEFPOINTS
 62
     0
100
AcDbPoint
 10
3285.000000000117
 20
8701.500000000153
 30
0.0
  0
ENDBLK
  5
5D7DF
330
5D7D4
100
AcDbEntity
  8
0
100
AcDbBlockEnd
  0
BLOCK
  5
5D7EA
330
5D7E0
100
AcDbEntity
  8
0
100
AcDbBlockBegin
  2
*D9
 70
     1
 10
0.0
 20
0.0
 30
0.0
  3
*D9
  1

  0
LINE
  5
61A63
330
5D7E0
100
AcDbEntity
  8
D-STR-DIM
 62
     0
370
    13
100
AcDbLine
 10
2997.5
 20
8701.500000000153
 30
0.0
 11
3310.000000000073
 21
8701.500000000153
 31
0.0
  0
LINE
  5
61A64
330
5D7E0
100
AcDbEntity
  8
D-STR-DIM
 62
     0
370
    13
100
AcDbLine
 10
2997.5
 20
7101.500000000154
 30
0.0
 11
3310.000000000073
 21
7101.500000000154
 31
0.0
  0
LINE
  5
61A65
330
5D7E0
100
AcDbEntity
  8
D-STR-DIM
 62
     0
370
    13
100
AcDbLine
 10
3285.000000000073
 20
8661.500000000152
 30
0.0
 11
3285.000000000073
 21
7141.500000000153
 31
0.0
  0
INSERT
  5
61A66
330
5D7E0
100
AcDbEntity
  8
D-STR-DIM
 62
     0
370
    13
100
AcDbBlockReference
  2
_OPEN
 10
3285.000000000073
 20
8701.500000000153
 30
0.0
 41
40.0
 42
40.0
 43
40.0
 50
90.0
  0
INSERT
  5
61A67
330
5D7E0
100
AcDbEntity
  8
D-STR-DIM
 62
     0
370
    13
100
AcDbBlockReference
  2
_OPEN
 10
3285.000000000073
 20
7101.500000000154
 30
0.0
 41
40.0
 42
40.0
 43
40.0
 50
270.0
  0
MTEXT
  5
61A68
330
5D7E0
100
AcDbEntity
  8
D-STR-DIM
 62
     0
100
AcDbMText
 10
3237.500000000072
 20
7901.500000000154
 30
0.0
 40
70.0
 41
0.0
 71
     5
 72
     1
  1
1600
 11
0.0000000000000001
 21
1.0
 31
0.0
 73
     1
 44
1.0
1001
ACAD
1000
MTEXTBEGIN
1070
    73
1070
     1
1070
    44
1040
1.0
1070
    74
1070
     0
1000
MTEXTEND
  0
POINT
  5
61A69
330
5D7E0
100
AcDbEntity
  8
DEFPOINTS
 62
     0
100
AcDbPoint
 10
2985.0
 20
8701.500000000153
 30
0.0
  0
POINT
  5
61A6A
330
5D7E0
100
AcDbEntity
  8
DEFPOINTS
 62
     0
100
AcDbPoint
 10
2985.0
 20
7101.500000000154
 30
0.0
  0
POINT
  5
61A6B
330
5D7E0
100
AcDbEntity
  8
DEFPOINTS
 62
     0
100
AcDbPoint
 10
3285.000000000073
 20
7101.500000000154
 30
0.0
  0
ENDBLK
  5
5D7EB
330
5D7E0
100
AcDbEntity
  8
0
100
AcDbBlockEnd
  0
BLOCK
  5
5D990
330
5D984
100
AcDbEntity
  8
0
100
AcDbBlockBegin
  2
*D10
 70
     1
 10
0.0
 20
0.0
 30
0.0
  3
*D10
  1

  0
LINE
  5
61926
330
5D984
100
AcDbEntity
  8
D-STR-DIM
 62
     0
370
    13
100
AcDbLine
 10
12422.5
 20
6001.500000000152
 30
0.0
 11
11690.0
 21
6001.500000000152
 31
0.0
  0
LINE
  5
61927
330
5D984
100
AcDbEntity
  8
D-STR-DIM
 62
     0
370
    13
100
AcDbLine
 10
12322.5
 20
5981.500000000153
 30
0.0
 11
11690.0
 21
5981.500000000153
 31
0.0
  0
LINE
  5
61928
330
5D984
100
AcDbEntity
  8
D-STR-DIM
 62
     0
370
    13
100
AcDbLine
 10
11715.0
 20
6041.500000000152
 30
0.0
 11
11715.0
 21
6081.500000000153
 31
0.0
  0
LINE
  5
61929
330
5D984
100
AcDbEntity
  8
D-STR-DIM
 62
     0
370
    13
100
AcDbLine
 10
11715.0
 20
5941.500000000153
 30
0.0
 11
11715.0
 21
5901.500000000153
 31
0.0
  0
LINE
  5
6192A
330
5D984
100
AcDbEntity
  8
D-STR-DIM
 62
     0
370
    13
100
AcDbLine
 10
11715.0
 20
6001.500000000152
 30
0.0
 11
11715.0
 21
5981.500000000153
 31
0.0
  0
INSERT
  5
6192B
330
5D984
100
AcDbEntity
  8
D-STR-DIM
 62
     0
370
    13
100
AcDbBlockReference
  2
_OPEN
 10
11715.0
 20
6001.500000000152
 30
0.0
 41
40.0
 42
40.0
 43
40.0
 50
270.0
  0
INSERT
  5
6192C
330
5D984
100
AcDbEntity
  8
D-STR-DIM
 62
     0
370
    13
100
AcDbBlockReference
  2
_OPEN
 10
11715.0
 20
5981.500000000153
 30
0.0
 41
40.0
 42
40.0
 43
40.0
 50
90.0
  0
MTEXT
  5
6192D
330
5D984
100
AcDbEntity
  8
D-STR-DIM
 62
     0
100
AcDbMText
 10
11667.5
 20
5991.500000000154
 30
0.0
 40
70.0
 41
0.0
 71
     5
 72
     1
  1
20
 11
0.0000000000000001
 21
1.0
 31
0.0
 73
     1
 44
1.0
1001
ACAD
1000
MTEXTBEGIN
1070
    73
1070
     1
1070
    44
1040
1.0
1070
    74
1070
     0
1000
MTEXTEND
  0
POINT
  5
6192E
330
5D984
100
AcDbEntity
  8
DEFPOINTS
 62
     0
100
AcDbPoint
 10
12435.0
 20
6001.500000000152
 30
0.0
  0
POINT
  5
6192F
330
5D984
100
AcDbEntity
  8
DEFPOINTS
 62
     0
100
AcDbPoint
 10
12335.0
 20
5981.500000000153
 30
0.0
  0
POINT
  5
61930
330
5D984
100
AcDbEntity
  8
DEFPOINTS
 62
     0
100
AcDbPoint
 10
11715.0
 20
5981.500000000153
 30
0.0
  0
ENDBLK
  5
5D991
330
5D984
100
AcDbEntity
  8
0
100
AcDbBlockEnd
  0
BLOCK
  5
5D99E
330
5D992
100
AcDbEntity
  8
0
100
AcDbBlockBegin
  2
*D11
 70
     1
 10
0.0
 20
0.0
 30
0.0
  3
*D11
  1

  0
LINE
  5
6191B
330
5D992
100
AcDbEntity
  8
D-STR-DIM
 62
     0
370
    13
100
AcDbLine
 10
12322.5
 20
5981.500000000153
 30
0.0
 11
11690.0
 21
5981.500000000153
 31
0.0
  0
LINE
  5
6191C
330
5D992
100
AcDbEntity
  8
D-STR-DIM
 62
     0
370
    13
100
AcDbLine
 10
12322.5
 20
5881.500000000153
 30
0.0
 11
11690.0
 21
5881.500000000153
 31
0.0
  0
LINE
  5
6191D
330
5D992
100
AcDbEntity
  8
D-STR-DIM
 62
     0
370
    13
100
AcDbLine
 10
11715.0
 20
6021.500000000153
 30
0.0
 11
11715.0
 21
6061.500000000153
 31
0.0
  0
LINE
  5
6191E
330
5D992
100
AcDbEntity
  8
D-STR-DIM
 62
     0
370
    13
100
AcDbLine
 10
11715.0
 20
5841.500000000152
 30
0.0
 11
11715.0
 21
5801.500000000153
 31
0.0
  0
LINE
  5
6191F
330
5D992
100
AcDbEntity
  8
D-STR-DIM
 62
     0
370
    13
100
AcDbLine
 10
11715.0
 20
5981.500000000153
 30
0.0
 11
11715.0
 21
5881.500000000153
 31
0.0
  0
INSERT
  5
61920
330
5D992
100
AcDbEntity
  8
D-STR-DIM
 62
     0
370
    13
100
AcDbBlockReference
  2
_OPEN
 10
11715.0
 20
5981.500000000153
 30
0.0
 41
40.0
 42
40.0
 43
40.0
 50
270.0
  0
INSERT
  5
61921
330
5D992
100
AcDbEntity
  8
D-STR-DIM
 62
     0
370
    13
100
AcDbBlockReference
  2
_OPEN
 10
11715.0
 20
5881.500000000153
 30
0.0
 41
40.0
 42
40.0
 43
40.0
 50
90.0
  0
MTEXT
  5
61922
330
5D992
100
AcDbEntity
  8
D-STR-DIM
 62
     0
100
AcDbMText
 10
11785.0
 20
5931.500000000155
 30
0.0
 40
70.0
 41
0.0
 71
     5
 72
     1
  1
100
 11
0.0000000000000001
 21
1.0
 31
0.0
 73
     1
 44
1.0
1001
ACAD
1000
MTEXTBEGIN
1070
    73
1070
     1
1070
    44
1040
1.0
1070
    74
1070
     0
1000
MTEXTEND
  0
POINT
  5
61923
330
5D992
100
AcDbEntity
  8
DEFPOINTS
 62
     0
100
AcDbPoint
 10
12335.0
 20
5981.500000000153
 30
0.0
  0
POINT
  5
61924
330
5D992
100
AcDbEntity
  8
DEFPOINTS
 62
     0
100
AcDbPoint
 10
12335.0
 20
5881.500000000153
 30
0.0
  0
POINT
  5
61925
330
5D992
100
AcDbEntity
  8
DEFPOINTS
 62
     0
100
AcDbPoint
 10
11715.0
 20
5881.500000000153
 30
0.0
  0
ENDBLK
  5
5D99F
330
5D992
100
AcDbEntity
  8
0
100
AcDbBlockEnd
  0
BLOCK
  5
5D9AA
330
5D9A0
100
AcDbEntity
  8
0
100
AcDbBlockBegin
  2
*D12
 70
     1
 10
0.0
 20
0.0
 30
0.0
  3
*D12
  1

  0
LINE
  5
61912
330
5D9A0
100
AcDbEntity
  8
D-STR-DIM
 62
     0
370
    13
100
AcDbLine
 10
12322.5
 20
5881.500000000153
 30
0.0
 11
11689.99999999994
 21
5881.500000000153
 31
0.0
  0
LINE
  5
61913
330
5D9A0
100
AcDbEntity
  8
D-STR-DIM
 62
     0
370
    13
100
AcDbLine
 10
12322.5
 20
5681.500000000153
 30
0.0
 11
11689.99999999994
 21
5681.500000000153
 31
0.0
  0
LINE
  5
61914
330
5D9A0
100
AcDbEntity
  8
D-STR-DIM
 62
     0
370
    13
100
AcDbLine
 10
11714.99999999994
 20
5841.500000000152
 30
0.0
 11
11714.99999999994
 21
5721.500000000153
 31
0.0
  0
INSERT
  5
61915
330
5D9A0
100
AcDbEntity
  8
D-STR-DIM
 62
     0
370
    13
100
AcDbBlockReference
  2
_OPEN
 10
11714.99999999994
 20
5881.500000000153
 30
0.0
 41
40.0
 42
40.0
 43
40.0
 50
90.0
  0
INSERT
  5
61916
330
5D9A0
100
AcDbEntity
  8
D-STR-DIM
 62
     0
370
    13
100
AcDbBlockReference
  2
_OPEN
 10
11714.99999999994
 20
5681.500000000153
 30
0.0
 41
40.0
 42
40.0
 43
40.0
 50
270.0
  0
MTEXT
  5
61917
330
5D9A0
100
AcDbEntity
  8
D-STR-DIM
 62
     0
100
AcDbMText
 10
11667.49999999994
 20
5781.500000000154
 30
0.0
 40
70.0
 41
0.0
 71
     5
 72
     1
  1
200
 11
0.0000000000000001
 21
1.0
 31
0.0
 73
     1
 44
1.0
1001
ACAD
1000
MTEXTBEGIN
1070
    73
1070
     1
1070
    44
1040
1.0
1070
    74
1070
     0
1000
MTEXTEND
  0
POINT
  5
61918
330
5D9A0
100
AcDbEntity
  8
DEFPOINTS
 62
     0
100
AcDbPoint
 10
12335.0
 20
5881.500000000153
 30
0.0
  0
POINT
  5
61919
330
5D9A0
100
AcDbEntity
  8
DEFPOINTS
 62
     0
100
AcDbPoint
 10
12335.0
 20
5681.500000000153
 30
0.0
  0
POINT
  5
6191A
330
5D9A0
100
AcDbEntity
  8
DEFPOINTS
 62
     0
100
AcDbPoint
 10
11714.99999999994
 20
5681.500000000153
 30
0.0
  0
ENDBLK
  5
5D9AB
330
5D9A0
100
AcDbEntity
  8
0
100
AcDbBlockEnd
  0
BLOCK
  5
5D9B6
330
5D9AC
100
AcDbEntity
  8
0
100
AcDbBlockBegin
  2
*D13
 70
     1
 10
0.0
 20
0.0
 30
0.0
  3
*D13
  1

  0
LINE
  5
61909
330
5D9AC
100
AcDbEntity
  8
D-STR-DIM
 62
     0
370
    13
100
AcDbLine
 10
12422.5
 20
6001.500000000152
 30
0.0
 11
11689.99999999992
 21
6001.500000000152
 31
0.0
  0
LINE
  5
6190A
330
5D9AC
100
AcDbEntity
  8
D-STR-DIM
 62
     0
370
    13
100
AcDbLine
 10
12422.5
 20
9001.500000000154
 30
0.0
 11
11689.99999999992
 21
9001.500000000154
 31
0.0
  0
LINE
  5
6190B
330
5D9AC
100
AcDbEntity
  8
D-STR-DIM
 62
     0
370
    13
100
AcDbLine
 10
11714.99999999993
 20
6041.500000000152
 30
0.0
 11
11714.99999999993
 21
8961.500000000155
 31
0.0
  0
INSERT
  5
6190C
330
5D9AC
100
AcDbEntity
  8
D-STR-DIM
 62
     0
370
    13
100
AcDbBlockReference
  2
_OPEN
 10
11714.99999999993
 20
6001.500000000152
 30
0.0
 41
40.0
 42
40.0
 43
40.0
 50
270.0
  0
INSERT
  5
6190D
330
5D9AC
100
AcDbEntity
  8
D-STR-DIM
 62
     0
370
    13
100
AcDbBlockReference
  2
_OPEN
 10
11714.99999999993
 20
9001.500000000154
 30
0.0
 41
40.0
 42
40.0
 43
40.0
 50
90.0
  0
MTEXT
  5
6190E
330
5D9AC
100
AcDbEntity
  8
D-STR-DIM
 62
     0
100
AcDbMText
 10
11667.49999999992
 20
7501.500000000156
 30
0.0
 40
70.0
 41
0.0
 71
     5
 72
     1
  1
3000
 11
0.0000000000000001
 21
1.0
 31
0.0
 73
     1
 44
1.0
1001
ACAD
1000
MTEXTBEGIN
1070
    73
1070
     1
1070
    44
1040
1.0
1070
    74
1070
     0
1000
MTEXTEND
  0
POINT
  5
6190F
330
5D9AC
100
AcDbEntity
  8
DEFPOINTS
 62
     0
100
AcDbPoint
 10
12435.0
 20
6001.500000000152
 30
0.0
  0
POINT
  5
61910
330
5D9AC
100
AcDbEntity
  8
DEFPOINTS
 62
     0
100
AcDbPoint
 10
12435.0
 20
9001.500000000154
 30
0.0
  0
POINT
  5
61911
330
5D9AC
100
AcDbEntity
  8
DEFPOINTS
 62
     0
100
AcDbPoint
 10
11714.99999999993
 20
9001.500000000154
 30
0.0
  0
ENDBLK
  5
5D9B7
330
5D9AC
100
AcDbEntity
  8
0
100
AcDbBlockEnd
  0
BLOCK
  5
5D9C2
330
5D9B8
100
AcDbEntity
  8
0
100
AcDbBlockBegin
  2
*D14
 70
     1
 10
0.0
 20
0.0
 30
0.0
  3
*D14
  1

  0
LINE
  5
61900
330
5D9B8
100
AcDbEntity
  8
D-STR-DIM
 62
     0
370
    13
100
AcDbLine
 10
12422.5
 20
6001.500000000152
 30
0.0
 11
11889.99999999993
 21
6001.500000000152
 31
0.0
  0
LINE
  5
61901
330
5D9B8
100
AcDbEntity
  8
D-STR-DIM
 62
     0
370
    13
100
AcDbLine
 10
12402.5
 20
6901.500000000154
 30
0.0
 11
11889.99999999993
 21
6901.500000000154
 31
0.0
  0
LINE
  5
61902
330
5D9B8
100
AcDbEntity
  8
D-STR-DIM
 62
     0
370
    13
100
AcDbLine
 10
11914.99999999993
 20
6041.500000000152
 30
0.0
 11
11914.99999999993
 21
6861.500000000153
 31
0.0
  0
INSERT
  5
61903
330
5D9B8
100
AcDbEntity
  8
D-STR-DIM
 62
     0
370
    13
100
AcDbBlockReference
  2
_OPEN
 10
11914.99999999993
 20
6001.500000000152
 30
0.0
 41
40.0
 42
40.0
 43
40.0
 50
270.0
  0
INSERT
  5
61904
330
5D9B8
100
AcDbEntity
  8
D-STR-DIM
 62
     0
370
    13
100
AcDbBlockReference
  2
_OPEN
 10
11914.99999999993
 20
6901.500000000154
 30
0.0
 41
40.0
 42
40.0
 43
40.0
 50
90.0
  0
MTEXT
  5
61905
330
5D9B8
100
AcDbEntity
  8
D-STR-DIM
 62
     0
100
AcDbMText
 10
11867.49999999993
 20
6451.500000000155
 30
0.0
 40
70.0
 41
0.0
 71
     5
 72
     1
  1
900
 11
0.0000000000000001
 21
1.0
 31
0.0
 73
     1
 44
1.0
1001
ACAD
1000
MTEXTBEGIN
1070
    73
1070
     1
1070
    44
1040
1.0
1070
    74
1070
     0
1000
MTEXTEND
  0
POINT
  5
61906
330
5D9B8
100
AcDbEntity
  8
DEFPOINTS
 62
     0
100
AcDbPoint
 10
12435.0
 20
6001.500000000152
 30
0.0
  0
POINT
  5
61907
330
5D9B8
100
AcDbEntity
  8
DEFPOINTS
 62
     0
100
AcDbPoint
 10
12415.0
 20
6901.500000000154
 30
0.0
  0
POINT
  5
61908
330
5D9B8
100
AcDbEntity
  8
DEFPOINTS
 62
     0
100
AcDbPoint
 10
11914.99999999993
 20
6901.500000000154
 30
0.0
  0
ENDBLK
  5
5D9C3
330
5D9B8
100
AcDbEntity
  8
0
100
AcDbBlockEnd
  0
BLOCK
  5
5D9CE
330
5D9C4
100
AcDbEntity
  8
0
100
AcDbBlockBegin
  2
*D15
 70
     1
 10
0.0
 20
0.0
 30
0.0
  3
*D15
  1

  0
LINE
  5
618F7
330
5D9C4
100
AcDbEntity
  8
D-STR-DIM
 62
     0
370
    13
100
AcDbLine
 10
12335.0
 20
5669.000000000153
 30
0.0
 11
12335.0
 21
4956.500000000015
 31
0.0
  0
LINE
  5
618F8
330
5D9C4
100
AcDbEntity
  8
D-STR-DIM
 62
     0
370
    13
100
AcDbLine
 10
14585.0
 20
5669.000000000153
 30
0.0
 11
14585.0
 21
4956.500000000015
 31
0.0
  0
LINE
  5
618F9
330
5D9C4
100
AcDbEntity
  8
D-STR-DIM
 62
     0
370
    13
100
AcDbLine
 10
12375.0
 20
4981.500000000014
 30
0.0
 11
14545.0
 21
4981.500000000014
 31
0.0
  0
INSERT
  5
618FA
330
5D9C4
100
AcDbEntity
  8
D-STR-DIM
 62
     0
370
    13
100
AcDbBlockReference
  2
_OPEN
 10
12335.0
 20
4981.500000000014
 30
0.0
 41
40.0
 42
40.0
 43
40.0
 50
180.0
  0
INSERT
  5
618FB
330
5D9C4
100
AcDbEntity
  8
D-STR-DIM
 62
     0
370
    13
100
AcDbBlockReference
  2
_OPEN
 10
14585.0
 20
4981.500000000014
 30
0.0
 41
40.0
 42
40.0
 43
40.0
  0
MTEXT
  5
618FC
330
5D9C4
100
AcDbEntity
  8
D-STR-DIM
 62
     0
100
AcDbMText
 10
13460.0
 20
5029.000000000015
 30
0.0
 40
70.0
 41
0.0
 71
     5
 72
     1
  1
2250
 73
     1
 44
1.0
1001
ACAD
1000
MTEXTBEGIN
1070
    73
1070
     1
1070
    44
1040
1.0
1070
    74
1070
     0
1000
MTEXTEND
  0
POINT
  5
618FD
330
5D9C4
100
AcDbEntity
  8
DEFPOINTS
 62
     0
100
AcDbPoint
 10
12335.0
 20
5681.500000000153
 30
0.0
  0
POINT
  5
618FE
330
5D9C4
100
AcDbEntity
  8
DEFPOINTS
 62
     0
100
AcDbPoint
 10
14585.0
 20
5681.500000000153
 30
0.0
  0
POINT
  5
618FF
330
5D9C4
100
AcDbEntity
  8
DEFPOINTS
 62
     0
100
AcDbPoint
 10
14585.0
 20
4981.500000000014
 30
0.0
  0
ENDBLK
  5
5D9CF
330
5D9C4
100
AcDbEntity
  8
0
100
AcDbBlockEnd
  0
BLOCK
  5
5D9DC
330
5D9D0
100
AcDbEntity
  8
0
100
AcDbBlockBegin
  2
*D16
 70
     1
 10
0.0
 20
0.0
 30
0.0
  3
*D16
  1

  0
LINE
  5
618EC
330
5D9D0
100
AcDbEntity
  8
D-STR-DIM
 62
     0
370
    13
100
AcDbLine
 10
14485.0
 20
5669.000000000153
 30
0.0
 11
14485.0
 21
5156.5
 31
0.0
  0
LINE
  5
618ED
330
5D9D0
100
AcDbEntity
  8
D-STR-DIM
 62
     0
370
    13
100
AcDbLine
 10
14585.0
 20
5669.000000000153
 30
0.0
 11
14585.0
 21
5156.5
 31
0.0
  0
LINE
  5
618EE
330
5D9D0
100
AcDbEntity
  8
D-STR-DIM
 62
     0
370
    13
100
AcDbLine
 10
14445.0
 20
5181.499999999999
 30
0.0
 11
14405.0
 21
5181.499999999999
 31
0.0
  0
LINE
  5
618EF
330
5D9D0
100
AcDbEntity
  8
D-STR-DIM
 62
     0
370
    13
100
AcDbLine
 10
14625.0
 20
5181.499999999999
 30
0.0
 11
14665.0
 21
5181.499999999999
 31
0.0
  0
LINE
  5
618F0
330
5D9D0
100
AcDbEntity
  8
D-STR-DIM
 62
     0
370
    13
100
AcDbLine
 10
14485.0
 20
5181.499999999999
 30
0.0
 11
14585.0
 21
5181.499999999999
 31
0.0
  0
INSERT
  5
618F1
330
5D9D0
100
AcDbEntity
  8
D-STR-DIM
 62
     0
370
    13
100
AcDbBlockReference
  2
_OPEN
 10
14485.0
 20
5181.499999999999
 30
0.0
 41
40.0
 42
40.0
 43
40.0
  0
INSERT
  5
618F2
330
5D9D0
100
AcDbEntity
  8
D-STR-DIM
 62
     0
370
    13
100
AcDbBlockReference
  2
_OPEN
 10
14585.0
 20
5181.499999999999
 30
0.0
 41
40.0
 42
40.0
 43
40.0
 50
180.0
  0
MTEXT
  5
618F3
330
5D9D0
100
AcDbEntity
  8
D-STR-DIM
 62
     0
100
AcDbMText
 10
14535.0
 20
5229.0
 30
0.0
 40
70.0
 41
0.0
 71
     5
 72
     1
  1
100
 73
     1
 44
1.0
1001
ACAD
1000
MTEXTBEGIN
1070
    73
1070
     1
1070
    44
1040
1.0
1070
    74
1070
     0
1000
MTEXTEND
  0
POINT
  5
618F4
330
5D9D0
100
AcDbEntity
  8
DEFPOINTS
 62
     0
100
AcDbPoint
 10
14485.0
 20
5681.500000000153
 30
0.0
  0
POINT
  5
618F5
330
5D9D0
100
AcDbEntity
  8
DEFPOINTS
 62
     0
100
AcDbPoint
 10
14585.0
 20
5681.500000000153
 30
0.0
  0
POINT
  5
618F6
330
5D9D0
100
AcDbEntity
  8
DEFPOINTS
 62
     0
100
AcDbPoint
 10
14585.0
 20
5181.499999999999
 30
0.0
  0
ENDBLK
  5
5D9DD
330
5D9D0
100
AcDbEntity
  8
0
100
AcDbBlockEnd
  0
BLOCK
  5
5D9E8
330
5D9DE
100
AcDbEntity
  8
0
100
AcDbBlockBegin
  2
*D17
 70
     1
 10
0.0
 20
0.0
 30
0.0
  3
*D17
  1

  0
LINE
  5
618E3
330
5D9DE
100
AcDbEntity
  8
D-STR-DIM
 62
     0
370
    13
100
AcDbLine
 10
12435.0
 20
5669.000000000153
 30
0.0
 11
12435.0
 21
5156.5
 31
0.0
  0
LINE
  5
618E4
330
5D9DE
100
AcDbEntity
  8
D-STR-DIM
 62
     0
370
    13
100
AcDbLine
 10
14485.0
 20
5669.000000000153
 30
0.0
 11
14485.0
 21
5156.5
 31
0.0
  0
LINE
  5
618E5
330
5D9DE
100
AcDbEntity
  8
D-STR-DIM
 62
     0
370
    13
100
AcDbLine
 10
12475.0
 20
5181.499999999999
 30
0.0
 11
14445.0
 21
5181.499999999999
 31
0.0
  0
INSERT
  5
618E6
330
5D9DE
100
AcDbEntity
  8
D-STR-DIM
 62
     0
370
    13
100
AcDbBlockReference
  2
_OPEN
 10
12435.0
 20
5181.499999999999
 30
0.0
 41
40.0
 42
40.0
 43
40.0
 50
180.0
  0
INSERT
  5
618E7
330
5D9DE
100
AcDbEntity
  8
D-STR-DIM
 62
     0
370
    13
100
AcDbBlockReference
  2
_OPEN
 10
14485.0
 20
5181.499999999999
 30
0.0
 41
40.0
 42
40.0
 43
40.0
  0
MTEXT
  5
618E8
330
5D9DE
100
AcDbEntity
  8
D-STR-DIM
 62
     0
100
AcDbMText
 10
13460.0
 20
5229.0
 30
0.0
 40
70.0
 41
0.0
 71
     5
 72
     1
  1
2050
 73
     1
 44
1.0
1001
ACAD
1000
MTEXTBEGIN
1070
    73
1070
     1
1070
    44
1040
1.0
1070
    74
1070
     0
1000
MTEXTEND
  0
POINT
  5
618E9
330
5D9DE
100
AcDbEntity
  8
DEFPOINTS
 62
     0
100
AcDbPoint
 10
12435.0
 20
5681.500000000153
 30
0.0
  0
POINT
  5
618EA
330
5D9DE
100
AcDbEntity
  8
DEFPOINTS
 62
     0
100
AcDbPoint
 10
14485.0
 20
5681.500000000153
 30
0.0
  0
POINT
  5
618EB
330
5D9DE
100
AcDbEntity
  8
DEFPOINTS
 62
     0
100
AcDbPoint
 10
14485.0
 20
5181.499999999999
 30
0.0
  0
ENDBLK
  5
5D9E9
330
5D9DE
100
AcDbEntity
  8
0
100
AcDbBlockEnd
  0
BLOCK
  5
5D9F6
330
5D9EA
100
AcDbEntity
  8
0
100
AcDbBlockBegin
  2
*D18
 70
     1
 10
0.0
 20
0.0
 30
0.0
  3
*D18
  1

  0
LINE
  5
618D8
330
5D9EA
100
AcDbEntity
  8
D-STR-DIM
 62
     0
370
    13
100
AcDbLine
 10
12335.0
 20
5669.000000000153
 30
0.0
 11
12335.0
 21
5156.5
 31
0.0
  0
LINE
  5
618D9
330
5D9EA
100
AcDbEntity
  8
D-STR-DIM
 62
     0
370
    13
100
AcDbLine
 10
12435.0
 20
5669.000000000153
 30
0.0
 11
12435.0
 21
5156.5
 31
0.0
  0
LINE
  5
618DA
330
5D9EA
100
AcDbEntity
  8
D-STR-DIM
 62
     0
370
    13
100
AcDbLine
 10
12295.0
 20
5181.499999999999
 30
0.0
 11
12255.0
 21
5181.499999999999
 31
0.0
  0
LINE
  5
618DB
330
5D9EA
100
AcDbEntity
  8
D-STR-DIM
 62
     0
370
    13
100
AcDbLine
 10
12475.0
 20
5181.499999999999
 30
0.0
 11
12515.0
 21
5181.499999999999
 31
0.0
  0
LINE
  5
618DC
330
5D9EA
100
AcDbEntity
  8
D-STR-DIM
 62
     0
370
    13
100
AcDbLine
 10
12335.0
 20
5181.499999999999
 30
0.0
 11
12435.0
 21
5181.499999999999
 31
0.0
  0
INSERT
  5
618DD
330
5D9EA
100
AcDbEntity
  8
D-STR-DIM
 62
     0
370
    13
100
AcDbBlockReference
  2
_OPEN
 10
12335.0
 20
5181.499999999999
 30
0.0
 41
40.0
 42
40.0
 43
40.0
  0
INSERT
  5
618DE
330
5D9EA
100
AcDbEntity
  8
D-STR-DIM
 62
     0
370
    13
100
AcDbBlockReference
  2
_OPEN
 10
12435.0
 20
5181.499999999999
 30
0.0
 41
40.0
 42
40.0
 43
40.0
 50
180.0
  0
MTEXT
  5
618DF
330
5D9EA
100
AcDbEntity
  8
D-STR-DIM
 62
     0
100
AcDbMText
 10
12385.0
 20
5229.0
 30
0.0
 40
70.0
 41
0.0
 71
     5
 72
     1
  1
100
 73
     1
 44
1.0
1001
ACAD
1000
MTEXTBEGIN
1070
    73
1070
     1
1070
    44
1040
1.0
1070
    74
1070
     0
1000
MTEXTEND
  0
POINT
  5
618E0
330
5D9EA
100
AcDbEntity
  8
DEFPOINTS
 62
     0
100
AcDbPoint
 10
12335.0
 20
5681.500000000153
 30
0.0
  0
POINT
  5
618E1
330
5D9EA
100
AcDbEntity
  8
DEFPOINTS
 62
     0
100
AcDbPoint
 10
12435.0
 20
5681.500000000153
 30
0.0
  0
POINT
  5
618E2
330
5D9EA
100
AcDbEntity
  8
DEFPOINTS
 62
     0
100
AcDbPoint
 10
12435.0
 20
5181.499999999999
 30
0.0
  0
ENDBLK
  5
5D9F7
330
5D9EA
100
AcDbEntity
  8
0
100
AcDbBlockEnd
  0
BLOCK
  5
5DA02
330
5D9F8
100
AcDbEntity
  8
0
100
AcDbBlockBegin
  2
*D19
 70
     1
 10
0.0
 20
0.0
 30
0.0
  3
*D19
  1

  0
LINE
  5
618CF
330
5D9F8
100
AcDbEntity
  8
D-STR-DIM
 62
     0
370
    13
100
AcDbLine
 10
12435.0
 20
5669.000000000153
 30
0.0
 11
12435.0
 21
5356.499999999956
 31
0.0
  0
LINE
  5
618D0
330
5D9F8
100
AcDbEntity
  8
D-STR-DIM
 62
     0
370
    13
100
AcDbLine
 10
12670.0
 20
5669.000000000153
 30
0.0
 11
12670.0
 21
5356.499999999956
 31
0.0
  0
LINE
  5
618D1
330
5D9F8
100
AcDbEntity
  8
D-STR-DIM
 62
     0
370
    13
100
AcDbLine
 10
12475.0
 20
5381.499999999956
 30
0.0
 11
12630.0
 21
5381.499999999956
 31
0.0
  0
INSERT
  5
618D2
330
5D9F8
100
AcDbEntity
  8
D-STR-DIM
 62
     0
370
    13
100
AcDbBlockReference
  2
_OPEN
 10
12435.0
 20
5381.499999999956
 30
0.0
 41
40.0
 42
40.0
 43
40.0
 50
180.0
  0
INSERT
  5
618D3
330
5D9F8
100
AcDbEntity
  8
D-STR-DIM
 62
     0
370
    13
100
AcDbBlockReference
  2
_OPEN
 10
12670.0
 20
5381.499999999956
 30
0.0
 41
40.0
 42
40.0
 43
40.0
  0
MTEXT
  5
618D4
330
5D9F8
100
AcDbEntity
  8
D-STR-DIM
 62
     0
100
AcDbMText
 10
12552.5
 20
5428.999999999956
 30
0.0
 40
70.0
 41
0.0
 71
     5
 72
     1
  1
235
 73
     1
 44
1.0
1001
ACAD
1000
MTEXTBEGIN
1070
    73
1070
     1
1070
    44
1040
1.0
1070
    74
1070
     0
1000
MTEXTEND
  0
POINT
  5
618D5
330
5D9F8
100
AcDbEntity
  8
DEFPOINTS
 62
     0
100
AcDbPoint
 10
12435.0
 20
5681.500000000153
 30
0.0
  0
POINT
  5
618D6
330
5D9F8
100
AcDbEntity
  8
DEFPOINTS
 62
     0
100
AcDbPoint
 10
12670.0
 20
5681.500000000153
 30
0.0
  0
POINT
  5
618D7
330
5D9F8
100
AcDbEntity
  8
DEFPOINTS
 62
     0
100
AcDbPoint
 10
12670.0
 20
5381.499999999956
 30
0.0
  0
ENDBLK
  5
5DA03
330
5D9F8
100
AcDbEntity
  8
0
100
AcDbBlockEnd
  0
BLOCK
  5
5DA0E
330
5DA04
100
AcDbEntity
  8
0
100
AcDbBlockBegin
  2
*D20
 70
     1
 10
0.0
 20
0.0
 30
0.0
  3
*D20
  1

  0
LINE
  5
618C6
330
5DA04
100
AcDbEntity
  8
D-STR-DIM
 62
     0
370
    13
100
AcDbLine
 10
12422.5
 20
6001.500000000152
 30
0.0
 11
12110.0
 21
6001.500000000152
 31
0.0
  0
LINE
  5
618C7
330
5DA04
100
AcDbEntity
  8
D-STR-DIM
 62
     0
370
    13
100
AcDbLine
 10
12422.5
 20
6236.500000000153
 30
0.0
 11
12110.0
 21
6236.500000000153
 31
0.0
  0
LINE
  5
618C8
330
5DA04
100
AcDbEntity
  8
D-STR-DIM
 62
     0
370
    13
100
AcDbLine
 10
12135.0
 20
6041.500000000152
 30
0.0
 11
12135.0
 21
6196.500000000153
 31
0.0
  0
INSERT
  5
618C9
330
5DA04
100
AcDbEntity
  8
D-STR-DIM
 62
     0
370
    13
100
AcDbBlockReference
  2
_OPEN
 10
12135.0
 20
6001.500000000152
 30
0.0
 41
40.0
 42
40.0
 43
40.0
 50
270.0
  0
INSERT
  5
618CA
330
5DA04
100
AcDbEntity
  8
D-STR-DIM
 62
     0
370
    13
100
AcDbBlockReference
  2
_OPEN
 10
12135.0
 20
6236.500000000153
 30
0.0
 41
40.0
 42
40.0
 43
40.0
 50
90.0
  0
MTEXT
  5
618CB
330
5DA04
100
AcDbEntity
  8
D-STR-DIM
 62
     0
100
AcDbMText
 10
12087.49999999999
 20
6119.000000000155
 30
0.0
 40
70.0
 41
0.0
 71
     5
 72
     1
  1
235
 11
0.0000000000000001
 21
1.0
 31
0.0
 73
     1
 44
1.0
1001
ACAD
1000
MTEXTBEGIN
1070
    73
1070
     1
1070
    44
1040
1.0
1070
    74
1070
     0
1000
MTEXTEND
  0
POINT
  5
618CC
330
5DA04
100
AcDbEntity
  8
DEFPOINTS
 62
     0
100
AcDbPoint
 10
12435.0
 20
6001.500000000152
 30
0.0
  0
POINT
  5
618CD
330
5DA04
100
AcDbEntity
  8
DEFPOINTS
 62
     0
100
AcDbPoint
 10
12435.0
 20
6236.500000000153
 30
0.0
  0
POINT
  5
618CE
330
5DA04
100
AcDbEntity
  8
DEFPOINTS
 62
     0
100
AcDbPoint
 10
12135.0
 20
6236.500000000153
 30
0.0
  0
ENDBLK
  5
5DA0F
330
5DA04
100
AcDbEntity
  8
0
100
AcDbBlockEnd
  0
BLOCK
  5
5DA1C
330
5DA10
100
AcDbEntity
  8
0
100
AcDbBlockBegin
  2
*D21
 70
     1
 10
0.0
 20
0.0
 30
0.0
  3
*D21
  1

  0
LINE
  5
618BB
330
5DA10
100
AcDbEntity
  8
D-STR-DIM
 62
     0
370
    13
100
AcDbLine
 10
14497.5
 20
6001.500000000152
 30
0.0
 11
14809.99999999953
 21
6001.500000000152
 31
0.0
  0
LINE
  5
618BC
330
5DA10
100
AcDbEntity
  8
D-STR-DIM
 62
     0
370
    13
100
AcDbLine
 10
14497.5
 20
6126.500000000152
 30
0.0
 11
14809.99999999953
 21
6126.500000000152
 31
0.0
  0
LINE
  5
618BD
330
5DA10
100
AcDbEntity
  8
D-STR-DIM
 62
     0
370
    13
100
AcDbLine
 10
14784.99999999953
 20
5961.500000000153
 30
0.0
 11
14784.99999999953
 21
5921.500000000153
 31
0.0
  0
LINE
  5
618BE
330
5DA10
100
AcDbEntity
  8
D-STR-DIM
 62
     0
370
    13
100
AcDbLine
 10
14784.99999999953
 20
6166.500000000152
 30
0.0
 11
14784.99999999953
 21
6206.500000000153
 31
0.0
  0
LINE
  5
618BF
330
5DA10
100
AcDbEntity
  8
D-STR-DIM
 62
     0
370
    13
100
AcDbLine
 10
14784.99999999953
 20
6001.500000000152
 30
0.0
 11
14784.99999999953
 21
6126.500000000152
 31
0.0
  0
INSERT
  5
618C0
330
5DA10
100
AcDbEntity
  8
D-STR-DIM
 62
     0
370
    13
100
AcDbBlockReference
  2
_OPEN
 10
14784.99999999953
 20
6001.500000000152
 30
0.0
 41
40.0
 42
40.0
 43
40.0
 50
90.0
  0
INSERT
  5
618C1
330
5DA10
100
AcDbEntity
  8
D-STR-DIM
 62
     0
370
    13
100
AcDbBlockReference
  2
_OPEN
 10
14784.99999999953
 20
6126.500000000152
 30
0.0
 41
40.0
 42
40.0
 43
40.0
 50
270.0
  0
MTEXT
  5
618C2
330
5DA10
100
AcDbEntity
  8
D-STR-DIM
 62
     0
100
AcDbMText
 10
14737.49999999953
 20
6064.000000000156
 30
0.0
 40
70.0
 41
0.0
 71
     5
 72
     1
  1
125
 11
0.0000000000000001
 21
1.0
 31
0.0
 73
     1
 44
1.0
1001
ACAD
1000
MTEXTBEGIN
1070
    73
1070
     1
1070
    44
1040
1.0
1070
    74
1070
     0
1000
MTEXTEND
  0
POINT
  5
618C3
330
5DA10
100
AcDbEntity
  8
DEFPOINTS
 62
     0
100
AcDbPoint
 10
14485.0
 20
6001.500000000152
 30
0.0
  0
POINT
  5
618C4
330
5DA10
100
AcDbEntity
  8
DEFPOINTS
 62
     0
100
AcDbPoint
 10
14485.0
 20
6126.500000000152
 30
0.0
  0
POINT
  5
618C5
330
5DA10
100
AcDbEntity
  8
DEFPOINTS
 62
     0
100
AcDbPoint
 10
14784.99999999953
 20
6126.500000000152
 30
0.0
  0
ENDBLK
  5
5DA1D
330
5DA10
100
AcDbEntity
  8
0
100
AcDbBlockEnd
  0
BLOCK
  5
5DA2A
330
5DA1E
100
AcDbEntity
  8
0
100
AcDbBlockBegin
  2
*D22
 70
     1
 10
0.0
 20
0.0
 30
0.0
  3
*D22
  1

  0
LINE
  5
618B0
330
5DA1E
100
AcDbEntity
  8
D-STR-DIM
 62
     0
370
    13
100
AcDbLine
 10
12435.0
 20
9014.000000000153
 30
0.0
 11
12435.0
 21
9326.500000000233
 31
0.0
  0
LINE
  5
618B1
330
5DA1E
100
AcDbEntity
  8
D-STR-DIM
 62
     0
370
    13
100
AcDbLine
 10
12560.0
 20
9014.000000000153
 30
0.0
 11
12560.0
 21
9326.500000000233
 31
0.0
  0
LINE
  5
618B2
330
5DA1E
100
AcDbEntity
  8
D-STR-DIM
 62
     0
370
    13
100
AcDbLine
 10
12395.0
 20
9301.500000000233
 30
0.0
 11
12355.0
 21
9301.500000000233
 31
0.0
  0
LINE
  5
618B3
330
5DA1E
100
AcDbEntity
  8
D-STR-DIM
 62
     0
370
    13
100
AcDbLine
 10
12600.0
 20
9301.500000000233
 30
0.0
 11
12640.0
 21
9301.500000000233
 31
0.0
  0
LINE
  5
618B4
330
5DA1E
100
AcDbEntity
  8
D-STR-DIM
 62
     0
370
    13
100
AcDbLine
 10
12435.0
 20
9301.500000000233
 30
0.0
 11
12560.0
 21
9301.500000000233
 31
0.0
  0
INSERT
  5
618B5
330
5DA1E
100
AcDbEntity
  8
D-STR-DIM
 62
     0
370
    13
100
AcDbBlockReference
  2
_OPEN
 10
12435.0
 20
9301.500000000233
 30
0.0
 41
40.0
 42
40.0
 43
40.0
  0
INSERT
  5
618B6
330
5DA1E
100
AcDbEntity
  8
D-STR-DIM
 62
     0
370
    13
100
AcDbBlockReference
  2
_OPEN
 10
12560.0
 20
9301.500000000233
 30
0.0
 41
40.0
 42
40.0
 43
40.0
 50
180.0
  0
MTEXT
  5
618B7
330
5DA1E
100
AcDbEntity
  8
D-STR-DIM
 62
     0
100
AcDbMText
 10
12497.5
 20
9349.000000000232
 30
0.0
 40
70.0
 41
0.0
 71
     5
 72
     1
  1
125
 73
     1
 44
1.0
1001
ACAD
1000
MTEXTBEGIN
1070
    73
1070
     1
1070
    44
1040
1.0
1070
    74
1070
     0
1000
MTEXTEND
  0
POINT
  5
618B8
330
5DA1E
100
AcDbEntity
  8
DEFPOINTS
 62
     0
100
AcDbPoint
 10
12435.0
 20
9001.500000000154
 30
0.0
  0
POINT
  5
618B9
330
5DA1E
100
AcDbEntity
  8
DEFPOINTS
 62
     0
100
AcDbPoint
 10
12560.0
 20
9001.500000000154
 30
0.0
  0
POINT
  5
618BA
330
5DA1E
100
AcDbEntity
  8
DEFPOINTS
 62
     0
100
AcDbPoint
 10
12560.0
 20
9301.500000000233
 30
0.0
  0
ENDBLK
  5
5DA2B
330
5DA1E
100
AcDbEntity
  8
0
100
AcDbBlockEnd
  0
BLOCK
  5
5DA38
330
5DA2C
100
AcDbEntity
  8
0
100
AcDbBlockBegin
  2
*D23
 70
     1
 10
0.0
 20
0.0
 30
0.0
  3
*D23
  1

  0
LINE
  5
618A5
330
5DA2C
100
AcDbEntity
  8
D-STR-DIM
 62
     0
370
    13
100
AcDbLine
 10
7422.500000000001
 20
6201.500000000153
 30
0.0
 11
6690.0
 21
6201.500000000153
 31
0.0
  0
LINE
  5
618A6
330
5DA2C
100
AcDbEntity
  8
D-STR-DIM
 62
     0
370
    13
100
AcDbLine
 10
7322.500000000001
 20
6181.500000000153
 30
0.0
 11
6690.0
 21
6181.500000000153
 31
0.0
  0
LINE
  5
618A7
330
5DA2C
100
AcDbEntity
  8
D-STR-DIM
 62
     0
370
    13
100
AcDbLine
 10
6715.0
 20
6241.500000000153
 30
0.0
 11
6715.0
 21
6281.500000000153
 31
0.0
  0
LINE
  5
618A8
330
5DA2C
100
AcDbEntity
  8
D-STR-DIM
 62
     0
370
    13
100
AcDbLine
 10
6714.999999999999
 20
6141.500000000153
 30
0.0
 11
6714.999999999999
 21
6101.500000000153
 31
0.0
  0
LINE
  5
618A9
330
5DA2C
100
AcDbEntity
  8
D-STR-DIM
 62
     0
370
    13
100
AcDbLine
 10
6715.0
 20
6201.500000000153
 30
0.0
 11
6715.0
 21
6181.500000000153
 31
0.0
  0
INSERT
  5
618AA
330
5DA2C
100
AcDbEntity
  8
D-STR-DIM
 62
     0
370
    13
100
AcDbBlockReference
  2
_OPEN
 10
6715.0
 20
6201.500000000153
 30
0.0
 41
40.0
 42
40.0
 43
40.0
 50
270.0
  0
INSERT
  5
618AB
330
5DA2C
100
AcDbEntity
  8
D-STR-DIM
 62
     0
370
    13
100
AcDbBlockReference
  2
_OPEN
 10
6715.0
 20
6181.500000000153
 30
0.0
 41
40.0
 42
40.0
 43
40.0
 50
90.0
  0
MTEXT
  5
618AC
330
5DA2C
100
AcDbEntity
  8
D-STR-DIM
 62
     0
100
AcDbMText
 10
6667.499999999998
 20
6191.500000000154
 30
0.0
 40
70.0
 41
0.0
 71
     5
 72
     1
  1
20
 11
0.0000000000000001
 21
1.0
 31
0.0
 73
     1
 44
1.0
1001
ACAD
1000
MTEXTBEGIN
1070
    73
1070
     1
1070
    44
1040
1.0
1070
    74
1070
     0
1000
MTEXTEND
  0
POINT
  5
618AD
330
5DA2C
100
AcDbEntity
  8
DEFPOINTS
 62
     0
100
AcDbPoint
 10
7435.0
 20
6201.500000000153
 30
0.0
  0
POINT
  5
618AE
330
5DA2C
100
AcDbEntity
  8
DEFPOINTS
 62
     0
100
AcDbPoint
 10
7335.0
 20
6181.500000000153
 30
0.0
  0
POINT
  5
618AF
330
5DA2C
100
AcDbEntity
  8
DEFPOINTS
 62
     0
100
AcDbPoint
 10
6715.0
 20
6181.500000000153
 30
0.0
  0
ENDBLK
  5
5DA39
330
5DA2C
100
AcDbEntity
  8
0
100
AcDbBlockEnd
  0
BLOCK
  5
5DA46
330
5DA3A
100
AcDbEntity
  8
0
100
AcDbBlockBegin
  2
*D24
 70
     1
 10
0.0
 20
0.0
 30
0.0
  3
*D24
  1

  0
LINE
  5
6189A
330
5DA3A
100
AcDbEntity
  8
D-STR-DIM
 62
     0
370
    13
100
AcDbLine
 10
7322.500000000001
 20
6181.500000000153
 30
0.0
 11
6690.000000000001
 21
6181.500000000153
 31
0.0
  0
LINE
  5
6189B
330
5DA3A
100
AcDbEntity
  8
D-STR-DIM
 62
     0
370
    13
100
AcDbLine
 10
7322.500000000001
 20
6081.500000000153
 30
0.0
 11
6690.0
 21
6081.500000000153
 31
0.0
  0
LINE
  5
6189C
330
5DA3A
100
AcDbEntity
  8
D-STR-DIM
 62
     0
370
    13
100
AcDbLine
 10
6715.0
 20
6221.500000000153
 30
0.0
 11
6715.0
 21
6261.500000000153
 31
0.0
  0
LINE
  5
6189D
330
5DA3A
100
AcDbEntity
  8
D-STR-DIM
 62
     0
370
    13
100
AcDbLine
 10
6715.0
 20
6041.500000000152
 30
0.0
 11
6715.0
 21
6001.500000000152
 31
0.0
  0
LINE
  5
6189E
330
5DA3A
100
AcDbEntity
  8
D-STR-DIM
 62
     0
370
    13
100
AcDbLine
 10
6715.0
 20
6181.500000000153
 30
0.0
 11
6715.0
 21
6081.500000000153
 31
0.0
  0
INSERT
  5
6189F
330
5DA3A
100
AcDbEntity
  8
D-STR-DIM
 62
     0
370
    13
100
AcDbBlockReference
  2
_OPEN
 10
6715.0
 20
6181.500000000153
 30
0.0
 41
40.0
 42
40.0
 43
40.0
 50
270.0
  0
INSERT
  5
618A0
330
5DA3A
100
AcDbEntity
  8
D-STR-DIM
 62
     0
370
    13
100
AcDbBlockReference
  2
_OPEN
 10
6715.0
 20
6081.500000000153
 30
0.0
 41
40.0
 42
40.0
 43
40.0
 50
90.0
  0
MTEXT
  5
618A1
330
5DA3A
100
AcDbEntity
  8
D-STR-DIM
 62
     0
100
AcDbMText
 10
6785.0
 20
6131.500000000155
 30
0.0
 40
70.0
 41
0.0
 71
     5
 72
     1
  1
100
 11
0.0000000000000001
 21
1.0
 31
0.0
 73
     1
 44
1.0
1001
ACAD
1000
MTEXTBEGIN
1070
    73
1070
     1
1070
    44
1040
1.0
1070
    74
1070
     0
1000
MTEXTEND
  0
POINT
  5
618A2
330
5DA3A
100
AcDbEntity
  8
DEFPOINTS
 62
     0
100
AcDbPoint
 10
7335.0
 20
6181.500000000153
 30
0.0
  0
POINT
  5
618A3
330
5DA3A
100
AcDbEntity
  8
DEFPOINTS
 62
     0
100
AcDbPoint
 10
7335.0
 20
6081.500000000153
 30
0.0
  0
POINT
  5
618A4
330
5DA3A
100
AcDbEntity
  8
DEFPOINTS
 62
     0
100
AcDbPoint
 10
6715.0
 20
6081.500000000153
 30
0.0
  0
ENDBLK
  5
5DA47
330
5DA3A
100
AcDbEntity
  8
0
100
AcDbBlockEnd
  0
BLOCK
  5
5DA52
330
5DA48
100
AcDbEntity
  8
0
100
AcDbBlockBegin
  2
*D25
 70
     1
 10
0.0
 20
0.0
 30
0.0
  3
*D25
  1

  0
LINE
  5
61891
330
5DA48
100
AcDbEntity
  8
D-STR-DIM
 62
     0
370
    13
100
AcDbLine
 10
7322.500000000001
 20
6081.500000000153
 30
0.0
 11
6689.999999999971
 21
6081.500000000153
 31
0.0
  0
LINE
  5
61892
330
5DA48
100
AcDbEntity
  8
D-STR-DIM
 62
     0
370
    13
100
AcDbLine
 10
7322.500000000001
 20
5881.500000000153
 30
0.0
 11
6689.999999999971
 21
5881.500000000153
 31
0.0
  0
LINE
  5
61893
330
5DA48
100
AcDbEntity
  8
D-STR-DIM
 62
     0
370
    13
100
AcDbLine
 10
6714.999999999971
 20
6041.500000000152
 30
0.0
 11
6714.999999999971
 21
5921.500000000153
 31
0.0
  0
INSERT
  5
61894
330
5DA48
100
AcDbEntity
  8
D-STR-DIM
 62
     0
370
    13
100
AcDbBlockReference
  2
_OPEN
 10
6714.999999999971
 20
6081.500000000153
 30
0.0
 41
40.0
 42
40.0
 43
40.0
 50
90.0
  0
INSERT
  5
61895
330
5DA48
100
AcDbEntity
  8
D-STR-DIM
 62
     0
370
    13
100
AcDbBlockReference
  2
_OPEN
 10
6714.999999999971
 20
5881.500000000153
 30
0.0
 41
40.0
 42
40.0
 43
40.0
 50
270.0
  0
MTEXT
  5
61896
330
5DA48
100
AcDbEntity
  8
D-STR-DIM
 62
     0
100
AcDbMText
 10
6667.49999999997
 20
5981.500000000155
 30
0.0
 40
70.0
 41
0.0
 71
     5
 72
     1
  1
200
 11
0.0000000000000001
 21
1.0
 31
0.0
 73
     1
 44
1.0
1001
ACAD
1000
MTEXTBEGIN
1070
    73
1070
     1
1070
    44
1040
1.0
1070
    74
1070
     0
1000
MTEXTEND
  0
POINT
  5
61897
330
5DA48
100
AcDbEntity
  8
DEFPOINTS
 62
     0
100
AcDbPoint
 10
7335.0
 20
6081.500000000153
 30
0.0
  0
POINT
  5
61898
330
5DA48
100
AcDbEntity
  8
DEFPOINTS
 62
     0
100
AcDbPoint
 10
7335.0
 20
5881.500000000153
 30
0.0
  0
POINT
  5
61899
330
5DA48
100
AcDbEntity
  8
DEFPOINTS
 62
     0
100
AcDbPoint
 10
6714.999999999971
 20
5881.500000000153
 30
0.0
  0
ENDBLK
  5
5DA53
330
5DA48
100
AcDbEntity
  8
0
100
AcDbBlockEnd
  0
BLOCK
  5
5DA5E
330
5DA54
100
AcDbEntity
  8
0
100
AcDbBlockBegin
  2
*D26
 70
     1
 10
0.0
 20
0.0
 30
0.0
  3
*D26
  1

  0
LINE
  5
61888
330
5DA54
100
AcDbEntity
  8
D-STR-DIM
 62
     0
370
    13
100
AcDbLine
 10
7422.500000000001
 20
6201.500000000153
 30
0.0
 11
6689.999999999935
 21
6201.500000000153
 31
0.0
  0
LINE
  5
61889
330
5DA54
100
AcDbEntity
  8
D-STR-DIM
 62
     0
370
    13
100
AcDbLine
 10
7422.500000000001
 20
9001.500000000154
 30
0.0
 11
6689.999999999935
 21
9001.500000000154
 31
0.0
  0
LINE
  5
6188A
330
5DA54
100
AcDbEntity
  8
D-STR-DIM
 62
     0
370
    13
100
AcDbLine
 10
6714.999999999935
 20
6241.500000000153
 30
0.0
 11
6714.999999999935
 21
8961.500000000153
 31
0.0
  0
INSERT
  5
6188B
330
5DA54
100
AcDbEntity
  8
D-STR-DIM
 62
     0
370
    13
100
AcDbBlockReference
  2
_OPEN
 10
6714.999999999935
 20
6201.500000000153
 30
0.0
 41
40.0
 42
40.0
 43
40.0
 50
270.0
  0
INSERT
  5
6188C
330
5DA54
100
AcDbEntity
  8
D-STR-DIM
 62
     0
370
    13
100
AcDbBlockReference
  2
_OPEN
 10
6714.999999999935
 20
9001.500000000154
 30
0.0
 41
40.0
 42
40.0
 43
40.0
 50
90.0
  0
MTEXT
  5
6188D
330
5DA54
100
AcDbEntity
  8
D-STR-DIM
 62
     0
100
AcDbMText
 10
6667.499999999934
 20
7601.500000000155
 30
0.0
 40
70.0
 41
0.0
 71
     5
 72
     1
  1
2800
 11
0.0000000000000001
 21
1.0
 31
0.0
 73
     1
 44
1.0
1001
ACAD
1000
MTEXTBEGIN
1070
    73
1070
     1
1070
    44
1040
1.0
1070
    74
1070
     0
1000
MTEXTEND
  0
POINT
  5
6188E
330
5DA54
100
AcDbEntity
  8
DEFPOINTS
 62
     0
100
AcDbPoint
 10
7435.0
 20
6201.500000000153
 30
0.0
  0
POINT
  5
6188F
330
5DA54
100
AcDbEntity
  8
DEFPOINTS
 62
     0
100
AcDbPoint
 10
7435.0
 20
9001.500000000154
 30
0.0
  0
POINT
  5
61890
330
5DA54
100
AcDbEntity
  8
DEFPOINTS
 62
     0
100
AcDbPoint
 10
6714.999999999935
 20
9001.500000000154
 30
0.0
  0
ENDBLK
  5
5DA5F
330
5DA54
100
AcDbEntity
  8
0
100
AcDbBlockEnd
  0
BLOCK
  5
5DA6A
330
5DA60
100
AcDbEntity
  8
0
100
AcDbBlockBegin
  2
*D27
 70
     1
 10
0.0
 20
0.0
 30
0.0
  3
*D27
  1

  0
LINE
  5
6187F
330
5DA60
100
AcDbEntity
  8
D-STR-DIM
 62
     0
370
    13
100
AcDbLine
 10
7422.500000000001
 20
6201.500000000153
 30
0.0
 11
6889.999999999949
 21
6201.500000000153
 31
0.0
  0
LINE
  5
61880
330
5DA60
100
AcDbEntity
  8
D-STR-DIM
 62
     0
370
    13
100
AcDbLine
 10
7402.5
 20
7101.500000000154
 30
0.0
 11
6889.999999999949
 21
7101.500000000154
 31
0.0
  0
LINE
  5
61881
330
5DA60
100
AcDbEntity
  8
D-STR-DIM
 62
     0
370
    13
100
AcDbLine
 10
6914.999999999949
 20
6241.500000000153
 30
0.0
 11
6914.999999999949
 21
7061.500000000153
 31
0.0
  0
INSERT
  5
61882
330
5DA60
100
AcDbEntity
  8
D-STR-DIM
 62
     0
370
    13
100
AcDbBlockReference
  2
_OPEN
 10
6914.999999999949
 20
6201.500000000153
 30
0.0
 41
40.0
 42
40.0
 43
40.0
 50
270.0
  0
INSERT
  5
61883
330
5DA60
100
AcDbEntity
  8
D-STR-DIM
 62
     0
370
    13
100
AcDbBlockReference
  2
_OPEN
 10
6914.999999999949
 20
7101.500000000154
 30
0.0
 41
40.0
 42
40.0
 43
40.0
 50
90.0
  0
MTEXT
  5
61884
330
5DA60
100
AcDbEntity
  8
D-STR-DIM
 62
     0
100
AcDbMText
 10
6867.499999999947
 20
6651.500000000154
 30
0.0
 40
70.0
 41
0.0
 71
     5
 72
     1
  1
900
 11
0.0000000000000001
 21
1.0
 31
0.0
 73
     1
 44
1.0
1001
ACAD
1000
MTEXTBEGIN
1070
    73
1070
     1
1070
    44
1040
1.0
1070
    74
1070
     0
1000
MTEXTEND
  0
POINT
  5
61885
330
5DA60
100
AcDbEntity
  8
DEFPOINTS
 62
     0
100
AcDbPoint
 10
7435.0
 20
6201.500000000153
 30
0.0
  0
POINT
  5
61886
330
5DA60
100
AcDbEntity
  8
DEFPOINTS
 62
     0
100
AcDbPoint
 10
7415.0
 20
7101.500000000154
 30
0.0
  0
POINT
  5
61887
330
5DA60
100
AcDbEntity
  8
DEFPOINTS
 62
     0
100
AcDbPoint
 10
6914.999999999949
 20
7101.500000000154
 30
0.0
  0
ENDBLK
  5
5DA6B
330
5DA60
100
AcDbEntity
  8
0
100
AcDbBlockEnd
  0
BLOCK
  5
5DA76
330
5DA6C
100
AcDbEntity
  8
0
100
AcDbBlockBegin
  2
*D28
 70
     1
 10
0.0
 20
0.0
 30
0.0
  3
*D28
  1

  0
LINE
  5
61876
330
5DA6C
100
AcDbEntity
  8
D-STR-DIM
 62
     0
370
    13
100
AcDbLine
 10
7335.0
 20
5869.000000000153
 30
0.0
 11
7335.0
 21
5156.500000000015
 31
0.0
  0
LINE
  5
61877
330
5DA6C
100
AcDbEntity
  8
D-STR-DIM
 62
     0
370
    13
100
AcDbLine
 10
9485.0
 20
5869.000000000153
 30
0.0
 11
9485.0
 21
5156.500000000015
 31
0.0
  0
LINE
  5
61878
330
5DA6C
100
AcDbEntity
  8
D-STR-DIM
 62
     0
370
    13
100
AcDbLine
 10
7375.0
 20
5181.500000000014
 30
0.0
 11
9445.0
 21
5181.500000000014
 31
0.0
  0
INSERT
  5
61879
330
5DA6C
100
AcDbEntity
  8
D-STR-DIM
 62
     0
370
    13
100
AcDbBlockReference
  2
_OPEN
 10
7335.0
 20
5181.500000000014
 30
0.0
 41
40.0
 42
40.0
 43
40.0
 50
180.0
  0
INSERT
  5
6187A
330
5DA6C
100
AcDbEntity
  8
D-STR-DIM
 62
     0
370
    13
100
AcDbBlockReference
  2
_OPEN
 10
9485.0
 20
5181.500000000014
 30
0.0
 41
40.0
 42
40.0
 43
40.0
  0
MTEXT
  5
6187B
330
5DA6C
100
AcDbEntity
  8
D-STR-DIM
 62
     0
100
AcDbMText
 10
8410.0
 20
5229.000000000015
 30
0.0
 40
70.0
 41
0.0
 71
     5
 72
     1
  1
2150
 73
     1
 44
1.0
1001
ACAD
1000
MTEXTBEGIN
1070
    73
1070
     1
1070
    44
1040
1.0
1070
    74
1070
     0
1000
MTEXTEND
  0
POINT
  5
6187C
330
5DA6C
100
AcDbEntity
  8
DEFPOINTS
 62
     0
100
AcDbPoint
 10
7335.0
 20
5881.500000000153
 30
0.0
  0
POINT
  5
6187D
330
5DA6C
100
AcDbEntity
  8
DEFPOINTS
 62
     0
100
AcDbPoint
 10
9485.0
 20
5881.500000000153
 30
0.0
  0
POINT
  5
6187E
330
5DA6C
100
AcDbEntity
  8
DEFPOINTS
 62
     0
100
AcDbPoint
 10
9485.0
 20
5181.500000000014
 30
0.0
  0
ENDBLK
  5
5DA77
330
5DA6C
100
AcDbEntity
  8
0
100
AcDbBlockEnd
  0
BLOCK
  5
5DA84
330
5DA78
100
AcDbEntity
  8
0
100
AcDbBlockBegin
  2
*D29
 70
     1
 10
0.0
 20
0.0
 30
0.0
  3
*D29
  1

  0
LINE
  5
6186B
330
5DA78
100
AcDbEntity
  8
D-STR-DIM
 62
     0
370
    13
100
AcDbLine
 10
9385.0
 20
5869.000000000153
 30
0.0
 11
9385.0
 21
5356.5
 31
0.0
  0
LINE
  5
6186C
330
5DA78
100
AcDbEntity
  8
D-STR-DIM
 62
     0
370
    13
100
AcDbLine
 10
9485.0
 20
5869.000000000153
 30
0.0
 11
9485.0
 21
5356.5
 31
0.0
  0
LINE
  5
6186D
330
5DA78
100
AcDbEntity
  8
D-STR-DIM
 62
     0
370
    13
100
AcDbLine
 10
9345.0
 20
5381.499999999999
 30
0.0
 11
9305.0
 21
5381.499999999999
 31
0.0
  0
LINE
  5
6186E
330
5DA78
100
AcDbEntity
  8
D-STR-DIM
 62
     0
370
    13
100
AcDbLine
 10
9525.0
 20
5381.499999999999
 30
0.0
 11
9565.0
 21
5381.499999999999
 31
0.0
  0
LINE
  5
6186F
330
5DA78
100
AcDbEntity
  8
D-STR-DIM
 62
     0
370
    13
100
AcDbLine
 10
9385.0
 20
5381.499999999999
 30
0.0
 11
9485.0
 21
5381.499999999999
 31
0.0
  0
INSERT
  5
61870
330
5DA78
100
AcDbEntity
  8
D-STR-DIM
 62
     0
370
    13
100
AcDbBlockReference
  2
_OPEN
 10
9385.0
 20
5381.499999999999
 30
0.0
 41
40.0
 42
40.0
 43
40.0
  0
INSERT
  5
61871
330
5DA78
100
AcDbEntity
  8
D-STR-DIM
 62
     0
370
    13
100
AcDbBlockReference
  2
_OPEN
 10
9485.0
 20
5381.499999999999
 30
0.0
 41
40.0
 42
40.0
 43
40.0
 50
180.0
  0
MTEXT
  5
61872
330
5DA78
100
AcDbEntity
  8
D-STR-DIM
 62
     0
100
AcDbMText
 10
9435.0
 20
5429.0
 30
0.0
 40
70.0
 41
0.0
 71
     5
 72
     1
  1
100
 73
     1
 44
1.0
1001
ACAD
1000
MTEXTBEGIN
1070
    73
1070
     1
1070
    44
1040
1.0
1070
    74
1070
     0
1000
MTEXTEND
  0
POINT
  5
61873
330
5DA78
100
AcDbEntity
  8
DEFPOINTS
 62
     0
100
AcDbPoint
 10
9385.0
 20
5881.500000000153
 30
0.0
  0
POINT
  5
61874
330
5DA78
100
AcDbEntity
  8
DEFPOINTS
 62
     0
100
AcDbPoint
 10
9485.0
 20
5881.500000000153
 30
0.0
  0
POINT
  5
61875
330
5DA78
100
AcDbEntity
  8
DEFPOINTS
 62
     0
100
AcDbPoint
 10
9485.0
 20
5381.499999999999
 30
0.0
  0
ENDBLK
  5
5DA85
330
5DA78
100
AcDbEntity
  8
0
100
AcDbBlockEnd
  0
BLOCK
  5
5DA90
330
5DA86
100
AcDbEntity
  8
0
100
AcDbBlockBegin
  2
*D30
 70
     1
 10
0.0
 20
0.0
 30
0.0
  3
*D30
  1

  0
LINE
  5
61862
330
5DA86
100
AcDbEntity
  8
D-STR-DIM
 62
     0
370
    13
100
AcDbLine
 10
7435.0
 20
5869.000000000153
 30
0.0
 11
7435.0
 21
5356.5
 31
0.0
  0
LINE
  5
61863
330
5DA86
100
AcDbEntity
  8
D-STR-DIM
 62
     0
370
    13
100
AcDbLine
 10
9385.0
 20
5869.000000000153
 30
0.0
 11
9385.0
 21
5356.5
 31
0.0
  0
LINE
  5
61864
330
5DA86
100
AcDbEntity
  8
D-STR-DIM
 62
     0
370
    13
100
AcDbLine
 10
7475.0
 20
5381.499999999999
 30
0.0
 11
9345.0
 21
5381.499999999999
 31
0.0
  0
INSERT
  5
61865
330
5DA86
100
AcDbEntity
  8
D-STR-DIM
 62
     0
370
    13
100
AcDbBlockReference
  2
_OPEN
 10
7435.0
 20
5381.499999999999
 30
0.0
 41
40.0
 42
40.0
 43
40.0
 50
180.0
  0
INSERT
  5
61866
330
5DA86
100
AcDbEntity
  8
D-STR-DIM
 62
     0
370
    13
100
AcDbBlockReference
  2
_OPEN
 10
9385.0
 20
5381.499999999999
 30
0.0
 41
40.0
 42
40.0
 43
40.0
  0
MTEXT
  5
61867
330
5DA86
100
AcDbEntity
  8
D-STR-DIM
 62
     0
100
AcDbMText
 10
8410.0
 20
5429.0
 30
0.0
 40
70.0
 41
0.0
 71
     5
 72
     1
  1
1950
 73
     1
 44
1.0
1001
ACAD
1000
MTEXTBEGIN
1070
    73
1070
     1
1070
    44
1040
1.0
1070
    74
1070
     0
1000
MTEXTEND
  0
POINT
  5
61868
330
5DA86
100
AcDbEntity
  8
DEFPOINTS
 62
     0
100
AcDbPoint
 10
7435.0
 20
5881.500000000153
 30
0.0
  0
POINT
  5
61869
330
5DA86
100
AcDbEntity
  8
DEFPOINTS
 62
     0
100
AcDbPoint
 10
9385.0
 20
5881.500000000153
 30
0.0
  0
POINT
  5
6186A
330
5DA86
100
AcDbEntity
  8
DEFPOINTS
 62
     0
100
AcDbPoint
 10
9385.0
 20
5381.499999999999
 30
0.0
  0
ENDBLK
  5
5DA91
330
5DA86
100
AcDbEntity
  8
0
100
AcDbBlockEnd
  0
BLOCK
  5
5DA9E
330
5DA92
100
AcDbEntity
  8
0
100
AcDbBlockBegin
  2
*D31
 70
     1
 10
0.0
 20
0.0
 30
0.0
  3
*D31
  1

  0
LINE
  5
61857
330
5DA92
100
AcDbEntity
  8
D-STR-DIM
 62
     0
370
    13
100
AcDbLine
 10
7335.0
 20
5869.000000000153
 30
0.0
 11
7335.0
 21
5356.5
 31
0.0
  0
LINE
  5
61858
330
5DA92
100
AcDbEntity
  8
D-STR-DIM
 62
     0
370
    13
100
AcDbLine
 10
7435.0
 20
5869.000000000153
 30
0.0
 11
7435.0
 21
5356.5
 31
0.0
  0
LINE
  5
61859
330
5DA92
100
AcDbEntity
  8
D-STR-DIM
 62
     0
370
    13
100
AcDbLine
 10
7295.0
 20
5381.499999999999
 30
0.0
 11
7255.0
 21
5381.499999999999
 31
0.0
  0
LINE
  5
6185A
330
5DA92
100
AcDbEntity
  8
D-STR-DIM
 62
     0
370
    13
100
AcDbLine
 10
7475.0
 20
5381.499999999999
 30
0.0
 11
7515.0
 21
5381.499999999999
 31
0.0
  0
LINE
  5
6185B
330
5DA92
100
AcDbEntity
  8
D-STR-DIM
 62
     0
370
    13
100
AcDbLine
 10
7335.0
 20
5381.499999999999
 30
0.0
 11
7435.0
 21
5381.499999999999
 31
0.0
  0
INSERT
  5
6185C
330
5DA92
100
AcDbEntity
  8
D-STR-DIM
 62
     0
370
    13
100
AcDbBlockReference
  2
_OPEN
 10
7335.0
 20
5381.499999999999
 30
0.0
 41
40.0
 42
40.0
 43
40.0
  0
INSERT
  5
6185D
330
5DA92
100
AcDbEntity
  8
D-STR-DIM
 62
     0
370
    13
100
AcDbBlockReference
  2
_OPEN
 10
7435.0
 20
5381.499999999999
 30
0.0
 41
40.0
 42
40.0
 43
40.0
 50
180.0
  0
MTEXT
  5
6185E
330
5DA92
100
AcDbEntity
  8
D-STR-DIM
 62
     0
100
AcDbMText
 10
7385.0
 20
5429.0
 30
0.0
 40
70.0
 41
0.0
 71
     5
 72
     1
  1
100
 73
     1
 44
1.0
1001
ACAD
1000
MTEXTBEGIN
1070
    73
1070
     1
1070
    44
1040
1.0
1070
    74
1070
     0
1000
MTEXTEND
  0
POINT
  5
6185F
330
5DA92
100
AcDbEntity
  8
DEFPOINTS
 62
     0
100
AcDbPoint
 10
7335.0
 20
5881.500000000153
 30
0.0
  0
POINT
  5
61860
330
5DA92
100
AcDbEntity
  8
DEFPOINTS
 62
     0
100
AcDbPoint
 10
7435.0
 20
5881.500000000153
 30
0.0
  0
POINT
  5
61861
330
5DA92
100
AcDbEntity
  8
DEFPOINTS
 62
     0
100
AcDbPoint
 10
7435.0
 20
5381.499999999999
 30
0.0
  0
ENDBLK
  5
5DA9F
330
5DA92
100
AcDbEntity
  8
0
100
AcDbBlockEnd
  0
BLOCK
  5
5DAAA
330
5DAA0
100
AcDbEntity
  8
0
100
AcDbBlockBegin
  2
*D32
 70
     1
 10
0.0
 20
0.0
 30
0.0
  3
*D32
  1

  0
LINE
  5
6184E
330
5DAA0
100
AcDbEntity
  8
D-STR-DIM
 62
     0
370
    13
100
AcDbLine
 10
7435.0
 20
5869.000000000153
 30
0.0
 11
7435.0
 21
5556.499999999957
 31
0.0
  0
LINE
  5
6184F
330
5DAA0
100
AcDbEntity
  8
D-STR-DIM
 62
     0
370
    13
100
AcDbLine
 10
7670.0
 20
5869.000000000153
 30
0.0
 11
7670.0
 21
5556.499999999957
 31
0.0
  0
LINE
  5
61850
330
5DAA0
100
AcDbEntity
  8
D-STR-DIM
 62
     0
370
    13
100
AcDbLine
 10
7475.0
 20
5581.499999999956
 30
0.0
 11
7630.0
 21
5581.499999999956
 31
0.0
  0
INSERT
  5
61851
330
5DAA0
100
AcDbEntity
  8
D-STR-DIM
 62
     0
370
    13
100
AcDbBlockReference
  2
_OPEN
 10
7435.0
 20
5581.499999999956
 30
0.0
 41
40.0
 42
40.0
 43
40.0
 50
180.0
  0
INSERT
  5
61852
330
5DAA0
100
AcDbEntity
  8
D-STR-DIM
 62
     0
370
    13
100
AcDbBlockReference
  2
_OPEN
 10
7670.0
 20
5581.499999999956
 30
0.0
 41
40.0
 42
40.0
 43
40.0
  0
MTEXT
  5
61853
330
5DAA0
100
AcDbEntity
  8
D-STR-DIM
 62
     0
100
AcDbMText
 10
7552.500000000001
 20
5628.999999999956
 30
0.0
 40
70.0
 41
0.0
 71
     5
 72
     1
  1
235
 73
     1
 44
1.0
1001
ACAD
1000
MTEXTBEGIN
1070
    73
1070
     1
1070
    44
1040
1.0
1070
    74
1070
     0
1000
MTEXTEND
  0
POINT
  5
61854
330
5DAA0
100
AcDbEntity
  8
DEFPOINTS
 62
     0
100
AcDbPoint
 10
7435.0
 20
5881.500000000153
 30
0.0
  0
POINT
  5
61855
330
5DAA0
100
AcDbEntity
  8
DEFPOINTS
 62
     0
100
AcDbPoint
 10
7670.0
 20
5881.500000000153
 30
0.0
  0
POINT
  5
61856
330
5DAA0
100
AcDbEntity
  8
DEFPOINTS
 62
     0
100
AcDbPoint
 10
7670.0
 20
5581.499999999956
 30
0.0
  0
ENDBLK
  5
5DAAB
330
5DAA0
100
AcDbEntity
  8
0
100
AcDbBlockEnd
  0
BLOCK
  5
5DAB6
330
5DAAC
100
AcDbEntity
  8
0
100
AcDbBlockBegin
  2
*D33
 70
     1
 10
0.0
 20
0.0
 30
0.0
  3
*D33
  1

  0
LINE
  5
61845
330
5DAAC
100
AcDbEntity
  8
D-STR-DIM
 62
     0
370
    13
100
AcDbLine
 10
7422.500000000001
 20
6201.500000000153
 30
0.0
 11
7110.0
 21
6201.500000000153
 31
0.0
  0
LINE
  5
61846
330
5DAAC
100
AcDbEntity
  8
D-STR-DIM
 62
     0
370
    13
100
AcDbLine
 10
7422.500000000001
 20
6436.500000000153
 30
0.0
 11
7110.0
 21
6436.500000000153
 31
0.0
  0
LINE
  5
61847
330
5DAAC
100
AcDbEntity
  8
D-STR-DIM
 62
     0
370
    13
100
AcDbLine
 10
7135.0
 20
6241.500000000153
 30
0.0
 11
7135.0
 21
6396.500000000153
 31
0.0
  0
INSERT
  5
61848
330
5DAAC
100
AcDbEntity
  8
D-STR-DIM
 62
     0
370
    13
100
AcDbBlockReference
  2
_OPEN
 10
7135.0
 20
6201.500000000153
 30
0.0
 41
40.0
 42
40.0
 43
40.0
 50
270.0
  0
INSERT
  5
61849
330
5DAAC
100
AcDbEntity
  8
D-STR-DIM
 62
     0
370
    13
100
AcDbBlockReference
  2
_OPEN
 10
7135.0
 20
6436.500000000153
 30
0.0
 41
40.0
 42
40.0
 43
40.0
 50
90.0
  0
MTEXT
  5
6184A
330
5DAAC
100
AcDbEntity
  8
D-STR-DIM
 62
     0
100
AcDbMText
 10
7087.499999999998
 20
6319.000000000155
 30
0.0
 40
70.0
 41
0.0
 71
     5
 72
     1
  1
235
 11
0.0000000000000001
 21
1.0
 31
0.0
 73
     1
 44
1.0
1001
ACAD
1000
MTEXTBEGIN
1070
    73
1070
     1
1070
    44
1040
1.0
1070
    74
1070
     0
1000
MTEXTEND
  0
POINT
  5
6184B
330
5DAAC
100
AcDbEntity
  8
DEFPOINTS
 62
     0
100
AcDbPoint
 10
7435.0
 20
6201.500000000153
 30
0.0
  0
POINT
  5
6184C
330
5DAAC
100
AcDbEntity
  8
DEFPOINTS
 62
     0
100
AcDbPoint
 10
7435.0
 20
6436.500000000153
 30
0.0
  0
POINT
  5
6184D
330
5DAAC
100
AcDbEntity
  8
DEFPOINTS
 62
     0
100
AcDbPoint
 10
7135.0
 20
6436.500000000153
 30
0.0
  0
ENDBLK
  5
5DAB7
330
5DAAC
100
AcDbEntity
  8
0
100
AcDbBlockEnd
  0
BLOCK
  5
5DAC4
330
5DAB8
100
AcDbEntity
  8
0
100
AcDbBlockBegin
  2
*D34
 70
     1
 10
0.0
 20
0.0
 30
0.0
  3
*D34
  1

  0
LINE
  5
6183A
330
5DAB8
100
AcDbEntity
  8
D-STR-DIM
 62
     0
370
    13
100
AcDbLine
 10
9397.5
 20
6201.500000000153
 30
0.0
 11
9709.999999999535
 21
6201.500000000153
 31
0.0
  0
LINE
  5
6183B
330
5DAB8
100
AcDbEntity
  8
D-STR-DIM
 62
     0
370
    13
100
AcDbLine
 10
9397.5
 20
6326.500000000153
 30
0.0
 11
9709.999999999535
 21
6326.500000000153
 31
0.0
  0
LINE
  5
6183C
330
5DAB8
100
AcDbEntity
  8
D-STR-DIM
 62
     0
370
    13
100
AcDbLine
 10
9684.999999999535
 20
6161.500000000152
 30
0.0
 11
9684.999999999535
 21
6121.500000000153
 31
0.0
  0
LINE
  5
6183D
330
5DAB8
100
AcDbEntity
  8
D-STR-DIM
 62
     0
370
    13
100
AcDbLine
 10
9684.999999999535
 20
6366.500000000153
 30
0.0
 11
9684.999999999535
 21
6406.500000000153
 31
0.0
  0
LINE
  5
6183E
330
5DAB8
100
AcDbEntity
  8
D-STR-DIM
 62
     0
370
    13
100
AcDbLine
 10
9684.999999999535
 20
6201.500000000153
 30
0.0
 11
9684.999999999535
 21
6326.500000000153
 31
0.0
  0
INSERT
  5
6183F
330
5DAB8
100
AcDbEntity
  8
D-STR-DIM
 62
     0
370
    13
100
AcDbBlockReference
  2
_OPEN
 10
9684.999999999535
 20
6201.500000000153
 30
0.0
 41
40.0
 42
40.0
 43
40.0
 50
90.0
  0
INSERT
  5
61840
330
5DAB8
100
AcDbEntity
  8
D-STR-DIM
 62
     0
370
    13
100
AcDbBlockReference
  2
_OPEN
 10
9684.999999999535
 20
6326.500000000153
 30
0.0
 41
40.0
 42
40.0
 43
40.0
 50
270.0
  0
MTEXT
  5
61841
330
5DAB8
100
AcDbEntity
  8
D-STR-DIM
 62
     0
100
AcDbMText
 10
9637.499999999533
 20
6264.000000000153
 30
0.0
 40
70.0
 41
0.0
 71
     5
 72
     1
  1
125
 11
0.0000000000000001
 21
1.0
 31
0.0
 73
     1
 44
1.0
1001
ACAD
1000
MTEXTBEGIN
1070
    73
1070
     1
1070
    44
1040
1.0
1070
    74
1070
     0
1000
MTEXTEND
  0
POINT
  5
61842
330
5DAB8
100
AcDbEntity
  8
DEFPOINTS
 62
     0
100
AcDbPoint
 10
9385.0
 20
6201.500000000153
 30
0.0
  0
POINT
  5
61843
330
5DAB8
100
AcDbEntity
  8
DEFPOINTS
 62
     0
100
AcDbPoint
 10
9385.0
 20
6326.500000000153
 30
0.0
  0
POINT
  5
61844
330
5DAB8
100
AcDbEntity
  8
DEFPOINTS
 62
     0
100
AcDbPoint
 10
9684.999999999535
 20
6326.500000000153
 30
0.0
  0
ENDBLK
  5
5DAC5
330
5DAB8
100
AcDbEntity
  8
0
100
AcDbBlockEnd
  0
BLOCK
  5
5DAD2
330
5DAC6
100
AcDbEntity
  8
0
100
AcDbBlockBegin
  2
*D35
 70
     1
 10
0.0
 20
0.0
 30
0.0
  3
*D35
  1

  0
LINE
  5
6182F
330
5DAC6
100
AcDbEntity
  8
D-STR-DIM
 62
     0
370
    13
100
AcDbLine
 10
7435.0
 20
9014.000000000153
 30
0.0
 11
7435.0
 21
9326.500000000233
 31
0.0
  0
LINE
  5
61830
330
5DAC6
100
AcDbEntity
  8
D-STR-DIM
 62
     0
370
    13
100
AcDbLine
 10
7560.0
 20
9014.000000000153
 30
0.0
 11
7560.0
 21
9326.500000000233
 31
0.0
  0
LINE
  5
61831
330
5DAC6
100
AcDbEntity
  8
D-STR-DIM
 62
     0
370
    13
100
AcDbLine
 10
7395.0
 20
9301.500000000233
 30
0.0
 11
7355.0
 21
9301.500000000233
 31
0.0
  0
LINE
  5
61832
330
5DAC6
100
AcDbEntity
  8
D-STR-DIM
 62
     0
370
    13
100
AcDbLine
 10
7600.0
 20
9301.500000000233
 30
0.0
 11
7640.0
 21
9301.500000000233
 31
0.0
  0
LINE
  5
61833
330
5DAC6
100
AcDbEntity
  8
D-STR-DIM
 62
     0
370
    13
100
AcDbLine
 10
7435.0
 20
9301.500000000233
 30
0.0
 11
7560.0
 21
9301.500000000233
 31
0.0
  0
INSERT
  5
61834
330
5DAC6
100
AcDbEntity
  8
D-STR-DIM
 62
     0
370
    13
100
AcDbBlockReference
  2
_OPEN
 10
7435.0
 20
9301.500000000233
 30
0.0
 41
40.0
 42
40.0
 43
40.0
  0
INSERT
  5
61835
330
5DAC6
100
AcDbEntity
  8
D-STR-DIM
 62
     0
370
    13
100
AcDbBlockReference
  2
_OPEN
 10
7560.0
 20
9301.500000000233
 30
0.0
 41
40.0
 42
40.0
 43
40.0
 50
180.0
  0
MTEXT
  5
61836
330
5DAC6
100
AcDbEntity
  8
D-STR-DIM
 62
     0
100
AcDbMText
 10
7497.500000000001
 20
9349.000000000232
 30
0.0
 40
70.0
 41
0.0
 71
     5
 72
     1
  1
125
 73
     1
 44
1.0
1001
ACAD
1000
MTEXTBEGIN
1070
    73
1070
     1
1070
    44
1040
1.0
1070
    74
1070
     0
1000
MTEXTEND
  0
POINT
  5
61837
330
5DAC6
100
AcDbEntity
  8
DEFPOINTS
 62
     0
100
AcDbPoint
 10
7435.0
 20
9001.500000000154
 30
0.0
  0
POINT
  5
61838
330
5DAC6
100
AcDbEntity
  8
DEFPOINTS
 62
     0
100
AcDbPoint
 10
7560.0
 20
9001.500000000154
 30
0.0
  0
POINT
  5
61839
330
5DAC6
100
AcDbEntity
  8
DEFPOINTS
 62
     0
100
AcDbPoint
 10
7560.0
 20
9301.500000000233
 30
0.0
  0
ENDBLK
  5
5DAD3
330
5DAC6
100
AcDbEntity
  8
0
100
AcDbBlockEnd
  0
BLOCK
  5
5DAE0
330
5DAD4
100
AcDbEntity
  8
0
100
AcDbBlockBegin
  2
*D36
 70
     1
 10
0.0
 20
0.0
 30
0.0
  3
*D36
  1

  0
LINE
  5
61824
330
5DAD4
100
AcDbEntity
  8
D-STR-DIM
 62
     0
370
    13
100
AcDbLine
 10
2447.5
 20
6301.500000000153
 30
0.0
 11
1715.0
 21
6301.500000000153
 31
0.0
  0
LINE
  5
61825
330
5DAD4
100
AcDbEntity
  8
D-STR-DIM
 62
     0
370
    13
100
AcDbLine
 10
2347.5
 20
6281.500000000153
 30
0.0
 11
1715.0
 21
6281.500000000153
 31
0.0
  0
LINE
  5
61826
330
5DAD4
100
AcDbEntity
  8
D-STR-DIM
 62
     0
370
    13
100
AcDbLine
 10
1740.0
 20
6341.500000000154
 30
0.0
 11
1740.0
 21
6381.500000000154
 31
0.0
  0
LINE
  5
61827
330
5DAD4
100
AcDbEntity
  8
D-STR-DIM
 62
     0
370
    13
100
AcDbLine
 10
1740.0
 20
6241.500000000154
 30
0.0
 11
1740.0
 21
6201.500000000153
 31
0.0
  0
LINE
  5
61828
330
5DAD4
100
AcDbEntity
  8
D-STR-DIM
 62
     0
370
    13
100
AcDbLine
 10
1740.0
 20
6301.500000000153
 30
0.0
 11
1740.0
 21
6281.500000000153
 31
0.0
  0
INSERT
  5
61829
330
5DAD4
100
AcDbEntity
  8
D-STR-DIM
 62
     0
370
    13
100
AcDbBlockReference
  2
_OPEN
 10
1740.0
 20
6301.500000000153
 30
0.0
 41
40.0
 42
40.0
 43
40.0
 50
270.0
  0
INSERT
  5
6182A
330
5DAD4
100
AcDbEntity
  8
D-STR-DIM
 62
     0
370
    13
100
AcDbBlockReference
  2
_OPEN
 10
1740.0
 20
6281.500000000153
 30
0.0
 41
40.0
 42
40.0
 43
40.0
 50
90.0
  0
MTEXT
  5
6182B
330
5DAD4
100
AcDbEntity
  8
D-STR-DIM
 62
     0
100
AcDbMText
 10
1692.499999999999
 20
6291.500000000154
 30
0.0
 40
70.0
 41
0.0
 71
     5
 72
     1
  1
20
 11
0.0000000000000001
 21
1.0
 31
0.0
 73
     1
 44
1.0
1001
ACAD
1000
MTEXTBEGIN
1070
    73
1070
     1
1070
    44
1040
1.0
1070
    74
1070
     0
1000
MTEXTEND
  0
POINT
  5
6182C
330
5DAD4
100
AcDbEntity
  8
DEFPOINTS
 62
     0
100
AcDbPoint
 10
2460.0
 20
6301.500000000153
 30
0.0
  0
POINT
  5
6182D
330
5DAD4
100
AcDbEntity
  8
DEFPOINTS
 62
     0
100
AcDbPoint
 10
2360.0
 20
6281.500000000153
 30
0.0
  0
POINT
  5
6182E
330
5DAD4
100
AcDbEntity
  8
DEFPOINTS
 62
     0
100
AcDbPoint
 10
1740.0
 20
6281.500000000153
 30
0.0
  0
ENDBLK
  5
5DAE1
330
5DAD4
100
AcDbEntity
  8
0
100
AcDbBlockEnd
  0
BLOCK
  5
5DAEE
330
5DAE2
100
AcDbEntity
  8
0
100
AcDbBlockBegin
  2
*D37
 70
     1
 10
0.0
 20
0.0
 30
0.0
  3
*D37
  1

  0
LINE
  5
61819
330
5DAE2
100
AcDbEntity
  8
D-STR-DIM
 62
     0
370
    13
100
AcDbLine
 10
2347.5
 20
6281.500000000153
 30
0.0
 11
1714.999999999971
 21
6281.500000000153
 31
0.0
  0
LINE
  5
6181A
330
5DAE2
100
AcDbEntity
  8
D-STR-DIM
 62
     0
370
    13
100
AcDbLine
 10
2347.5
 20
6181.500000000153
 30
0.0
 11
1714.999999999971
 21
6181.500000000154
 31
0.0
  0
LINE
  5
6181B
330
5DAE2
100
AcDbEntity
  8
D-STR-DIM
 62
     0
370
    13
100
AcDbLine
 10
1739.999999999971
 20
6321.500000000153
 30
0.0
 11
1739.999999999971
 21
6361.500000000154
 31
0.0
  0
LINE
  5
6181C
330
5DAE2
100
AcDbEntity
  8
D-STR-DIM
 62
     0
370
    13
100
AcDbLine
 10
1739.999999999971
 20
6141.500000000154
 30
0.0
 11
1739.999999999971
 21
6101.500000000154
 31
0.0
  0
LINE
  5
6181D
330
5DAE2
100
AcDbEntity
  8
D-STR-DIM
 62
     0
370
    13
100
AcDbLine
 10
1739.999999999971
 20
6281.500000000153
 30
0.0
 11
1739.999999999971
 21
6181.500000000154
 31
0.0
  0
INSERT
  5
6181E
330
5DAE2
100
AcDbEntity
  8
D-STR-DIM
 62
     0
370
    13
100
AcDbBlockReference
  2
_OPEN
 10
1739.999999999971
 20
6281.500000000153
 30
0.0
 41
40.0
 42
40.0
 43
40.0
 50
270.0
  0
INSERT
  5
6181F
330
5DAE2
100
AcDbEntity
  8
D-STR-DIM
 62
     0
370
    13
100
AcDbBlockReference
  2
_OPEN
 10
1739.999999999971
 20
6181.500000000154
 30
0.0
 41
40.0
 42
40.0
 43
40.0
 50
90.0
  0
MTEXT
  5
61820
330
5DAE2
100
AcDbEntity
  8
D-STR-DIM
 62
     0
100
AcDbMText
 10
1809.99999999997
 20
6231.500000000154
 30
0.0
 40
70.0
 41
0.0
 71
     5
 72
     1
  1
100
 11
0.0000000000000001
 21
1.0
 31
0.0
 73
     1
 44
1.0
1001
ACAD
1000
MTEXTBEGIN
1070
    73
1070
     1
1070
    44
1040
1.0
1070
    74
1070
     0
1000
MTEXTEND
  0
POINT
  5
61821
330
5DAE2
100
AcDbEntity
  8
DEFPOINTS
 62
     0
100
AcDbPoint
 10
2360.0
 20
6281.500000000153
 30
0.0
  0
POINT
  5
61822
330
5DAE2
100
AcDbEntity
  8
DEFPOINTS
 62
     0
100
AcDbPoint
 10
2360.0
 20
6181.500000000153
 30
0.0
  0
POINT
  5
61823
330
5DAE2
100
AcDbEntity
  8
DEFPOINTS
 62
     0
100
AcDbPoint
 10
1739.999999999971
 20
6181.500000000154
 30
0.0
  0
ENDBLK
  5
5DAEF
330
5DAE2
100
AcDbEntity
  8
0
100
AcDbBlockEnd
  0
BLOCK
  5
5DAFA
330
5DAF0
100
AcDbEntity
  8
0
100
AcDbBlockBegin
  2
*D38
 70
     1
 10
0.0
 20
0.0
 30
0.0
  3
*D38
  1

  0
LINE
  5
61810
330
5DAF0
100
AcDbEntity
  8
D-STR-DIM
 62
     0
370
    13
100
AcDbLine
 10
2347.5
 20
6181.500000000153
 30
0.0
 11
1714.999999999971
 21
6181.500000000154
 31
0.0
  0
LINE
  5
61811
330
5DAF0
100
AcDbEntity
  8
D-STR-DIM
 62
     0
370
    13
100
AcDbLine
 10
2347.5
 20
5981.500000000153
 30
0.0
 11
1714.999999999971
 21
5981.500000000154
 31
0.0
  0
LINE
  5
61812
330
5DAF0
100
AcDbEntity
  8
D-STR-DIM
 62
     0
370
    13
100
AcDbLine
 10
1739.999999999971
 20
6141.500000000154
 30
0.0
 11
1739.999999999971
 21
6021.500000000154
 31
0.0
  0
INSERT
  5
61813
330
5DAF0
100
AcDbEntity
  8
D-STR-DIM
 62
     0
370
    13
100
AcDbBlockReference
  2
_OPEN
 10
1739.999999999971
 20
6181.500000000154
 30
0.0
 41
40.0
 42
40.0
 43
40.0
 50
90.0
  0
INSERT
  5
61814
330
5DAF0
100
AcDbEntity
  8
D-STR-DIM
 62
     0
370
    13
100
AcDbBlockReference
  2
_OPEN
 10
1739.999999999971
 20
5981.500000000154
 30
0.0
 41
40.0
 42
40.0
 43
40.0
 50
270.0
  0
MTEXT
  5
61815
330
5DAF0
100
AcDbEntity
  8
D-STR-DIM
 62
     0
100
AcDbMText
 10
1692.49999999997
 20
6081.500000000154
 30
0.0
 40
70.0
 41
0.0
 71
     5
 72
     1
  1
200
 11
0.0000000000000001
 21
1.0
 31
0.0
 73
     1
 44
1.0
1001
ACAD
1000
MTEXTBEGIN
1070
    73
1070
     1
1070
    44
1040
1.0
1070
    74
1070
     0
1000
MTEXTEND
  0
POINT
  5
61816
330
5DAF0
100
AcDbEntity
  8
DEFPOINTS
 62
     0
100
AcDbPoint
 10
2360.0
 20
6181.500000000153
 30
0.0
  0
POINT
  5
61817
330
5DAF0
100
AcDbEntity
  8
DEFPOINTS
 62
     0
100
AcDbPoint
 10
2360.0
 20
5981.500000000153
 30
0.0
  0
POINT
  5
61818
330
5DAF0
100
AcDbEntity
  8
DEFPOINTS
 62
     0
100
AcDbPoint
 10
1739.999999999971
 20
5981.500000000154
 30
0.0
  0
ENDBLK
  5
5DAFB
330
5DAF0
100
AcDbEntity
  8
0
100
AcDbBlockEnd
  0
BLOCK
  5
5DB06
330
5DAFC
100
AcDbEntity
  8
0
100
AcDbBlockBegin
  2
*D39
 70
     1
 10
0.0
 20
0.0
 30
0.0
  3
*D39
  1

  0
LINE
  5
61807
330
5DAFC
100
AcDbEntity
  8
D-STR-DIM
 62
     0
370
    13
100
AcDbLine
 10
2447.5
 20
6301.500000000153
 30
0.0
 11
1714.999999999934
 21
6301.500000000153
 31
0.0
  0
LINE
  5
61808
330
5DAFC
100
AcDbEntity
  8
D-STR-DIM
 62
     0
370
    13
100
AcDbLine
 10
2447.5
 20
9001.500000000154
 30
0.0
 11
1714.999999999934
 21
9001.500000000154
 31
0.0
  0
LINE
  5
61809
330
5DAFC
100
AcDbEntity
  8
D-STR-DIM
 62
     0
370
    13
100
AcDbLine
 10
1739.999999999934
 20
6341.500000000154
 30
0.0
 11
1739.999999999934
 21
8961.500000000153
 31
0.0
  0
INSERT
  5
6180A
330
5DAFC
100
AcDbEntity
  8
D-STR-DIM
 62
     0
370
    13
100
AcDbBlockReference
  2
_OPEN
 10
1739.999999999934
 20
6301.500000000153
 30
0.0
 41
40.0
 42
40.0
 43
40.0
 50
270.0
  0
INSERT
  5
6180B
330
5DAFC
100
AcDbEntity
  8
D-STR-DIM
 62
     0
370
    13
100
AcDbBlockReference
  2
_OPEN
 10
1739.999999999934
 20
9001.500000000154
 30
0.0
 41
40.0
 42
40.0
 43
40.0
 50
90.0
  0
MTEXT
  5
6180C
330
5DAFC
100
AcDbEntity
  8
D-STR-DIM
 62
     0
100
AcDbMText
 10
1692.499999999933
 20
7651.500000000154
 30
0.0
 40
70.0
 41
0.0
 71
     5
 72
     1
  1
2700
 11
0.0000000000000001
 21
1.0
 31
0.0
 73
     1
 44
1.0
1001
ACAD
1000
MTEXTBEGIN
1070
    73
1070
     1
1070
    44
1040
1.0
1070
    74
1070
     0
1000
MTEXTEND
  0
POINT
  5
6180D
330
5DAFC
100
AcDbEntity
  8
DEFPOINTS
 62
     0
100
AcDbPoint
 10
2460.0
 20
6301.500000000153
 30
0.0
  0
POINT
  5
6180E
330
5DAFC
100
AcDbEntity
  8
DEFPOINTS
 62
     0
100
AcDbPoint
 10
2460.0
 20
9001.500000000154
 30
0.0
  0
POINT
  5
6180F
330
5DAFC
100
AcDbEntity
  8
DEFPOINTS
 62
     0
100
AcDbPoint
 10
1739.999999999934
 20
9001.500000000154
 30
0.0
  0
ENDBLK
  5
5DB07
330
5DAFC
100
AcDbEntity
  8
0
100
AcDbBlockEnd
  0
BLOCK
  5
5DB12
330
5DB08
100
AcDbEntity
  8
0
100
AcDbBlockBegin
  2
*D40
 70
     1
 10
0.0
 20
0.0
 30
0.0
  3
*D40
  1

  0
LINE
  5
617FE
330
5DB08
100
AcDbEntity
  8
D-STR-DIM
 62
     0
370
    13
100
AcDbLine
 10
2447.5
 20
6301.500000000153
 30
0.0
 11
1914.999999999949
 21
6301.500000000153
 31
0.0
  0
LINE
  5
617FF
330
5DB08
100
AcDbEntity
  8
D-STR-DIM
 62
     0
370
    13
100
AcDbLine
 10
2427.5
 20
7201.500000000153
 30
0.0
 11
1914.999999999949
 21
7201.500000000153
 31
0.0
  0
LINE
  5
61800
330
5DB08
100
AcDbEntity
  8
D-STR-DIM
 62
     0
370
    13
100
AcDbLine
 10
1939.999999999949
 20
6341.500000000154
 30
0.0
 11
1939.999999999949
 21
7161.500000000154
 31
0.0
  0
INSERT
  5
61801
330
5DB08
100
AcDbEntity
  8
D-STR-DIM
 62
     0
370
    13
100
AcDbBlockReference
  2
_OPEN
 10
1939.999999999949
 20
6301.500000000153
 30
0.0
 41
40.0
 42
40.0
 43
40.0
 50
270.0
  0
INSERT
  5
61802
330
5DB08
100
AcDbEntity
  8
D-STR-DIM
 62
     0
370
    13
100
AcDbBlockReference
  2
_OPEN
 10
1939.999999999949
 20
7201.500000000153
 30
0.0
 41
40.0
 42
40.0
 43
40.0
 50
90.0
  0
MTEXT
  5
61803
330
5DB08
100
AcDbEntity
  8
D-STR-DIM
 62
     0
100
AcDbMText
 10
1892.499999999948
 20
6751.500000000153
 30
0.0
 40
70.0
 41
0.0
 71
     5
 72
     1
  1
900
 11
0.0000000000000001
 21
1.0
 31
0.0
 73
     1
 44
1.0
1001
ACAD
1000
MTEXTBEGIN
1070
    73
1070
     1
1070
    44
1040
1.0
1070
    74
1070
     0
1000
MTEXTEND
  0
POINT
  5
61804
330
5DB08
100
AcDbEntity
  8
DEFPOINTS
 62
     0
100
AcDbPoint
 10
2460.0
 20
6301.500000000153
 30
0.0
  0
POINT
  5
61805
330
5DB08
100
AcDbEntity
  8
DEFPOINTS
 62
     0
100
AcDbPoint
 10
2440.0
 20
7201.500000000153
 30
0.0
  0
POINT
  5
61806
330
5DB08
100
AcDbEntity
  8
DEFPOINTS
 62
     0
100
AcDbPoint
 10
1939.999999999949
 20
7201.500000000153
 30
0.0
  0
ENDBLK
  5
5DB13
330
5DB08
100
AcDbEntity
  8
0
100
AcDbBlockEnd
  0
BLOCK
  5
5DB1E
330
5DB14
100
AcDbEntity
  8
0
100
AcDbBlockBegin
  2
*D41
 70
     1
 10
0.0
 20
0.0
 30
0.0
  3
*D41
  1

  0
LINE
  5
617F5
330
5DB14
100
AcDbEntity
  8
D-STR-DIM
 62
     0
370
    13
100
AcDbLine
 10
2360.0
 20
5969.000000000153
 30
0.0
 11
2360.0
 21
5256.500000000015
 31
0.0
  0
LINE
  5
617F6
330
5DB14
100
AcDbEntity
  8
D-STR-DIM
 62
     0
370
    13
100
AcDbLine
 10
4460.0
 20
5969.000000000153
 30
0.0
 11
4460.0
 21
5256.500000000015
 31
0.0
  0
LINE
  5
617F7
330
5DB14
100
AcDbEntity
  8
D-STR-DIM
 62
     0
370
    13
100
AcDbLine
 10
2400.0
 20
5281.500000000015
 30
0.0
 11
4420.0
 21
5281.500000000015
 31
0.0
  0
INSERT
  5
617F8
330
5DB14
100
AcDbEntity
  8
D-STR-DIM
 62
     0
370
    13
100
AcDbBlockReference
  2
_OPEN
 10
2360.0
 20
5281.500000000015
 30
0.0
 41
40.0
 42
40.0
 43
40.0
 50
180.0
  0
INSERT
  5
617F9
330
5DB14
100
AcDbEntity
  8
D-STR-DIM
 62
     0
370
    13
100
AcDbBlockReference
  2
_OPEN
 10
4460.0
 20
5281.500000000015
 30
0.0
 41
40.0
 42
40.0
 43
40.0
  0
MTEXT
  5
617FA
330
5DB14
100
AcDbEntity
  8
D-STR-DIM
 62
     0
100
AcDbMText
 10
3410.0
 20
5329.000000000014
 30
0.0
 40
70.0
 41
0.0
 71
     5
 72
     1
  1
2100
 73
     1
 44
1.0
1001
ACAD
1000
MTEXTBEGIN
1070
    73
1070
     1
1070
    44
1040
1.0
1070
    74
1070
     0
1000
MTEXTEND
  0
POINT
  5
617FB
330
5DB14
100
AcDbEntity
  8
DEFPOINTS
 62
     0
100
AcDbPoint
 10
2360.0
 20
5981.500000000153
 30
0.0
  0
POINT
  5
617FC
330
5DB14
100
AcDbEntity
  8
DEFPOINTS
 62
     0
100
AcDbPoint
 10
4460.0
 20
5981.500000000153
 30
0.0
  0
POINT
  5
617FD
330
5DB14
100
AcDbEntity
  8
DEFPOINTS
 62
     0
100
AcDbPoint
 10
4460.0
 20
5281.500000000015
 30
0.0
  0
ENDBLK
  5
5DB1F
330
5DB14
100
AcDbEntity
  8
0
100
AcDbBlockEnd
  0
BLOCK
  5
5DB2C
330
5DB20
100
AcDbEntity
  8
0
100
AcDbBlockBegin
  2
*D42
 70
     1
 10
0.0
 20
0.0
 30
0.0
  3
*D42
  1

  0
LINE
  5
617EA
330
5DB20
100
AcDbEntity
  8
D-STR-DIM
 62
     0
370
    13
100
AcDbLine
 10
4360.0
 20
5969.000000000153
 30
0.0
 11
4360.0
 21
5456.5
 31
0.0
  0
LINE
  5
617EB
330
5DB20
100
AcDbEntity
  8
D-STR-DIM
 62
     0
370
    13
100
AcDbLine
 10
4460.0
 20
5969.000000000153
 30
0.0
 11
4460.0
 21
5456.5
 31
0.0
  0
LINE
  5
617EC
330
5DB20
100
AcDbEntity
  8
D-STR-DIM
 62
     0
370
    13
100
AcDbLine
 10
4320.0
 20
5481.5
 30
0.0
 11
4280.0
 21
5481.5
 31
0.0
  0
LINE
  5
617ED
330
5DB20
100
AcDbEntity
  8
D-STR-DIM
 62
     0
370
    13
100
AcDbLine
 10
4500.0
 20
5481.5
 30
0.0
 11
4540.0
 21
5481.5
 31
0.0
  0
LINE
  5
617EE
330
5DB20
100
AcDbEntity
  8
D-STR-DIM
 62
     0
370
    13
100
AcDbLine
 10
4360.0
 20
5481.5
 30
0.0
 11
4460.0
 21
5481.5
 31
0.0
  0
INSERT
  5
617EF
330
5DB20
100
AcDbEntity
  8
D-STR-DIM
 62
     0
370
    13
100
AcDbBlockReference
  2
_OPEN
 10
4360.0
 20
5481.5
 30
0.0
 41
40.0
 42
40.0
 43
40.0
  0
INSERT
  5
617F0
330
5DB20
100
AcDbEntity
  8
D-STR-DIM
 62
     0
370
    13
100
AcDbBlockReference
  2
_OPEN
 10
4460.0
 20
5481.5
 30
0.0
 41
40.0
 42
40.0
 43
40.0
 50
180.0
  0
MTEXT
  5
617F1
330
5DB20
100
AcDbEntity
  8
D-STR-DIM
 62
     0
100
AcDbMText
 10
4410.0
 20
5529.0
 30
0.0
 40
70.0
 41
0.0
 71
     5
 72
     1
  1
100
 73
     1
 44
1.0
1001
ACAD
1000
MTEXTBEGIN
1070
    73
1070
     1
1070
    44
1040
1.0
1070
    74
1070
     0
1000
MTEXTEND
  0
POINT
  5
617F2
330
5DB20
100
AcDbEntity
  8
DEFPOINTS
 62
     0
100
AcDbPoint
 10
4360.0
 20
5981.500000000153
 30
0.0
  0
POINT
  5
617F3
330
5DB20
100
AcDbEntity
  8
DEFPOINTS
 62
     0
100
AcDbPoint
 10
4460.0
 20
5981.500000000153
 30
0.0
  0
POINT
  5
617F4
330
5DB20
100
AcDbEntity
  8
DEFPOINTS
 62
     0
100
AcDbPoint
 10
4460.0
 20
5481.5
 30
0.0
  0
ENDBLK
  5
5DB2D
330
5DB20
100
AcDbEntity
  8
0
100
AcDbBlockEnd
  0
BLOCK
  5
5DB38
330
5DB2E
100
AcDbEntity
  8
0
100
AcDbBlockBegin
  2
*D43
 70
     1
 10
0.0
 20
0.0
 30
0.0
  3
*D43
  1

  0
LINE
  5
617E1
330
5DB2E
100
AcDbEntity
  8
D-STR-DIM
 62
     0
370
    13
100
AcDbLine
 10
2460.0
 20
5969.000000000153
 30
0.0
 11
2460.0
 21
5456.5
 31
0.0
  0
LINE
  5
617E2
330
5DB2E
100
AcDbEntity
  8
D-STR-DIM
 62
     0
370
    13
100
AcDbLine
 10
4360.0
 20
5969.000000000153
 30
0.0
 11
4360.0
 21
5456.5
 31
0.0
  0
LINE
  5
617E3
330
5DB2E
100
AcDbEntity
  8
D-STR-DIM
 62
     0
370
    13
100
AcDbLine
 10
2500.0
 20
5481.5
 30
0.0
 11
4320.0
 21
5481.5
 31
0.0
  0
INSERT
  5
617E4
330
5DB2E
100
AcDbEntity
  8
D-STR-DIM
 62
     0
370
    13
100
AcDbBlockReference
  2
_OPEN
 10
2460.0
 20
5481.5
 30
0.0
 41
40.0
 42
40.0
 43
40.0
 50
180.0
  0
INSERT
  5
617E5
330
5DB2E
100
AcDbEntity
  8
D-STR-DIM
 62
     0
370
    13
100
AcDbBlockReference
  2
_OPEN
 10
4360.0
 20
5481.5
 30
0.0
 41
40.0
 42
40.0
 43
40.0
  0
MTEXT
  5
617E6
330
5DB2E
100
AcDbEntity
  8
D-STR-DIM
 62
     0
100
AcDbMText
 10
3410.0
 20
5529.0
 30
0.0
 40
70.0
 41
0.0
 71
     5
 72
     1
  1
1900
 73
     1
 44
1.0
1001
ACAD
1000
MTEXTBEGIN
1070
    73
1070
     1
1070
    44
1040
1.0
1070
    74
1070
     0
1000
MTEXTEND
  0
POINT
  5
617E7
330
5DB2E
100
AcDbEntity
  8
DEFPOINTS
 62
     0
100
AcDbPoint
 10
2460.0
 20
5981.500000000153
 30
0.0
  0
POINT
  5
617E8
330
5DB2E
100
AcDbEntity
  8
DEFPOINTS
 62
     0
100
AcDbPoint
 10
4360.0
 20
5981.500000000153
 30
0.0
  0
POINT
  5
617E9
330
5DB2E
100
AcDbEntity
  8
DEFPOINTS
 62
     0
100
AcDbPoint
 10
4360.0
 20
5481.5
 30
0.0
  0
ENDBLK
  5
5DB39
330
5DB2E
100
AcDbEntity
  8
0
100
AcDbBlockEnd
  0
BLOCK
  5
5DB46
330
5DB3A
100
AcDbEntity
  8
0
100
AcDbBlockBegin
  2
*D44
 70
     1
 10
0.0
 20
0.0
 30
0.0
  3
*D44
  1

  0
LINE
  5
617D6
330
5DB3A
100
AcDbEntity
  8
D-STR-DIM
 62
     0
370
    13
100
AcDbLine
 10
2360.0
 20
5969.000000000153
 30
0.0
 11
2360.0
 21
5456.5
 31
0.0
  0
LINE
  5
617D7
330
5DB3A
100
AcDbEntity
  8
D-STR-DIM
 62
     0
370
    13
100
AcDbLine
 10
2460.0
 20
5969.000000000153
 30
0.0
 11
2460.0
 21
5456.5
 31
0.0
  0
LINE
  5
617D8
330
5DB3A
100
AcDbEntity
  8
D-STR-DIM
 62
     0
370
    13
100
AcDbLine
 10
2320.0
 20
5481.5
 30
0.0
 11
2280.0
 21
5481.5
 31
0.0
  0
LINE
  5
617D9
330
5DB3A
100
AcDbEntity
  8
D-STR-DIM
 62
     0
370
    13
100
AcDbLine
 10
2500.0
 20
5481.5
 30
0.0
 11
2540.0
 21
5481.5
 31
0.0
  0
LINE
  5
617DA
330
5DB3A
100
AcDbEntity
  8
D-STR-DIM
 62
     0
370
    13
100
AcDbLine
 10
2360.0
 20
5481.5
 30
0.0
 11
2460.0
 21
5481.5
 31
0.0
  0
INSERT
  5
617DB
330
5DB3A
100
AcDbEntity
  8
D-STR-DIM
 62
     0
370
    13
100
AcDbBlockReference
  2
_OPEN
 10
2360.0
 20
5481.5
 30
0.0
 41
40.0
 42
40.0
 43
40.0
  0
INSERT
  5
617DC
330
5DB3A
100
AcDbEntity
  8
D-STR-DIM
 62
     0
370
    13
100
AcDbBlockReference
  2
_OPEN
 10
2460.0
 20
5481.5
 30
0.0
 41
40.0
 42
40.0
 43
40.0
 50
180.0
  0
MTEXT
  5
617DD
330
5DB3A
100
AcDbEntity
  8
D-STR-DIM
 62
     0
100
AcDbMText
 10
2410.0
 20
5529.0
 30
0.0
 40
70.0
 41
0.0
 71
     5
 72
     1
  1
100
 73
     1
 44
1.0
1001
ACAD
1000
MTEXTBEGIN
1070
    73
1070
     1
1070
    44
1040
1.0
1070
    74
1070
     0
1000
MTEXTEND
  0
POINT
  5
617DE
330
5DB3A
100
AcDbEntity
  8
DEFPOINTS
 62
     0
100
AcDbPoint
 10
2360.0
 20
5981.500000000153
 30
0.0
  0
POINT
  5
617DF
330
5DB3A
100
AcDbEntity
  8
DEFPOINTS
 62
     0
100
AcDbPoint
 10
2460.0
 20
5981.500000000153
 30
0.0
  0
POINT
  5
617E0
330
5DB3A
100
AcDbEntity
  8
DEFPOINTS
 62
     0
100
AcDbPoint
 10
2460.0
 20
5481.5
 30
0.0
  0
ENDBLK
  5
5DB47
330
5DB3A
100
AcDbEntity
  8
0
100
AcDbBlockEnd
  0
BLOCK
  5
5DB52
330
5DB48
100
AcDbEntity
  8
0
100
AcDbBlockBegin
  2
*D45
 70
     1
 10
0.0
 20
0.0
 30
0.0
  3
*D45
  1

  0
LINE
  5
617CD
330
5DB48
100
AcDbEntity
  8
D-STR-DIM
 62
     0
370
    13
100
AcDbLine
 10
2460.0
 20
5969.000000000153
 30
0.0
 11
2460.0
 21
5656.499999999978
 31
0.0
  0
LINE
  5
617CE
330
5DB48
100
AcDbEntity
  8
D-STR-DIM
 62
     0
370
    13
100
AcDbLine
 10
2695.0
 20
5969.000000000153
 30
0.0
 11
2695.0
 21
5656.499999999978
 31
0.0
  0
LINE
  5
617CF
330
5DB48
100
AcDbEntity
  8
D-STR-DIM
 62
     0
370
    13
100
AcDbLine
 10
2500.0
 20
5681.499999999978
 30
0.0
 11
2655.0
 21
5681.499999999978
 31
0.0
  0
INSERT
  5
617D0
330
5DB48
100
AcDbEntity
  8
D-STR-DIM
 62
     0
370
    13
100
AcDbBlockReference
  2
_OPEN
 10
2460.0
 20
5681.499999999978
 30
0.0
 41
40.0
 42
40.0
 43
40.0
 50
180.0
  0
INSERT
  5
617D1
330
5DB48
100
AcDbEntity
  8
D-STR-DIM
 62
     0
370
    13
100
AcDbBlockReference
  2
_OPEN
 10
2695.0
 20
5681.499999999978
 30
0.0
 41
40.0
 42
40.0
 43
40.0
  0
MTEXT
  5
617D2
330
5DB48
100
AcDbEntity
  8
D-STR-DIM
 62
     0
100
AcDbMText
 10
2577.500000000001
 20
5728.999999999978
 30
0.0
 40
70.0
 41
0.0
 71
     5
 72
     1
  1
235
 73
     1
 44
1.0
1001
ACAD
1000
MTEXTBEGIN
1070
    73
1070
     1
1070
    44
1040
1.0
1070
    74
1070
     0
1000
MTEXTEND
  0
POINT
  5
617D3
330
5DB48
100
AcDbEntity
  8
DEFPOINTS
 62
     0
100
AcDbPoint
 10
2460.0
 20
5981.500000000153
 30
0.0
  0
POINT
  5
617D4
330
5DB48
100
AcDbEntity
  8
DEFPOINTS
 62
     0
100
AcDbPoint
 10
2695.0
 20
5981.500000000153
 30
0.0
  0
POINT
  5
617D5
330
5DB48
100
AcDbEntity
  8
DEFPOINTS
 62
     0
100
AcDbPoint
 10
2695.0
 20
5681.499999999978
 30
0.0
  0
ENDBLK
  5
5DB53
330
5DB48
100
AcDbEntity
  8
0
100
AcDbBlockEnd
  0
BLOCK
  5
5DB5E
330
5DB54
100
AcDbEntity
  8
0
100
AcDbBlockBegin
  2
*D46
 70
     1
 10
0.0
 20
0.0
 30
0.0
  3
*D46
  1

  0
LINE
  5
617C4
330
5DB54
100
AcDbEntity
  8
D-STR-DIM
 62
     0
370
    13
100
AcDbLine
 10
2447.5
 20
6301.500000000153
 30
0.0
 11
2135.0
 21
6301.500000000153
 31
0.0
  0
LINE
  5
617C5
330
5DB54
100
AcDbEntity
  8
D-STR-DIM
 62
     0
370
    13
100
AcDbLine
 10
2447.5
 20
6536.500000000152
 30
0.0
 11
2135.0
 21
6536.500000000152
 31
0.0
  0
LINE
  5
617C6
330
5DB54
100
AcDbEntity
  8
D-STR-DIM
 62
     0
370
    13
100
AcDbLine
 10
2160.0
 20
6341.500000000152
 30
0.0
 11
2160.0
 21
6496.500000000152
 31
0.0
  0
INSERT
  5
617C7
330
5DB54
100
AcDbEntity
  8
D-STR-DIM
 62
     0
370
    13
100
AcDbBlockReference
  2
_OPEN
 10
2160.0
 20
6301.500000000153
 30
0.0
 41
40.0
 42
40.0
 43
40.0
 50
270.0
  0
INSERT
  5
617C8
330
5DB54
100
AcDbEntity
  8
D-STR-DIM
 62
     0
370
    13
100
AcDbBlockReference
  2
_OPEN
 10
2160.0
 20
6536.500000000152
 30
0.0
 41
40.0
 42
40.0
 43
40.0
 50
90.0
  0
MTEXT
  5
617C9
330
5DB54
100
AcDbEntity
  8
D-STR-DIM
 62
     0
100
AcDbMText
 10
2112.499999999999
 20
6419.000000000153
 30
0.0
 40
70.0
 41
0.0
 71
     5
 72
     1
  1
235
 11
0.0000000000000001
 21
1.0
 31
0.0
 73
     1
 44
1.0
1001
ACAD
1000
MTEXTBEGIN
1070
    73
1070
     1
1070
    44
1040
1.0
1070
    74
1070
     0
1000
MTEXTEND
  0
POINT
  5
617CA
330
5DB54
100
AcDbEntity
  8
DEFPOINTS
 62
     0
100
AcDbPoint
 10
2460.0
 20
6301.500000000153
 30
0.0
  0
POINT
  5
617CB
330
5DB54
100
AcDbEntity
  8
DEFPOINTS
 62
     0
100
AcDbPoint
 10
2460.0
 20
6536.500000000152
 30
0.0
  0
POINT
  5
617CC
330
5DB54
100
AcDbEntity
  8
DEFPOINTS
 62
     0
100
AcDbPoint
 10
2160.0
 20
6536.500000000152
 30
0.0
  0
ENDBLK
  5
5DB5F
330
5DB54
100
AcDbEntity
  8
0
100
AcDbBlockEnd
  0
BLOCK
  5
5DB6C
330
5DB60
100
AcDbEntity
  8
0
100
AcDbBlockBegin
  2
*D47
 70
     1
 10
0.0
 20
0.0
 30
0.0
  3
*D47
  1

  0
LINE
  5
617B9
330
5DB60
100
AcDbEntity
  8
D-STR-DIM
 62
     0
370
    13
100
AcDbLine
 10
4372.5
 20
6301.500000000153
 30
0.0
 11
4684.999999999527
 21
6301.500000000153
 31
0.0
  0
LINE
  5
617BA
330
5DB60
100
AcDbEntity
  8
D-STR-DIM
 62
     0
370
    13
100
AcDbLine
 10
4372.5
 20
6426.500000000153
 30
0.0
 11
4684.999999999527
 21
6426.500000000153
 31
0.0
  0
LINE
  5
617BB
330
5DB60
100
AcDbEntity
  8
D-STR-DIM
 62
     0
370
    13
100
AcDbLine
 10
4659.999999999526
 20
6261.500000000153
 30
0.0
 11
4659.999999999526
 21
6221.500000000153
 31
0.0
  0
LINE
  5
617BC
330
5DB60
100
AcDbEntity
  8
D-STR-DIM
 62
     0
370
    13
100
AcDbLine
 10
4659.999999999526
 20
6466.500000000152
 30
0.0
 11
4659.999999999526
 21
6506.500000000153
 31
0.0
  0
LINE
  5
617BD
330
5DB60
100
AcDbEntity
  8
D-STR-DIM
 62
     0
370
    13
100
AcDbLine
 10
4659.999999999526
 20
6301.500000000153
 30
0.0
 11
4659.999999999526
 21
6426.500000000153
 31
0.0
  0
INSERT
  5
617BE
330
5DB60
100
AcDbEntity
  8
D-STR-DIM
 62
     0
370
    13
100
AcDbBlockReference
  2
_OPEN
 10
4659.999999999526
 20
6301.500000000153
 30
0.0
 41
40.0
 42
40.0
 43
40.0
 50
90.0
  0
INSERT
  5
617BF
330
5DB60
100
AcDbEntity
  8
D-STR-DIM
 62
     0
370
    13
100
AcDbBlockReference
  2
_OPEN
 10
4659.999999999526
 20
6426.500000000153
 30
0.0
 41
40.0
 42
40.0
 43
40.0
 50
270.0
  0
MTEXT
  5
617C0
330
5DB60
100
AcDbEntity
  8
D-STR-DIM
 62
     0
100
AcDbMText
 10
4612.499999999525
 20
6364.000000000153
 30
0.0
 40
70.0
 41
0.0
 71
     5
 72
     1
  1
125
 11
0.0000000000000001
 21
1.0
 31
0.0
 73
     1
 44
1.0
1001
ACAD
1000
MTEXTBEGIN
1070
    73
1070
     1
1070
    44
1040
1.0
1070
    74
1070
     0
1000
MTEXTEND
  0
POINT
  5
617C1
330
5DB60
100
AcDbEntity
  8
DEFPOINTS
 62
     0
100
AcDbPoint
 10
4360.0
 20
6301.500000000153
 30
0.0
  0
POINT
  5
617C2
330
5DB60
100
AcDbEntity
  8
DEFPOINTS
 62
     0
100
AcDbPoint
 10
4360.0
 20
6426.500000000153
 30
0.0
  0
POINT
  5
617C3
330
5DB60
100
AcDbEntity
  8
DEFPOINTS
 62
     0
100
AcDbPoint
 10
4659.999999999526
 20
6426.500000000153
 30
0.0
  0
ENDBLK
  5
5DB6D
330
5DB60
100
AcDbEntity
  8
0
100
AcDbBlockEnd
  0
BLOCK
  5
5DB7A
330
5DB6E
100
AcDbEntity
  8
0
100
AcDbBlockBegin
  2
*D48
 70
     1
 10
0.0
 20
0.0
 30
0.0
  3
*D48
  1

  0
LINE
  5
617AE
330
5DB6E
100
AcDbEntity
  8
D-STR-DIM
 62
     0
370
    13
100
AcDbLine
 10
2460.0
 20
9014.000000000153
 30
0.0
 11
2460.0
 21
9326.500000000233
 31
0.0
  0
LINE
  5
617AF
330
5DB6E
100
AcDbEntity
  8
D-STR-DIM
 62
     0
370
    13
100
AcDbLine
 10
2585.0
 20
9014.000000000153
 30
0.0
 11
2585.0
 21
9326.500000000233
 31
0.0
  0
LINE
  5
617B0
330
5DB6E
100
AcDbEntity
  8
D-STR-DIM
 62
     0
370
    13
100
AcDbLine
 10
2420.0
 20
9301.500000000233
 30
0.0
 11
2380.0
 21
9301.500000000233
 31
0.0
  0
LINE
  5
617B1
330
5DB6E
100
AcDbEntity
  8
D-STR-DIM
 62
     0
370
    13
100
AcDbLine
 10
2625.0
 20
9301.500000000233
 30
0.0
 11
2665.0
 21
9301.500000000233
 31
0.0
  0
LINE
  5
617B2
330
5DB6E
100
AcDbEntity
  8
D-STR-DIM
 62
     0
370
    13
100
AcDbLine
 10
2460.0
 20
9301.500000000233
 30
0.0
 11
2585.0
 21
9301.500000000233
 31
0.0
  0
INSERT
  5
617B3
330
5DB6E
100
AcDbEntity
  8
D-STR-DIM
 62
     0
370
    13
100
AcDbBlockReference
  2
_OPEN
 10
2460.0
 20
9301.500000000233
 30
0.0
 41
40.0
 42
40.0
 43
40.0
  0
INSERT
  5
617B4
330
5DB6E
100
AcDbEntity
  8
D-STR-DIM
 62
     0
370
    13
100
AcDbBlockReference
  2
_OPEN
 10
2585.0
 20
9301.500000000233
 30
0.0
 41
40.0
 42
40.0
 43
40.0
 50
180.0
  0
MTEXT
  5
617B5
330
5DB6E
100
AcDbEntity
  8
D-STR-DIM
 62
     0
100
AcDbMText
 10
2522.5
 20
9349.000000000232
 30
0.0
 40
70.0
 41
0.0
 71
     5
 72
     1
  1
125
 73
     1
 44
1.0
1001
ACAD
1000
MTEXTBEGIN
1070
    73
1070
     1
1070
    44
1040
1.0
1070
    74
1070
     0
1000
MTEXTEND
  0
POINT
  5
617B6
330
5DB6E
100
AcDbEntity
  8
DEFPOINTS
 62
     0
100
AcDbPoint
 10
2460.0
 20
9001.500000000154
 30
0.0
  0
POINT
  5
617B7
330
5DB6E
100
AcDbEntity
  8
DEFPOINTS
 62
     0
100
AcDbPoint
 10
2585.0
 20
9001.500000000154
 30
0.0
  0
POINT
  5
617B8
330
5DB6E
100
AcDbEntity
  8
DEFPOINTS
 62
     0
100
AcDbPoint
 10
2585.0
 20
9301.500000000233
 30
0.0
  0
ENDBLK
  5
5DB7B
330
5DB6E
100
AcDbEntity
  8
0
100
AcDbBlockEnd
  0
ENDSEC
  0
SECTION
  2
ENTITIES
  0
DIMENSION
  5
5C9B1
330
1F
100
AcDbEntity
  8
D-STR-DIM
100
AcDbDimension
  2
*D1
 10
12960.0
 20
9301.500000000233
 30
0.0
 11
12760.0
 21
9349.000000000232
 31
0.0
 70
    32
 71
     5
 42
400.0
  3
SXF-20
100
AcDbAlignedDimension
 13
12560.0
 23
9001.500000000154
 33
0.0
 14
12960.0
 24
8701.500000000153
 34
0.0
100
AcDbRotatedDimension
  0
DIMENSION
  5
5C9B2
330
1F
100
AcDbEntity
  8
D-STR-DIM
100
AcDbDimension
  2
*D2
 10
13260.00000000012
 20
8701.500000000153
 30
0.0
 11
13212.50000000012
 21
8851.500000000156
 31
0.0
 70
    32
 71
     5
 42
300.0
  3
SXF-20
100
AcDbAlignedDimension
 13
12560.0
 23
9001.500000000154
 33
0.0
 14
12960.0
 24
8701.500000000153
 34
0.0
 50
90.0
100
AcDbRotatedDimension
  0
ELLIPSE
  5
5C9B3
330
1F
100
AcDbEntity
  8
D-BGD
100
AcDbEllipse
 10
12662.93853545723
 20
6865.05803190828
 30
0.0
 11
11.16369874766583
 21
63.31248174732633
 31
0.0
210
0.0
220
0.0
230
0.9999999999999998
 40
0.5000000000000001
 41
-3.281916040404211
 42
0.9614033261202346
  0
ELLIPSE
  5
5C9B4
330
1F
100
AcDbEntity
  8
D-BGD
100
AcDbEllipse
 10
12597.16149654584
 20
8637.210821169386
 30
0.0
 11
11.16369874766583
 21
63.31248174732633
 31
0.0
210
0.0
220
0.0
230
0.9999999999999998
 40
0.5000000000000001
 41
-3.453522309452993
 42
1.132984814827704
  0
LINE
  5
5C9B5
330
1F
100
AcDbEntity
  8
D-BGD
100
AcDbLine
 10
12914.88299235514
 20
6801.500237692394
 30
0.0
 11
12923.90516539816
 21
6801.500237692394
 31
0.0
  0
ELLIPSE
  5
5C9B6
330
1F
100
AcDbEntity
  8
D-BGD
100
AcDbEllipse
 10
12860.26965219142
 20
6865.05803190828
 30
0.0
 11
11.16369874766583
 21
63.31248174732633
 31
0.0
210
0.0
220
0.0
230
0.9999999999999998
 40
0.5000000000000001
 41
1.396263401595463
 42
7.67944870877505
  0
ELLIPSE
  5
5C9B7
330
1F
100
AcDbEntity
  8
D-BGD
100
AcDbEllipse
 10
12926.04669110281
 20
6865.05803190828
 30
0.0
 11
11.16369874766583
 21
63.31248174732633
 31
0.0
210
0.0
220
0.0
230
0.9999999999999998
 40
0.5000000000000001
 41
1.396263401595463
 42
7.67944870877505
  0
ELLIPSE
  5
5C9B8
330
1F
100
AcDbEntity
  8
D-BGD
100
AcDbEllipse
 10
12794.49261328002
 20
6865.05803190828
 30
0.0
 11
11.16369874766583
 21
63.31248174732633
 31
0.0
210
0.0
220
0.0
230
0.9999999999999998
 40
0.5000000000000001
 41
1.396263401595463
 42
7.67944870877505
  0
ELLIPSE
  5
5C9B9
330
1F
100
AcDbEntity
  8
D-BGD
100
AcDbEllipse
 10
12728.71557436863
 20
6865.05803190828
 30
0.0
 11
11.16369874766583
 21
63.31248174732633
 31
0.0
210
0.0
220
0.0
230
0.9999999999999998
 40
0.5000000000000001
 41
1.396263401595463
 42
7.67944870877505
  0
LINE
  5
5C9BA
330
1F
100
AcDbEntity
  8
D-BGD
100
AcDbLine
 10
12647.5226039783
 20
6801.500000000153
 30
0.0
 11
12960.0
 21
6801.500000000153
 31
0.0
  0
DIMENSION
  5
5C9BB
330
1F
100
AcDbEntity
  8
D-STR-DIM
100
AcDbDimension
  2
*D3
 10
13260.00000000008
 20
6801.500000000153
 30
0.0
 11
13212.50000000008
 21
7751.500000000156
 31
0.0
 70
    32
 71
     5
 42
1900.000000000001
  3
SXF-20
100
AcDbAlignedDimension
 13
12960.0
 23
8701.500000000153
 33
0.0
 14
12960.0
 24
6801.500000000153
 34
0.0
 50
90.0
100
AcDbRotatedDimension
  0
ELLIPSE
  5
5C9BC
330
1F
100
AcDbEntity
  8
D-BGD
100
AcDbEllipse
 10
12728.71557436863
 20
8637.210821169386
 30
0.0
 11
11.16369874766583
 21
63.31248174732633
 31
0.0
210
0.0
220
0.0
230
0.9999999999999998
 40
0.5000000000000001
 41
1.396263401595463
 42
7.67944870877505
  0
ELLIPSE
  5
5C9BD
330
1F
100
AcDbEntity
  8
D-BGD
100
AcDbEllipse
 10
12662.93853545723
 20
8637.210821169386
 30
0.0
 11
11.16369874766583
 21
63.31248174732633
 31
0.0
210
0.0
220
0.0
230
0.9999999999999998
 40
0.5000000000000001
 41
1.396263401595463
 42
7.67944870877505
  0
ELLIPSE
  5
5C9BE
330
1F
100
AcDbEntity
  8
D-BGD
100
AcDbEllipse
 10
12794.49261328002
 20
8637.210821169386
 30
0.0
 11
11.16369874766583
 21
63.31248174732633
 31
0.0
210
0.0
220
0.0
230
0.9999999999999998
 40
0.5000000000000001
 41
1.396263401595463
 42
7.67944870877505
  0
ELLIPSE
  5
5C9BF
330
1F
100
AcDbEntity
  8
D-BGD
100
AcDbEllipse
 10
12860.26965219142
 20
8637.210821169386
 30
0.0
 11
11.16369874766583
 21
63.31248174732633
 31
0.0
210
0.0
220
0.0
230
0.9999999999999998
 40
0.5000000000000001
 41
1.396263401595463
 42
7.67944870877505
  0
ELLIPSE
  5
5C9C0
330
1F
100
AcDbEntity
  8
D-BGD
100
AcDbEllipse
 10
12926.04669110281
 20
8637.210821169386
 30
0.0
 11
11.16369874766583
 21
63.31248174732633
 31
0.0
210
0.0
220
0.0
230
0.9999999999999998
 40
0.5000000000000001
 41
1.396263401595463
 42
7.67944870877505
  0
LINE
  5
5C9C1
330
1F
100
AcDbEntity
  8
D-BGD
100
AcDbLine
 10
12960.0
 20
8701.500000000153
 30
0.0
 11
12960.0
 21
6801.500000000153
 31
0.0
  0
LINE
  5
5C9C2
330
1F
100
AcDbEntity
  8
D-BGD
100
AcDbLine
 10
12571.93490054249
 20
8701.500000000153
 30
0.0
 11
12960.0
 21
8701.500000000153
 31
0.0
  0
DIMENSION
  5
5C9D3
330
1F
100
AcDbEntity
  8
D-STR-DIM
100
AcDbDimension
  2
*D4
 10
7960.0
 20
9301.500000000233
 30
0.0
 11
7760.0
 21
9349.000000000232
 31
0.0
 70
    32
 71
     5
 42
400.0
  3
SXF-20
100
AcDbAlignedDimension
 13
7560.0
 23
9001.500000000154
 33
0.0
 14
7960.0
 24
8701.500000000153
 34
0.0
100
AcDbRotatedDimension
  0
DIMENSION
  5
5C9D4
330
1F
100
AcDbEntity
  8
D-STR-DIM
100
AcDbDimension
  2
*D5
 10
8260.000000000117
 20
8701.500000000153
 30
0.0
 11
8212.500000000115
 21
8851.500000000156
 31
0.0
 70
    32
 71
     5
 42
300.0
  3
SXF-20
100
AcDbAlignedDimension
 13
7560.0
 23
9001.500000000154
 33
0.0
 14
7960.0
 24
8701.500000000153
 34
0.0
 50
90.0
100
AcDbRotatedDimension
  0
ELLIPSE
  5
5C9D5
330
1F
100
AcDbEntity
  8
D-BGD
100
AcDbEllipse
 10
7662.938535457236
 20
7065.05803190828
 30
0.0
 11
11.16369874766583
 21
63.31248174732633
 31
0.0
210
0.0
220
0.0
230
0.9999999999999998
 40
0.5000000000000001
 41
-3.343394249053067
 42
1.033769968961528
  0
ELLIPSE
  5
5C9D6
330
1F
100
AcDbEntity
  8
D-BGD
100
AcDbEllipse
 10
7597.161496545843
 20
8637.210821169386
 30
0.0
 11
11.16369874766583
 21
63.31248174732633
 31
0.0
210
0.0
220
0.0
230
0.9999999999999998
 40
0.5000000000000001
 41
-3.403473121439496
 42
1.093828098435626
  0
LINE
  5
5C9D7
330
1F
100
AcDbEntity
  8
D-BGD
100
AcDbLine
 10
7914.882992355146
 20
7001.500237692394
 30
0.0
 11
7923.905165398166
 21
7001.500237692394
 31
0.0
  0
ELLIPSE
  5
5C9D8
330
1F
100
AcDbEntity
  8
D-BGD
100
AcDbEllipse
 10
7860.269652191418
 20
7065.05803190828
 30
0.0
 11
11.16369874766583
 21
63.31248174732633
 31
0.0
210
0.0
220
0.0
230
0.9999999999999998
 40
0.5000000000000001
 41
1.396263401595463
 42
7.67944870877505
  0
ELLIPSE
  5
5C9D9
330
1F
100
AcDbEntity
  8
D-BGD
100
AcDbEllipse
 10
7926.046691102813
 20
7065.05803190828
 30
0.0
 11
11.16369874766583
 21
63.31248174732633
 31
0.0
210
0.0
220
0.0
230
0.9999999999999998
 40
0.5000000000000001
 41
1.396263401595463
 42
7.67944870877505
  0
ELLIPSE
  5
5C9DA
330
1F
100
AcDbEntity
  8
D-BGD
100
AcDbEllipse
 10
7794.492613280024
 20
7065.05803190828
 30
0.0
 11
11.16369874766583
 21
63.31248174732633
 31
0.0
210
0.0
220
0.0
230
0.9999999999999998
 40
0.5000000000000001
 41
1.396263401595463
 42
7.67944870877505
  0
ELLIPSE
  5
5C9DB
330
1F
100
AcDbEntity
  8
D-BGD
100
AcDbEllipse
 10
7728.715574368631
 20
7065.05803190828
 30
0.0
 11
11.16369874766583
 21
63.31248174732633
 31
0.0
210
0.0
220
0.0
230
0.9999999999999998
 40
0.5000000000000001
 41
1.396263401595463
 42
7.67944870877505
  0
LINE
  5
5C9DC
330
1F
100
AcDbEntity
  8
D-BGD
100
AcDbLine
 10
7645.769980506826
 20
7001.500000000153
 30
0.0
 11
7960.0
 21
7001.500000000153
 31
0.0
  0
DIMENSION
  5
5C9DD
330
1F
100
AcDbEntity
  8
D-STR-DIM
100
AcDbDimension
  2
*D6
 10
8260.000000000074
 20
7001.500000000153
 30
0.0
 11
8212.500000000071
 21
7851.500000000154
 31
0.0
 70
    32
 71
     5
 42
1700.0
  3
SXF-20
100
AcDbAlignedDimension
 13
7960.0
 23
8701.500000000153
 33
0.0
 14
7960.0
 24
7001.500000000153
 34
0.0
 50
90.0
100
AcDbRotatedDimension
  0
ELLIPSE
  5
5C9DE
330
1F
100
AcDbEntity
  8
D-BGD
100
AcDbEllipse
 10
7728.715574368631
 20
8637.210821169386
 30
0.0
 11
11.16369874766583
 21
63.31248174732633
 31
0.0
210
0.0
220
0.0
230
0.9999999999999998
 40
0.5000000000000001
 41
1.396263401595463
 42
7.67944870877505
  0
ELLIPSE
  5
5C9DF
330
1F
100
AcDbEntity
  8
D-BGD
100
AcDbEllipse
 10
7662.938535457236
 20
8637.210821169386
 30
0.0
 11
11.16369874766583
 21
63.31248174732633
 31
0.0
210
0.0
220
0.0
230
0.9999999999999998
 40
0.5000000000000001
 41
1.396263401595463
 42
7.67944870877505
  0
ELLIPSE
  5
5C9E0
330
1F
100
AcDbEntity
  8
D-BGD
100
AcDbEllipse
 10
7794.492613280024
 20
8637.210821169386
 30
0.0
 11
11.16369874766583
 21
63.31248174732633
 31
0.0
210
0.0
220
0.0
230
0.9999999999999998
 40
0.5000000000000001
 41
1.396263401595463
 42
7.67944870877505
  0
ELLIPSE
  5
5C9E1
330
1F
100
AcDbEntity
  8
D-BGD
100
AcDbEllipse
 10
7860.269652191418
 20
8637.210821169386
 30
0.0
 11
11.16369874766583
 21
63.31248174732633
 31
0.0
210
0.0
220
0.0
230
0.9999999999999998
 40
0.5000000000000001
 41
1.396263401595463
 42
7.67944870877505
  0
ELLIPSE
  5
5C9E2
330
1F
100
AcDbEntity
  8
D-BGD
100
AcDbEllipse
 10
7926.046691102813
 20
8637.210821169386
 30
0.0
 11
11.16369874766583
 21
63.31248174732633
 31
0.0
210
0.0
220
0.0
230
0.9999999999999998
 40
0.5000000000000001
 41
1.396263401595463
 42
7.67944870877505
  0
LINE
  5
5C9E3
330
1F
100
AcDbEntity
  8
D-BGD
100
AcDbLine
 10
7960.0
 20
8701.500000000153
 30
0.0
 11
7960.0
 21
7001.500000000153
 31
0.0
  0
LINE
  5
5C9E4
330
1F
100
AcDbEntity
  8
D-BGD
100
AcDbLine
 10
7572.865497076026
 20
8701.500000000153
 30
0.0
 11
7960.0
 21
8701.500000000153
 31
0.0
  0
ELLIPSE
  5
5C9EE
330
1F
100
AcDbEntity
  8
D-BGD
100
AcDbEllipse
 10
2687.938535457237
 20
7165.05803190828
 30
0.0
 11
11.16369874766583
 21
63.31248174732633
 31
0.0
210
0.0
220
0.0
230
0.9999999999999998
 40
0.5000000000000001
 41
-3.379856888718011
 42
1.076417650996594
  0
DIMENSION
  5
5C9F6
330
1F
100
AcDbEntity
  8
D-STR-DIM
100
AcDbDimension
  2
*D7
 10
2985.0
 20
9301.500000000233
 30
0.0
 11
2785.0
 21
9349.000000000232
 31
0.0
 70
    32
 71
     5
 42
400.0
  3
SXF-20
100
AcDbAlignedDimension
 13
2585.0
 23
9001.500000000154
 33
0.0
 14
2985.0
 24
8701.500000000153
 34
0.0
100
AcDbRotatedDimension
  0
DIMENSION
  5
5C9F7
330
1F
100
AcDbEntity
  8
D-STR-DIM
100
AcDbDimension
  2
*D8
 10
3285.000000000117
 20
8701.500000000153
 30
0.0
 11
3237.500000000115
 21
8851.500000000154
 31
0.0
 70
    32
 71
     5
 42
300.0
  3
SXF-20
100
AcDbAlignedDimension
 13
2585.0
 23
9001.500000000154
 33
0.0
 14
2985.0
 24
8701.500000000153
 34
0.0
 50
90.0
100
AcDbRotatedDimension
  0
ELLIPSE
  5
5C9F8
330
1F
100
AcDbEntity
  8
D-BGD
100
AcDbEllipse
 10
2622.161496545843
 20
8637.210821169386
 30
0.0
 11
11.16369874766583
 21
63.31248174732633
 31
0.0
210
0.0
220
0.0
230
0.9999999999999998
 40
0.5000000000000001
 41
-3.376143572052471
 42
1.072608521739825
  0
LINE
  5
5C9F9
330
1F
100
AcDbEntity
  8
D-BGD
100
AcDbLine
 10
2939.882992355146
 20
7101.500237692395
 30
0.0
 11
2948.905165398166
 21
7101.500237692395
 31
0.0
  0
ELLIPSE
  5
5C9FA
330
1F
100
AcDbEntity
  8
D-BGD
100
AcDbEllipse
 10
2885.269652191419
 20
7165.05803190828
 30
0.0
 11
11.16369874766583
 21
63.31248174732633
 31
0.0
210
0.0
220
0.0
230
0.9999999999999998
 40
0.5000000000000001
 41
1.396263401595463
 42
7.67944870877505
  0
ELLIPSE
  5
5C9FB
330
1F
100
AcDbEntity
  8
D-BGD
100
AcDbEllipse
 10
2951.046691102813
 20
7165.05803190828
 30
0.0
 11
11.16369874766583
 21
63.31248174732633
 31
0.0
210
0.0
220
0.0
230
0.9999999999999998
 40
0.5000000000000001
 41
1.396263401595463
 42
7.67944870877505
  0
ELLIPSE
  5
5C9FC
330
1F
100
AcDbEntity
  8
D-BGD
100
AcDbEllipse
 10
2819.492613280025
 20
7165.05803190828
 30
0.0
 11
11.16369874766583
 21
63.31248174732633
 31
0.0
210
0.0
220
0.0
230
0.9999999999999998
 40
0.5000000000000001
 41
1.396263401595463
 42
7.67944870877505
  0
ELLIPSE
  5
5C9FD
330
1F
100
AcDbEntity
  8
D-BGD
100
AcDbEllipse
 10
2753.715574368631
 20
7165.05803190828
 30
0.0
 11
11.16369874766583
 21
63.31248174732633
 31
0.0
210
0.0
220
0.0
230
0.9999999999999998
 40
0.5000000000000001
 41
1.396263401595463
 42
7.67944870877505
  0
LINE
  5
5C9FE
330
1F
100
AcDbEntity
  8
D-BGD
100
AcDbLine
 10
2669.787018255578
 20
7101.500000000154
 30
0.0
 11
2985.0
 21
7101.500000000154
 31
0.0
  0
DIMENSION
  5
5C9FF
330
1F
100
AcDbEntity
  8
D-STR-DIM
100
AcDbDimension
  2
*D9
 10
3285.000000000073
 20
7101.500000000154
 30
0.0
 11
3237.500000000072
 21
7901.500000000154
 31
0.0
 70
    32
 71
     5
 42
1599.999999999999
  3
SXF-20
100
AcDbAlignedDimension
 13
2985.0
 23
8701.500000000153
 33
0.0
 14
2985.0
 24
7101.500000000154
 34
0.0
 50
90.0
100
AcDbRotatedDimension
  0
ELLIPSE
  5
5CA00
330
1F
100
AcDbEntity
  8
D-BGD
100
AcDbEllipse
 10
2753.715574368631
 20
8637.210821169386
 30
0.0
 11
11.16369874766583
 21
63.31248174732633
 31
0.0
210
0.0
220
0.0
230
0.9999999999999998
 40
0.5000000000000001
 41
1.396263401595463
 42
7.67944870877505
  0
ELLIPSE
  5
5CA01
330
1F
100
AcDbEntity
  8
D-BGD
100
AcDbEllipse
 10
2687.938535457237
 20
8637.210821169386
 30
0.0
 11
11.16369874766583
 21
63.31248174732633
 31
0.0
210
0.0
220
0.0
230
0.9999999999999998
 40
0.5000000000000001
 41
1.396263401595463
 42
7.67944870877505
  0
ELLIPSE
  5
5CA02
330
1F
100
AcDbEntity
  8
D-BGD
100
AcDbEllipse
 10
2819.492613280025
 20
8637.210821169386
 30
0.0
 11
11.16369874766583
 21
63.31248174732633
 31
0.0
210
0.0
220
0.0
230
0.9999999999999998
 40
0.5000000000000001
 41
1.396263401595463
 42
7.67944870877505
  0
ELLIPSE
  5
5CA03
330
1F
100
AcDbEntity
  8
D-BGD
100
AcDbEllipse
 10
2885.269652191419
 20
8637.210821169386
 30
0.0
 11
11.16369874766583
 21
63.31248174732633
 31
0.0
210
0.0
220
0.0
230
0.9999999999999998
 40
0.5000000000000001
 41
1.396263401595463
 42
7.67944870877505
  0
ELLIPSE
  5
5CA04
330
1F
100
AcDbEntity
  8
D-BGD
100
AcDbEllipse
 10
2951.046691102813
 20
8637.210821169386
 30
0.0
 11
11.16369874766583
 21
63.31248174732633
 31
0.0
210
0.0
220
0.0
230
0.9999999999999998
 40
0.5000000000000001
 41
1.396263401595463
 42
7.67944870877505
  0
LINE
  5
5CA05
330
1F
100
AcDbEntity
  8
D-BGD
100
AcDbLine
 10
2985.0
 20
8701.500000000153
 30
0.0
 11
2985.0
 21
7101.500000000154
 31
0.0
  0
LINE
  5
5CA06
330
1F
100
AcDbEntity
  8
D-BGD
100
AcDbLine
 10
2598.387423935092
 20
8701.500000000153
 30
0.0
 11
2985.0
 21
8701.500000000153
 31
0.0
  0
LINE
  5
5CBEA
330
1F
100
AcDbEntity
  8
DEFPOINTS
100
AcDbLine
 10
0.0
 20
11880.0
 30
0.0
 11
16820.0
 21
11880.0
 31
0.0
  0
LINE
  5
5CBFF
330
1F
100
AcDbEntity
  8
DEFPOINTS
100
AcDbLine
 10
16820.0
 20
0.0
 30
0.0
 11
0.0
 21
0.0
 31
0.0
  0
LINE
  5
5CC00
330
1F
100
AcDbEntity
  8
DEFPOINTS
100
AcDbLine
 10
16820.0
 20
11880.0
 30
0.0
 11
16820.0
 21
0.0
 31
0.0
  0
LINE
  5
5CC01
330
1F
100
AcDbEntity
  8
D-TTL
100
AcDbLine
 10
16520.0
 20
300.0
 30
0.0
 11
300.0
 21
300.0
 31
0.0
  0
LINE
  5
5CC02
330
1F
100
AcDbEntity
  8
D-TTL
100
AcDbLine
 10
16520.0
 20
11580.0
 30
0.0
 11
16520.0
 21
300.0
 31
0.0
  0
LINE
  5
5CC03
330
1F
100
AcDbEntity
  8
D-TTL
100
AcDbLine
 10
300.0
 20
11580.0
 30
0.0
 11
16520.0
 21
11580.0
 31
0.0
  0
LINE
  5
5CC04
330
1F
100
AcDbEntity
  8
D-TTL
100
AcDbLine
 10
300.0
 20
300.0
 30
0.0
 11
300.0
 21
11580.0
 31
0.0
  0
ARC
  5
5CC07
330
1F
100
AcDbEntity
  8
D-STR
100
AcDbCircle
 10
12910.81438353438
 20
6472.363904858925
 30
0.0
 40
250.0
100
AcDbArc
 50
182.278196715744
 51
266.5317707410324
  0
LINE
  5
5CC08
330
1F
100
AcDbEntity
  8
D-STR
100
AcDbLine
 10
12560.0
 20
9001.500000000154
 30
0.0
 11
12661.01198491353
 21
6462.426015582867
 31
0.0
  0
LINE
  5
5CC09
330
1F
100
AcDbEntity
  8
D-STR
100
AcDbLine
 10
14485.0
 20
6126.500000000152
 30
0.0
 11
12895.69061843391
 21
6222.821780701124
 31
0.0
  0
DIMENSION
  5
5CC4E
330
1F
100
AcDbEntity
  8
D-STR-DIM
100
AcDbDimension
  2
*D10
 10
11715.0
 20
5981.500000000153
 30
0.0
 11
11667.5
 21
5991.500000000154
 31
0.0
 70
    32
 71
     5
 42
20.0
  3
SXF-20
100
AcDbAlignedDimension
 13
12435.0
 23
6001.500000000152
 33
0.0
 14
12335.0
 24
5981.500000000153
 34
0.0
 50
90.0
100
AcDbRotatedDimension
  0
DIMENSION
  5
5CC4F
330
1F
100
AcDbEntity
  8
D-STR-DIM
100
AcDbDimension
  2
*D11
 10
11715.0
 20
5881.500000000153
 30
0.0
 11
11785.0
 21
5931.500000000155
 31
0.0
 70
    32
 71
     5
 42
100.0
  3
SXF-20
100
AcDbAlignedDimension
 13
12335.0
 23
5981.500000000153
 33
0.0
 14
12335.0
 24
5881.500000000153
 34
0.0
 50
90.0
100
AcDbRotatedDimension
1001
ACAD
1000
DSTYLE
1002
{
1070
    77
1070
     0
1070
   145
1040
-1.0
1002
}
  0
DIMENSION
  5
5CC50
330
1F
100
AcDbEntity
  8
D-STR-DIM
100
AcDbDimension
  2
*D12
 10
11714.99999999994
 20
5681.500000000153
 30
0.0
 11
11667.49999999994
 21
5781.500000000154
 31
0.0
 70
    32
 71
     5
 42
200.0
  3
SXF-20
100
AcDbAlignedDimension
 13
12335.0
 23
5881.500000000153
 33
0.0
 14
12335.0
 24
5681.500000000153
 34
0.0
 50
90.0
100
AcDbRotatedDimension
  0
DIMENSION
  5
5CC5F
330
1F
100
AcDbEntity
  8
D-STR-DIM
100
AcDbDimension
  2
*D13
 10
11714.99999999993
 20
9001.500000000154
 30
0.0
 11
11667.49999999992
 21
7501.500000000156
 31
0.0
 70
    32
 71
     5
 42
3000.000000000001
  3
SXF-20
100
AcDbAlignedDimension
 13
12435.0
 23
6001.500000000152
 33
0.0
 14
12435.0
 24
9001.500000000154
 34
0.0
 50
90.0
100
AcDbRotatedDimension
  0
DIMENSION
  5
5CC60
330
1F
100
AcDbEntity
  8
D-STR-DIM
100
AcDbDimension
  2
*D14
 10
11914.99999999993
 20
6901.500000000154
 30
0.0
 11
11867.49999999993
 21
6451.500000000155
 31
0.0
 70
    32
 71
     5
 42
900.0
  3
SXF-20
100
AcDbAlignedDimension
 13
12435.0
 23
6001.500000000152
 33
0.0
 14
12415.0
 24
6901.500000000154
 34
0.0
 50
90.0
100
AcDbRotatedDimension
  0
LINE
  5
5CC61
330
1F
100
AcDbEntity
  8
D-BMK
100
AcDbLine
 10
12415.0
 20
6901.500000000154
 30
0.0
 11
12663.54430379747
 21
6901.500000000154
 31
0.0
  0
LINE
  5
5CC62
330
1F
100
AcDbEntity
  8
D-STR
  6
SXF_破線
100
AcDbLine
 10
12435.0
 20
6864.000000000153
 30
0.0
 11
12645.03616636528
 21
6864.000000000153
 31
0.0
  0
LINE
  5
5CC63
330
1F
100
AcDbEntity
  8
D-STR
  6
SXF_破線
100
AcDbLine
 10
12435.0
 20
6939.000000000153
 30
0.0
 11
12642.05244122966
 21
6939.000000000153
 31
0.0
  0
POLYLINE
  5
5CC64
330
1F
100
AcDbEntity
  8
D-STR-HTXT
  6
Continuous
100
AcDb2dPolyline
 66
     1
 10
0.0
 20
0.0
 30
0.0
  0
VERTEX
  5
5CC65
330
5CC64
100
AcDbEntity
  8
D-STR-HTXT
  6
Continuous
100
AcDbVertex
100
AcDb2dVertex
 10
12749.88909844307
 20
6322.181271084068
 30
0.0
  0
VERTEX
  5
5CC66
330
5CC64
100
AcDbEntity
  8
D-STR-HTXT
  6
Continuous
100
AcDbVertex
100
AcDb2dVertex
 10
12732.21142891341
 20
6297.43253374254
 30
0.0
  0
VERTEX
  5
5CC67
330
5CC64
100
AcDbEntity
  8
D-STR-HTXT
  6
Continuous
100
AcDbVertex
100
AcDb2dVertex
 10
12756.96016625494
 20
6315.110203272197
 30
0.0
  0
SEQEND
  5
5CC68
330
5CC64
100
AcDbEntity
  8
D-STR-HTXT
  6
Continuous
  0
LEADER
  5
5CC69
330
1F
100
AcDbEntity
  8
D-STR-HTXT
100
AcDbLeader
  3
SXF-20
 71
     0
 73
     0
 40
17.5
 41
48.99999999999991
 76
     3
 10
12732.21142891341
 20
6297.43253374254
 30
0.0
 10
12781.19111651779
 20
6346.412221346923
 30
0.0
 10
12919.78404563036
 20
6485.005150459489
 30
0.0
211
0.7071067811865522
221
0.707106781186543
231
0.0
  0
DIMENSION
  5
5CC6C
330
1F
100
AcDbEntity
  8
D-STR-DIM
100
AcDbDimension
  2
*D15
 10
14585.0
 20
4981.500000000014
 30
0.0
 11
13460.0
 21
5029.000000000015
 31
0.0
 70
    32
 71
     5
 42
2250.0
  3
SXF-20
100
AcDbAlignedDimension
 13
12335.0
 23
5681.500000000153
 33
0.0
 14
14585.0
 24
5681.500000000153
 34
0.0
100
AcDbRotatedDimension
  0
DIMENSION
  5
5CC6D
330
1F
100
AcDbEntity
  8
D-STR-DIM
100
AcDbDimension
  2
*D16
 10
14585.0
 20
5181.499999999999
 30
0.0
 11
14535.0
 21
5229.0
 31
0.0
 70
    32
 71
     5
 42
100.0
  3
SXF-20
100
AcDbAlignedDimension
 13
14485.0
 23
5681.500000000153
 33
0.0
 14
14585.0
 24
5681.500000000153
 34
0.0
100
AcDbRotatedDimension
  0
DIMENSION
  5
5CC6E
330
1F
100
AcDbEntity
  8
D-STR-DIM
100
AcDbDimension
  2
*D17
 10
14485.0
 20
5181.499999999999
 30
0.0
 11
13460.0
 21
5229.0
 31
0.0
 70
    32
 71
     5
 42
2050.0
  3
SXF-20
100
AcDbAlignedDimension
 13
12435.0
 23
5681.500000000153
 33
0.0
 14
14485.0
 24
5681.500000000153
 34
0.0
100
AcDbRotatedDimension
  0
DIMENSION
  5
5CC6F
330
1F
100
AcDbEntity
  8
D-STR-DIM
100
AcDbDimension
  2
*D18
 10
12435.0
 20
5181.499999999999
 30
0.0
 11
12385.0
 21
5229.0
 31
0.0
 70
    32
 71
     5
 42
100.0
  3
SXF-20
100
AcDbAlignedDimension
 13
12335.0
 23
5681.500000000153
 33
0.0
 14
12435.0
 24
5681.500000000153
 34
0.0
100
AcDbRotatedDimension
  0
ELLIPSE
  5
5CC70
330
1F
100
AcDbEntity
  8
D-BGD
100
AcDbEllipse
 10
14327.55793940741
 20
5781.500000000153
 30
0.0
 11
17.36481776669304
 21
98.48077530122081
 31
0.0
210
0.0
220
0.0
230
1.0
 40
0.5000000000000002
 41
1.396263401595463
 42
7.67944870877505
  0
ELLIPSE
  5
5CC71
330
1F
100
AcDbEntity
  8
D-BGD
100
AcDbEllipse
 10
14429.87226369602
 20
5781.500000000153
 30
0.0
 11
17.36481776669304
 21
98.48077530122081
 31
0.0
210
0.0
220
0.0
230
1.0
 40
0.5000000000000002
 41
1.396263401595463
 42
7.67944870877505
  0
ELLIPSE
  5
5CC72
330
1F
100
AcDbEntity
  8
D-BGD
100
AcDbEllipse
 10
14532.18658798464
 20
5781.500000000153
 30
0.0
 11
17.36481776669304
 21
98.48077530122081
 31
0.0
210
0.0
220
0.0
230
1.0
 40
0.5000000000000002
 41
1.396263401595463
 42
7.67944870877505
  0
ELLIPSE
  5
5CC73
330
1F
100
AcDbEntity
  8
D-BGD
100
AcDbEllipse
 10
12592.44206059259
 20
5781.500000000153
 30
0.0
 11
17.36481776669304
 21
98.48077530122081
 31
0.0
210
0.0
220
0.0
230
1.0
 40
0.5000000000000002
 41
1.396263401595463
 42
7.67944870877505
  0
ELLIPSE
  5
5CC74
330
1F
100
AcDbEntity
  8
D-BGD
100
AcDbEllipse
 10
12490.12773630398
 20
5781.500000000153
 30
0.0
 11
17.36481776669304
 21
98.48077530122081
 31
0.0
210
0.0
220
0.0
230
1.0
 40
0.5000000000000002
 41
1.396263401595463
 42
7.67944870877505
  0
ELLIPSE
  5
5CC75
330
1F
100
AcDbEntity
  8
D-BGD
100
AcDbEllipse
 10
12387.81341201538
 20
5781.500000000153
 30
0.0
 11
17.36481776669304
 21
98.48077530122081
 31
0.0
210
0.0
220
0.0
230
1.0
 40
0.5000000000000002
 41
1.396263401595463
 42
7.67944870877505
  0
LINE
  5
5CC76
330
1F
100
AcDbEntity
  8
D-BGD
100
AcDbLine
 10
14485.0
 20
6001.500000000152
 30
0.0
 11
14485.0
 21
5981.500000000153
 31
0.0
  0
LINE
  5
5CC77
330
1F
100
AcDbEntity
  8
D-BGD
100
AcDbLine
 10
12435.0
 20
6001.500000000152
 30
0.0
 11
12435.0
 21
5981.500000000153
 31
0.0
  0
LINE
  5
5CC78
330
1F
100
AcDbEntity
  8
D-BGD
100
AcDbLine
 10
12335.0
 20
5681.500000000153
 30
0.0
 11
12335.0
 21
5981.500000000153
 31
0.0
  0
LINE
  5
5CC79
330
1F
100
AcDbEntity
  8
D-BGD
100
AcDbLine
 10
14585.0
 20
5681.500000000153
 30
0.0
 11
14585.0
 21
5981.500000000153
 31
0.0
  0
LINE
  5
5CC7A
330
1F
100
AcDbEntity
  8
D-BGD
100
AcDbLine
 10
12335.0
 20
5681.500000000153
 30
0.0
 11
14585.0
 21
5681.500000000153
 31
0.0
  0
LINE
  5
5CC7B
330
1F
100
AcDbEntity
  8
D-BGD
100
AcDbLine
 10
12335.0
 20
5881.500000000153
 30
0.0
 11
14585.0
 21
5881.500000000153
 31
0.0
  0
LINE
  5
5CC7C
330
1F
100
AcDbEntity
  8
D-BGD
100
AcDbLine
 10
12335.0
 20
5981.500000000153
 30
0.0
 11
14585.0
 21
5981.500000000153
 31
0.0
  0
DIMENSION
  5
5CC7D
330
1F
100
AcDbEntity
  8
D-STR-DIM
100
AcDbDimension
  2
*D19
 10
12670.0
 20
5381.499999999956
 30
0.0
 11
12552.5
 21
5428.999999999956
 31
0.0
 70
    32
 71
     5
 42
235.0
  3
SXF-20
100
AcDbAlignedDimension
 13
12435.0
 23
5681.500000000153
 33
0.0
 14
12670.0
 24
5681.500000000153
 34
0.0
100
AcDbRotatedDimension
  0
DIMENSION
  5
5CC7E
330
1F
100
AcDbEntity
  8
D-STR-DIM
100
AcDbDimension
  2
*D20
 10
12135.0
 20
6236.500000000153
 30
0.0
 11
12087.49999999999
 21
6119.000000000155
 31
0.0
 70
    32
 71
     5
 42
235.0
  3
SXF-20
100
AcDbAlignedDimension
 13
12435.0
 23
6001.500000000152
 33
0.0
 14
12435.0
 24
6236.500000000153
 34
0.0
 50
90.0
100
AcDbRotatedDimension
  0
DIMENSION
  5
5CC7F
330
1F
100
AcDbEntity
  8
D-STR-DIM
100
AcDbDimension
  2
*D21
 10
14784.99999999953
 20
6126.500000000152
 30
0.0
 11
14737.49999999953
 21
6064.000000000156
 31
0.0
 70
    32
 71
     5
 42
125.0
  3
SXF-20
100
AcDbAlignedDimension
 13
14485.0
 23
6001.500000000152
 33
0.0
 14
14485.0
 24
6126.500000000152
 34
0.0
 50
90.0
100
AcDbRotatedDimension
  0
DIMENSION
  5
5CC80
330
1F
100
AcDbEntity
  8
D-STR-DIM
100
AcDbDimension
  2
*D22
 10
12560.0
 20
9301.500000000233
 30
0.0
 11
12497.5
 21
9349.000000000232
 31
0.0
 70
    32
 71
     5
 42
125.0
  3
SXF-20
100
AcDbAlignedDimension
 13
12435.0
 23
9001.500000000154
 33
0.0
 14
12560.0
 24
9001.500000000154
 34
0.0
100
AcDbRotatedDimension
  0
LINE
  5
5CC81
330
1F
100
AcDbEntity
  8
D-STR
100
AcDbLine
 10
12435.0
 20
9001.500000000154
 30
0.0
 11
12560.0
 21
9001.500000000154
 31
0.0
  0
LINE
  5
5CC82
330
1F
100
AcDbEntity
  8
D-STR
100
AcDbLine
 10
14485.0
 20
6001.500000000152
 30
0.0
 11
14485.0
 21
6126.500000000152
 31
0.0
  0
LINE
  5
5CC83
330
1F
100
AcDbEntity
  8
D-STR
100
AcDbLine
 10
12435.0
 20
6001.500000000152
 30
0.0
 11
14485.0
 21
6001.500000000152
 31
0.0
  0
LINE
  5
5CC84
330
1F
100
AcDbEntity
  8
D-STR
100
AcDbLine
 10
12435.0
 20
9001.500000000154
 30
0.0
 11
12435.0
 21
6001.500000000152
 31
0.0
  0
ARC
  5
5CC87
330
1F
100
AcDbEntity
  8
D-STR
100
AcDbCircle
 10
7910.147064834113
 20
6671.610694975898
 30
0.0
 40
250.0
100
AcDbArc
 50
182.4556242855993
 51
266.3300791356271
  0
LINE
  5
5CC88
330
1F
100
AcDbEntity
  8
D-STR
100
AcDbLine
 10
7560.0
 20
9001.500000000154
 30
0.0
 11
7660.376638520647
 21
6660.89929267786
 31
0.0
  0
LINE
  5
5CC89
330
1F
100
AcDbEntity
  8
D-STR
100
AcDbLine
 10
9385.0
 20
6326.500000000153
 30
0.0
 11
7894.144961411133
 21
6422.123355244919
 31
0.0
  0
DIMENSION
  5
5CCCE
330
1F
100
AcDbEntity
  8
D-STR-DIM
100
AcDbDimension
  2
*D23
 10
6715.0
 20
6181.500000000153
 30
0.0
 11
6667.499999999998
 21
6191.500000000154
 31
0.0
 70
    32
 71
     5
 42
20.0
  3
SXF-20
100
AcDbAlignedDimension
 13
7435.0
 23
6201.500000000153
 33
0.0
 14
7335.0
 24
6181.500000000153
 34
0.0
 50
90.0
100
AcDbRotatedDimension
  0
DIMENSION
  5
5CCCF
330
1F
100
AcDbEntity
  8
D-STR-DIM
100
AcDbDimension
  2
*D24
 10
6715.0
 20
6081.500000000153
 30
0.0
 11
6785.0
 21
6131.500000000155
 31
0.0
 70
    32
 71
     5
 42
100.0
  3
SXF-20
100
AcDbAlignedDimension
 13
7335.0
 23
6181.500000000153
 33
0.0
 14
7335.0
 24
6081.500000000153
 34
0.0
 50
90.0
100
AcDbRotatedDimension
1001
ACAD
1000
DSTYLE
1002
{
1070
    77
1070
     0
1070
   145
1040
-1.0
1002
}
  0
DIMENSION
  5
5CCD0
330
1F
100
AcDbEntity
  8
D-STR-DIM
100
AcDbDimension
  2
*D25
 10
6714.999999999971
 20
5881.500000000153
 30
0.0
 11
6667.49999999997
 21
5981.500000000155
 31
0.0
 70
    32
 71
     5
 42
200.0
  3
SXF-20
100
AcDbAlignedDimension
 13
7335.0
 23
6081.500000000153
 33
0.0
 14
7335.0
 24
5881.500000000153
 34
0.0
 50
90.0
100
AcDbRotatedDimension
  0
DIMENSION
  5
5CCDF
330
1F
100
AcDbEntity
  8
D-STR-DIM
100
AcDbDimension
  2
*D26
 10
6714.999999999935
 20
9001.500000000154
 30
0.0
 11
6667.499999999934
 21
7601.500000000155
 31
0.0
 70
    32
 71
     5
 42
2800.0
  3
SXF-20
100
AcDbAlignedDimension
 13
7435.0
 23
6201.500000000153
 33
0.0
 14
7435.0
 24
9001.500000000154
 34
0.0
 50
90.0
100
AcDbRotatedDimension
  0
DIMENSION
  5
5CCE0
330
1F
100
AcDbEntity
  8
D-STR-DIM
100
AcDbDimension
  2
*D27
 10
6914.999999999949
 20
7101.500000000154
 30
0.0
 11
6867.499999999947
 21
6651.500000000154
 31
0.0
 70
    32
 71
     5
 42
900.0
  3
SXF-20
100
AcDbAlignedDimension
 13
7435.0
 23
6201.500000000153
 33
0.0
 14
7415.0
 24
7101.500000000154
 34
0.0
 50
90.0
100
AcDbRotatedDimension
  0
LINE
  5
5CCE1
330
1F
100
AcDbEntity
  8
D-BMK
100
AcDbLine
 10
7415.0
 20
7101.500000000154
 30
0.0
 11
7661.481481481482
 21
7101.500000000154
 31
0.0
  0
LINE
  5
5CCE2
330
1F
100
AcDbEntity
  8
D-STR
  6
SXF_破線
100
AcDbLine
 10
7435.0
 20
7064.000000000153
 30
0.0
 11
7643.089668615982
 21
7064.000000000153
 31
0.0
  0
LINE
  5
5CCE3
330
1F
100
AcDbEntity
  8
D-STR
  6
SXF_破線
100
AcDbLine
 10
7435.0
 20
7139.000000000153
 30
0.0
 11
7639.873294346981
 21
7139.000000000153
 31
0.0
  0
POLYLINE
  5
5CCE4
330
1F
100
AcDbEntity
  8
D-STR-HTXT
  6
Continuous
100
AcDb2dPolyline
 66
     1
 10
0.0
 20
0.0
 30
0.0
  0
VERTEX
  5
5CCE5
330
5CCE4
100
AcDbEntity
  8
D-STR-HTXT
  6
Continuous
100
AcDbVertex
100
AcDb2dVertex
 10
7749.184743138766
 20
6521.465883165008
 30
0.0
  0
VERTEX
  5
5CCE6
330
5CCE4
100
AcDbEntity
  8
D-STR-HTXT
  6
Continuous
100
AcDbVertex
100
AcDb2dVertex
 10
7731.5070736091
 20
6496.71714582348
 30
0.0
  0
VERTEX
  5
5CCE7
330
5CCE4
100
AcDbEntity
  8
D-STR-HTXT
  6
Continuous
100
AcDbVertex
100
AcDb2dVertex
 10
7756.255810950628
 20
6514.394815353146
 30
0.0
  0
SEQEND
  5
5CCE8
330
5CCE4
100
AcDbEntity
  8
D-STR-HTXT
  6
Continuous
  0
LEADER
  5
5CCE9
330
1F
100
AcDbEntity
  8
D-STR-HTXT
100
AcDbLeader
  3
SXF-20
 71
     0
 73
     0
 40
17.5
 41
48.99999999999991
 76
     3
 10
7731.5070736091
 20
6496.71714582348
 30
0.0
 10
7780.486761213492
 20
6545.696833427872
 30
0.0
 10
7919.079690326056
 20
6684.289762540429
 30
0.0
211
0.7071067811865546
221
0.7071067811865407
231
0.0
  0
DIMENSION
  5
5CCEC
330
1F
100
AcDbEntity
  8
D-STR-DIM
100
AcDbDimension
  2
*D28
 10
9485.0
 20
5181.500000000014
 30
0.0
 11
8410.0
 21
5229.000000000015
 31
0.0
 70
    32
 71
     5
 42
2150.0
  3
SXF-20
100
AcDbAlignedDimension
 13
7335.0
 23
5881.500000000153
 33
0.0
 14
9485.0
 24
5881.500000000153
 34
0.0
100
AcDbRotatedDimension
  0
DIMENSION
  5
5CCED
330
1F
100
AcDbEntity
  8
D-STR-DIM
100
AcDbDimension
  2
*D29
 10
9485.0
 20
5381.499999999999
 30
0.0
 11
9435.0
 21
5429.0
 31
0.0
 70
    32
 71
     5
 42
100.0
  3
SXF-20
100
AcDbAlignedDimension
 13
9385.0
 23
5881.500000000153
 33
0.0
 14
9485.0
 24
5881.500000000153
 34
0.0
100
AcDbRotatedDimension
  0
DIMENSION
  5
5CCEE
330
1F
100
AcDbEntity
  8
D-STR-DIM
100
AcDbDimension
  2
*D30
 10
9385.0
 20
5381.499999999999
 30
0.0
 11
8410.0
 21
5429.0
 31
0.0
 70
    32
 71
     5
 42
1950.0
  3
SXF-20
100
AcDbAlignedDimension
 13
7435.0
 23
5881.500000000153
 33
0.0
 14
9385.0
 24
5881.500000000153
 34
0.0
100
AcDbRotatedDimension
  0
DIMENSION
  5
5CCEF
330
1F
100
AcDbEntity
  8
D-STR-DIM
100
AcDbDimension
  2
*D31
 10
7435.0
 20
5381.499999999999
 30
0.0
 11
7385.0
 21
5429.0
 31
0.0
 70
    32
 71
     5
 42
100.0
  3
SXF-20
100
AcDbAlignedDimension
 13
7335.0
 23
5881.500000000153
 33
0.0
 14
7435.0
 24
5881.500000000153
 34
0.0
100
AcDbRotatedDimension
  0
ELLIPSE
  5
5CCF0
330
1F
100
AcDbEntity
  8
D-BGD
100
AcDbEllipse
 10
9227.557939407416
 20
5981.500000000153
 30
0.0
 11
17.36481776669304
 21
98.48077530122081
 31
0.0
210
0.0
220
0.0
230
1.0
 40
0.5000000000000002
 41
1.396263401595463
 42
7.67944870877505
  0
ELLIPSE
  5
5CCF1
330
1F
100
AcDbEntity
  8
D-BGD
100
AcDbEllipse
 10
9329.872263696023
 20
5981.500000000153
 30
0.0
 11
17.36481776669304
 21
98.48077530122081
 31
0.0
210
0.0
220
0.0
230
1.0
 40
0.5000000000000002
 41
1.396263401595463
 42
7.67944870877505
  0
ELLIPSE
  5
5CCF2
330
1F
100
AcDbEntity
  8
D-BGD
100
AcDbEllipse
 10
9432.186587984636
 20
5981.500000000153
 30
0.0
 11
17.36481776669304
 21
98.48077530122081
 31
0.0
210
0.0
220
0.0
230
1.0
 40
0.5000000000000002
 41
1.396263401595463
 42
7.67944870877505
  0
ELLIPSE
  5
5CCF3
330
1F
100
AcDbEntity
  8
D-BGD
100
AcDbEllipse
 10
7592.442060592592
 20
5981.500000000153
 30
0.0
 11
17.36481776669304
 21
98.48077530122081
 31
0.0
210
0.0
220
0.0
230
1.0
 40
0.5000000000000002
 41
1.396263401595463
 42
7.67944870877505
  0
ELLIPSE
  5
5CCF4
330
1F
100
AcDbEntity
  8
D-BGD
100
AcDbEllipse
 10
7490.127736303985
 20
5981.500000000153
 30
0.0
 11
17.36481776669304
 21
98.48077530122081
 31
0.0
210
0.0
220
0.0
230
1.0
 40
0.5000000000000002
 41
1.396263401595463
 42
7.67944870877505
  0
ELLIPSE
  5
5CCF5
330
1F
100
AcDbEntity
  8
D-BGD
100
AcDbEllipse
 10
7387.813412015377
 20
5981.500000000153
 30
0.0
 11
17.36481776669304
 21
98.48077530122081
 31
0.0
210
0.0
220
0.0
230
1.0
 40
0.5000000000000002
 41
1.396263401595463
 42
7.67944870877505
  0
LINE
  5
5CCF6
330
1F
100
AcDbEntity
  8
D-BGD
100
AcDbLine
 10
9385.0
 20
6201.500000000153
 30
0.0
 11
9385.0
 21
6181.500000000153
 31
0.0
  0
LINE
  5
5CCF7
330
1F
100
AcDbEntity
  8
D-BGD
100
AcDbLine
 10
7435.0
 20
6201.500000000153
 30
0.0
 11
7435.0
 21
6181.500000000153
 31
0.0
  0
LINE
  5
5CCF8
330
1F
100
AcDbEntity
  8
D-BGD
100
AcDbLine
 10
7335.0
 20
5881.500000000153
 30
0.0
 11
7335.0
 21
6181.500000000153
 31
0.0
  0
LINE
  5
5CCF9
330
1F
100
AcDbEntity
  8
D-BGD
100
AcDbLine
 10
9485.0
 20
5881.500000000153
 30
0.0
 11
9485.0
 21
6181.500000000153
 31
0.0
  0
LINE
  5
5CCFA
330
1F
100
AcDbEntity
  8
D-BGD
100
AcDbLine
 10
7335.0
 20
5881.500000000153
 30
0.0
 11
9485.0
 21
5881.500000000153
 31
0.0
  0
LINE
  5
5CCFB
330
1F
100
AcDbEntity
  8
D-BGD
100
AcDbLine
 10
7335.0
 20
6081.500000000153
 30
0.0
 11
9485.0
 21
6081.500000000153
 31
0.0
  0
LINE
  5
5CCFC
330
1F
100
AcDbEntity
  8
D-BGD
100
AcDbLine
 10
7335.0
 20
6181.500000000153
 30
0.0
 11
9485.0
 21
6181.500000000153
 31
0.0
  0
DIMENSION
  5
5CCFD
330
1F
100
AcDbEntity
  8
D-STR-DIM
100
AcDbDimension
  2
*D32
 10
7670.0
 20
5581.499999999956
 30
0.0
 11
7552.500000000001
 21
5628.999999999956
 31
0.0
 70
    32
 71
     5
 42
235.0
  3
SXF-20
100
AcDbAlignedDimension
 13
7435.0
 23
5881.500000000153
 33
0.0
 14
7670.0
 24
5881.500000000153
 34
0.0
100
AcDbRotatedDimension
  0
DIMENSION
  5
5CCFE
330
1F
100
AcDbEntity
  8
D-STR-DIM
100
AcDbDimension
  2
*D33
 10
7135.0
 20
6436.500000000153
 30
0.0
 11
7087.499999999998
 21
6319.000000000155
 31
0.0
 70
    32
 71
     5
 42
235.0
  3
SXF-20
100
AcDbAlignedDimension
 13
7435.0
 23
6201.500000000153
 33
0.0
 14
7435.0
 24
6436.500000000153
 34
0.0
 50
90.0
100
AcDbRotatedDimension
  0
DIMENSION
  5
5CCFF
330
1F
100
AcDbEntity
  8
D-STR-DIM
100
AcDbDimension
  2
*D34
 10
9684.999999999535
 20
6326.500000000153
 30
0.0
 11
9637.499999999533
 21
6264.000000000153
 31
0.0
 70
    32
 71
     5
 42
125.0
  3
SXF-20
100
AcDbAlignedDimension
 13
9385.0
 23
6201.500000000153
 33
0.0
 14
9385.0
 24
6326.500000000153
 34
0.0
 50
90.0
100
AcDbRotatedDimension
  0
DIMENSION
  5
5CD00
330
1F
100
AcDbEntity
  8
D-STR-DIM
100
AcDbDimension
  2
*D35
 10
7560.0
 20
9301.500000000233
 30
0.0
 11
7497.500000000001
 21
9349.000000000232
 31
0.0
 70
    32
 71
     5
 42
125.0
  3
SXF-20
100
AcDbAlignedDimension
 13
7435.0
 23
9001.500000000154
 33
0.0
 14
7560.0
 24
9001.500000000154
 34
0.0
100
AcDbRotatedDimension
  0
LINE
  5
5CD01
330
1F
100
AcDbEntity
  8
D-STR
100
AcDbLine
 10
7435.0
 20
9001.500000000154
 30
0.0
 11
7560.0
 21
9001.500000000154
 31
0.0
  0
LINE
  5
5CD02
330
1F
100
AcDbEntity
  8
D-STR
100
AcDbLine
 10
9385.0
 20
6201.500000000153
 30
0.0
 11
9385.0
 21
6326.500000000153
 31
0.0
  0
LINE
  5
5CD03
330
1F
100
AcDbEntity
  8
D-STR
100
AcDbLine
 10
7435.0
 20
6201.500000000153
 30
0.0
 11
9385.0
 21
6201.500000000153
 31
0.0
  0
LINE
  5
5CD04
330
1F
100
AcDbEntity
  8
D-STR
100
AcDbLine
 10
7435.0
 20
9001.500000000154
 30
0.0
 11
7435.0
 21
6201.500000000153
 31
0.0
  0
ARC
  5
5CD07
330
1F
100
AcDbEntity
  8
D-STR
100
AcDbCircle
 10
2934.775191021683
 20
6771.203992982221
 30
0.0
 40
250.0
100
AcDbArc
 50
182.5551144755017
 51
266.2201861421431
  0
LINE
  5
5CD08
330
1F
100
AcDbEntity
  8
D-STR
100
AcDbLine
 10
2585.0
 20
9001.500000000154
 30
0.0
 11
2685.023740867036
 21
6760.058897843468
 31
0.0
  0
LINE
  5
5CD09
330
1F
100
AcDbEntity
  8
D-STR
100
AcDbLine
 10
4360.0
 20
6426.500000000153
 30
0.0
 11
2918.294601964721
 21
6521.747804074556
 31
0.0
  0
DIMENSION
  5
5CD52
330
1F
100
AcDbEntity
  8
D-STR-DIM
100
AcDbDimension
  2
*D36
 10
1740.0
 20
6281.500000000153
 30
0.0
 11
1692.499999999999
 21
6291.500000000154
 31
0.0
 70
    32
 71
     5
 42
20.0
  3
SXF-20
100
AcDbAlignedDimension
 13
2460.0
 23
6301.500000000153
 33
0.0
 14
2360.0
 24
6281.500000000153
 34
0.0
 50
90.0
100
AcDbRotatedDimension
  0
DIMENSION
  5
5CD53
330
1F
100
AcDbEntity
  8
D-STR-DIM
100
AcDbDimension
  2
*D37
 10
1739.999999999971
 20
6181.500000000154
 30
0.0
 11
1809.99999999997
 21
6231.500000000154
 31
0.0
 70
    32
 71
     5
 42
100.0
  3
SXF-20
100
AcDbAlignedDimension
 13
2360.0
 23
6281.500000000153
 33
0.0
 14
2360.0
 24
6181.500000000153
 34
0.0
 50
90.0
100
AcDbRotatedDimension
1001
ACAD
1000
DSTYLE
1002
{
1070
    77
1070
     0
1070
   145
1040
-1.0
1002
}
  0
DIMENSION
  5
5CD54
330
1F
100
AcDbEntity
  8
D-STR-DIM
100
AcDbDimension
  2
*D38
 10
1739.999999999971
 20
5981.500000000154
 30
0.0
 11
1692.49999999997
 21
6081.500000000154
 31
0.0
 70
    32
 71
     5
 42
200.0
  3
SXF-20
100
AcDbAlignedDimension
 13
2360.0
 23
6181.500000000153
 33
0.0
 14
2360.0
 24
5981.500000000153
 34
0.0
 50
90.0
100
AcDbRotatedDimension
  0
DIMENSION
  5
5CD63
330
1F
100
AcDbEntity
  8
D-STR-DIM
100
AcDbDimension
  2
*D39
 10
1739.999999999934
 20
9001.500000000154
 30
0.0
 11
1692.499999999933
 21
7651.500000000154
 31
0.0
 70
    32
 71
     5
 42
2699.999999999999
  3
SXF-20
100
AcDbAlignedDimension
 13
2460.0
 23
6301.500000000153
 33
0.0
 14
2460.0
 24
9001.500000000154
 34
0.0
 50
90.0
100
AcDbRotatedDimension
  0
DIMENSION
  5
5CD64
330
1F
100
AcDbEntity
  8
D-STR-DIM
100
AcDbDimension
  2
*D40
 10
1939.999999999949
 20
7201.500000000153
 30
0.0
 11
1892.499999999948
 21
6751.500000000153
 31
0.0
 70
    32
 71
     5
 42
900.0
  3
SXF-20
100
AcDbAlignedDimension
 13
2460.0
 23
6301.500000000153
 33
0.0
 14
2440.0
 24
7201.500000000153
 34
0.0
 50
90.0
100
AcDbRotatedDimension
  0
LINE
  5
5CD65
330
1F
100
AcDbEntity
  8
D-BMK
100
AcDbLine
 10
2440.0
 20
7201.500000000153
 30
0.0
 11
2685.32454361055
 21
7201.500000000153
 31
0.0
  0
LINE
  5
5CD66
330
1F
100
AcDbEntity
  8
D-STR
  6
SXF_破線
100
AcDbLine
 10
2460.0
 20
7164.000000000154
 30
0.0
 11
2666.997971602439
 21
7164.000000000154
 31
0.0
  0
LINE
  5
5CD67
330
1F
100
AcDbEntity
  8
D-STR
  6
SXF_破線
100
AcDbLine
 10
2460.0
 20
7239.000000000153
 30
0.0
 11
2663.651115618661
 21
7239.000000000153
 31
0.0
  0
POLYLINE
  5
5CD68
330
1F
100
AcDbEntity
  8
D-STR-HTXT
  6
Continuous
100
AcDb2dPolyline
 66
     1
 10
0.0
 20
0.0
 30
0.0
  0
VERTEX
  5
5CD69
330
5CD68
100
AcDbEntity
  8
D-STR-HTXT
  6
Continuous
100
AcDbVertex
100
AcDb2dVertex
 10
2773.796992948213
 20
6621.075399114197
 30
0.0
  0
VERTEX
  5
5CD6A
330
5CD68
100
AcDbEntity
  8
D-STR-HTXT
  6
Continuous
100
AcDbVertex
100
AcDb2dVertex
 10
2756.119323418549
 20
6596.32666177267
 30
0.0
  0
VERTEX
  5
5CD6B
330
5CD68
100
AcDbEntity
  8
D-STR-HTXT
  6
Continuous
100
AcDbVertex
100
AcDb2dVertex
 10
2780.868060760076
 20
6614.004331302334
 30
0.0
  0
SEQEND
  5
5CD6C
330
5CD68
100
AcDbEntity
  8
D-STR-HTXT
  6
Continuous
  0
LEADER
  5
5CD6D
330
1F
100
AcDbEntity
  8
D-STR-HTXT
100
AcDbLeader
  3
SXF-20
 71
     0
 73
     0
 40
17.5
 41
48.99999999999999
 76
     3
 10
2756.119323418549
 20
6596.32666177267
 30
0.0
 10
2805.09901102294
 20
6645.30634937706
 30
0.0
 10
2943.691940135505
 20
6783.899278489625
 30
0.0
211
0.7071067811865546
221
0.7071067811865407
231
0.0
  0
DIMENSION
  5
5CD70
330
1F
100
AcDbEntity
  8
D-STR-DIM
100
AcDbDimension
  2
*D41
 10
4460.0
 20
5281.500000000015
 30
0.0
 11
3410.0
 21
5329.000000000014
 31
0.0
 70
    32
 71
     5
 42
2100.0
  3
SXF-20
100
AcDbAlignedDimension
 13
2360.0
 23
5981.500000000153
 33
0.0
 14
4460.0
 24
5981.500000000153
 34
0.0
100
AcDbRotatedDimension
  0
DIMENSION
  5
5CD71
330
1F
100
AcDbEntity
  8
D-STR-DIM
100
AcDbDimension
  2
*D42
 10
4460.0
 20
5481.5
 30
0.0
 11
4410.0
 21
5529.0
 31
0.0
 70
    32
 71
     5
 42
100.0
  3
SXF-20
100
AcDbAlignedDimension
 13
4360.0
 23
5981.500000000153
 33
0.0
 14
4460.0
 24
5981.500000000153
 34
0.0
100
AcDbRotatedDimension
  0
DIMENSION
  5
5CD72
330
1F
100
AcDbEntity
  8
D-STR-DIM
100
AcDbDimension
  2
*D43
 10
4360.0
 20
5481.5
 30
0.0
 11
3410.0
 21
5529.0
 31
0.0
 70
    32
 71
     5
 42
1900.0
  3
SXF-20
100
AcDbAlignedDimension
 13
2460.0
 23
5981.500000000153
 33
0.0
 14
4360.0
 24
5981.500000000153
 34
0.0
100
AcDbRotatedDimension
  0
DIMENSION
  5
5CD73
330
1F
100
AcDbEntity
  8
D-STR-DIM
100
AcDbDimension
  2
*D44
 10
2460.0
 20
5481.5
 30
0.0
 11
2410.0
 21
5529.0
 31
0.0
 70
    32
 71
     5
 42
100.0
  3
SXF-20
100
AcDbAlignedDimension
 13
2360.0
 23
5981.500000000153
 33
0.0
 14
2460.0
 24
5981.500000000153
 34
0.0
100
AcDbRotatedDimension
  0
ELLIPSE
  5
5CD74
330
1F
100
AcDbEntity
  8
D-BGD
100
AcDbEllipse
 10
4202.557939407415
 20
6081.500000000153
 30
0.0
 11
17.36481776669304
 21
98.48077530122081
 31
0.0
210
0.0
220
0.0
230
1.0
 40
0.5000000000000002
 41
1.396263401595463
 42
7.67944870877505
  0
ELLIPSE
  5
5CD75
330
1F
100
AcDbEntity
  8
D-BGD
100
AcDbEllipse
 10
4304.872263696029
 20
6081.500000000153
 30
0.0
 11
17.36481776669304
 21
98.48077530122081
 31
0.0
210
0.0
220
0.0
230
1.0
 40
0.5000000000000002
 41
1.396263401595463
 42
7.67944870877505
  0
ELLIPSE
  5
5CD76
330
1F
100
AcDbEntity
  8
D-BGD
100
AcDbEllipse
 10
4407.186587984637
 20
6081.500000000153
 30
0.0
 11
17.36481776669304
 21
98.48077530122081
 31
0.0
210
0.0
220
0.0
230
1.0
 40
0.5000000000000002
 41
1.396263401595463
 42
7.67944870877505
  0
ELLIPSE
  5
5CD77
330
1F
100
AcDbEntity
  8
D-BGD
100
AcDbEllipse
 10
2617.442060592599
 20
6081.500000000153
 30
0.0
 11
17.36481776669304
 21
98.48077530122081
 31
0.0
210
0.0
220
0.0
230
1.0
 40
0.5000000000000002
 41
1.396263401595463
 42
7.67944870877505
  0
ELLIPSE
  5
5CD78
330
1F
100
AcDbEntity
  8
D-BGD
100
AcDbEllipse
 10
2515.127736303985
 20
6081.500000000153
 30
0.0
 11
17.36481776669304
 21
98.48077530122081
 31
0.0
210
0.0
220
0.0
230
1.0
 40
0.5000000000000002
 41
1.396263401595463
 42
7.67944870877505
  0
ELLIPSE
  5
5CD79
330
1F
100
AcDbEntity
  8
D-BGD
100
AcDbEllipse
 10
2412.813412015378
 20
6081.500000000153
 30
0.0
 11
17.36481776669304
 21
98.48077530122081
 31
0.0
210
0.0
220
0.0
230
1.0
 40
0.5000000000000002
 41
1.396263401595463
 42
7.67944870877505
  0
LINE
  5
5CD7A
330
1F
100
AcDbEntity
  8
D-BGD
100
AcDbLine
 10
4360.0
 20
6301.500000000153
 30
0.0
 11
4360.0
 21
6281.500000000153
 31
0.0
  0
LINE
  5
5CD7B
330
1F
100
AcDbEntity
  8
D-BGD
100
AcDbLine
 10
2460.0
 20
6301.500000000153
 30
0.0
 11
2460.0
 21
6281.500000000153
 31
0.0
  0
LINE
  5
5CD7C
330
1F
100
AcDbEntity
  8
D-BGD
100
AcDbLine
 10
2360.0
 20
5981.500000000153
 30
0.0
 11
2360.0
 21
6281.500000000153
 31
0.0
  0
LINE
  5
5CD7D
330
1F
100
AcDbEntity
  8
D-BGD
100
AcDbLine
 10
4460.0
 20
5981.500000000153
 30
0.0
 11
4460.0
 21
6281.500000000153
 31
0.0
  0
LINE
  5
5CD7E
330
1F
100
AcDbEntity
  8
D-BGD
100
AcDbLine
 10
2360.0
 20
5981.500000000153
 30
0.0
 11
4460.0
 21
5981.500000000153
 31
0.0
  0
LINE
  5
5CD7F
330
1F
100
AcDbEntity
  8
D-BGD
100
AcDbLine
 10
2360.0
 20
6181.500000000153
 30
0.0
 11
4460.0
 21
6181.500000000153
 31
0.0
  0
LINE
  5
5CD80
330
1F
100
AcDbEntity
  8
D-BGD
100
AcDbLine
 10
2360.0
 20
6281.500000000153
 30
0.0
 11
4460.0
 21
6281.500000000153
 31
0.0
  0
DIMENSION
  5
5CD81
330
1F
100
AcDbEntity
  8
D-STR-DIM
100
AcDbDimension
  2
*D45
 10
2695.0
 20
5681.499999999978
 30
0.0
 11
2577.500000000001
 21
5728.999999999978
 31
0.0
 70
    32
 71
     5
 42
235.0
  3
SXF-20
100
AcDbAlignedDimension
 13
2460.0
 23
5981.500000000153
 33
0.0
 14
2695.0
 24
5981.500000000153
 34
0.0
100
AcDbRotatedDimension
  0
DIMENSION
  5
5CD82
330
1F
100
AcDbEntity
  8
D-STR-DIM
100
AcDbDimension
  2
*D46
 10
2160.0
 20
6536.500000000152
 30
0.0
 11
2112.499999999999
 21
6419.000000000153
 31
0.0
 70
    32
 71
     5
 42
235.0
  3
SXF-20
100
AcDbAlignedDimension
 13
2460.0
 23
6301.500000000153
 33
0.0
 14
2460.0
 24
6536.500000000152
 34
0.0
 50
90.0
100
AcDbRotatedDimension
  0
DIMENSION
  5
5CD83
330
1F
100
AcDbEntity
  8
D-STR-DIM
100
AcDbDimension
  2
*D47
 10
4659.999999999526
 20
6426.500000000153
 30
0.0
 11
4612.499999999525
 21
6364.000000000153
 31
0.0
 70
    32
 71
     5
 42
125.0
  3
SXF-20
100
AcDbAlignedDimension
 13
4360.0
 23
6301.500000000153
 33
0.0
 14
4360.0
 24
6426.500000000153
 34
0.0
 50
90.0
100
AcDbRotatedDimension
  0
DIMENSION
  5
5CD84
330
1F
100
AcDbEntity
  8
D-STR-DIM
100
AcDbDimension
  2
*D48
 10
2585.0
 20
9301.500000000233
 30
0.0
 11
2522.5
 21
9349.000000000232
 31
0.0
 70
    32
 71
     5
 42
125.0
  3
SXF-20
100
AcDbAlignedDimension
 13
2460.0
 23
9001.500000000154
 33
0.0
 14
2585.0
 24
9001.500000000154
 34
0.0
100
AcDbRotatedDimension
  0
LINE
  5
5CD85
330
1F
100
AcDbEntity
  8
D-STR
100
AcDbLine
 10
2460.0
 20
9001.500000000154
 30
0.0
 11
2585.0
 21
9001.500000000154
 31
0.0
  0
LINE
  5
5CD86
330
1F
100
AcDbEntity
  8
D-STR
100
AcDbLine
 10
4360.0
 20
6301.500000000153
 30
0.0
 11
4360.0
 21
6426.500000000153
 31
0.0
  0
LINE
  5
5CD87
330
1F
100
AcDbEntity
  8
D-STR
100
AcDbLine
 10
2460.0
 20
6301.500000000153
 30
0.0
 11
4360.0
 21
6301.500000000153
 31
0.0
  0
LINE
  5
5CD88
330
1F
100
AcDbEntity
  8
D-STR
100
AcDbLine
 10
2460.0
 20
9001.500000000154
 30
0.0
 11
2460.0
 21
6301.500000000153
 31
0.0
  0
LINE
  5
5D713
330
1F
100
AcDbEntity
  8
DEFPOINTS
100
AcDbLine
 10
0.0
 20
0.0
 30
0.0
 11
0.0
 21
11880.0
 31
0.0
  0
LINE
  5
60445
330
1F
100
AcDbEntity
  8
D-STR-HTXT
100
AcDbLine
 10
14713.00130058925
 20
5766.147770582138
 30
0.0
 11
15468.40130058923
 21
5766.147770582167
 31
0.0
1001
ACAD
1000
DSTYLE
1002
{
1070
   147
1040
0.625
1070
    77
1070
     1
1002
}
  0
LEADER
  5
60446
330
1F
100
AcDbEntity
  8
D-STR-HTXT
100
AcDbLeader
  3
SXF-20
 76
     2
 10
14413.32114257337
 20
5900.388089449378
 30
0.0
 10
14704.99999999972
 20
5636.147770582137
 30
0.0
211
-1.0
221
0.0
231
0.0
210
0.0
220
0.0
230
-1.0
1001
ACAD
1000
DSTYLE
1002
{
1070
   147
1040
0.625
1070
    77
1070
     1
1002
}
  0
LINE
  5
60447
330
1F
100
AcDbEntity
  8
D-STR-HTXT
100
AcDbLine
 10
14704.99999999972
 20
5636.147770582137
 30
0.0
 11
16076.0695674225
 21
5636.147770582167
 31
0.0
1001
ACAD
1000
DSTYLE
1002
{
1070
   147
1040
0.625
1070
    77
1070
     1
1002
}
  0
LINE
  5
6044A
330
1F
100
AcDbEntity
  8
D-STR-HTXT
100
AcDbLine
 10
14684.99999999975
 20
5506.147770582138
 30
0.0
 11
15337.28422189609
 21
5506.147770582167
 31
0.0
1001
ACAD
1000
DSTYLE
1002
{
1070
   147
1040
0.625
1070
    77
1070
     1
1002
}
  0
LEADER
  5
6044B
330
1F
100
AcDbEntity
  8
D-STR-HTXT
100
AcDbLeader
  3
SXF-20
 76
     2
 10
14423.72128596657
 20
5736.692074589956
 30
0.0
 10
14684.99999999974
 20
5506.147770582138
 30
0.0
211
-1.0
221
0.0
231
0.0
210
0.0
220
0.0
230
-1.0
1001
ACAD
1000
DSTYLE
1002
{
1070
   147
1040
0.625
1070
    77
1070
     1
1002
}
  0
LEADER
  5
6044C
330
1F
100
AcDbEntity
  8
D-STR-HTXT
100
AcDbLeader
  3
SXF-20
 76
     2
 10
14465.32208467991
 20
5988.73209794295
 30
0.0
 10
14713.00130058924
 20
5766.147770582138
 30
0.0
211
-1.0
221
0.0
231
0.0
210
0.0
220
0.0
230
-1.0
1001
ACAD
1000
DSTYLE
1002
{
1070
   147
1040
0.625
1070
    77
1070
     1
1002
}
  0
LINE
  5
6045B
330
1F
100
AcDbEntity
  8
D-STR-HTXT
100
AcDbLine
 10
9613.001300589255
 20
5966.147770582138
 30
0.0
 11
10368.40130058923
 21
5966.147770582168
 31
0.0
1001
ACAD
1000
DSTYLE
1002
{
1070
   147
1040
0.625
1070
    77
1070
     1
1002
}
  0
LEADER
  5
6045C
330
1F
100
AcDbEntity
  8
D-STR-HTXT
100
AcDbLeader
  3
SXF-20
 76
     2
 10
9313.321142573375
 20
6100.388089449378
 30
0.0
 10
9604.999999999725
 20
5836.147770582138
 30
0.0
211
-1.0
221
0.0
231
0.0
210
0.0
220
0.0
230
-1.0
1001
ACAD
1000
DSTYLE
1002
{
1070
   147
1040
0.625
1070
    77
1070
     1
1002
}
  0
LINE
  5
6045D
330
1F
100
AcDbEntity
  8
D-STR-HTXT
100
AcDbLine
 10
9604.999999999725
 20
5836.147770582138
 30
0.0
 11
10976.0695674225
 21
5836.147770582167
 31
0.0
1001
ACAD
1000
DSTYLE
1002
{
1070
   147
1040
0.625
1070
    77
1070
     1
1002
}
  0
LINE
  5
60460
330
1F
100
AcDbEntity
  8
D-STR-HTXT
100
AcDbLine
 10
9584.999999999752
 20
5706.147770582138
 30
0.0
 11
10237.28422189609
 21
5706.147770582167
 31
0.0
1001
ACAD
1000
DSTYLE
1002
{
1070
   147
1040
0.625
1070
    77
1070
     1
1002
}
  0
LEADER
  5
60461
330
1F
100
AcDbEntity
  8
D-STR-HTXT
100
AcDbLeader
  3
SXF-20
 76
     2
 10
9323.721285966575
 20
5936.692074589956
 30
0.0
 10
9584.999999999745
 20
5706.147770582138
 30
0.0
211
-1.0
221
0.0
231
0.0
210
0.0
220
0.0
230
-1.0
1001
ACAD
1000
DSTYLE
1002
{
1070
   147
1040
0.625
1070
    77
1070
     1
1002
}
  0
LEADER
  5
60462
330
1F
100
AcDbEntity
  8
D-STR-HTXT
100
AcDbLeader
  3
SXF-20
 76
     2
 10
9365.322084679908
 20
6188.732097942949
 30
0.0
 10
9613.001300589246
 20
5966.147770582138
 30
0.0
211
-1.0
221
0.0
231
0.0
210
0.0
220
0.0
230
-1.0
1001
ACAD
1000
DSTYLE
1002
{
1070
   147
1040
0.625
1070
    77
1070
     1
1002
}
  0
LINE
  5
60471
330
1F
100
AcDbEntity
  8
D-STR-HTXT
100
AcDbLine
 10
4588.001300589254
 20
6066.147770582138
 30
0.0
 11
5343.401300589234
 21
6066.147770582167
 31
0.0
1001
ACAD
1000
DSTYLE
1002
{
1070
   147
1040
0.625
1070
    77
1070
     1
1002
}
  0
LEADER
  5
60472
330
1F
100
AcDbEntity
  8
D-STR-HTXT
100
AcDbLeader
  3
SXF-20
 76
     2
 10
4288.321142573376
 20
6200.388089449377
 30
0.0
 10
4579.999999999723
 20
5936.147770582138
 30
0.0
211
-1.0
221
0.0
231
0.0
210
0.0
220
0.0
230
-1.0
1001
ACAD
1000
DSTYLE
1002
{
1070
   147
1040
0.625
1070
    77
1070
     1
1002
}
  0
LINE
  5
60473
330
1F
100
AcDbEntity
  8
D-STR-HTXT
100
AcDbLine
 10
4579.999999999723
 20
5936.147770582138
 30
0.0
 11
5951.069567422499
 21
5936.147770582167
 31
0.0
1001
ACAD
1000
DSTYLE
1002
{
1070
   147
1040
0.625
1070
    77
1070
     1
1002
}
  0
LINE
  5
60476
330
1F
100
AcDbEntity
  8
D-STR-HTXT
100
AcDbLine
 10
4559.999999999752
 20
5806.147770582138
 30
0.0
 11
5212.284221896087
 21
5806.147770582168
 31
0.0
1001
ACAD
1000
DSTYLE
1002
{
1070
   147
1040
0.625
1070
    77
1070
     1
1002
}
  0
LEADER
  5
60477
330
1F
100
AcDbEntity
  8
D-STR-HTXT
100
AcDbLeader
  3
SXF-20
 76
     2
 10
4298.721285966574
 20
6036.692074589955
 30
0.0
 10
4559.999999999745
 20
5806.147770582138
 30
0.0
211
-1.0
221
0.0
231
0.0
210
0.0
220
0.0
230
-1.0
1001
ACAD
1000
DSTYLE
1002
{
1070
   147
1040
0.625
1070
    77
1070
     1
1002
}
  0
LEADER
  5
60478
330
1F
100
AcDbEntity
  8
D-STR-HTXT
100
AcDbLeader
  3
SXF-20
 76
     2
 10
4340.322084679908
 20
6288.73209794295
 30
0.0
 10
4588.001300589247
 20
6066.147770582138
 30
0.0
211
-1.0
221
0.0
231
0.0
210
0.0
220
0.0
230
-1.0
1001
ACAD
1000
DSTYLE
1002
{
1070
   147
1040
0.625
1070
    77
1070
     1
1002
}
  0
TEXT
  5
60C58
330
1F
100
AcDbEntity
  8
D-MTR-TXT
100
AcDbText
 10
14912.58883248731
 20
3483.703432708419
 30
0.0
 40
69.99999999999999
  1
22.50
 72
     2
 11
15140.0
 21
3518.703432708419
 31
0.0
100
AcDbText
 73
     2
  0
TEXT
  5
60C59
330
1F
100
AcDbEntity
  8
D-MTR-TXT
100
AcDbText
 10
14743.75634517766
 20
3513.957239815018
 30
0.0
 40
49.99999999999999
  1
2
 72
     4
 11
14760.0
 21
3538.703432708419
 31
0.0
100
AcDbText
  0
TEXT
  5
60C5A
330
1F
100
AcDbEntity
  8
D-MTR-TXT
100
AcDbText
 10
14687.25888324873
 20
3494.363331185576
 30
0.0
 40
69.99999999999999
  1
m
 72
     4
 11
14710.0
 21
3518.703432708419
 31
0.0
100
AcDbText
  0
TEXT
  5
60C5B
330
1F
100
AcDbEntity
  8
D-MTR-TXT
100
AcDbText
 10
13580.0
 20
3483.703432708419
 30
0.0
 40
69.99999999999999
  1
2.250×10.0
 11
13580.0
 21
3518.703432708419
 31
0.0
100
AcDbText
 73
     2
  0
TEXT
  5
60C5E
330
1F
100
AcDbEntity
  8
D-MTR-TXT
100
AcDbText
 10
14958.07106598985
 20
3623.703432708418
 30
0.0
 40
69.99999999999999
  1
2.00
 72
     2
 11
15140.0
 21
3658.703432708418
 31
0.0
100
AcDbText
 73
     2
  0
TEXT
  5
60C5F
330
1F
100
AcDbEntity
  8
D-MTR-TXT
100
AcDbText
 10
14743.75634517766
 20
3653.957239815018
 30
0.0
 40
49.99999999999999
  1
2
 72
     4
 11
14760.0
 21
3678.703432708419
 31
0.0
100
AcDbText
  0
TEXT
  5
60C60
330
1F
100
AcDbEntity
  8
D-MTR-TXT
100
AcDbText
 10
14687.25888324873
 20
3634.363331185575
 30
0.0
 40
69.99999999999999
  1
m
 72
     4
 11
14710.0
 21
3658.703432708418
 31
0.0
100
AcDbText
  0
TEXT
  5
60C61
330
1F
100
AcDbEntity
  8
D-MTR-TXT
100
AcDbText
 10
13580.0
 20
3623.703432708418
 30
0.0
 40
69.99999999999999
  1
0.100×10.0×2
 11
13580.0
 21
3658.703432708418
 31
0.0
100
AcDbText
 73
     2
  0
TEXT
  5
60C63
330
1F
100
AcDbEntity
  8
D-MTR-TXT
100
AcDbText
 10
14912.58883248731
 20
3763.703432708419
 30
0.0
 40
69.99999999999999
  1
22.50
 72
     2
 11
15140.0
 21
3798.703432708418
 31
0.0
100
AcDbText
 73
     2
  0
TEXT
  5
60C64
330
1F
100
AcDbEntity
  8
D-MTR-TXT
100
AcDbText
 10
14743.75634517766
 20
3793.957239815018
 30
0.0
 40
49.99999999999999
  1
2
 72
     4
 11
14760.0
 21
3818.703432708419
 31
0.0
100
AcDbText
  0
TEXT
  5
60C65
330
1F
100
AcDbEntity
  8
D-MTR-TXT
100
AcDbText
 10
14687.25888324873
 20
3774.363331185576
 30
0.0
 40
69.99999999999999
  1
m
 72
     4
 11
14710.0
 21
3798.703432708418
 31
0.0
100
AcDbText
  0
TEXT
  5
60C66
330
1F
100
AcDbEntity
  8
D-MTR-TXT
100
AcDbText
 10
13580.0
 20
3763.703432708419
 30
0.0
 40
69.99999999999999
  1
2.250×10.0
 11
13580.0
 21
3798.703432708418
 31
0.0
100
AcDbText
 73
     2
  0
TEXT
  5
60C69
330
1F
100
AcDbEntity
  8
D-MTR-TXT
100
AcDbText
 10
14958.07106598985
 20
3903.703432708418
 30
0.0
 40
69.99999999999999
  1
0.41
 72
     2
 11
15140.0
 21
3938.703432708419
 31
0.0
100
AcDbText
 73
     2
  0
TEXT
  5
60C6A
330
1F
100
AcDbEntity
  8
D-MTR-TXT
100
AcDbText
 10
14743.75634517766
 20
3933.957239815017
 30
0.0
 40
49.99999999999999
  1
3
 72
     4
 11
14760.0
 21
3958.703432708418
 31
0.0
100
AcDbText
  0
TEXT
  5
60C6B
330
1F
100
AcDbEntity
  8
D-MTR-TXT
100
AcDbText
 10
14687.25888324873
 20
3914.363331185576
 30
0.0
 40
69.99999999999999
  1
m
 72
     4
 11
14710.0
 21
3938.703432708419
 31
0.0
100
AcDbText
  0
TEXT
  5
60C6C
330
1F
100
AcDbEntity
  8
D-MTR-TXT
100
AcDbText
 10
13580.0
 20
3903.703432708418
 30
0.0
 40
69.99999999999999
  1
2.050×0.020×10.0
 11
13580.0
 21
3938.703432708419
 31
0.0
100
AcDbText
 73
     2
  0
TEXT
  5
60C83
330
1F
100
AcDbEntity
  8
D-MTR-TXT
100
AcDbText
 10
13580.0
 20
4043.703432708418
 30
0.0
 40
69.99999999999999
  1
0.400×1.900×10.0
 11
13580.0
 21
4078.703432708418
 31
0.0
100
AcDbText
 73
     2
  0
TEXT
  5
60C84
330
1F
100
AcDbEntity
  8
D-MTR-TXT
100
AcDbText
 10
14687.25888324873
 20
4054.363331185576
 30
0.0
 40
69.99999999999999
  1
m
 72
     4
 11
14710.0
 21
4078.703432708418
 31
0.0
100
AcDbText
  0
TEXT
  5
60C85
330
1F
100
AcDbEntity
  8
D-MTR-TXT
100
AcDbText
 10
14743.75634517766
 20
4073.957239815018
 30
0.0
 40
49.99999999999999
  1
3
 72
     4
 11
14760.0
 21
4098.703432708417
 31
0.0
100
AcDbText
  0
TEXT
  5
60C86
330
1F
100
AcDbEntity
  8
D-MTR-TXT
100
AcDbText
 10
14958.07106598985
 20
4043.703432708418
 30
0.0
 40
69.99999999999999
  1
7.60
 72
     2
 11
15140.0
 21
4078.703432708418
 31
0.0
100
AcDbText
 73
     2
  0
TEXT
  5
60C87
330
1F
100
AcDbEntity
  8
D-MTR-TXT
100
AcDbText
 10
9908.071065989849
 20
4043.703432708418
 30
0.0
 40
69.99999999999999
  1
6.80
 72
     2
 11
10090.0
 21
4078.703432708418
 31
0.0
100
AcDbText
 73
     2
  0
TEXT
  5
60C88
330
1F
100
AcDbEntity
  8
D-MTR-TXT
100
AcDbText
 10
9693.756345177664
 20
4073.957239815018
 30
0.0
 40
49.99999999999999
  1
3
 72
     4
 11
9710.0
 21
4098.703432708417
 31
0.0
100
AcDbText
  0
TEXT
  5
60C89
330
1F
100
AcDbEntity
  8
D-MTR-TXT
100
AcDbText
 10
9637.258883248732
 20
4054.363331185576
 30
0.0
 40
69.99999999999999
  1
m
 72
     4
 11
9660.0
 21
4078.703432708418
 31
0.0
100
AcDbText
  0
TEXT
  5
60C8A
330
1F
100
AcDbEntity
  8
D-MTR-TXT
100
AcDbText
 10
8530.0
 20
4043.703432708418
 30
0.0
 40
69.99999999999999
  1
0.400×1.700×10.0
 11
8530.0
 21
4078.703432708418
 31
0.0
100
AcDbText
 73
     2
  0
TEXT
  5
60CA1
330
1F
100
AcDbEntity
  8
D-MTR-TXT
100
AcDbText
 10
8530.0
 20
3903.703432708418
 30
0.0
 40
69.99999999999999
  1
1.950×0.020×10.0
 11
8530.0
 21
3938.703432708419
 31
0.0
100
AcDbText
 73
     2
  0
TEXT
  5
60CA2
330
1F
100
AcDbEntity
  8
D-MTR-TXT
100
AcDbText
 10
9637.258883248732
 20
3914.363331185576
 30
0.0
 40
69.99999999999999
  1
m
 72
     4
 11
9660.0
 21
3938.703432708419
 31
0.0
100
AcDbText
  0
TEXT
  5
60CA3
330
1F
100
AcDbEntity
  8
D-MTR-TXT
100
AcDbText
 10
9693.756345177664
 20
3933.957239815017
 30
0.0
 40
49.99999999999999
  1
3
 72
     4
 11
9710.0
 21
3958.703432708418
 31
0.0
100
AcDbText
  0
TEXT
  5
60CA4
330
1F
100
AcDbEntity
  8
D-MTR-TXT
100
AcDbText
 10
9908.071065989849
 20
3903.703432708418
 30
0.0
 40
69.99999999999999
  1
0.39
 72
     2
 11
10090.0
 21
3938.703432708419
 31
0.0
100
AcDbText
 73
     2
  0
TEXT
  5
60CA7
330
1F
100
AcDbEntity
  8
D-MTR-TXT
100
AcDbText
 10
8530.0
 20
3763.703432708419
 30
0.0
 40
69.99999999999999
  1
2.150×10.0
 11
8530.0
 21
3798.703432708418
 31
0.0
100
AcDbText
 73
     2
  0
TEXT
  5
60CA8
330
1F
100
AcDbEntity
  8
D-MTR-TXT
100
AcDbText
 10
9637.258883248732
 20
3774.363331185576
 30
0.0
 40
69.99999999999999
  1
m
 72
     4
 11
9660.0
 21
3798.703432708418
 31
0.0
100
AcDbText
  0
TEXT
  5
60CA9
330
1F
100
AcDbEntity
  8
D-MTR-TXT
100
AcDbText
 10
9693.756345177664
 20
3793.957239815018
 30
0.0
 40
49.99999999999999
  1
2
 72
     4
 11
9710.0
 21
3818.703432708419
 31
0.0
100
AcDbText
  0
TEXT
  5
60CAA
330
1F
100
AcDbEntity
  8
D-MTR-TXT
100
AcDbText
 10
9862.588832487311
 20
3763.703432708419
 30
0.0
 40
69.99999999999999
  1
21.50
 72
     2
 11
10090.0
 21
3798.703432708418
 31
0.0
100
AcDbText
 73
     2
  0
TEXT
  5
60CAC
330
1F
100
AcDbEntity
  8
D-MTR-TXT
100
AcDbText
 10
8530.0
 20
3623.703432708418
 30
0.0
 40
69.99999999999999
  1
0.100×10.0×2
 11
8530.0
 21
3658.703432708418
 31
0.0
100
AcDbText
 73
     2
  0
TEXT
  5
60CAD
330
1F
100
AcDbEntity
  8
D-MTR-TXT
100
AcDbText
 10
9637.258883248732
 20
3634.363331185575
 30
0.0
 40
69.99999999999999
  1
m
 72
     4
 11
9660.0
 21
3658.703432708418
 31
0.0
100
AcDbText
  0
TEXT
  5
60CAE
330
1F
100
AcDbEntity
  8
D-MTR-TXT
100
AcDbText
 10
9693.756345177664
 20
3653.957239815018
 30
0.0
 40
49.99999999999999
  1
2
 72
     4
 11
9710.0
 21
3678.703432708419
 31
0.0
100
AcDbText
  0
TEXT
  5
60CAF
330
1F
100
AcDbEntity
  8
D-MTR-TXT
100
AcDbText
 10
9908.071065989849
 20
3623.703432708418
 30
0.0
 40
69.99999999999999
  1
2.00
 72
     2
 11
10090.0
 21
3658.703432708418
 31
0.0
100
AcDbText
 73
     2
  0
TEXT
  5
60CB2
330
1F
100
AcDbEntity
  8
D-MTR-TXT
100
AcDbText
 10
8530.0
 20
3483.703432708419
 30
0.0
 40
69.99999999999999
  1
2.150×10.0
 11
8530.0
 21
3518.703432708419
 31
0.0
100
AcDbText
 73
     2
  0
TEXT
  5
60CB3
330
1F
100
AcDbEntity
  8
D-MTR-TXT
100
AcDbText
 10
9637.258883248732
 20
3494.363331185576
 30
0.0
 40
69.99999999999999
  1
m
 72
     4
 11
9660.0
 21
3518.703432708419
 31
0.0
100
AcDbText
  0
TEXT
  5
60CB4
330
1F
100
AcDbEntity
  8
D-MTR-TXT
100
AcDbText
 10
9693.756345177664
 20
3513.957239815018
 30
0.0
 40
49.99999999999999
  1
2
 72
     4
 11
9710.0
 21
3538.703432708419
 31
0.0
100
AcDbText
  0
TEXT
  5
60CB5
330
1F
100
AcDbEntity
  8
D-MTR-TXT
100
AcDbText
 10
9862.588832487311
 20
3483.703432708419
 30
0.0
 40
69.99999999999999
  1
21.50
 72
     2
 11
10090.0
 21
3518.703432708419
 31
0.0
100
AcDbText
 73
     2
  0
TEXT
  5
60CBA
330
1F
100
AcDbEntity
  8
D-MTR-TXT
100
AcDbText
 10
4862.588832487309
 20
3483.703432708419
 30
0.0
 40
69.99999999999999
  1
21.00
 72
     2
 11
5090.0
 21
3518.703432708419
 31
0.0
100
AcDbText
 73
     2
  0
TEXT
  5
60CBB
330
1F
100
AcDbEntity
  8
D-MTR-TXT
100
AcDbText
 10
4693.756345177665
 20
3513.957239815018
 30
0.0
 40
49.99999999999999
  1
2
 72
     4
 11
4710.0
 21
3538.703432708419
 31
0.0
100
AcDbText
  0
TEXT
  5
60CBC
330
1F
100
AcDbEntity
  8
D-MTR-TXT
100
AcDbText
 10
4637.258883248731
 20
3494.363331185576
 30
0.0
 40
69.99999999999999
  1
m
 72
     4
 11
4660.0
 21
3518.703432708419
 31
0.0
100
AcDbText
  0
TEXT
  5
60CBD
330
1F
100
AcDbEntity
  8
D-MTR-TXT
100
AcDbText
 10
3530.0
 20
3483.703432708419
 30
0.0
 40
69.99999999999999
  1
2.100×10.0
 11
3530.0
 21
3518.703432708419
 31
0.0
100
AcDbText
 73
     2
  0
TEXT
  5
60CC0
330
1F
100
AcDbEntity
  8
D-MTR-TXT
100
AcDbText
 10
4908.071065989847
 20
3623.703432708418
 30
0.0
 40
69.99999999999999
  1
2.00
 72
     2
 11
5090.0
 21
3658.703432708418
 31
0.0
100
AcDbText
 73
     2
  0
TEXT
  5
60CC1
330
1F
100
AcDbEntity
  8
D-MTR-TXT
100
AcDbText
 10
4693.756345177665
 20
3653.957239815018
 30
0.0
 40
49.99999999999999
  1
2
 72
     4
 11
4710.0
 21
3678.703432708419
 31
0.0
100
AcDbText
  0
TEXT
  5
60CC2
330
1F
100
AcDbEntity
  8
D-MTR-TXT
100
AcDbText
 10
4637.258883248731
 20
3634.363331185575
 30
0.0
 40
69.99999999999999
  1
m
 72
     4
 11
4660.0
 21
3658.703432708418
 31
0.0
100
AcDbText
  0
TEXT
  5
60CC3
330
1F
100
AcDbEntity
  8
D-MTR-TXT
100
AcDbText
 10
3530.0
 20
3623.703432708418
 30
0.0
 40
69.99999999999999
  1
0.100×10.0×2
 11
3530.0
 21
3658.703432708418
 31
0.0
100
AcDbText
 73
     2
  0
TEXT
  5
60CC5
330
1F
100
AcDbEntity
  8
D-MTR-TXT
100
AcDbText
 10
4862.588832487309
 20
3763.703432708419
 30
0.0
 40
69.99999999999999
  1
21.00
 72
     2
 11
5090.0
 21
3798.703432708418
 31
0.0
100
AcDbText
 73
     2
  0
TEXT
  5
60CC6
330
1F
100
AcDbEntity
  8
D-MTR-TXT
100
AcDbText
 10
4693.756345177665
 20
3793.957239815018
 30
0.0
 40
49.99999999999999
  1
2
 72
     4
 11
4710.0
 21
3818.703432708419
 31
0.0
100
AcDbText
  0
TEXT
  5
60CC7
330
1F
100
AcDbEntity
  8
D-MTR-TXT
100
AcDbText
 10
4637.258883248731
 20
3774.363331185576
 30
0.0
 40
69.99999999999999
  1
m
 72
     4
 11
4660.0
 21
3798.703432708418
 31
0.0
100
AcDbText
  0
TEXT
  5
60CC8
330
1F
100
AcDbEntity
  8
D-MTR-TXT
100
AcDbText
 10
3530.0
 20
3763.703432708419
 30
0.0
 40
69.99999999999999
  1
2.100×10.0
 11
3530.0
 21
3798.703432708418
 31
0.0
100
AcDbText
 73
     2
  0
TEXT
  5
60CCB
330
1F
100
AcDbEntity
  8
D-MTR-TXT
100
AcDbText
 10
4908.071065989847
 20
3903.703432708418
 30
0.0
 40
69.99999999999999
  1
0.38
 72
     2
 11
5090.0
 21
3938.703432708419
 31
0.0
100
AcDbText
 73
     2
  0
TEXT
  5
60CCC
330
1F
100
AcDbEntity
  8
D-MTR-TXT
100
AcDbText
 10
4693.756345177665
 20
3933.957239815017
 30
0.0
 40
49.99999999999999
  1
3
 72
     4
 11
4710.0
 21
3958.703432708418
 31
0.0
100
AcDbText
  0
TEXT
  5
60CCD
330
1F
100
AcDbEntity
  8
D-MTR-TXT
100
AcDbText
 10
4637.258883248731
 20
3914.363331185576
 30
0.0
 40
69.99999999999999
  1
m
 72
     4
 11
4660.0
 21
3938.703432708419
 31
0.0
100
AcDbText
  0
TEXT
  5
60CCE
330
1F
100
AcDbEntity
  8
D-MTR-TXT
100
AcDbText
 10
3530.0
 20
3903.703432708418
 30
0.0
 40
69.99999999999999
  1
1.900×0.020×10.0
 11
3530.0
 21
3938.703432708419
 31
0.0
100
AcDbText
 73
     2
  0
TEXT
  5
60CE5
330
1F
100
AcDbEntity
  8
D-MTR-TXT
100
AcDbText
 10
3530.0
 20
4043.703432708418
 30
0.0
 40
69.99999999999999
  1
0.400×1.600×10.0
 11
3530.0
 21
4078.703432708418
 31
0.0
100
AcDbText
 73
     2
  0
TEXT
  5
60CE6
330
1F
100
AcDbEntity
  8
D-MTR-TXT
100
AcDbText
 10
4637.258883248731
 20
4054.363331185576
 30
0.0
 40
69.99999999999999
  1
m
 72
     4
 11
4660.0
 21
4078.703432708418
 31
0.0
100
AcDbText
  0
TEXT
  5
60CE7
330
1F
100
AcDbEntity
  8
D-MTR-TXT
100
AcDbText
 10
4693.756345177665
 20
4073.957239815018
 30
0.0
 40
49.99999999999999
  1
3
 72
     4
 11
4710.0
 21
4098.703432708417
 31
0.0
100
AcDbText
  0
TEXT
  5
60CE8
330
1F
100
AcDbEntity
  8
D-MTR-TXT
100
AcDbText
 10
4908.071065989847
 20
4043.703432708418
 30
0.0
 40
69.99999999999999
  1
6.40
 72
     2
 11
5090.0
 21
4078.703432708418
 31
0.0
100
AcDbText
 73
     2
  0
TEXT
  5
60CFC
330
1F
100
AcDbEntity
  8
D-STR-HTXT
100
AcDbText
 10
12753.58566778027
 20
6332.948908233134
 30
0.0
 40
70.0
  1
r=250
 50
44.99999999999999
100
AcDbText
  0
TEXT
  5
60CFD
330
1F
100
AcDbEntity
  8
D-STR-HTXT
100
AcDbText
 10
7752.881312475969
 20
6532.233520314076
 30
0.0
 40
70.0
  1
r=250
 50
44.99999999999999
100
AcDbText
  0
TEXT
  5
60CFE
330
1F
100
AcDbEntity
  8
D-STR-HTXT
100
AcDbText
 10
2777.493562285417
 20
6631.843036263271
 30
0.0
 40
70.0
  1
r=250
 50
44.99999999999999
100
AcDbText
  0
LINE
  5
60D94
330
1F
100
AcDbEntity
  8
D-STR-HTXT
100
AcDbLine
 10
3027.858625739653
 20
9108.67770800589
 30
0.0
 11
3697.86299274693
 21
9108.677708005918
 31
0.0
1001
ACAD
1000
DSTYLE
1002
{
1070
   147
1040
0.625
1070
    77
1070
     1
1002
}
  0
LEADER
  5
60D95
330
1F
100
AcDbEntity
  8
D-STR-HTXT
100
AcDbLeader
  3
SXF-20
 76
     2
 10
2766.579911706474
 20
8658.891171762466
 30
0.0
 10
3027.858625739646
 20
9108.67770800589
 30
0.0
211
-1.0
221
0.0
231
0.0
210
0.0
220
0.0
230
-1.0
1001
ACAD
1000
DSTYLE
1002
{
1070
   147
1040
0.625
1070
    77
1070
     1
1002
}
  0
LINE
  5
60D9E
330
1F
100
AcDbEntity
  8
D-STR-HTXT
100
AcDbLine
 10
8002.858625739653
 20
9108.67770800589
 30
0.0
 11
8672.86299274693
 21
9108.677708005918
 31
0.0
1001
ACAD
1000
DSTYLE
1002
{
1070
   147
1040
0.625
1070
    77
1070
     1
1002
}
  0
LEADER
  5
60D9F
330
1F
100
AcDbEntity
  8
D-STR-HTXT
100
AcDbLeader
  3
SXF-20
 76
     2
 10
7741.579911706475
 20
8658.891171762466
 30
0.0
 10
8002.858625739646
 20
9108.67770800589
 30
0.0
211
-1.0
221
0.0
231
0.0
210
0.0
220
0.0
230
-1.0
1001
ACAD
1000
DSTYLE
1002
{
1070
   147
1040
0.625
1070
    77
1070
     1
1002
}
  0
LINE
  5
60DA8
330
1F
100
AcDbEntity
  8
D-STR-HTXT
100
AcDbLine
 10
13002.85862573965
 20
9108.67770800589
 30
0.0
 11
13672.86299274693
 21
9108.677708005918
 31
0.0
1001
ACAD
1000
DSTYLE
1002
{
1070
   147
1040
0.625
1070
    77
1070
     1
1002
}
  0
LEADER
  5
60DA9
330
1F
100
AcDbEntity
  8
D-STR-HTXT
100
AcDbLeader
  3
SXF-20
 76
     2
 10
12741.57991170647
 20
8658.891171762466
 30
0.0
 10
13002.85862573964
 20
9108.67770800589
 30
0.0
211
-1.0
221
0.0
231
0.0
210
0.0
220
0.0
230
-1.0
1001
ACAD
1000
DSTYLE
1002
{
1070
   147
1040
0.625
1070
    77
1070
     1
1002
}
  0
TEXT
  5
60DBE
330
1F
100
AcDbEntity
  8
D-STR-HTXT
100
AcDbText
 10
12914.21319796954
 20
9627.08375634533
 30
0.0
 40
140.0
  1
3,000×2,050
 72
     1
 11
13460.0
 21
9601.500000000154
 31
0.0
100
AcDbText
 73
     1
  0
TEXT
  5
60DBF
330
1F
100
AcDbEntity
  8
D-STR-HTXT
100
AcDbText
 10
7864.213197969544
 20
9627.08375634533
 30
0.0
 40
140.0
  1
2,800×1,950
 72
     1
 11
8410.0
 21
9601.500000000154
 31
0.0
100
AcDbText
 73
     1
  0
TEXT
  5
60DC0
330
1F
100
AcDbEntity
  8
D-STR-HTXT
100
AcDbText
 10
2864.213197969543
 20
9627.08375634533
 30
0.0
 40
140.0
  1
2,700×1,900
 72
     1
 11
3410.0
 21
9601.500000000154
 31
0.0
100
AcDbText
 73
     1
  0
TEXT
  5
60DE6
330
1F
100
AcDbEntity
  8
D-STR-HTXT
100
AcDbText
 10
7565.329949238578
 20
10836.64253422982
 30
0.0
 40
200.0
  1
(2,700-3,000)
 72
     4
 11
8410.0
 21
10929.02832103185
 31
0.0
100
AcDbText
  0
TEXT
  5
60DE7
330
1F
100
AcDbEntity
  8
D-STR-HTXT
100
AcDbText
 10
6267.278139105155
 20
11210.15173867655
 30
0.0
 40
200.0
  1
シンプル・ウォール
100
AcDbText
  0
LINE
  5
60DE8
330
1F
100
AcDbEntity
  8
D-TTL-TXT
100
AcDbLine
 10
6175.118026501499
 20
11113.00888153369
 30
0.0
 11
10644.8819734985
 21
11113.00888153369
 31
0.0
  0
TEXT
  5
60DE9
330
1F
100
AcDbEntity
  8
D-STR-HTXT
100
AcDbText
 10
9456.340971757272
 20
11187.00888153369
 30
0.0
 40
140.0
  1
尺度 1:20
100
AcDbText
  0
LWPOLYLINE
  5
6291A
330
1F
100
AcDbEntity
  8
D-MTR-FRAM
100
AcDbPolyline
 90
        2
 70
     0
 43
0.0
 10
11760.0
 20
3448.703432708397
 10
15160.0
 20
3448.703432708397
  0
TEXT
  5
6291B
330
1F
100
AcDbEntity
  8
D-MTR-TXT
100
AcDbText
 10
11950.65989847716
 20
4183.5257677338
 30
0.0
 40
69.99999999999999
  1
シンプル・ウォール
 72
     4
 11
12360.0
 21
4218.703432708418
 31
0.0
100
AcDbText
  0
TEXT
  5
6291C
330
1F
100
AcDbEntity
  8
D-MTR-TXT
100
AcDbText
 10
13032.58883248731
 20
4184.058762657657
 30
0.0
 40
69.99999999999999
  1
3000×2050
 72
     4
 11
13260.0
 21
4218.703432708418
 31
0.0
100
AcDbText
  0
TEXT
  5
6291D
330
1F
100
AcDbEntity
  8
D-MTR-TXT
100
AcDbText
 10
13580.0
 20
4183.703432708418
 30
0.0
 40
69.99999999999999
  1
10.0÷2.0
 11
13580.0
 21
4218.703432708418
 31
0.0
100
AcDbText
 73
     2
  0
TEXT
  5
6291E
330
1F
100
AcDbEntity
  8
D-MTR-TXT
100
AcDbText
 10
14664.51776649746
 20
4185.302417479991
 30
0.0
 40
69.99999999999999
  1
個
 72
     4
 11
14710.0
 21
4218.703432708418
 31
0.0
100
AcDbText
  0
TEXT
  5
6291F
330
1F
100
AcDbEntity
  8
D-MTR-TXT
100
AcDbText
 10
14958.07106598985
 20
4183.703432708418
 30
0.0
 40
69.99999999999999
  1
5.0 
 72
     2
 11
15140.0
 21
4218.703432708418
 31
0.0
100
AcDbText
 73
     2
  0
LWPOLYLINE
  5
62920
330
1F
100
AcDbEntity
  8
D-MTR-FRAM
100
AcDbPolyline
 90
        2
 70
     0
 43
0.0
 10
11760.0
 20
3588.703432708397
 10
15160.0
 20
3588.703432708397
  0
TEXT
  5
62921
330
1F
100
AcDbEntity
  8
D-MTR-TXT
100
AcDbText
 10
14659.69543147208
 20
4461.495310881007
 30
0.0
 40
69.99999999999999
  1
(10.0m当り)
 72
     2
 11
15160.0
 21
4448.703432708418
 31
0.0
100
AcDbText
 73
     1
  0
TEXT
  5
62922
330
1F
100
AcDbEntity
  8
D-MTR-TXT
100
AcDbText
 10
11760.0
 20
4466.977544383545
 30
0.0
 40
99.99999999999998
  1
材料表
 11
11760.0
 21
4448.703432708418
 31
0.0
100
AcDbText
 73
     1
  0
TEXT
  5
62923
330
1F
100
AcDbEntity
  8
D-MTR-TXT
100
AcDbText
 10
14919.03553299492
 20
4326.368407327708
 30
0.0
 40
69.99999999999999
  1
数量
 72
     4
 11
15010.0
 21
4358.703432708418
 31
0.0
100
AcDbText
  0
TEXT
  5
62924
330
1F
100
AcDbEntity
  8
D-MTR-TXT
100
AcDbText
 10
14619.03553299492
 20
4325.657747429231
 30
0.0
 40
69.99999999999999
  1
単位
 72
     4
 11
14710.0
 21
4358.703432708418
 31
0.0
100
AcDbText
  0
TEXT
  5
62925
330
1F
100
AcDbEntity
  8
D-MTR-TXT
100
AcDbText
 10
13923.55329949238
 20
4326.013077378469
 30
0.0
 40
69.99999999999999
  1
計算式
 72
     4
 11
14060.0
 21
4358.703432708418
 31
0.0
100
AcDbText
  0
TEXT
  5
62926
330
1F
100
AcDbEntity
  8
D-MTR-TXT
100
AcDbText
 10
13169.03553299492
 20
4326.368407327708
 30
0.0
 40
69.99999999999999
  1
規格
 72
     4
 11
13260.0
 21
4358.703432708418
 31
0.0
100
AcDbText
  0
TEXT
  5
62927
330
1F
100
AcDbEntity
  8
D-MTR-TXT
100
AcDbText
 10
12269.03553299492
 20
4326.013077378469
 30
0.0
 40
69.99999999999999
  1
名称
 72
     4
 11
12360.0
 21
4358.703432708418
 31
0.0
100
AcDbText
  0
LWPOLYLINE
  5
62928
330
1F
100
AcDbEntity
  8
D-MTR-FRAM
100
AcDbPolyline
 90
        2
 70
     0
 43
0.0
 10
15160.0
 20
4428.703432708396
 10
15160.0
 20
3448.703432708397
  0
LWPOLYLINE
  5
62929
330
1F
100
AcDbEntity
  8
D-MTR-FRAM
100
AcDbPolyline
 90
        2
 70
     0
 43
0.0
 10
14860.0
 20
4428.703432708396
 10
14860.0
 20
3448.703432708397
  0
LWPOLYLINE
  5
6292A
330
1F
100
AcDbEntity
  8
D-MTR-FRAM
100
AcDbPolyline
 90
        2
 70
     0
 43
0.0
 10
14560.0
 20
4428.703432708396
 10
14560.0
 20
3448.703432708397
  0
LWPOLYLINE
  5
6292B
330
1F
100
AcDbEntity
  8
D-MTR-FRAM
100
AcDbPolyline
 90
        2
 70
     0
 43
0.0
 10
13560.0
 20
4428.703432708396
 10
13560.0
 20
3448.703432708397
  0
LWPOLYLINE
  5
6292C
330
1F
100
AcDbEntity
  8
D-MTR-FRAM
100
AcDbPolyline
 90
        2
 70
     0
 43
0.0
 10
12960.0
 20
4428.703432708396
 10
12960.0
 20
3448.703432708397
  0
LWPOLYLINE
  5
6292D
330
1F
100
AcDbEntity
  8
D-MTR-FRAM
100
AcDbPolyline
 90
        2
 70
     0
 43
0.0
 10
11760.0
 20
4428.703432708396
 10
11760.0
 20
3448.703432708397
  0
LWPOLYLINE
  5
6292E
330
1F
100
AcDbEntity
  8
D-MTR-FRAM
100
AcDbPolyline
 90
        2
 70
     0
 43
0.0
 10
11760.0
 20
3728.703432708396
 10
15160.0
 20
3728.703432708396
  0
LWPOLYLINE
  5
6292F
330
1F
100
AcDbEntity
  8
D-MTR-FRAM
100
AcDbPolyline
 90
        2
 70
     0
 43
0.0
 10
11760.0
 20
3868.703432708397
 10
15160.0
 20
3868.703432708397
  0
LWPOLYLINE
  5
62930
330
1F
100
AcDbEntity
  8
D-MTR-FRAM
100
AcDbPolyline
 90
        2
 70
     0
 43
0.0
 10
11760.0
 20
4008.703432708396
 10
15160.0
 20
4008.703432708396
  0
LWPOLYLINE
  5
62931
330
1F
100
AcDbEntity
  8
D-MTR-FRAM
100
AcDbPolyline
 90
        2
 70
     0
 43
0.0
 10
11760.0
 20
4148.703432708397
 10
15160.0
 20
4148.703432708397
  0
LWPOLYLINE
  5
62932
330
1F
100
AcDbEntity
  8
D-MTR-FRAM
100
AcDbPolyline
 90
        2
 70
     0
 43
0.0
 10
11760.0
 20
4288.703432708397
 10
15160.0
 20
4288.703432708397
  0
LWPOLYLINE
  5
62933
330
1F
100
AcDbEntity
  8
D-MTR-FRAM
100
AcDbPolyline
 90
        2
 70
     0
 43
0.0
 10
11760.0
 20
4428.703432708396
 10
15160.0
 20
4428.703432708396
  0
TEXT
  5
62934
330
1F
100
AcDbEntity
  8
D-MTR-TXT
100
AcDbText
 10
13146.29441624365
 20
3484.058762657657
 30
0.0
 40
69.99999999999999
  1
RC-40
 72
     4
 11
13260.0
 21
3518.703432708419
 31
0.0
100
AcDbText
  0
TEXT
  5
62935
330
1F
100
AcDbEntity
  8
D-MTR-TXT
100
AcDbText
 10
12064.3654822335
 20
3485.83541240385
 30
0.0
 40
69.99999999999999
  1
基礎材(t=200)
 72
     4
 11
12360.0
 21
3518.703432708419
 31
0.0
100
AcDbText
  0
TEXT
  5
62936
330
1F
100
AcDbEntity
  8
D-MTR-TXT
100
AcDbText
 10
12178.07106598985
 20
3626.013077378469
 30
0.0
 40
69.99999999999999
  1
同上型枠
 72
     4
 11
12360.0
 21
3658.703432708418
 31
0.0
100
AcDbText
  0
TEXT
  5
62937
330
1F
100
AcDbEntity
  8
D-MTR-TXT
100
AcDbText
 10
13055.32994923858
 20
3764.058762657657
 30
0.0
 40
69.99999999999999
  1
18-5-40BB
 72
     4
 11
13260.0
 21
3798.703432708418
 31
0.0
100
AcDbText
  0
TEXT
  5
62938
330
1F
100
AcDbEntity
  8
D-MTR-TXT
100
AcDbText
 10
11836.95431472081
 20
3766.013077378469
 30
0.0
 40
69.99999999999999
  1
均しコンクリート(t=100)
 72
     4
 11
12360.0
 21
3798.703432708418
 31
0.0
100
AcDbText
  0
TEXT
  5
62939
330
1F
100
AcDbEntity
  8
D-MTR-TXT
100
AcDbText
 10
13191.77664974619
 20
3904.058762657657
 30
0.0
 40
69.99999999999999
  1
1:3
 72
     4
 11
13260.0
 21
3938.703432708419
 31
0.0
100
AcDbText
  0
TEXT
  5
6293A
330
1F
100
AcDbEntity
  8
D-MTR-TXT
100
AcDbText
 10
12132.58883248731
 20
3906.546072302327
 30
0.0
 40
69.99999999999999
  1
敷モルタル
 72
     4
 11
12360.0
 21
3938.703432708419
 31
0.0
100
AcDbText
  0
TEXT
  5
6293B
330
1F
100
AcDbEntity
  8
D-MTR-TXT
100
AcDbText
 10
12223.55329949238
 20
4047.256732200803
 30
0.0
 40
69.99999999999999
  1
裏込材
 72
     4
 11
12360.0
 21
4078.703432708418
 31
0.0
100
AcDbText
  0
TEXT
  5
6293C
330
1F
100
AcDbEntity
  8
D-MTR-TXT
100
AcDbText
 10
13146.29441624365
 20
4044.058762657657
 30
0.0
 40
69.99999999999999
  1
RC-40
 72
     4
 11
13260.0
 21
4078.703432708418
 31
0.0
100
AcDbText
  0
LWPOLYLINE
  5
6298C
330
1F
100
AcDbEntity
  8
D-MTR-FRAM
100
AcDbPolyline
 90
        2
 70
     0
 43
0.0
 10
6710.0
 20
3448.703432708397
 10
10110.0
 20
3448.703432708397
  0
TEXT
  5
6298D
330
1F
100
AcDbEntity
  8
D-MTR-TXT
100
AcDbText
 10
6900.659898477157
 20
4183.5257677338
 30
0.0
 40
69.99999999999999
  1
シンプル・ウォール
 72
     4
 11
7310.0
 21
4218.703432708418
 31
0.0
100
AcDbText
  0
TEXT
  5
6298E
330
1F
100
AcDbEntity
  8
D-MTR-TXT
100
AcDbText
 10
7982.588832487309
 20
4184.058762657657
 30
0.0
 40
69.99999999999999
  1
2800×1950
 72
     4
 11
8210.0
 21
4218.703432708418
 31
0.0
100
AcDbText
  0
TEXT
  5
6298F
330
1F
100
AcDbEntity
  8
D-MTR-TXT
100
AcDbText
 10
8530.0
 20
4183.703432708418
 30
0.0
 40
69.99999999999999
  1
10.0÷2.0
 11
8530.0
 21
4218.703432708418
 31
0.0
100
AcDbText
 73
     2
  0
TEXT
  5
62990
330
1F
100
AcDbEntity
  8
D-MTR-TXT
100
AcDbText
 10
9614.517766497463
 20
4185.302417479991
 30
0.0
 40
69.99999999999999
  1
個
 72
     4
 11
9660.0
 21
4218.703432708418
 31
0.0
100
AcDbText
  0
TEXT
  5
62991
330
1F
100
AcDbEntity
  8
D-MTR-TXT
100
AcDbText
 10
9908.071065989849
 20
4183.703432708418
 30
0.0
 40
69.99999999999999
  1
5.0 
 72
     2
 11
10090.0
 21
4218.703432708418
 31
0.0
100
AcDbText
 73
     2
  0
LWPOLYLINE
  5
62992
330
1F
100
AcDbEntity
  8
D-MTR-FRAM
100
AcDbPolyline
 90
        2
 70
     0
 43
0.0
 10
6710.0
 20
3588.703432708397
 10
10110.0
 20
3588.703432708397
  0
TEXT
  5
62993
330
1F
100
AcDbEntity
  8
D-MTR-TXT
100
AcDbText
 10
9609.695431472081
 20
4461.495310881007
 30
0.0
 40
69.99999999999999
  1
(10.0m当り)
 72
     2
 11
10110.0
 21
4448.703432708418
 31
0.0
100
AcDbText
 73
     1
  0
TEXT
  5
62994
330
1F
100
AcDbEntity
  8
D-MTR-TXT
100
AcDbText
 10
6710.0
 20
4466.977544383545
 30
0.0
 40
99.99999999999998
  1
材料表
 11
6710.0
 21
4448.703432708418
 31
0.0
100
AcDbText
 73
     1
  0
TEXT
  5
62995
330
1F
100
AcDbEntity
  8
D-MTR-TXT
100
AcDbText
 10
9869.035532994924
 20
4326.368407327708
 30
0.0
 40
69.99999999999999
  1
数量
 72
     4
 11
9960.0
 21
4358.703432708418
 31
0.0
100
AcDbText
  0
TEXT
  5
62996
330
1F
100
AcDbEntity
  8
D-MTR-TXT
100
AcDbText
 10
9569.035532994924
 20
4325.657747429231
 30
0.0
 40
69.99999999999999
  1
単位
 72
     4
 11
9660.0
 21
4358.703432708418
 31
0.0
100
AcDbText
  0
TEXT
  5
62997
330
1F
100
AcDbEntity
  8
D-MTR-TXT
100
AcDbText
 10
8873.553299492385
 20
4326.013077378469
 30
0.0
 40
69.99999999999999
  1
計算式
 72
     4
 11
9010.0
 21
4358.703432708418
 31
0.0
100
AcDbText
  0
TEXT
  5
62998
330
1F
100
AcDbEntity
  8
D-MTR-TXT
100
AcDbText
 10
8119.035532994924
 20
4326.368407327708
 30
0.0
 40
69.99999999999999
  1
規格
 72
     4
 11
8210.0
 21
4358.703432708418
 31
0.0
100
AcDbText
  0
TEXT
  5
62999
330
1F
100
AcDbEntity
  8
D-MTR-TXT
100
AcDbText
 10
7219.035532994924
 20
4326.013077378469
 30
0.0
 40
69.99999999999999
  1
名称
 72
     4
 11
7310.0
 21
4358.703432708418
 31
0.0
100
AcDbText
  0
LWPOLYLINE
  5
6299A
330
1F
100
AcDbEntity
  8
D-MTR-FRAM
100
AcDbPolyline
 90
        2
 70
     0
 43
0.0
 10
10110.0
 20
4428.703432708396
 10
10110.0
 20
3448.703432708397
  0
LWPOLYLINE
  5
6299B
330
1F
100
AcDbEntity
  8
D-MTR-FRAM
100
AcDbPolyline
 90
        2
 70
     0
 43
0.0
 10
9810.0
 20
4428.703432708396
 10
9810.0
 20
3448.703432708397
  0
LWPOLYLINE
  5
6299C
330
1F
100
AcDbEntity
  8
D-MTR-FRAM
100
AcDbPolyline
 90
        2
 70
     0
 43
0.0
 10
9510.0
 20
4428.703432708396
 10
9510.0
 20
3448.703432708397
  0
LWPOLYLINE
  5
6299D
330
1F
100
AcDbEntity
  8
D-MTR-FRAM
100
AcDbPolyline
 90
        2
 70
     0
 43
0.0
 10
8510.0
 20
4428.703432708396
 10
8510.0
 20
3448.703432708397
  0
LWPOLYLINE
  5
6299E
330
1F
100
AcDbEntity
  8
D-MTR-FRAM
100
AcDbPolyline
 90
        2
 70
     0
 43
0.0
 10
7910.0
 20
4428.703432708396
 10
7910.0
 20
3448.703432708397
  0
LWPOLYLINE
  5
6299F
330
1F
100
AcDbEntity
  8
D-MTR-FRAM
100
AcDbPolyline
 90
        2
 70
     0
 43
0.0
 10
6710.0
 20
4428.703432708396
 10
6710.0
 20
3448.703432708397
  0
LWPOLYLINE
  5
629A0
330
1F
100
AcDbEntity
  8
D-MTR-FRAM
100
AcDbPolyline
 90
        2
 70
     0
 43
0.0
 10
6710.0
 20
3728.703432708396
 10
10110.0
 20
3728.703432708396
  0
LWPOLYLINE
  5
629A1
330
1F
100
AcDbEntity
  8
D-MTR-FRAM
100
AcDbPolyline
 90
        2
 70
     0
 43
0.0
 10
6710.0
 20
3868.703432708397
 10
10110.0
 20
3868.703432708397
  0
LWPOLYLINE
  5
629A2
330
1F
100
AcDbEntity
  8
D-MTR-FRAM
100
AcDbPolyline
 90
        2
 70
     0
 43
0.0
 10
6710.0
 20
4008.703432708396
 10
10110.0
 20
4008.703432708396
  0
LWPOLYLINE
  5
629A3
330
1F
100
AcDbEntity
  8
D-MTR-FRAM
100
AcDbPolyline
 90
        2
 70
     0
 43
0.0
 10
6710.0
 20
4148.703432708397
 10
10110.0
 20
4148.703432708397
  0
LWPOLYLINE
  5
629A4
330
1F
100
AcDbEntity
  8
D-MTR-FRAM
100
AcDbPolyline
 90
        2
 70
     0
 43
0.0
 10
6710.0
 20
4288.703432708397
 10
10110.0
 20
4288.703432708397
  0
LWPOLYLINE
  5
629A5
330
1F
100
AcDbEntity
  8
D-MTR-FRAM
100
AcDbPolyline
 90
        2
 70
     0
 43
0.0
 10
6710.0
 20
4428.703432708396
 10
10110.0
 20
4428.703432708396
  0
TEXT
  5
629A6
330
1F
100
AcDbEntity
  8
D-MTR-TXT
100
AcDbText
 10
8096.294416243656
 20
3484.058762657657
 30
0.0
 40
69.99999999999999
  1
RC-40
 72
     4
 11
8210.0
 21
3518.703432708419
 31
0.0
100
AcDbText
  0
TEXT
  5
629A7
330
1F
100
AcDbEntity
  8
D-MTR-TXT
100
AcDbText
 10
7014.365482233504
 20
3485.83541240385
 30
0.0
 40
69.99999999999999
  1
基礎材(t=200)
 72
     4
 11
7310.0
 21
3518.703432708419
 31
0.0
100
AcDbText
  0
TEXT
  5
629A8
330
1F
100
AcDbEntity
  8
D-MTR-TXT
100
AcDbText
 10
7128.071065989847
 20
3626.013077378469
 30
0.0
 40
69.99999999999999
  1
同上型枠
 72
     4
 11
7310.0
 21
3658.703432708418
 31
0.0
100
AcDbText
  0
TEXT
  5
629A9
330
1F
100
AcDbEntity
  8
D-MTR-TXT
100
AcDbText
 10
8005.329949238578
 20
3764.058762657657
 30
0.0
 40
69.99999999999999
  1
18-5-40BB
 72
     4
 11
8210.0
 21
3798.703432708418
 31
0.0
100
AcDbText
  0
TEXT
  5
629AA
330
1F
100
AcDbEntity
  8
D-MTR-TXT
100
AcDbText
 10
6786.954314720812
 20
3766.013077378469
 30
0.0
 40
69.99999999999999
  1
均しコンクリート(t=100)
 72
     4
 11
7310.0
 21
3798.703432708418
 31
0.0
100
AcDbText
  0
TEXT
  5
629AB
330
1F
100
AcDbEntity
  8
D-MTR-TXT
100
AcDbText
 10
8141.776649746192
 20
3904.058762657657
 30
0.0
 40
69.99999999999999
  1
1:3
 72
     4
 11
8210.0
 21
3938.703432708419
 31
0.0
100
AcDbText
  0
TEXT
  5
629AC
330
1F
100
AcDbEntity
  8
D-MTR-TXT
100
AcDbText
 10
7082.588832487309
 20
3906.546072302327
 30
0.0
 40
69.99999999999999
  1
敷モルタル
 72
     4
 11
7310.0
 21
3938.703432708419
 31
0.0
100
AcDbText
  0
TEXT
  5
629AD
330
1F
100
AcDbEntity
  8
D-MTR-TXT
100
AcDbText
 10
7173.553299492386
 20
4047.256732200803
 30
0.0
 40
69.99999999999999
  1
裏込材
 72
     4
 11
7310.0
 21
4078.703432708418
 31
0.0
100
AcDbText
  0
TEXT
  5
629AE
330
1F
100
AcDbEntity
  8
D-MTR-TXT
100
AcDbText
 10
8096.294416243656
 20
4044.058762657657
 30
0.0
 40
69.99999999999999
  1
RC-40
 72
     4
 11
8210.0
 21
4078.703432708418
 31
0.0
100
AcDbText
  0
LWPOLYLINE
  5
629FE
330
1F
100
AcDbEntity
  8
D-MTR-FRAM
100
AcDbPolyline
 90
        2
 70
     0
 43
0.0
 10
1710.0
 20
3448.703432708397
 10
5110.0
 20
3448.703432708397
  0
TEXT
  5
629FF
330
1F
100
AcDbEntity
  8
D-MTR-TXT
100
AcDbText
 10
1900.659898477157
 20
4183.5257677338
 30
0.0
 40
69.99999999999999
  1
シンプル・ウォール
 72
     4
 11
2310.0
 21
4218.703432708418
 31
0.0
100
AcDbText
  0
TEXT
  5
62A00
330
1F
100
AcDbEntity
  8
D-MTR-TXT
100
AcDbText
 10
2982.58883248731
 20
4184.058762657657
 30
0.0
 40
69.99999999999999
  1
2700×1900
 72
     4
 11
3210.0
 21
4218.703432708418
 31
0.0
100
AcDbText
  0
TEXT
  5
62A01
330
1F
100
AcDbEntity
  8
D-MTR-TXT
100
AcDbText
 10
3530.0
 20
4183.703432708418
 30
0.0
 40
69.99999999999999
  1
10.0÷2.0
 11
3530.0
 21
4218.703432708418
 31
0.0
100
AcDbText
 73
     2
  0
TEXT
  5
62A02
330
1F
100
AcDbEntity
  8
D-MTR-TXT
100
AcDbText
 10
4614.517766497462
 20
4185.302417479991
 30
0.0
 40
69.99999999999999
  1
個
 72
     4
 11
4660.0
 21
4218.703432708418
 31
0.0
100
AcDbText
  0
TEXT
  5
62A03
330
1F
100
AcDbEntity
  8
D-MTR-TXT
100
AcDbText
 10
4908.071065989847
 20
4183.703432708418
 30
0.0
 40
69.99999999999999
  1
5.0 
 72
     2
 11
5090.0
 21
4218.703432708418
 31
0.0
100
AcDbText
 73
     2
  0
LWPOLYLINE
  5
62A04
330
1F
100
AcDbEntity
  8
D-MTR-FRAM
100
AcDbPolyline
 90
        2
 70
     0
 43
0.0
 10
1710.0
 20
3588.703432708397
 10
5110.0
 20
3588.703432708397
  0
TEXT
  5
62A05
330
1F
100
AcDbEntity
  8
D-MTR-TXT
100
AcDbText
 10
4609.695431472082
 20
4461.495310881007
 30
0.0
 40
69.99999999999999
  1
(10.0m当り)
 72
     2
 11
5110.0
 21
4448.703432708418
 31
0.0
100
AcDbText
 73
     1
  0
TEXT
  5
62A06
330
1F
100
AcDbEntity
  8
D-MTR-TXT
100
AcDbText
 10
1710.0
 20
4466.977544383545
 30
0.0
 40
99.99999999999998
  1
材料表
 11
1710.0
 21
4448.703432708418
 31
0.0
100
AcDbText
 73
     1
  0
TEXT
  5
62A07
330
1F
100
AcDbEntity
  8
D-MTR-TXT
100
AcDbText
 10
4869.035532994924
 20
4326.368407327708
 30
0.0
 40
69.99999999999999
  1
数量
 72
     4
 11
4960.0
 21
4358.703432708418
 31
0.0
100
AcDbText
  0
TEXT
  5
62A08
330
1F
100
AcDbEntity
  8
D-MTR-TXT
100
AcDbText
 10
4569.035532994924
 20
4325.657747429231
 30
0.0
 40
69.99999999999999
  1
単位
 72
     4
 11
4660.0
 21
4358.703432708418
 31
0.0
100
AcDbText
  0
TEXT
  5
62A09
330
1F
100
AcDbEntity
  8
D-MTR-TXT
100
AcDbText
 10
3873.553299492386
 20
4326.013077378469
 30
0.0
 40
69.99999999999999
  1
計算式
 72
     4
 11
4010.0
 21
4358.703432708418
 31
0.0
100
AcDbText
  0
TEXT
  5
62A0A
330
1F
100
AcDbEntity
  8
D-MTR-TXT
100
AcDbText
 10
3119.035532994924
 20
4326.368407327708
 30
0.0
 40
69.99999999999999
  1
規格
 72
     4
 11
3210.0
 21
4358.703432708418
 31
0.0
100
AcDbText
  0
TEXT
  5
62A0B
330
1F
100
AcDbEntity
  8
D-MTR-TXT
100
AcDbText
 10
2219.035532994924
 20
4326.013077378469
 30
0.0
 40
69.99999999999999
  1
名称
 72
     4
 11
2310.0
 21
4358.703432708418
 31
0.0
100
AcDbText
  0
LWPOLYLINE
  5
62A0C
330
1F
100
AcDbEntity
  8
D-MTR-FRAM
100
AcDbPolyline
 90
        2
 70
     0
 43
0.0
 10
5110.0
 20
4428.703432708396
 10
5110.0
 20
3448.703432708397
  0
LWPOLYLINE
  5
62A0D
330
1F
100
AcDbEntity
  8
D-MTR-FRAM
100
AcDbPolyline
 90
        2
 70
     0
 43
0.0
 10
4810.0
 20
4428.703432708396
 10
4810.0
 20
3448.703432708397
  0
LWPOLYLINE
  5
62A0E
330
1F
100
AcDbEntity
  8
D-MTR-FRAM
100
AcDbPolyline
 90
        2
 70
     0
 43
0.0
 10
4510.0
 20
4428.703432708396
 10
4510.0
 20
3448.703432708397
  0
LWPOLYLINE
  5
62A0F
330
1F
100
AcDbEntity
  8
D-MTR-FRAM
100
AcDbPolyline
 90
        2
 70
     0
 43
0.0
 10
3510.0
 20
4428.703432708396
 10
3510.0
 20
3448.703432708397
  0
LWPOLYLINE
  5
62A10
330
1F
100
AcDbEntity
  8
D-MTR-FRAM
100
AcDbPolyline
 90
        2
 70
     0
 43
0.0
 10
2910.0
 20
4428.703432708396
 10
2910.0
 20
3448.703432708397
  0
LWPOLYLINE
  5
62A11
330
1F
100
AcDbEntity
  8
D-MTR-FRAM
100
AcDbPolyline
 90
        2
 70
     0
 43
0.0
 10
1710.0
 20
4428.703432708396
 10
1710.0
 20
3448.703432708397
  0
LWPOLYLINE
  5
62A12
330
1F
100
AcDbEntity
  8
D-MTR-FRAM
100
AcDbPolyline
 90
        2
 70
     0
 43
0.0
 10
1710.0
 20
3728.703432708396
 10
5110.0
 20
3728.703432708396
  0
LWPOLYLINE
  5
62A13
330
1F
100
AcDbEntity
  8
D-MTR-FRAM
100
AcDbPolyline
 90
        2
 70
     0
 43
0.0
 10
1710.0
 20
3868.703432708397
 10
5110.0
 20
3868.703432708397
  0
LWPOLYLINE
  5
62A14
330
1F
100
AcDbEntity
  8
D-MTR-FRAM
100
AcDbPolyline
 90
        2
 70
     0
 43
0.0
 10
1710.0
 20
4008.703432708396
 10
5110.0
 20
4008.703432708396
  0
LWPOLYLINE
  5
62A15
330
1F
100
AcDbEntity
  8
D-MTR-FRAM
100
AcDbPolyline
 90
        2
 70
     0
 43
0.0
 10
1710.0
 20
4148.703432708397
 10
5110.0
 20
4148.703432708397
  0
LWPOLYLINE
  5
62A16
330
1F
100
AcDbEntity
  8
D-MTR-FRAM
100
AcDbPolyline
 90
        2
 70
     0
 43
0.0
 10
1710.0
 20
4288.703432708397
 10
5110.0
 20
4288.703432708397
  0
LWPOLYLINE
  5
62A17
330
1F
100
AcDbEntity
  8
D-MTR-FRAM
100
AcDbPolyline
 90
        2
 70
     0
 43
0.0
 10
1710.0
 20
4428.703432708396
 10
5110.0
 20
4428.703432708396
  0
TEXT
  5
62A18
330
1F
100
AcDbEntity
  8
D-MTR-TXT
100
AcDbText
 10
3096.294416243655
 20
3484.058762657657
 30
0.0
 40
69.99999999999999
  1
RC-40
 72
     4
 11
3210.0
 21
3518.703432708419
 31
0.0
100
AcDbText
  0
TEXT
  5
62A19
330
1F
100
AcDbEntity
  8
D-MTR-TXT
100
AcDbText
 10
2014.365482233503
 20
3485.83541240385
 30
0.0
 40
69.99999999999999
  1
基礎材(t=200)
 72
     4
 11
2310.0
 21
3518.703432708419
 31
0.0
100
AcDbText
  0
TEXT
  5
62A1A
330
1F
100
AcDbEntity
  8
D-MTR-TXT
100
AcDbText
 10
2128.071065989848
 20
3626.013077378469
 30
0.0
 40
69.99999999999999
  1
同上型枠
 72
     4
 11
2310.0
 21
3658.703432708418
 31
0.0
100
AcDbText
  0
TEXT
  5
62A1B
330
1F
100
AcDbEntity
  8
D-MTR-TXT
100
AcDbText
 10
3005.329949238579
 20
3764.058762657657
 30
0.0
 40
69.99999999999999
  1
18-5-40BB
 72
     4
 11
3210.0
 21
3798.703432708418
 31
0.0
100
AcDbText
  0
TEXT
  5
62A1C
330
1F
100
AcDbEntity
  8
D-MTR-TXT
100
AcDbText
 10
1786.954314720812
 20
3766.013077378469
 30
0.0
 40
69.99999999999999
  1
均しコンクリート(t=100)
 72
     4
 11
2310.0
 21
3798.703432708418
 31
0.0
100
AcDbText
  0
TEXT
  5
62A1D
330
1F
100
AcDbEntity
  8
D-MTR-TXT
100
AcDbText
 10
3141.776649746193
 20
3904.058762657657
 30
0.0
 40
69.99999999999999
  1
1:3
 72
     4
 11
3210.0
 21
3938.703432708419
 31
0.0
100
AcDbText
  0
TEXT
  5
62A1E
330
1F
100
AcDbEntity
  8
D-MTR-TXT
100
AcDbText
 10
2082.58883248731
 20
3906.546072302327
 30
0.0
 40
69.99999999999999
  1
敷モルタル
 72
     4
 11
2310.0
 21
3938.703432708419
 31
0.0
100
AcDbText
  0
TEXT
  5
62A1F
330
1F
100
AcDbEntity
  8
D-MTR-TXT
100
AcDbText
 10
2173.553299492386
 20
4047.256732200803
 30
0.0
 40
69.99999999999999
  1
裏込材
 72
     4
 11
2310.0
 21
4078.703432708418
 31
0.0
100
AcDbText
  0
TEXT
  5
62A20
330
1F
100
AcDbEntity
  8
D-MTR-TXT
100
AcDbText
 10
3096.294416243655
 20
4044.058762657657
 30
0.0
 40
69.99999999999999
  1
RC-40
 72
     4
 11
3210.0
 21
4078.703432708418
 31
0.0
100
AcDbText
  0
TEXT
  5
62A91
330
1F
100
AcDbEntity
  8
D-STR-HTXT
100
AcDbText
 10
13031.66299274693
 20
9122.677708005918
 30
0.0
 40
69.99999999999999
  1
裏込材(RC-40)
100
AcDbText
  0
TEXT
  5
62A92
330
1F
100
AcDbEntity
  8
D-STR-HTXT
100
AcDbText
 10
8031.66299274693
 20
9122.677708005918
 30
0.0
 40
69.99999999999999
  1
裏込材(RC-40)
100
AcDbText
  0
TEXT
  5
62A93
330
1F
100
AcDbEntity
  8
D-STR-HTXT
100
AcDbText
 10
3056.662992746931
 20
9122.677708005918
 30
0.0
 40
69.99999999999999
  1
裏込材(RC-40)
100
AcDbText
  0
TEXT
  5
62A94
330
1F
100
AcDbEntity
  8
D-STR-HTXT
100
AcDbText
 10
4593.358268538623
 20
6087.847770582167
 30
0.0
 40
69.99999999999999
  1
敷モルタル(1:3)
100
AcDbText
  0
TEXT
  5
62A95
330
1F
100
AcDbEntity
  8
D-STR-HTXT
100
AcDbText
 10
4585.796751567874
 20
5957.447770582167
 30
0.0
 40
69.99999999999999
  1
均しコンクリート(18-5-40BB)
100
AcDbText
  0
TEXT
  5
62A96
330
1F
100
AcDbEntity
  8
D-STR-HTXT
100
AcDbText
 10
4567.155500149563
 20
5830.647770582167
 30
0.0
 40
69.99999999999999
  1
基礎材(RC-40)
100
AcDbText
  0
TEXT
  5
62A97
330
1F
100
AcDbEntity
  8
D-STR-HTXT
100
AcDbText
 10
9592.155500149564
 20
5730.647770582167
 30
0.0
 40
69.99999999999999
  1
基礎材(RC-40)
100
AcDbText
  0
TEXT
  5
62A98
330
1F
100
AcDbEntity
  8
D-STR-HTXT
100
AcDbText
 10
9610.796751567875
 20
5857.447770582167
 30
0.0
 40
69.99999999999999
  1
均しコンクリート(18-5-40BB)
100
AcDbText
  0
TEXT
  5
62A99
330
1F
100
AcDbEntity
  8
D-STR-HTXT
100
AcDbText
 10
9618.358268538624
 20
5987.847770582167
 30
0.0
 40
69.99999999999999
  1
敷モルタル(1:3)
100
AcDbText
  0
TEXT
  5
62A9A
330
1F
100
AcDbEntity
  8
D-STR-HTXT
100
AcDbText
 10
14692.15550014956
 20
5530.647770582167
 30
0.0
 40
69.99999999999999
  1
基礎材(RC-40)
100
AcDbText
  0
TEXT
  5
62A9B
330
1F
100
AcDbEntity
  8
D-STR-HTXT
100
AcDbText
 10
14710.79675156787
 20
5657.447770582167
 30
0.0
 40
69.99999999999999
  1
均しコンクリート(18-5-40BB)
100
AcDbText
  0
TEXT
  5
62A9C
330
1F
100
AcDbEntity
  8
D-STR-HTXT
100
AcDbText
 10
14718.35826853862
 20
5787.847770582168
 30
0.0
 40
69.99999999999999
  1
敷モルタル(1:3)
100
AcDbText
  0
VIEWPORT
  5
62AFF
102
{ACAD_XDICTIONARY
360
62B97
102
}
330
62AFD
100
AcDbEntity
 67
     1
  8
0
100
AcDbViewport
 10
420.4993821880721
 20
304.4072653147606
 30
0.0
 40
1086.22016543705
 41
614.8026767336012
 68
     1
 69
     1
 12
420.4993821880721
 22
304.4072653147606
 13
0.0
 23
0.0
 14
10.0
 24
10.0
 15
10.0
 25
10.0
 16
0.0
 26
0.0
 36
1.0
 17
0.0
 27
0.0
 37
0.0
 42
50.0
 43
0.0
 44
0.0
 45
614.8026767336012
 50
0.0
 51
0.0
 72
   100
 90
    32800
  1

281
     0
 71
     1
 74
     0
110
0.0
120
0.0
130
0.0
111
1.0
121
0.0
131
0.0
112
0.0
122
1.0
132
0.0
 79
     0
146
0.0
  0
VIEWPORT
  5
62B00
102
{ACAD_XDICTIONARY
360
62B99
102
}
330
62AFD
100
AcDbEntity
 67
     1
  8
DEFPOINTS
100
AcDbViewport
 10
420.5
 20
297.0
 30
0.0
 40
841.0000000000001
 41
594.0000000000001
 68
     2
 69
     2
 12
8410.0
 22
5940.0
 13
0.0
 23
0.0
 14
10.0
 24
10.0
 15
10.0
 25
10.0
 16
0.0
 26
0.0
 36
1.0
 17
0.0
 27
0.0
 37
0.0
 42
50.0
 43
0.0
 44
0.0
 45
11880.0
 50
0.0
 51
0.0
 72
  1000
 90
    32864
  1

281
     0
 71
     1
 74
     0
110
0.0
120
0.0
130
0.0
111
1.0
121
0.0
131
0.0
112
0.0
122
1.0
132
0.0
 79
     0
146
0.0
  0
ENDSEC
  0
SECTION
  2
OBJECTS
  0
DICTIONARY
  5
C
330
0
100
AcDbDictionary
281
     1
  3
ACAD_COLOR
350
6B
  3
ACAD_GROUP
350
D
  3
ACAD_LAYOUT
350
1A
  3
ACAD_MATERIAL
350
6A
  3
ACAD_MLINESTYLE
350
17
  3
ACAD_PLOTSETTINGS
350
19
  3
ACAD_PLOTSTYLENAME
350
E
  3
ACAD_TABLESTYLE
350
62B8D
  3
ACAD_WIPEOUT_VARS
350
DF
  3
AcadDim
350
26981
  3
ACDBHEADERROUNDTRIPXREC
350
62B94
  3
AcDbVariableDictionary
350
5E
  3
ADE_QUERY_LIBRARY
350
8C
  3
ASE_INDEX_DICTIONARY
350
88
  3
DWGPROPS
350
62B93
1001
ADE
1000
ADE02C004
1000
[Query]
1000
CaseSensitiveMatch=0
1000
SaveCurrQueryInSession=1
1000
MkSelSetWithQryObj=0
1000
ShowBlockAsInsPt=0
1000
CreateAssociativeHatchObjects=0
1000
ReferenceBoundaryForAreaLocation=1
1000
ShowImageAsBoundary=1
1000
DefaultJoinOperator=2
1000
ColorForAdd=red
1000
ColorForRemove=red
1000
BlockLocnForQuery=1
1000
TextLocnForQuery=1
1000
[Save Back]
1000
RedefineBlockDefinitions=1
1000
RedefineLayerDefinitions=1
1000
RedefineTextStyleDefinitions=1
1000
RemoveUnusedGroups=1
1000
EraseSavedBackObjects=1
1000
RemoveLockAfterSave=1
1000
CreateHistoryFileOfChanges=0
1000
CreateBackupFileOfSourceDwg=1
1000
DontAddObjectsToSaveSet=0
1000
MarkObjectsForEditingWithoutPrompting=0
1000
[Coordinate Transformation]
1000
RestoreLastActiveDwgsOnStartup=1
1000
ActivateDwgsOnAttach=1
1000
AdjustSizesAndScalesForChangesInUnits=1
1000
AdjustRotationsForMapDistortions=1
1000
AdjustSizesAndScalesForMapDistortions=1
1000
AdjustElevations=1
1000
AdjustZeroRotationObjects=1
1000
ReconnectDbOnWSOpen=1
1000
NoOfSQLConditionsInHistory=10
  0
DICTIONARY
  5
68D
330
2
100
AcDbDictionary
280
     1
281
     1
  3
ACAD_LAYERFILTERS
360
6FB
  3
ACAD_LAYERSTATES
360
68E
  0
DICTIONARY
  5
62B97
330
62AFF
100
AcDbDictionary
280
     1
281
     1
  3
ACAD_XREC_ROUNDTRIP
360
62B98
  0
DICTIONARY
  5
62B99
330
62B00
100
AcDbDictionary
280
     1
281
     1
  3
ACAD_XREC_ROUNDTRIP
360
62B9A
  0
DICTIONARY
  5
6B
102
{ACAD_REACTORS
330
C
102
}
330
C
100
AcDbDictionary
281
     1
  0
DICTIONARY
  5
D
102
{ACAD_REACTORS
330
C
102
}
330
C
100
AcDbDictionary
281
     1
  3
*A1
350
19946
  0
DICTIONARY
  5
1A
102
{ACAD_REACTORS
330
C
102
}
330
C
100
AcDbDictionary
281
     1
  3
2700-3000
350
62B02
  3
Model
350
22
  0
DICTIONARY
  5
6A
102
{ACAD_REACTORS
330
C
102
}
330
C
100
AcDbDictionary
281
     1
  0
DICTIONARY
  5
17
102
{ACAD_REACTORS
330
C
102
}
330
C
100
AcDbDictionary
281
     1
  3
Standard
350
18
  0
DICTIONARY
  5
19
102
{ACAD_REACTORS
330
C
102
}
330
C
100
AcDbDictionary
281
     1
  0
ACDBDICTIONARYWDFLT
  5
E
102
{ACAD_REACTORS
330
C
102
}
330
C
100
AcDbDictionary
281
     1
  3
Normal
350
F
100
AcDbDictionaryWithDefault
340
F
  0
DICTIONARY
  5
62B8D
102
{ACAD_REACTORS
330
C
102
}
330
C
100
AcDbDictionary
281
     1
  3
Standard
350
62B8E
  0
WIPEOUTVARIABLES
  5
DF
102
{ACAD_REACTORS
330
C
102
}
330
C
100
AcDbWipeoutVariables
 70
     1
  0
XRECORD
  5
26981
102
{ACAD_REACTORS
330
C
102
}
330
C
100
AcDbXrecord
280
     1
 90
   990106
  3

 60
     0
 61
     0
 62
     4
 63
     4
 64
     1
 65
     0
 66
     0
 67
     3
 68
     0
 69
     1
 70
     0
 71
     0
 72
     0
 40
711.5818310675458
170
     1
340
0
  0
DICTIONARY
  5
62B94
102
{ACAD_REACTORS
330
C
102
}
330
C
100
AcDbDictionary
281
     1
  0
DICTIONARY
  5
5E
102
{ACAD_REACTORS
330
C
102
}
330
C
100
AcDbDictionary
281
     1
  3
CTABLESTYLE
350
62B91
  3
DIMASSOC
350
5F
  3
HIDETEXT
350
63
  3
PROJECTNAME
350
260F4
  0
DICTIONARY
  5
8C
102
{ACAD_REACTORS
330
C
102
}
330
C
100
AcDbDictionary
281
     1
  3
_CurrQry
350
550
  0
DICTIONARY
  5
88
102
{ACAD_REACTORS
330
C
102
}
330
C
100
AcDbDictionary
281
     1
  3
ASEBlockHierarchyIndexRecord
350
8A
1001
DCO15
1040
1485105096.922
  0
XRECORD
  5
62B93
102
{ACAD_REACTORS
330
C
102
}
330
C
100
AcDbXrecord
280
     1
  1
DWGPROPS COOKIE
  2
D-設計　尺度１：１用テンプレート（単位：mm）
  3
CAD製図基準テンプレート
  4
Japan,Autodesk
  6

  7

  8
inoueo
  9

300
=
301
=
302
=
303
=
304
=
305
=
306
=
307
=
308
=
309
=
 40
0.6346002199074075
 41
2453251.491933588
 42
2454744.36345088
  1

 90
        0
  0
DICTIONARY
  5
6FB
102
{ACAD_REACTORS
330
68D
102
}
330
68D
100
AcDbDictionary
281
     1
  0
DICTIONARY
  5
68E
102
{ACAD_REACTORS
330
68D
102
}
330
68D
100
AcDbDictionary
281
     1
  3
道路本体設計（7）小構造物図
350
68F
  0
XRECORD
  5
62B98
102
{ACAD_REACTORS
330
62B97
102
}
330
62B97
100
AcDbXrecord
280
     1
102
SHADEPLOT
 70
     0
  0
XRECORD
  5
62B9A
102
{ACAD_REACTORS
330
62B99
102
}
330
62B99
100
AcDbXrecord
280
     1
102
SHADEPLOT
 70
     0
  0
GROUP
  5
19946
102
{ACAD_REACTORS
330
D
102
}
330
D
100
AcDbGroup
300

 70
     1
 71
     1
  0
LAYOUT
  5
62B02
102
{ACAD_XDICTIONARY
360
62B9B
102
}
102
{ACAD_REACTORS
330
1A
102
}
330
1A
100
AcDbPlotSettings
  1

  2
Canon LASER SHOT LBP-1910-(A1).pc3
  4
User4403
  6

 40
5.873749732971191
 41
5.873747825622558
 42
5.87371826171875
 43
5.873779296875
 44
593.9366455078125
 45
840.9939575195313
 46
-5.94
 47
-5.929999999999999
 48
0.0
 49
0.0
140
841.0
141
594.0
142
1.0
143
1.0
 70
   676
 72
     1
 73
     1
 74
     1
  7
CALS-(A1).ctb
 75
     0
147
1.0
148
0.0574680763497781
149
0.0362535978599681
100
AcDbLayout
  1
2700-3000
 70
     1
 71
     1
 10
-0.0012473732247784
 20
0.0299966691688409
 11
840.9927101463065
 21
593.9666421769813
 12
0.0
 22
0.0
 32
0.0
 14
0.0
 24
-0.0000000000000568
 34
0.0
 15
841.0000000000001
 25
594.0
 35
0.0
146
0.0
 13
0.0
 23
0.0
 33
0.0
 16
1.0
 26
0.0
 36
0.0
 17
0.0
 27
1.0
 37
0.0
 76
     0
330
62AFD
331
62AFF
  0
LAYOUT
  5
22
102
{ACAD_XDICTIONARY
360
62B95
102
}
102
{ACAD_REACTORS
330
1A
102
}
330
1A
100
AcDbPlotSettings
  1

  2
Canon LASER SHOT LBP-1910
  4
A3
  6

 40
5.873749732971191
 41
5.873747825622558
 42
5.873748779296875
 43
5.873748779296875
 44
296.9259948730469
 45
419.9466552734374
 46
14.58
 47
0.0
 48
0.0
 49
0.0
140
0.0
141
0.0
142
1.0
143
653.6376414194014
 70
 11956
 72
     1
 73
     1
 74
     0
  7
CALS.ctb
 75
     0
147
0.0015298996517833
148
16040.30246129884
149
13643.4627185206
100
AcDbLayout
  1
Model
 70
     1
 71
     0
 10
0.0
 20
0.0
 11
12.0
 21
9.0
 12
0.0
 22
0.0
 32
0.0
 14
0.0
 24
0.0
 34
0.0
 15
0.0
 25
0.0
 35
0.0
146
0.0
 13
0.0
 23
0.0
 33
0.0
 16
1.0
 26
0.0
 36
0.0
 17
0.0
 27
1.0
 37
0.0
 76
     0
330
1F
  0
MLINESTYLE
  5
18
102
{ACAD_REACTORS
330
17
102
}
330
17
100
AcDbMlineStyle
  2
STANDARD
 70
     0
  3

 62
   256
 51
90.0
 52
90.0
 71
     2
 49
0.5
 62
   256
  6
BYLAYER
 49
-0.5
 62
   256
  6
BYLAYER
  0
ACDBPLACEHOLDER
  5
F
102
{ACAD_REACTORS
330
E
102
}
330
E
  0
TABLESTYLE
  5
62B8E
102
{ACAD_REACTORS
330
62B8D
102
}
330
62B8D
100
AcDbTableStyle
  3
Standard
 70
     0
 71
     0
 40
1.5
 41
1.5
280
     0
281
     0
  7
Standard
140
4.5
170
     2
 62
     0
 63
     7
283
     0
274
    -2
284
     1
 64
     0
275
    -2
285
     1
 65
     0
276
    -2
286
     1
 66
     0
277
    -2
287
     1
 67
     0
278
    -2
288
     1
 68
     0
279
    -2
289
     1
 69
     0
  7
Standard
140
6.0
170
     5
 62
     0
 63
     7
283
     0
274
    -2
284
     1
 64
     0
275
    -2
285
     1
 65
     0
276
    -2
286
     1
 66
     0
277
    -2
287
     1
 67
     0
278
    -2
288
     1
 68
     0
279
    -2
289
     1
 69
     0
  7
Standard
140
4.5
170
     5
 62
     0
 63
     7
283
     0
274
    -2
284
     1
 64
     0
275
    -2
285
     1
 65
     0
276
    -2
286
     1
 66
     0
277
    -2
287
     1
 67
     0
278
    -2
288
     1
 68
     0
279
    -2
289
     1
 69
     0
  0
DICTIONARYVAR
  5
62B91
102
{ACAD_REACTORS
330
5E
102
}
330
5E
100
DictionaryVariables
280
     0
  1
STANDARD
  0
DICTIONARYVAR
  5
5F
102
{ACAD_REACTORS
330
5E
102
}
330
5E
100
DictionaryVariables
280
     0
  1
2
  0
DICTIONARYVAR
  5
63
102
{ACAD_REACTORS
330
5E
102
}
330
5E
100
DictionaryVariables
280
     0
  1
1
  0
DICTIONARYVAR
  5
260F4
102
{ACAD_REACTORS
330
5E
102
}
330
5E
100
DictionaryVariables
280
     0
  1

  0
XRECORD
  5
550
102
{ACAD_REACTORS
330
8C
102
}
330
8C
100
AcDbXrecord
280
     1
1000
ADE02C001
1070
     1
1070
     0
1002
{
1002
}
1002
{
1002
}
1002
{
1002
}
1000

  0
XRECORD
  5
8A
102
{ACAD_REACTORS
330
88
102
}
330
88
100
AcDbXrecord
280
     1
330
0
330
0
330
0
330
0
  0
XRECORD
  5
68F
102
{ACAD_REACTORS
330
68E
102
}
330
68E
100
AcDbXrecord
280
     1
 91
      511
330
B5
 90
        0
 62
     7
370
    -3
331
16
  1
色_7
330
1F8
 90
        8
 62
     7
370
    25
331
16
  1
色_7
330
1F5
 90
        8
 62
     2
370
   140
331
16
  1
色_2
330
6A8
 90
        8
 62
     7
370
    13
331
16
  1
色_7
330
6A7
 90
        8
 62
     7
370
    25
331
16
  1
色_7
330
6A6
 90
        8
 62
     1
370
    50
331
16
  1
色_1
330
6A5
 90
        8
 62
     7
370
    25
331
16
  1
色_7
330
6A4
 90
        8
 62
     7
370
    25
331
16
  1
色_7
330
6A1
 90
        8
 62
     2
370
    13
331
95
  1
色_2
330
69D
 90
        8
 62
     7
370
    13
331
16
  1
色_7
330
10
 90
        8
 62
     7
370
    -3
331
16
  0
DICTIONARY
  5
62B9B
330
62B02
100
AcDbDictionary
280
     1
281
     1
  3
ACAD_XREC_ROUNDTRIP
360
62B9C
  0
DICTIONARY
  5
62B95
330
22
100
AcDbDictionary
280
     1
281
     1
  3
ACAD_XREC_ROUNDTRIP
360
62B96
  0
XRECORD
  5
62B9C
102
{ACAD_REACTORS
330
62B9B
102
}
330
62B9B
100
AcDbXrecord
280
     1
102
SHADEPLOT
 70
     1
102
SHADEPLOTRESLEVEL
 70
     2
102
SHADEPLOTCUSTOMDPI
 70
   300
  0
XRECORD
  5
62B96
102
{ACAD_REACTORS
330
62B95
102
}
330
62B95
100
AcDbXrecord
280
     1
102
SHADEPLOT
 70
     0
102
SHADEPLOTRESLEVEL
 70
     2
102
SHADEPLOTCUSTOMDPI
 70
   300
  0
ENDSEC
  0
EOF
