  0
SECTION
  2
HEADER
  9
$ACADVER
  1
AC1018
  9
$ACADMAINTVER
 70
   104
  9
$DWGCODEPAGE
  3
ANSI_932
  9
$LASTSAVEDBY
  1
yano27
  9
$INSBASE
 10
0.0
 20
0.0
 30
0.0
  9
$EXTMIN
 10
-7865.381490481038
 20
189.7530463832918
 30
0.0
  9
$EXTMAX
 10
114.6185095189636
 20
5832.753046383293
 30
0.0
  9
$LIMMIN
 10
0.0
 20
0.0
  9
$LIMMAX
 10
7425.0
 20
5250.0
  9
$ORTHOMODE
 70
     0
  9
$REGENMODE
 70
     1
  9
$FILLMODE
 70
     1
  9
$QTEXTMODE
 70
     0
  9
$MIRRTEXT
 70
     1
  9
$LTSCALE
 40
150.0
  9
$ATTMODE
 70
     1
  9
$TEXTSIZE
 40
75.0
  9
$TRACEWID
 40
0.05
  9
$TEXTSTYLE
  7
寸法ｽﾀｲﾙ
  9
$CLAYER
  8
0
  9
$CELTYPE
  6
BYLAYER
  9
$CECOLOR
 62
   256
  9
$CELTSCALE
 40
0.5
  9
$DISPSILH
 70
     0
  9
$DIMSCALE
 40
15.0
  9
$DIMASZ
 40
2.0
  9
$DIMEXO
 40
1.0
  9
$DIMDLI
 40
6.0
  9
$DIMRND
 40
0.0
  9
$DIMDLE
 40
0.0
  9
$DIMEXE
 40
1.0
  9
$DIMTP
 40
0.0
  9
$DIMTM
 40
0.0
  9
$DIMTXT
 40
3.5
  9
$DIMCEN
 40
1.0
  9
$DIMTSZ
 40
0.0
  9
$DIMTOL
 70
     0
  9
$DIMLIM
 70
     0
  9
$DIMTIH
 70
     0
  9
$DIMTOH
 70
     0
  9
$DIMSE1
 70
     0
  9
$DIMSE2
 70
     0
  9
$DIMTAD
 70
     1
  9
$DIMZIN
 70
     9
  9
$DIMBLK
  1
OPEN
  9
$DIMASO
 70
     1
  9
$DIMSHO
 70
     0
  9
$DIMPOST
  1

  9
$DIMAPOST
  1

  9
$DIMALT
 70
     0
  9
$DIMALTD
 70
     2
  9
$DIMALTF
 40
25.4
  9
$DIMLFAC
 40
1.0
  9
$DIMTOFL
 70
     1
  9
$DIMTVP
 40
0.0
  9
$DIMTIX
 70
     0
  9
$DIMSOXD
 70
     0
  9
$DIMSAH
 70
     0
  9
$DIMBLK1
  1

  9
$DIMBLK2
  1

  9
$DIMSTYLE
  2
スタイル15
  9
$DIMCLRD
 70
     4
  9
$DIMCLRE
 70
     4
  9
$DIMCLRT
 70
     4
  9
$DIMTFAC
 40
1.0
  9
$DIMGAP
 40
0.5
  9
$DIMJUST
 70
     0
  9
$DIMSD1
 70
     0
  9
$DIMSD2
 70
     0
  9
$DIMTOLJ
 70
     1
  9
$DIMTZIN
 70
     0
  9
$DIMALTZ
 70
     0
  9
$DIMALTTZ
 70
     0
  9
$DIMUPT
 70
     0
  9
$DIMDEC
 70
     2
  9
$DIMTDEC
 70
     2
  9
$DIMALTU
 70
     2
  9
$DIMALTTD
 70
     2
  9
$DIMTXSTY
  7
寸法ｽﾀｲﾙ
  9
$DIMAUNIT
 70
     0
  9
$DIMADEC
 70
     0
  9
$DIMALTRND
 40
0.0
  9
$DIMAZIN
 70
     0
  9
$DIMDSEP
 70
    46
  9
$DIMATFIT
 70
     0
  9
$DIMFRAC
 70
     0
  9
$DIMLDRBLK
  1
OPEN
  9
$DIMLUNIT
 70
     2
  9
$DIMLWD
 70
     9
  9
$DIMLWE
 70
     9
  9
$DIMTMOVE
 70
     0
  9
$LUNITS
 70
     2
  9
$LUPREC
 70
     4
  9
$SKETCHINC
 40
0.1
  9
$FILLETRAD
 40
120.0
  9
$AUNITS
 70
     0
  9
$AUPREC
 70
     0
  9
$MENU
  1
acad
  9
$ELEVATION
 40
0.0
  9
$PELEVATION
 40
0.0
  9
$THICKNESS
 40
0.0
  9
$LIMCHECK
 70
     0
  9
$CHAMFERA
 40
0.0
  9
$CHAMFERB
 40
0.0
  9
$CHAMFERC
 40
0.0
  9
$CHAMFERD
 40
0.0
  9
$SKPOLY
 70
     0
  9
$TDCREATE
 40
2452224.843078241
  9
$TDUCREATE
 40
2452224.468078241
  9
$TDUPDATE
 40
2457484.415443877
  9
$TDUUPDATE
 40
2457484.040443878
  9
$TDINDWG
 40
2.6262068403
  9
$TDUSRTIMER
 40
2.6262068403
  9
$USRTIMER
 70
     1
  9
$ANGBASE
 50
0.0
  9
$ANGDIR
 70
     0
  9
$PDMODE
 70
    34
  9
$PDSIZE
 40
-5.0
  9
$PLINEWID
 40
0.0
  9
$SPLFRAME
 70
     0
  9
$SPLINETYPE
 70
     6
  9
$SPLINESEGS
 70
     8
  9
$HANDSEED
  5
D991
  9
$SURFTAB1
 70
     6
  9
$SURFTAB2
 70
     6
  9
$SURFTYPE
 70
     6
  9
$SURFU
 70
     6
  9
$SURFV
 70
     6
  9
$UCSBASE
  2

  9
$UCSNAME
  2

  9
$UCSORG
 10
0.0
 20
0.0
 30
0.0
  9
$UCSXDIR
 10
1.0
 20
0.0
 30
0.0
  9
$UCSYDIR
 10
0.0
 20
1.0
 30
0.0
  9
$UCSORTHOREF
  2

  9
$UCSORTHOVIEW
 70
     0
  9
$UCSORGTOP
 10
0.0
 20
0.0
 30
0.0
  9
$UCSORGBOTTOM
 10
0.0
 20
0.0
 30
0.0
  9
$UCSORGLEFT
 10
0.0
 20
0.0
 30
0.0
  9
$UCSORGRIGHT
 10
0.0
 20
0.0
 30
0.0
  9
$UCSORGFRONT
 10
0.0
 20
0.0
 30
0.0
  9
$UCSORGBACK
 10
0.0
 20
0.0
 30
0.0
  9
$PUCSBASE
  2

  9
$PUCSNAME
  2

  9
$PUCSORG
 10
0.0
 20
0.0
 30
0.0
  9
$PUCSXDIR
 10
1.0
 20
0.0
 30
0.0
  9
$PUCSYDIR
 10
0.0
 20
1.0
 30
0.0
  9
$PUCSORTHOREF
  2

  9
$PUCSORTHOVIEW
 70
     0
  9
$PUCSORGTOP
 10
0.0
 20
0.0
 30
0.0
  9
$PUCSORGBOTTOM
 10
0.0
 20
0.0
 30
0.0
  9
$PUCSORGLEFT
 10
0.0
 20
0.0
 30
0.0
  9
$PUCSORGRIGHT
 10
0.0
 20
0.0
 30
0.0
  9
$PUCSORGFRONT
 10
0.0
 20
0.0
 30
0.0
  9
$PUCSORGBACK
 10
0.0
 20
0.0
 30
0.0
  9
$USERI1
 70
     0
  9
$USERI2
 70
     0
  9
$USERI3
 70
     0
  9
$USERI4
 70
     0
  9
$USERI5
 70
     0
  9
$USERR1
 40
0.0
  9
$USERR2
 40
0.0
  9
$USERR3
 40
0.0
  9
$USERR4
 40
0.0
  9
$USERR5
 40
0.0
  9
$WORLDVIEW
 70
     1
  9
$SHADEDGE
 70
     3
  9
$SHADEDIF
 70
    70
  9
$TILEMODE
 70
     1
  9
$MAXACTVP
 70
    16
  9
$PINSBASE
 10
0.0
 20
0.0
 30
0.0
  9
$PLIMCHECK
 70
     0
  9
$PEXTMIN
 10
1.049999952316284
 20
0.7999999523162842
 30
0.0
  9
$PEXTMAX
 10
9.449999570846555
 20
7.199999570846556
 30
0.0
  9
$PLIMMIN
 10
-0.2500002402958907
 20
-0.2499999962453767
  9
$PLIMMAX
 10
10.74999951940821
 20
8.249999763458731
  9
$UNITMODE
 70
     0
  9
$VISRETAIN
 70
     0
  9
$PLINEGEN
 70
     0
  9
$PSLTSCALE
 70
     0
  9
$TREEDEPTH
 70
  3020
  9
$CMLSTYLE
  2
STANDARD
  9
$CMLJUST
 70
     0
  9
$CMLSCALE
 40
1.0
  9
$PROXYGRAPHICS
 70
     1
  9
$MEASUREMENT
 70
     0
  9
$CELWEIGHT
370
    -1
  9
$ENDCAPS
280
     0
  9
$JOINSTYLE
280
     0
  9
$LWDISPLAY
290
     0
  9
$INSUNITS
 70
     4
  9
$HYPERLINKBASE
  1

  9
$STYLESHEET
  1
monochrome.ctb
  9
$XEDIT
290
     1
  9
$CEPSNTYPE
380
     0
  9
$PSTYLEMODE
290
     1
  9
$FINGERPRINTGUID
  2
{0454649D-4742-4B48-B1F5-A03FF9242E90}
  9
$VERSIONGUID
  2
{7180CB9A-5BF5-4026-AECA-688B02E024C7}
  9
$EXTNAMES
290
     1
  9
$PSVPSCALE
 40
0.0
  9
$OLESTARTUP
290
     0
  9
$SORTENTS
280
   127
  9
$INDEXCTL
280
     0
  9
$HIDETEXT
280
     0
  9
$XCLIPFRAME
290
     0
  9
$HALOGAP
280
     0
  9
$OBSCOLOR
 70
   257
  9
$OBSLTYPE
280
     0
  9
$INTERSECTIONDISPLAY
280
     0
  9
$INTERSECTIONCOLOR
 70
   257
  9
$DIMASSOC
280
     1
  9
$PROJECTNAME
  1

  0
ENDSEC
  0
SECTION
  2
CLASSES
  0
CLASS
  1
ACDBDICTIONARYWDFLT
  2
AcDbDictionaryWithDefault
  3
ObjectDBX Classes
 90
        0
 91
        1
280
     0
281
     0
  0
CLASS
  1
TABLESTYLE
  2
AcDbTableStyle
  3
ObjectDBX Classes
 90
     4095
 91
        1
280
     0
281
     0
  0
CLASS
  1
DICTIONARYVAR
  2
AcDbDictionaryVar
  3
ObjectDBX Classes
 90
        0
 91
        8
280
     0
281
     0
  0
CLASS
  1
MATERIAL
  2
AcDbMaterial
  3
ObjectDBX Classes
 90
     1153
 91
        3
280
     0
281
     0
  0
CLASS
  1
VISUALSTYLE
  2
AcDbVisualStyle
  3
ObjectDBX Classes
 90
     4095
 91
       24
280
     0
281
     0
  0
CLASS
  1
SCALE
  2
AcDbScale
  3
ObjectDBX Classes
 90
     1153
 91
       17
280
     0
281
     0
  0
CLASS
  1
MLEADERSTYLE
  2
AcDbMLeaderStyle
  3
ACDB_MLEADERSTYLE_CLASS
 90
     4095
 91
        1
280
     0
281
     0
  0
CLASS
  1
ACDBSECTIONVIEWSTYLE
  2
AcDbSectionViewStyle
  3
ObjectDBX Classes
 90
     1025
 91
        1
280
     0
281
     0
  0
CLASS
  1
ACDBDETAILVIEWSTYLE
  2
AcDbDetailViewStyle
  3
ObjectDBX Classes
 90
     1025
 91
        1
280
     0
281
     0
  0
CLASS
  1
CELLSTYLEMAP
  2
AcDbCellStyleMap
  3
ObjectDBX Classes
 90
     1152
 91
        1
280
     0
281
     0
  0
ENDSEC
  0
SECTION
  2
TABLES
  0
TABLE
  2
VPORT
  5
12
330
0
100
AcDbSymbolTable
 70
     1
  0
VPORT
  5
D8DB
330
12
100
AcDbSymbolTableRecord
100
AcDbViewportTableRecord
  2
*Active
 70
     0
 10
0.0
 20
0.0
 11
1.0
 21
1.0
 12
-3617.619263362698
 22
3011.162333916091
 13
0.0
 23
0.0
 14
100.0
 24
100.0
 15
0.0
 25
0.0
 16
0.0
 26
0.0
 36
1.0
 17
0.0
 27
0.0
 37
0.0
 40
5687.858429867429
 41
1.606896551724137
 42
50.0
 43
0.0
 44
0.0
 50
0.0
 51
0.0
 71
     0
 72
   100
 73
     1
 74
     0
 75
     0
 76
     0
 77
     0
 78
     0
281
     0
 65
     1
110
0.0
120
0.0
130
0.0
111
1.0
121
0.0
131
0.0
112
0.0
122
1.0
132
0.0
 79
     0
146
0.0
1001
ACAD_NAV_VCDISPLAY
1070
     3
  0
ENDTAB
  0
TABLE
  2
LTYPE
  5
D
330
0
100
AcDbSymbolTable
 70
    12
  0
LTYPE
  5
E
330
D
100
AcDbSymbolTableRecord
100
AcDbLinetypeTableRecord
  2
BYBLOCK
 70
     0
  3

 72
    65
 73
     0
 40
0.0
  0
LTYPE
  5
F
330
D
100
AcDbSymbolTableRecord
100
AcDbLinetypeTableRecord
  2
BYLAYER
 70
     0
  3

 72
    65
 73
     0
 40
0.0
  0
LTYPE
  5
5
330
D
100
AcDbSymbolTableRecord
100
AcDbLinetypeTableRecord
  2
CONTINUOUS
 70
     0
  3
実線
 72
    65
 73
     0
 40
0.0
  0
LTYPE
  5
1044
330
D
100
AcDbSymbolTableRecord
100
AcDbLinetypeTableRecord
  2
DASHED
 70
     0
  3
__ __ __ __ __ __ __ __ __ __ __ __ __ __ __
 72
    65
 73
     2
 40
0.75
 49
0.5
 74
     0
 49
-0.25
 74
     0
  0
LTYPE
  5
1045
330
D
100
AcDbSymbolTableRecord
100
AcDbLinetypeTableRecord
  2
HIDDEN
 70
     0
  3
_ _ _ _ _ _ _ _ _ _ _ _ _ _ _ _ _ _ _ _ _ _ _
 72
    65
 73
     2
 40
0.375
 49
0.25
 74
     0
 49
-0.125
 74
     0
  0
LTYPE
  5
1046
330
D
100
AcDbSymbolTableRecord
100
AcDbLinetypeTableRecord
  2
CENTER
 70
     0
  3
____ _ ____ _ ____ _ ____ _ ____ _ ____ _ ____
 72
    65
 73
     4
 40
2.0
 49
1.25
 74
     0
 49
-0.25
 74
     0
 49
0.25
 74
     0
 49
-0.25
 74
     0
  0
LTYPE
  5
1047
330
D
100
AcDbSymbolTableRecord
100
AcDbLinetypeTableRecord
  2
DASHDOT
 70
     0
  3
__ . __ . __ . __ . __ . __ . __ . __ . __ . __
 72
    65
 73
     4
 40
1.0
 49
0.5
 74
     0
 49
-0.25
 74
     0
 49
0.0
 74
     0
 49
-0.25
 74
     0
  0
LTYPE
  5
1048
330
D
100
AcDbSymbolTableRecord
100
AcDbLinetypeTableRecord
  2
DIVIDE
 70
     0
  3
____ . . ____ . . ____ . . ____ . . ____ . . __
 72
    65
 73
     6
 40
1.25
 49
0.5
 74
     0
 49
-0.25
 74
     0
 49
0.0
 74
     0
 49
-0.25
 74
     0
 49
0.0
 74
     0
 49
-0.25
 74
     0
  0
LTYPE
  5
1049
330
D
100
AcDbSymbolTableRecord
100
AcDbLinetypeTableRecord
  2
DOT
 70
     0
  3
. . . . . . . . . . . . . . . . . . . . . . . .
 72
    65
 73
     2
 40
0.25
 49
0.0
 74
     0
 49
-0.25
 74
     0
  0
LTYPE
  5
104A
330
D
100
AcDbSymbolTableRecord
100
AcDbLinetypeTableRecord
  2
PHANTOM
 70
     0
  3
______  __  __  ______  __  __  ______  __  __ 
 72
    65
 73
     6
 40
2.5
 49
1.25
 74
     0
 49
-0.25
 74
     0
 49
0.25
 74
     0
 49
-0.25
 74
     0
 49
0.25
 74
     0
 49
-0.25
 74
     0
  0
LTYPE
  5
104B
330
D
100
AcDbSymbolTableRecord
100
AcDbLinetypeTableRecord
  2
DASHED2
 70
     0
  3
_ _ _ _ _ _ _ _ _ _ _ _ _ _ _ _ _ _ _ _ _ _ _ _
 72
    65
 73
     2
 40
0.375
 49
0.25
 74
     0
 49
-0.125
 74
     0
  0
LTYPE
  5
104C
330
D
100
AcDbSymbolTableRecord
100
AcDbLinetypeTableRecord
  2
CENTER2
 70
     0
  3
___ _ ___ _ ___ _ ___ _ ___ _ ___ _ ___ _ ___ _
 72
    65
 73
     4
 40
1.125
 49
0.75
 74
     0
 49
-0.125
 74
     0
 49
0.125
 74
     0
 49
-0.125
 74
     0
  0
LTYPE
  5
104D
330
D
100
AcDbSymbolTableRecord
100
AcDbLinetypeTableRecord
  2
PHANTOM2
 70
     0
  3
___ _ _ ___ _ _ ___ _ _ ___ _ _ ___ _ _ ___ _ _
 72
    65
 73
     6
 40
1.25
 49
0.625
 74
     0
 49
-0.125
 74
     0
 49
0.125
 74
     0
 49
-0.125
 74
     0
 49
0.125
 74
     0
 49
-0.125
 74
     0
  0
LTYPE
  5
224A
330
D
100
AcDbSymbolTableRecord
100
AcDbLinetypeTableRecord
  2
ACAD_ISO02W100
 70
     0
  3
ISO dash __ __ __ __ __ __ __ __ __ __ __ __ __
 72
    65
 73
     2
 40
15.0
 49
12.0
 74
     0
 49
-3.0
 74
     0
  0
ENDTAB
  0
TABLE
  2
LAYER
  5
A
330
0
100
AcDbSymbolTable
 70
    15
  0
LAYER
  5
4
102
{ACAD_XDICTIONARY
360
D934
102
}
330
A
100
AcDbSymbolTableRecord
100
AcDbLayerTableRecord
  2
0
 70
     0
 62
     5
  6
CONTINUOUS
370
    -3
390
1FC7
  0
LAYER
  5
55A
102
{ACAD_XDICTIONARY
360
D936
102
}
330
A
100
AcDbSymbolTableRecord
100
AcDbLayerTableRecord
  2
01-寸法線
 70
     0
 62
     4
  6
CONTINUOUS
370
     9
390
1FC7
  0
LAYER
  5
86C
102
{ACAD_XDICTIONARY
360
D938
102
}
330
A
100
AcDbSymbolTableRecord
100
AcDbLayerTableRecord
  2
05-鉄筋線
 70
     0
 62
     1
  6
HIDDEN
370
    25
390
1FC7
  0
LAYER
  5
104E
102
{ACAD_XDICTIONARY
360
D93A
102
}
330
A
100
AcDbSymbolTableRecord
100
AcDbLayerTableRecord
  2
02-外形線
 70
     0
 62
     7
  6
CONTINUOUS
370
    15
390
1FC7
  0
LAYER
  5
104F
102
{ACAD_XDICTIONARY
360
D93C
102
}
330
A
100
AcDbSymbolTableRecord
100
AcDbLayerTableRecord
  2
03-隠れ線
 70
     0
 62
     7
  6
HIDDEN
370
    15
390
1FC7
  0
LAYER
  5
1050
102
{ACAD_XDICTIONARY
360
D93E
102
}
330
A
100
AcDbSymbolTableRecord
100
AcDbLayerTableRecord
  2
04-鉄筋線
 70
     0
 62
     1
  6
CONTINUOUS
370
    25
390
1FC7
  0
LAYER
  5
1051
102
{ACAD_XDICTIONARY
360
D940
102
}
330
A
100
AcDbSymbolTableRecord
100
AcDbLayerTableRecord
  2
06-中心線
 70
     0
 62
     4
  6
CENTER2
370
     9
390
1FC7
  0
LAYER
  5
1052
102
{ACAD_XDICTIONARY
360
D942
102
}
330
A
100
AcDbSymbolTableRecord
100
AcDbLayerTableRecord
  2
07-中心線
 70
     0
 62
     4
  6
PHANTOM2
370
     9
390
1FC7
  0
LAYER
  5
1053
102
{ACAD_XDICTIONARY
360
D944
102
}
330
A
100
AcDbSymbolTableRecord
100
AcDbLayerTableRecord
  2
08-下線
 70
     0
 62
     3
  6
CONTINUOUS
370
    20
390
1FC7
  0
LAYER
  5
1054
102
{ACAD_XDICTIONARY
360
D946
102
}
330
A
100
AcDbSymbolTableRecord
100
AcDbLayerTableRecord
  2
10-罫線
 70
     0
 62
    30
  6
CONTINUOUS
370
    20
390
1FC7
  0
LAYER
  5
1057
330
A
100
AcDbSymbolTableRecord
100
AcDbLayerTableRecord
  2
DEFPOINTS
 70
     0
 62
     8
  6
CONTINUOUS
290
     0
370
    -3
390
1FC7
  0
LAYER
  5
218B
102
{ACAD_XDICTIONARY
360
D948
102
}
330
A
100
AcDbSymbolTableRecord
100
AcDbLayerTableRecord
  2
11-外枠線
 70
     0
 62
     6
  6
CONTINUOUS
370
    30
390
1FC7
  0
LAYER
  5
218C
102
{ACAD_XDICTIONARY
360
D94A
102
}
330
A
100
AcDbSymbolTableRecord
100
AcDbLayerTableRecord
  2
12-構築線
 70
     0
 62
     5
  6
CONTINUOUS
370
     0
390
1FC7
  0
LAYER
  5
2B0E
102
{ACAD_XDICTIONARY
360
D94C
102
}
330
A
100
AcDbSymbolTableRecord
100
AcDbLayerTableRecord
  2
09-下線
 70
     0
 62
     2
  6
CONTINUOUS
370
    30
390
1FC7
  0
LAYER
  5
8DFB
102
{ACAD_XDICTIONARY
360
D94E
102
}
330
A
100
AcDbSymbolTableRecord
100
AcDbLayerTableRecord
  2
13-ﾊｯﾁ線
 70
     0
 62
     6
  6
CONTINUOUS
370
     9
390
1FC7
  0
ENDTAB
  0
TABLE
  2
STYLE
  5
B
330
0
100
AcDbSymbolTable
 70
    13
  0
STYLE
  5
C
330
B
100
AcDbSymbolTableRecord
100
AcDbTextStyleTableRecord
  2
STANDARD
 70
     0
 40
0.0
 41
0.8
 50
0.0
 71
     0
 42
0.2
  3
SIMPLEX
  4
BIGFONT
  0
STYLE
  5
1B
330
B
100
AcDbSymbolTableRecord
100
AcDbTextStyleTableRecord
  2
ZEN
 70
     0
 40
0.0
 41
0.8
 50
0.0
 71
     0
 42
0.2
  3
SIMPLEX
  4
BIGFONT
  0
STYLE
  5
533
330
B
100
AcDbSymbolTableRecord
100
AcDbTextStyleTableRecord
  2
1-08
 70
     0
 40
0.0
 41
0.8
 50
0.0
 71
     0
 42
900.0
  3
romans.shx
  4
extfont.shx
  0
STYLE
  5
2A
330
B
100
AcDbSymbolTableRecord
100
AcDbTextStyleTableRecord
  2
KANJI
 70
     0
 40
0.0
 41
1.0
 50
0.0
 71
     0
 42
0.2
  3
romans.shx
  4
extfont.shx
  0
STYLE
  5
1067
330
B
100
AcDbSymbolTableRecord
100
AcDbTextStyleTableRecord
  2
SIMPLEX
 70
     0
 40
0.0
 41
1.0
 50
0.0
 71
     0
 42
10.0
  3
txt.shx
  4
BIGFONT
  0
STYLE
  5
1068
330
B
100
AcDbSymbolTableRecord
100
AcDbTextStyleTableRecord
  2
STANDERD
 70
     0
 40
0.0
 41
1.0
 50
0.0
 71
     0
 42
0.2
  3
MONOTXT
  4
BIGFONT
  0
STYLE
  5
1069
330
B
100
AcDbSymbolTableRecord
100
AcDbTextStyleTableRecord
  2
HAN
 70
     0
 40
0.0
 41
0.6400000000000001
 50
0.0
 71
     0
 42
0.2
  3
SIMPLEX
  4
BIGFONT
  0
STYLE
  5
106A
330
B
100
AcDbSymbolTableRecord
100
AcDbTextStyleTableRecord
  2
BIGFONT
 70
     0
 40
0.0
 41
1.0
 50
0.0
 71
     0
 42
200.0
  3
txt.shx
  4
BIGFONT
  0
STYLE
  5
106B
330
B
100
AcDbSymbolTableRecord
100
AcDbTextStyleTableRecord
  2
1-08T
 70
     0
 40
0.0
 41
0.8
 50
0.0
 71
     0
 42
0.2
  3
romans.shx
  4

  0
STYLE
  5
2249
330
B
100
AcDbSymbolTableRecord
100
AcDbTextStyleTableRecord
  2

 70
     1
 40
0.0
 41
1.0
 50
0.0
 71
     0
 42
0.2
  3
ltypeshp.shx
  4

  0
STYLE
  5
2605
330
B
100
AcDbSymbolTableRecord
100
AcDbTextStyleTableRecord
  2
ｵﾘｼﾞﾅﾙｽﾀｲﾙ
 70
     0
 40
0.0
 41
0.8
 50
0.0
 71
     0
 42
75.0
  3

  4

1001
ACAD
1000
ＭＳ 明朝
1071
    32785
  0
STYLE
  5
943A
330
B
100
AcDbSymbolTableRecord
100
AcDbTextStyleTableRecord
  2
縦字ｽﾀｲﾙ
 70
     0
 40
0.0
 41
1.0
 50
0.0
 71
     0
 42
75.0
  3

  4

1001
ACAD
1000
@ＭＳ 明朝
1071
    32785
  0
STYLE
  5
D75A
330
B
100
AcDbSymbolTableRecord
100
AcDbTextStyleTableRecord
  2
寸法ｽﾀｲﾙ
 70
     0
 40
0.0
 41
0.8
 50
0.0
 71
     0
 42
75.0
  3
NSimSun.ttf
  4

1001
ACAD
1000
NSimSun
1071
       49
  0
ENDTAB
  0
TABLE
  2
VIEW
  5
10
330
0
100
AcDbSymbolTable
 70
     0
  0
ENDTAB
  0
TABLE
  2
UCS
  5
11
330
0
100
AcDbSymbolTable
 70
     0
  0
ENDTAB
  0
TABLE
  2
APPID
  5
14
330
0
100
AcDbSymbolTable
 70
     3
  0
APPID
  5
15
330
14
100
AcDbSymbolTableRecord
100
AcDbRegAppTableRecord
  2
ACAD
 70
     0
  0
APPID
  5
D955
330
14
100
AcDbSymbolTableRecord
100
AcDbRegAppTableRecord
  2
ACAD_NAV_VCDISPLAY
 70
     0
  0
APPID
  5
D98E
330
14
100
AcDbSymbolTableRecord
100
AcDbRegAppTableRecord
  2
ACAD_MLEADERVER
 70
     0
  0
ENDTAB
  0
TABLE
  2
DIMSTYLE
  5
16
330
0
100
AcDbSymbolTable
 70
     2
100
AcDbDimStyleTable
 71
     2
340
2B26
340
1D
  0
DIMSTYLE
105
1D
330
16
100
AcDbSymbolTableRecord
100
AcDbDimStyleTableRecord
  2
標準スタイル
 70
     0
 41
20.0
 42
20.0
 43
0.0
 44
20.0
 73
     0
 74
     0
 77
     1
 78
     1
140
100.0
141
10.0
147
0.05
176
     4
177
     4
178
     4
271
     0
272
     0
279
     2
340
1069
371
    15
372
    15
  0
DIMSTYLE
105
2B26
102
{ACAD_REACTORS
330
8CA5
330
906D
330
907A
330
9087
330
90A7
330
92F9
330
A07F
330
A0E3
330
9106
330
A124
330
A131
330
AAB0
330
AAD5
330
AAE4
330
AB37
330
AC3D
330
AC4A
330
AC57
330
AC64
330
AC71
330
ACCB
330
AD40
330
ADE9
330
AF65
330
B0BC
330
B0D1
330
B0E0
330
B0F0
330
B0FD
330
C509
330
D8C1
102
}
330
16
100
AcDbSymbolTableRecord
100
AcDbDimStyleTableRecord
  2
スタイル15
 70
     0
 40
15.0
 41
2.0
 42
1.0
 43
6.0
 44
1.0
 73
     0
 74
     0
 77
     1
 78
     9
140
3.5
141
1.0
147
0.5
172
     1
176
     4
177
     4
178
     4
271
     2
272
     2
289
     0
340
D75A
341
89F
342
89F
371
     9
372
     9
  0
ENDTAB
  0
TABLE
  2
BLOCK_RECORD
  5
1
330
0
100
AcDbSymbolTable
 70
    34
  0
BLOCK_RECORD
  5
2
330
1
100
AcDbSymbolTableRecord
100
AcDbBlockTableRecord
  2
*MODEL_SPACE
340
1FCE
  0
BLOCK_RECORD
  5
7
330
1
100
AcDbSymbolTableRecord
100
AcDbBlockTableRecord
  2
*PAPER_SPACE
340
1FCF
  0
BLOCK_RECORD
  5
89F
330
1
100
AcDbSymbolTableRecord
100
AcDbBlockTableRecord
  2
_OPEN
340
0
102
{BLKREFS
331
8CF9
331
8F41
331
9130
331
9131
331
9199
331
919A
331
919B
331
AD1B
331
AD2B
331
AD50
331
ADFF
331
CB0A
331
CB0F
331
CB1B
331
CB1C
331
CB20
331
CB24
331
CB26
331
CB28
331
CB30
331
CB32
331
CB35
331
CB38
331
CB3E
331
CB3F
331
CBC6
331
CBC7
331
CBC8
331
CBCA
331
CBD0
331
CBD3
331
D75F
331
D760
331
D768
331
D769
331
D771
331
D772
331
D77A
331
D77B
331
D783
331
D784
331
D78E
331
D78F
331
D799
331
D79A
331
D7A2
331
D7A3
331
D7AB
331
D7AC
331
D7B4
331
D7B5
331
D7BD
331
D7BE
331
D7C8
331
D7C9
331
D7D1
331
D7D2
331
D7DA
331
D7DB
331
D7E3
331
D7E4
331
D7EC
331
D7ED
331
D7F5
331
D7F6
331
D7FE
331
D7FF
331
D807
331
D808
331
D813
331
D814
331
D81B
331
D81C
331
D824
331
D825
331
D82D
331
D82E
331
D838
331
D839
331
D843
331
D844
331
D84E
331
D84F
331
D859
331
D85A
331
D862
331
D863
331
D86B
331
D86C
331
D876
331
D877
331
D8A2
331
D8C8
331
D8C9
102
}
  0
BLOCK_RECORD
  5
266F
330
1
100
AcDbSymbolTableRecord
100
AcDbBlockTableRecord
  2
_Open90
340
0
  0
BLOCK_RECORD
  5
3910
330
1
100
AcDbSymbolTableRecord
100
AcDbBlockTableRecord
  2
_Origin
340
0
  0
BLOCK_RECORD
  5
8CA6
330
1
100
AcDbSymbolTableRecord
100
AcDbBlockTableRecord
  2
*D3
340
0
  0
BLOCK_RECORD
  5
906E
330
1
100
AcDbSymbolTableRecord
100
AcDbBlockTableRecord
  2
*D4
340
0
  0
BLOCK_RECORD
  5
907B
330
1
100
AcDbSymbolTableRecord
100
AcDbBlockTableRecord
  2
*D5
340
0
  0
BLOCK_RECORD
  5
9088
330
1
100
AcDbSymbolTableRecord
100
AcDbBlockTableRecord
  2
*D6
340
0
  0
BLOCK_RECORD
  5
90A8
330
1
100
AcDbSymbolTableRecord
100
AcDbBlockTableRecord
  2
*D7
340
0
  0
BLOCK_RECORD
  5
9107
330
1
100
AcDbSymbolTableRecord
100
AcDbBlockTableRecord
  2
*D8
340
0
  0
BLOCK_RECORD
  5
92FA
330
1
100
AcDbSymbolTableRecord
100
AcDbBlockTableRecord
  2
*D9
340
0
  0
BLOCK_RECORD
  5
A080
330
1
100
AcDbSymbolTableRecord
100
AcDbBlockTableRecord
  2
*D10
340
0
  0
BLOCK_RECORD
  5
A0E4
330
1
100
AcDbSymbolTableRecord
100
AcDbBlockTableRecord
  2
*D11
340
0
  0
BLOCK_RECORD
  5
A125
330
1
100
AcDbSymbolTableRecord
100
AcDbBlockTableRecord
  2
*D12
340
0
  0
BLOCK_RECORD
  5
A132
330
1
100
AcDbSymbolTableRecord
100
AcDbBlockTableRecord
  2
*D13
340
0
  0
BLOCK_RECORD
  5
AAB1
330
1
100
AcDbSymbolTableRecord
100
AcDbBlockTableRecord
  2
*D14
340
0
  0
BLOCK_RECORD
  5
AAD6
330
1
100
AcDbSymbolTableRecord
100
AcDbBlockTableRecord
  2
*D15
340
0
  0
BLOCK_RECORD
  5
AAE5
330
1
100
AcDbSymbolTableRecord
100
AcDbBlockTableRecord
  2
*D16
340
0
  0
BLOCK_RECORD
  5
AB38
330
1
100
AcDbSymbolTableRecord
100
AcDbBlockTableRecord
  2
*D17
340
0
  0
BLOCK_RECORD
  5
AC3E
330
1
100
AcDbSymbolTableRecord
100
AcDbBlockTableRecord
  2
*D18
340
0
  0
BLOCK_RECORD
  5
AC4B
330
1
100
AcDbSymbolTableRecord
100
AcDbBlockTableRecord
  2
*D19
340
0
  0
BLOCK_RECORD
  5
AC58
330
1
100
AcDbSymbolTableRecord
100
AcDbBlockTableRecord
  2
*D20
340
0
  0
BLOCK_RECORD
  5
AC65
330
1
100
AcDbSymbolTableRecord
100
AcDbBlockTableRecord
  2
*D21
340
0
  0
BLOCK_RECORD
  5
AC72
330
1
100
AcDbSymbolTableRecord
100
AcDbBlockTableRecord
  2
*D22
340
0
  0
BLOCK_RECORD
  5
ACCC
330
1
100
AcDbSymbolTableRecord
100
AcDbBlockTableRecord
  2
*D23
340
0
  0
BLOCK_RECORD
  5
AD41
330
1
100
AcDbSymbolTableRecord
100
AcDbBlockTableRecord
  2
*D24
340
0
  0
BLOCK_RECORD
  5
ADEA
330
1
100
AcDbSymbolTableRecord
100
AcDbBlockTableRecord
  2
*D25
340
0
  0
BLOCK_RECORD
  5
AF66
330
1
100
AcDbSymbolTableRecord
100
AcDbBlockTableRecord
  2
*D26
340
0
  0
BLOCK_RECORD
  5
B0BD
330
1
100
AcDbSymbolTableRecord
100
AcDbBlockTableRecord
  2
*D27
340
0
  0
BLOCK_RECORD
  5
B0D2
330
1
100
AcDbSymbolTableRecord
100
AcDbBlockTableRecord
  2
*D28
340
0
  0
BLOCK_RECORD
  5
B0E1
330
1
100
AcDbSymbolTableRecord
100
AcDbBlockTableRecord
  2
*D29
340
0
  0
BLOCK_RECORD
  5
B0F1
330
1
100
AcDbSymbolTableRecord
100
AcDbBlockTableRecord
  2
*D30
340
0
  0
BLOCK_RECORD
  5
B0FE
330
1
100
AcDbSymbolTableRecord
100
AcDbBlockTableRecord
  2
*D31
340
0
  0
BLOCK_RECORD
  5
C515
330
1
100
AcDbSymbolTableRecord
100
AcDbBlockTableRecord
  2
*D32
340
0
  0
BLOCK_RECORD
  5
D8C2
330
1
100
AcDbSymbolTableRecord
100
AcDbBlockTableRecord
  2
*D33
340
0
  0
ENDTAB
  0
ENDSEC
  0
SECTION
  2
BLOCKS
  0
BLOCK
  5
3
330
2
100
AcDbEntity
  8
0
100
AcDbBlockBegin
  2
*MODEL_SPACE
 70
     0
 10
0.0
 20
0.0
 30
0.0
  3
*MODEL_SPACE
  1

  0
ENDBLK
  5
6
330
2
100
AcDbEntity
  8
0
100
AcDbBlockEnd
  0
BLOCK
  5
8
330
7
100
AcDbEntity
 67
     1
  8
0
100
AcDbBlockBegin
  2
*PAPER_SPACE
 70
     0
 10
0.0
 20
0.0
 30
0.0
  3
*PAPER_SPACE
  1

  0
ENDBLK
  5
9
330
7
100
AcDbEntity
 67
     1
  8
0
100
AcDbBlockEnd
  0
BLOCK
  5
8A3
330
89F
100
AcDbEntity
  8
0
100
AcDbBlockBegin
  2
_OPEN
 70
     0
 10
0.0
 20
0.0
 30
0.0
  3
_OPEN
  1

  0
LINE
  5
8A0
330
89F
100
AcDbEntity
  8
0
  6
ByBlock
 62
     0
100
AcDbLine
 10
-1.0
 20
0.1666666666666666
 30
0.0
 11
0.0
 21
0.0
 31
0.0
  0
LINE
  5
8A1
330
89F
100
AcDbEntity
  8
0
  6
ByBlock
 62
     0
100
AcDbLine
 10
0.0
 20
0.0
 30
0.0
 11
-1.0
 21
-0.1666666666666666
 31
0.0
  0
LINE
  5
8A2
330
89F
100
AcDbEntity
  8
0
  6
ByBlock
 62
     0
100
AcDbLine
 10
0.0
 20
0.0
 30
0.0
 11
-1.0
 21
0.0
 31
0.0
  0
ENDBLK
  5
8A4
330
89F
100
AcDbEntity
  8
0
100
AcDbBlockEnd
  0
BLOCK
  5
2673
330
266F
100
AcDbEntity
  8
0
100
AcDbBlockBegin
  2
_Open90
 70
     0
 10
0.0
 20
0.0
 30
0.0
  3
_Open90
  1

  0
LINE
  5
2670
330
266F
100
AcDbEntity
  8
0
  6
ByBlock
 62
     0
370
    -2
100
AcDbLine
 10
-0.5
 20
0.5
 30
0.0
 11
0.0
 21
0.0
 31
0.0
  0
LINE
  5
2671
330
266F
100
AcDbEntity
  8
0
  6
ByBlock
 62
     0
370
    -2
100
AcDbLine
 10
0.0
 20
0.0
 30
0.0
 11
-0.5
 21
-0.5
 31
0.0
  0
LINE
  5
2672
330
266F
100
AcDbEntity
  8
0
  6
ByBlock
 62
     0
370
    -2
100
AcDbLine
 10
0.0
 20
0.0
 30
0.0
 11
-1.0
 21
0.0
 31
0.0
  0
ENDBLK
  5
2674
330
266F
100
AcDbEntity
  8
0
100
AcDbBlockEnd
  0
BLOCK
  5
3913
330
3910
100
AcDbEntity
  8
0
100
AcDbBlockBegin
  2
_Origin
 70
     0
 10
0.0
 20
0.0
 30
0.0
  3
_Origin
  1

  0
CIRCLE
  5
3911
330
3910
100
AcDbEntity
  8
0
  6
ByBlock
 62
     0
370
    -2
100
AcDbCircle
 10
0.0
 20
0.0
 30
0.0
 40
0.5
  0
LINE
  5
3912
330
3910
100
AcDbEntity
  8
0
  6
ByBlock
 62
     0
370
    -2
100
AcDbLine
 10
0.0
 20
0.0
 30
0.0
 11
-1.0
 21
0.0
 31
0.0
  0
ENDBLK
  5
3914
330
3910
100
AcDbEntity
  8
0
100
AcDbBlockEnd
  0
BLOCK
  5
8CB0
330
8CA6
100
AcDbEntity
  8
0
 48
0.5
100
AcDbBlockBegin
  2
*D3
 70
     1
 10
0.0
 20
0.0
 30
0.0
  3
*D3
  1

  0
LINE
  5
D75C
330
8CA6
100
AcDbEntity
  8
01-寸法線
 62
     4
440
 16777216
 48
0.5
370
     9
100
AcDbLine
 10
-5165.381490481036
 20
4132.753046383291
 30
0.0
 11
-5165.381490481036
 21
3832.753046383292
 31
0.0
  0
LINE
  5
D75D
330
8CA6
100
AcDbEntity
  8
01-寸法線
 62
     4
440
 16777216
 48
0.5
370
     9
100
AcDbLine
 10
-3165.381490481036
 20
4132.753046383291
 30
0.0
 11
-3165.381490481036
 21
3832.753046383292
 31
0.0
  0
LINE
  5
D75E
330
8CA6
100
AcDbEntity
  8
01-寸法線
 62
     4
440
 16777216
 48
0.5
370
     9
100
AcDbLine
 10
-5135.381490481036
 20
3847.753046383292
 30
0.0
 11
-3195.381490481036
 21
3847.753046383292
 31
0.0
  0
INSERT
  5
D75F
330
8CA6
100
AcDbEntity
  8
01-寸法線
 62
     4
440
 16777216
 48
0.5
370
     9
100
AcDbBlockReference
  2
_OPEN
 10
-5165.381490481036
 20
3847.753046383292
 30
0.0
 41
30.0
 42
30.0
 43
30.0
 50
180.0
  0
INSERT
  5
D760
330
8CA6
100
AcDbEntity
  8
01-寸法線
 62
     4
440
 16777216
 48
0.5
370
     9
100
AcDbBlockReference
  2
_OPEN
 10
-3165.381490481036
 20
3847.753046383292
 30
0.0
 41
30.0
 42
30.0
 43
30.0
  0
MTEXT
  5
D761
330
8CA6
100
AcDbEntity
  8
01-寸法線
 62
     4
440
 16777216
 48
0.5
100
AcDbMText
 10
-4165.381490481036
 20
3881.503046383292
 30
0.0
 40
52.5
 41
0.0
 71
     5
 72
     1
  1
\A1;2000
  7
寸法ｽﾀｲﾙ
 73
     1
 44
1.0
  0
POINT
  5
D762
330
8CA6
100
AcDbEntity
  8
DEFPOINTS
 62
     0
440
 16777216
 48
0.5
100
AcDbPoint
 10
-5165.381490481036
 20
4147.753046383292
 30
0.0
  0
POINT
  5
D763
330
8CA6
100
AcDbEntity
  8
DEFPOINTS
 62
     0
440
 16777216
 48
0.5
100
AcDbPoint
 10
-3165.381490481036
 20
4147.753046383292
 30
0.0
  0
POINT
  5
D764
330
8CA6
100
AcDbEntity
  8
DEFPOINTS
 62
     0
440
 16777216
 48
0.5
100
AcDbPoint
 10
-3165.381490481036
 20
3847.753046383292
 30
0.0
  0
ENDBLK
  5
8CB1
330
8CA6
100
AcDbEntity
  8
0
 48
0.5
100
AcDbBlockEnd
  0
BLOCK
  5
9078
330
906E
100
AcDbEntity
  8
0
 48
0.5
100
AcDbBlockBegin
  2
*D4
 70
     1
 10
0.0
 20
0.0
 30
0.0
  3
*D4
  1

  0
LINE
  5
D765
330
906E
100
AcDbEntity
  8
01-寸法線
 62
     4
440
 16777216
 48
0.5
370
     9
100
AcDbLine
 10
-3965.381490481036
 20
2462.753046383292
 30
0.0
 11
-3965.381490481036
 21
2162.753046383292
 31
0.0
  0
LINE
  5
D766
330
906E
100
AcDbEntity
  8
01-寸法線
 62
     4
440
 16777216
 48
0.5
370
     9
100
AcDbLine
 10
-3740.381490481036
 20
2312.753046383292
 30
0.0
 11
-3740.381490481036
 21
2162.753046383292
 31
0.0
  0
LINE
  5
D767
330
906E
100
AcDbEntity
  8
01-寸法線
 62
     4
440
 16777216
 48
0.5
370
     9
100
AcDbLine
 10
-3935.381490481037
 20
2177.753046383292
 30
0.0
 11
-3770.381490481037
 21
2177.753046383292
 31
0.0
  0
INSERT
  5
D768
330
906E
100
AcDbEntity
  8
01-寸法線
 62
     4
440
 16777216
 48
0.5
370
     9
100
AcDbBlockReference
  2
_OPEN
 10
-3965.381490481036
 20
2177.753046383292
 30
0.0
 41
30.0
 42
30.0
 43
30.0
 50
180.0
  0
INSERT
  5
D769
330
906E
100
AcDbEntity
  8
01-寸法線
 62
     4
440
 16777216
 48
0.5
370
     9
100
AcDbBlockReference
  2
_OPEN
 10
-3740.381490481036
 20
2177.753046383292
 30
0.0
 41
30.0
 42
30.0
 43
30.0
  0
MTEXT
  5
D76A
330
906E
100
AcDbEntity
  8
01-寸法線
 62
     4
440
 16777216
 48
0.5
100
AcDbMText
 10
-3852.881490481036
 20
2211.503046383292
 30
0.0
 40
52.5
 41
0.0
 71
     5
 72
     1
  1
\A1;75
  7
寸法ｽﾀｲﾙ
 73
     1
 44
1.0
  0
POINT
  5
D76B
330
906E
100
AcDbEntity
  8
DEFPOINTS
 62
     0
440
 16777216
 48
0.5
100
AcDbPoint
 10
-3965.381490481036
 20
2477.753046383292
 30
0.0
  0
POINT
  5
D76C
330
906E
100
AcDbEntity
  8
DEFPOINTS
 62
     0
440
 16777216
 48
0.5
100
AcDbPoint
 10
-3740.381490481036
 20
2327.753046383292
 30
0.0
  0
POINT
  5
D76D
330
906E
100
AcDbEntity
  8
DEFPOINTS
 62
     0
440
 16777216
 48
0.5
100
AcDbPoint
 10
-3740.381490481036
 20
2177.753046383292
 30
0.0
  0
ENDBLK
  5
9079
330
906E
100
AcDbEntity
  8
0
 48
0.5
100
AcDbBlockEnd
  0
BLOCK
  5
9085
330
907B
100
AcDbEntity
  8
0
 48
0.5
100
AcDbBlockBegin
  2
*D5
 70
     1
 10
0.0
 20
0.0
 30
0.0
  3
*D5
  1

  0
LINE
  5
D76E
330
907B
100
AcDbEntity
  8
01-寸法線
 62
     4
440
 16777216
 48
0.5
370
     9
100
AcDbLine
 10
-3740.381490481036
 20
2312.753046383292
 30
0.0
 11
-3740.381490481036
 21
2162.753046383292
 31
0.0
  0
LINE
  5
D76F
330
907B
100
AcDbEntity
  8
01-寸法線
 62
     4
440
 16777216
 48
0.5
370
     9
100
AcDbLine
 10
-3515.381490481036
 20
2462.753046383292
 30
0.0
 11
-3515.381490481036
 21
2162.753046383292
 31
0.0
  0
LINE
  5
D770
330
907B
100
AcDbEntity
  8
01-寸法線
 62
     4
440
 16777216
 48
0.5
370
     9
100
AcDbLine
 10
-3710.381490481037
 20
2177.753046383292
 30
0.0
 11
-3545.381490481037
 21
2177.753046383292
 31
0.0
  0
INSERT
  5
D771
330
907B
100
AcDbEntity
  8
01-寸法線
 62
     4
440
 16777216
 48
0.5
370
     9
100
AcDbBlockReference
  2
_OPEN
 10
-3740.381490481036
 20
2177.753046383292
 30
0.0
 41
30.0
 42
30.0
 43
30.0
 50
180.0
  0
INSERT
  5
D772
330
907B
100
AcDbEntity
  8
01-寸法線
 62
     4
440
 16777216
 48
0.5
370
     9
100
AcDbBlockReference
  2
_OPEN
 10
-3515.381490481036
 20
2177.753046383292
 30
0.0
 41
30.0
 42
30.0
 43
30.0
  0
MTEXT
  5
D773
330
907B
100
AcDbEntity
  8
01-寸法線
 62
     4
440
 16777216
 48
0.5
100
AcDbMText
 10
-3627.881490481036
 20
2211.503046383292
 30
0.0
 40
52.5
 41
0.0
 71
     5
 72
     1
  1
\A1;75
  7
寸法ｽﾀｲﾙ
 73
     1
 44
1.0
  0
POINT
  5
D774
330
907B
100
AcDbEntity
  8
DEFPOINTS
 62
     0
440
 16777216
 48
0.5
100
AcDbPoint
 10
-3740.381490481036
 20
2327.753046383292
 30
0.0
  0
POINT
  5
D775
330
907B
100
AcDbEntity
  8
DEFPOINTS
 62
     0
440
 16777216
 48
0.5
100
AcDbPoint
 10
-3515.381490481036
 20
2477.753046383292
 30
0.0
  0
POINT
  5
D776
330
907B
100
AcDbEntity
  8
DEFPOINTS
 62
     0
440
 16777216
 48
0.5
100
AcDbPoint
 10
-3515.381490481036
 20
2177.753046383292
 30
0.0
  0
ENDBLK
  5
9086
330
907B
100
AcDbEntity
  8
0
 48
0.5
100
AcDbBlockEnd
  0
BLOCK
  5
9092
330
9088
100
AcDbEntity
  8
0
 48
0.5
100
AcDbBlockBegin
  2
*D6
 70
     1
 10
0.0
 20
0.0
 30
0.0
  3
*D6
  1

  0
LINE
  5
D777
330
9088
100
AcDbEntity
  8
01-寸法線
 62
     4
440
 16777216
 48
0.5
370
     9
100
AcDbLine
 10
-4115.381490481036
 20
2462.753046383292
 30
0.0
 11
-4115.381490481036
 21
2062.753046383292
 31
0.0
  0
LINE
  5
D778
330
9088
100
AcDbEntity
  8
01-寸法線
 62
     4
440
 16777216
 48
0.5
370
     9
100
AcDbLine
 10
-3365.381490481036
 20
2462.753046383292
 30
0.0
 11
-3365.381490481036
 21
2062.753046383292
 31
0.0
  0
LINE
  5
D779
330
9088
100
AcDbEntity
  8
01-寸法線
 62
     4
440
 16777216
 48
0.5
370
     9
100
AcDbLine
 10
-4085.381490481036
 20
2077.753046383292
 30
0.0
 11
-3395.381490481036
 21
2077.753046383292
 31
0.0
  0
INSERT
  5
D77A
330
9088
100
AcDbEntity
  8
01-寸法線
 62
     4
440
 16777216
 48
0.5
370
     9
100
AcDbBlockReference
  2
_OPEN
 10
-4115.381490481036
 20
2077.753046383292
 30
0.0
 41
30.0
 42
30.0
 43
30.0
 50
180.0
  0
INSERT
  5
D77B
330
9088
100
AcDbEntity
  8
01-寸法線
 62
     4
440
 16777216
 48
0.5
370
     9
100
AcDbBlockReference
  2
_OPEN
 10
-3365.381490481036
 20
2077.753046383292
 30
0.0
 41
30.0
 42
30.0
 43
30.0
  0
MTEXT
  5
D77C
330
9088
100
AcDbEntity
  8
01-寸法線
 62
     4
440
 16777216
 48
0.5
100
AcDbMText
 10
-3740.381490481036
 20
2111.503046383292
 30
0.0
 40
52.5
 41
0.0
 71
     5
 72
     1
  1
\A1;250
  7
寸法ｽﾀｲﾙ
 73
     1
 44
1.0
  0
POINT
  5
D77D
330
9088
100
AcDbEntity
  8
DEFPOINTS
 62
     0
440
 16777216
 48
0.5
100
AcDbPoint
 10
-4115.381490481036
 20
2477.753046383292
 30
0.0
  0
POINT
  5
D77E
330
9088
100
AcDbEntity
  8
DEFPOINTS
 62
     0
440
 16777216
 48
0.5
100
AcDbPoint
 10
-3365.381490481036
 20
2477.753046383292
 30
0.0
  0
POINT
  5
D77F
330
9088
100
AcDbEntity
  8
DEFPOINTS
 62
     0
440
 16777216
 48
0.5
100
AcDbPoint
 10
-3365.381490481036
 20
2077.753046383292
 30
0.0
  0
ENDBLK
  5
9093
330
9088
100
AcDbEntity
  8
0
 48
0.5
100
AcDbBlockEnd
  0
BLOCK
  5
90B2
330
90A8
100
AcDbEntity
  8
0
 48
0.5
100
AcDbBlockBegin
  2
*D7
 70
     1
 10
0.0
 20
0.0
 30
0.0
  3
*D7
  1

  0
LINE
  5
D780
330
90A8
100
AcDbEntity
  8
01-寸法線
 62
     4
440
 16777216
 48
0.5
370
     9
100
AcDbLine
 10
-3350.381490481036
 20
2477.753046383292
 30
0.0
 11
-2950.381490481037
 21
2477.753046383292
 31
0.0
  0
LINE
  5
D781
330
90A8
100
AcDbEntity
  8
01-寸法線
 62
     4
440
 16777216
 48
0.5
370
     9
100
AcDbLine
 10
-3350.381490481036
 20
2597.753046383292
 30
0.0
 11
-2950.381490481037
 21
2597.753046383291
 31
0.0
  0
LINE
  5
D782
330
90A8
100
AcDbEntity
  8
01-寸法線
 62
     4
440
 16777216
 48
0.5
370
     9
100
AcDbLine
 10
-2965.381490481036
 20
2507.753046383291
 30
0.0
 11
-2965.381490481036
 21
2567.753046383292
 31
0.0
  0
INSERT
  5
D783
330
90A8
100
AcDbEntity
  8
01-寸法線
 62
     4
440
 16777216
 48
0.5
370
     9
100
AcDbBlockReference
  2
_OPEN
 10
-2965.381490481036
 20
2477.753046383292
 30
0.0
 41
30.0
 42
30.0
 43
30.0
 50
270.0
  0
INSERT
  5
D784
330
90A8
100
AcDbEntity
  8
01-寸法線
 62
     4
440
 16777216
 48
0.5
370
     9
100
AcDbBlockReference
  2
_OPEN
 10
-2965.381490481036
 20
2597.753046383291
 30
0.0
 41
30.0
 42
30.0
 43
30.0
 50
90.0
  0
MTEXT
  5
D785
330
90A8
100
AcDbEntity
  8
01-寸法線
 62
     4
440
 16777216
 48
0.5
100
AcDbMText
 10
-2999.131490481037
 20
2537.753046383291
 30
0.0
 40
52.5
 41
0.0
 71
     5
 72
     1
  1
\A1;40
  7
寸法ｽﾀｲﾙ
 11
0.0000000000000001
 21
1.0
 31
0.0
 73
     1
 44
1.0
  0
POINT
  5
D786
330
90A8
100
AcDbEntity
  8
DEFPOINTS
 62
     0
440
 16777216
 48
0.5
100
AcDbPoint
 10
-3365.381490481036
 20
2477.753046383292
 30
0.0
  0
POINT
  5
D787
330
90A8
100
AcDbEntity
  8
DEFPOINTS
 62
     0
440
 16777216
 48
0.5
100
AcDbPoint
 10
-3365.381490481036
 20
2597.753046383292
 30
0.0
  0
POINT
  5
D788
330
90A8
100
AcDbEntity
  8
DEFPOINTS
 62
     0
440
 16777216
 48
0.5
100
AcDbPoint
 10
-2965.381490481036
 20
2597.753046383291
 30
0.0
  0
ENDBLK
  5
90B3
330
90A8
100
AcDbEntity
  8
0
 48
0.5
100
AcDbBlockEnd
  0
BLOCK
  5
9111
330
9107
100
AcDbEntity
  8
0
 48
0.5
100
AcDbBlockBegin
  2
*D8
 70
     1
 10
0.0
 20
0.0
 30
0.0
  3
*D8
  1

  0
LINE
  5
D7A8
330
9107
100
AcDbEntity
  8
01-寸法線
 62
     4
440
 16777216
 48
0.5
370
     9
100
AcDbLine
 10
-3560.381490481037
 20
2552.753046383292
 30
0.0
 11
-3560.381490481037
 21
2862.753046383292
 31
0.0
  0
LINE
  5
D7A9
330
9107
100
AcDbEntity
  8
01-寸法線
 62
     4
440
 16777216
 48
0.5
370
     9
100
AcDbLine
 10
-3470.381490481037
 20
2552.753046383292
 30
0.0
 11
-3470.381490481037
 21
2862.753046383292
 31
0.0
  0
LINE
  5
D7AA
330
9107
100
AcDbEntity
  8
01-寸法線
 62
     4
440
 16777216
 48
0.5
370
     9
100
AcDbLine
 10
-3530.381490481036
 20
2847.753046383292
 30
0.0
 11
-3500.381490481036
 21
2847.753046383292
 31
0.0
  0
INSERT
  5
D7AB
330
9107
100
AcDbEntity
  8
01-寸法線
 62
     4
440
 16777216
 48
0.5
370
     9
100
AcDbBlockReference
  2
_OPEN
 10
-3560.381490481037
 20
2847.753046383292
 30
0.0
 41
30.0
 42
30.0
 43
30.0
 50
180.0
  0
INSERT
  5
D7AC
330
9107
100
AcDbEntity
  8
01-寸法線
 62
     4
440
 16777216
 48
0.5
370
     9
100
AcDbBlockReference
  2
_OPEN
 10
-3470.381490481037
 20
2847.753046383292
 30
0.0
 41
30.0
 42
30.0
 43
30.0
  0
MTEXT
  5
D7AD
330
9107
100
AcDbEntity
  8
01-寸法線
 62
     4
440
 16777216
 48
0.5
100
AcDbMText
 10
-3515.381490481036
 20
2881.503046383292
 30
0.0
 40
52.5
 41
0.0
 71
     5
 72
     1
  1
\A1;30
  7
寸法ｽﾀｲﾙ
 73
     1
 44
1.0
  0
POINT
  5
D7AE
330
9107
100
AcDbEntity
  8
DEFPOINTS
 62
     0
440
 16777216
 48
0.5
100
AcDbPoint
 10
-3560.381490481037
 20
2537.753046383292
 30
0.0
  0
POINT
  5
D7AF
330
9107
100
AcDbEntity
  8
DEFPOINTS
 62
     0
440
 16777216
 48
0.5
100
AcDbPoint
 10
-3470.381490481037
 20
2537.753046383292
 30
0.0
  0
POINT
  5
D7B0
330
9107
100
AcDbEntity
  8
DEFPOINTS
 62
     0
440
 16777216
 48
0.5
100
AcDbPoint
 10
-3470.381490481037
 20
2847.753046383292
 30
0.0
  0
ENDBLK
  5
9112
330
9107
100
AcDbEntity
  8
0
 48
0.5
100
AcDbBlockEnd
  0
BLOCK
  5
9306
330
92FA
100
AcDbEntity
  8
0
 48
0.5
100
AcDbBlockBegin
  2
*D9
 70
     1
 10
0.0
 20
0.0
 30
0.0
  3
*D9
  1

  0
LINE
  5
D789
330
92FA
100
AcDbEntity
  8
01-寸法線
 62
     4
440
 16777216
 48
0.5
370
     9
100
AcDbLine
 10
-3477.881490481036
 20
2560.253046383292
 30
0.0
 11
-3050.381490481037
 21
2560.253046383291
 31
0.0
  0
LINE
  5
D78A
330
92FA
100
AcDbEntity
  8
01-寸法線
 62
     4
440
 16777216
 48
0.5
370
     9
100
AcDbLine
 10
-3477.881490481036
 20
2515.253046383292
 30
0.0
 11
-3050.381490481037
 21
2515.253046383291
 31
0.0
  0
LINE
  5
D78B
330
92FA
100
AcDbEntity
  8
01-寸法線
 62
     4
440
 16777216
 48
0.5
370
     9
100
AcDbLine
 10
-3065.381490481037
 20
2485.253046383292
 30
0.0
 11
-3065.381490481037
 21
2455.253046383291
 31
0.0
  0
LINE
  5
D78C
330
92FA
100
AcDbEntity
  8
01-寸法線
 62
     4
440
 16777216
 48
0.5
370
     9
100
AcDbLine
 10
-3065.381490481037
 20
2590.253046383292
 30
0.0
 11
-3065.381490481037
 21
2684.486379716624
 31
0.0
  0
LINE
  5
D78D
330
92FA
100
AcDbEntity
  8
01-寸法線
 62
     4
440
 16777216
 48
0.5
370
     9
100
AcDbLine
 10
-3065.381490481037
 20
2515.253046383291
 30
0.0
 11
-3065.381490481037
 21
2560.253046383291
 31
0.0
  0
INSERT
  5
D78E
330
92FA
100
AcDbEntity
  8
01-寸法線
 62
     4
440
 16777216
 48
0.5
370
     9
100
AcDbBlockReference
  2
_OPEN
 10
-3065.381490481037
 20
2515.253046383291
 30
0.0
 41
30.0
 42
30.0
 43
30.0
 50
90.0
  0
INSERT
  5
D78F
330
92FA
100
AcDbEntity
  8
01-寸法線
 62
     4
440
 16777216
 48
0.5
370
     9
100
AcDbBlockReference
  2
_OPEN
 10
-3065.381490481037
 20
2560.253046383291
 30
0.0
 41
30.0
 42
30.0
 43
30.0
 50
270.0
  0
MTEXT
  5
D790
330
92FA
100
AcDbEntity
  8
01-寸法線
 62
     4
440
 16777216
 48
0.5
100
AcDbMText
 10
-3099.131490481037
 20
2652.369713049958
 30
0.0
 40
52.5
 41
0.0
 71
     5
 72
     1
  1
\A1;15
  7
寸法ｽﾀｲﾙ
 11
0.0000000000000001
 21
1.0
 31
0.0
 73
     1
 44
1.0
  0
POINT
  5
D791
330
92FA
100
AcDbEntity
  8
DEFPOINTS
 62
     0
440
 16777216
 48
0.5
100
AcDbPoint
 10
-3492.881490481036
 20
2560.253046383292
 30
0.0
  0
POINT
  5
D792
330
92FA
100
AcDbEntity
  8
DEFPOINTS
 62
     0
440
 16777216
 48
0.5
100
AcDbPoint
 10
-3492.881490481036
 20
2515.253046383292
 30
0.0
  0
POINT
  5
D793
330
92FA
100
AcDbEntity
  8
DEFPOINTS
 62
     0
440
 16777216
 48
0.5
100
AcDbPoint
 10
-3065.381490481037
 20
2515.253046383291
 30
0.0
  0
ENDBLK
  5
9307
330
92FA
100
AcDbEntity
  8
0
 48
0.5
100
AcDbBlockEnd
  0
BLOCK
  5
A08C
330
A080
100
AcDbEntity
  8
0
 48
0.5
100
AcDbBlockBegin
  2
*D10
 70
     1
 10
0.0
 20
0.0
 30
0.0
  3
*D10
  1

  0
LINE
  5
D794
330
A080
100
AcDbEntity
  8
01-寸法線
 62
     4
440
 16777216
 48
0.5
370
     9
100
AcDbLine
 10
-5315.381490481037
 20
2532.753046383292
 30
0.0
 11
-5315.381490481037
 21
2382.753046383292
 31
0.0
  0
LINE
  5
D795
330
A080
100
AcDbEntity
  8
01-寸法線
 62
     4
440
 16777216
 48
0.5
370
     9
100
AcDbLine
 10
-5277.881490481036
 20
2682.753046383292
 30
0.0
 11
-5277.881490481036
 21
2382.753046383292
 31
0.0
  0
LINE
  5
D796
330
A080
100
AcDbEntity
  8
01-寸法線
 62
     4
440
 16777216
 48
0.5
370
     9
100
AcDbLine
 10
-5345.381490481037
 20
2397.753046383293
 30
0.0
 11
-5375.381490481037
 21
2397.753046383293
 31
0.0
  0
LINE
  5
D797
330
A080
100
AcDbEntity
  8
01-寸法線
 62
     4
440
 16777216
 48
0.5
370
     9
100
AcDbLine
 10
-5247.881490481037
 20
2397.753046383293
 30
0.0
 11
-5180.248157147704
 21
2397.753046383293
 31
0.0
  0
LINE
  5
D798
330
A080
100
AcDbEntity
  8
01-寸法線
 62
     4
440
 16777216
 48
0.5
370
     9
100
AcDbLine
 10
-5315.381490481037
 20
2397.753046383293
 30
0.0
 11
-5277.881490481036
 21
2397.753046383293
 31
0.0
  0
INSERT
  5
D799
330
A080
100
AcDbEntity
  8
01-寸法線
 62
     4
440
 16777216
 48
0.5
370
     9
100
AcDbBlockReference
  2
_OPEN
 10
-5315.381490481037
 20
2397.753046383293
 30
0.0
 41
30.0
 42
30.0
 43
30.0
  0
INSERT
  5
D79A
330
A080
100
AcDbEntity
  8
01-寸法線
 62
     4
440
 16777216
 48
0.5
370
     9
100
AcDbBlockReference
  2
_OPEN
 10
-5277.881490481036
 20
2397.753046383293
 30
0.0
 41
30.0
 42
30.0
 43
30.0
 50
180.0
  0
MTEXT
  5
D79B
330
A080
100
AcDbEntity
  8
01-寸法線
 62
     4
440
 16777216
 48
0.5
100
AcDbMText
 10
-5199.064823814371
 20
2431.503046383292
 30
0.0
 40
52.5
 41
0.0
 71
     5
 72
     1
  1
\A1;5
  7
寸法ｽﾀｲﾙ
 73
     1
 44
1.0
  0
POINT
  5
D79C
330
A080
100
AcDbEntity
  8
DEFPOINTS
 62
     0
440
 16777216
 48
0.5
100
AcDbPoint
 10
-5315.381490481037
 20
2547.753046383292
 30
0.0
  0
POINT
  5
D79D
330
A080
100
AcDbEntity
  8
DEFPOINTS
 62
     0
440
 16777216
 48
0.5
100
AcDbPoint
 10
-5277.881490481036
 20
2697.753046383292
 30
0.0
  0
POINT
  5
D79E
330
A080
100
AcDbEntity
  8
DEFPOINTS
 62
     0
440
 16777216
 48
0.5
100
AcDbPoint
 10
-5277.881490481036
 20
2397.753046383293
 30
0.0
  0
ENDBLK
  5
A08D
330
A080
100
AcDbEntity
  8
0
 48
0.5
100
AcDbBlockEnd
  0
BLOCK
  5
A0EE
330
A0E4
100
AcDbEntity
  8
0
 48
0.5
100
AcDbBlockBegin
  2
*D11
 70
     1
 10
0.0
 20
0.0
 30
0.0
  3
*D11
  1

  0
LINE
  5
D79F
330
A0E4
100
AcDbEntity
  8
01-寸法線
 62
     4
440
 16777216
 48
0.5
370
     9
100
AcDbLine
 10
-4160.381490481036
 20
2462.753046383292
 30
0.0
 11
-4430.381490481037
 21
2462.753046383292
 31
0.0
  0
LINE
  5
D7A0
330
A0E4
100
AcDbEntity
  8
01-寸法線
 62
     4
440
 16777216
 48
0.5
370
     9
100
AcDbLine
 10
-4160.381490481036
 20
2612.753046383291
 30
0.0
 11
-4430.381490481037
 21
2612.753046383291
 31
0.0
  0
LINE
  5
D7A1
330
A0E4
100
AcDbEntity
  8
01-寸法線
 62
     4
440
 16777216
 48
0.5
370
     9
100
AcDbLine
 10
-4415.381490481037
 20
2492.753046383291
 30
0.0
 11
-4415.381490481037
 21
2582.753046383292
 31
0.0
  0
INSERT
  5
D7A2
330
A0E4
100
AcDbEntity
  8
01-寸法線
 62
     4
440
 16777216
 48
0.5
370
     9
100
AcDbBlockReference
  2
_OPEN
 10
-4415.381490481037
 20
2462.753046383292
 30
0.0
 41
30.0
 42
30.0
 43
30.0
 50
270.0
  0
INSERT
  5
D7A3
330
A0E4
100
AcDbEntity
  8
01-寸法線
 62
     4
440
 16777216
 48
0.5
370
     9
100
AcDbBlockReference
  2
_OPEN
 10
-4415.381490481037
 20
2612.753046383291
 30
0.0
 41
30.0
 42
30.0
 43
30.0
 50
90.0
  0
MTEXT
  5
D7A4
330
A0E4
100
AcDbEntity
  8
01-寸法線
 62
     4
440
 16777216
 48
0.5
100
AcDbMText
 10
-4449.131490481038
 20
2537.753046383291
 30
0.0
 40
52.5
 41
0.0
 71
     5
 72
     1
  1
\A1;50
  7
寸法ｽﾀｲﾙ
 11
0.0000000000000001
 21
1.0
 31
0.0
 73
     1
 44
1.0
  0
POINT
  5
D7A5
330
A0E4
100
AcDbEntity
  8
DEFPOINTS
 62
     0
440
 16777216
 48
0.5
100
AcDbPoint
 10
-4145.381490481036
 20
2462.753046383292
 30
0.0
  0
POINT
  5
D7A6
330
A0E4
100
AcDbEntity
  8
DEFPOINTS
 62
     0
440
 16777216
 48
0.5
100
AcDbPoint
 10
-4145.381490481036
 20
2612.753046383291
 30
0.0
  0
POINT
  5
D7A7
330
A0E4
100
AcDbEntity
  8
DEFPOINTS
 62
     0
440
 16777216
 48
0.5
100
AcDbPoint
 10
-4415.381490481037
 20
2612.753046383291
 30
0.0
  0
ENDBLK
  5
A0EF
330
A0E4
100
AcDbEntity
  8
0
 48
0.5
100
AcDbBlockEnd
  0
BLOCK
  5
A12F
330
A125
100
AcDbEntity
  8
0
 48
0.5
100
AcDbBlockBegin
  2
*D12
 70
     1
 10
0.0
 20
0.0
 30
0.0
  3
*D12
  1

  0
LINE
  5
D7B1
330
A125
100
AcDbEntity
  8
01-寸法線
 62
     4
440
 16777216
 48
0.5
370
     9
100
AcDbLine
 10
-4145.381490481036
 20
2645.753046383291
 30
0.0
 11
-4145.381490481036
 21
2962.753046383292
 31
0.0
  0
LINE
  5
D7B2
330
A125
100
AcDbEntity
  8
01-寸法線
 62
     4
440
 16777216
 48
0.5
370
     9
100
AcDbLine
 10
-3740.381490481037
 20
2762.753046383292
 30
0.0
 11
-3740.381490481037
 21
2962.753046383292
 31
0.0
  0
LINE
  5
D7B3
330
A125
100
AcDbEntity
  8
01-寸法線
 62
     4
440
 16777216
 48
0.5
370
     9
100
AcDbLine
 10
-4115.381490481036
 20
2947.753046383292
 30
0.0
 11
-3770.381490481037
 21
2947.753046383292
 31
0.0
  0
INSERT
  5
D7B4
330
A125
100
AcDbEntity
  8
01-寸法線
 62
     4
440
 16777216
 48
0.5
370
     9
100
AcDbBlockReference
  2
_OPEN
 10
-4145.381490481036
 20
2947.753046383292
 30
0.0
 41
30.0
 42
30.0
 43
30.0
 50
180.0
  0
INSERT
  5
D7B5
330
A125
100
AcDbEntity
  8
01-寸法線
 62
     4
440
 16777216
 48
0.5
370
     9
100
AcDbBlockReference
  2
_OPEN
 10
-3740.381490481037
 20
2947.753046383292
 30
0.0
 41
30.0
 42
30.0
 43
30.0
  0
MTEXT
  5
D7B6
330
A125
100
AcDbEntity
  8
01-寸法線
 62
     4
440
 16777216
 48
0.5
100
AcDbMText
 10
-3942.881490481036
 20
2981.503046383292
 30
0.0
 40
52.5
 41
0.0
 71
     5
 72
     1
  1
\A1;135
  7
寸法ｽﾀｲﾙ
 73
     1
 44
1.0
  0
POINT
  5
D7B7
330
A125
100
AcDbEntity
  8
DEFPOINTS
 62
     0
440
 16777216
 48
0.5
100
AcDbPoint
 10
-4145.381490481036
 20
2630.753046383292
 30
0.0
  0
POINT
  5
D7B8
330
A125
100
AcDbEntity
  8
DEFPOINTS
 62
     0
440
 16777216
 48
0.5
100
AcDbPoint
 10
-3740.381490481037
 20
2747.753046383292
 30
0.0
  0
POINT
  5
D7B9
330
A125
100
AcDbEntity
  8
DEFPOINTS
 62
     0
440
 16777216
 48
0.5
100
AcDbPoint
 10
-3740.381490481037
 20
2947.753046383292
 30
0.0
  0
ENDBLK
  5
A130
330
A125
100
AcDbEntity
  8
0
 48
0.5
100
AcDbBlockEnd
  0
BLOCK
  5
A13C
330
A132
100
AcDbEntity
  8
0
 48
0.5
100
AcDbBlockBegin
  2
*D13
 70
     1
 10
0.0
 20
0.0
 30
0.0
  3
*D13
  1

  0
LINE
  5
D7BA
330
A132
100
AcDbEntity
  8
01-寸法線
 62
     4
440
 16777216
 48
0.5
370
     9
100
AcDbLine
 10
-3740.381490481037
 20
2762.753046383292
 30
0.0
 11
-3740.381490481037
 21
2962.753046383292
 31
0.0
  0
LINE
  5
D7BB
330
A132
100
AcDbEntity
  8
01-寸法線
 62
     4
440
 16777216
 48
0.5
370
     9
100
AcDbLine
 10
-3335.381490481037
 20
2627.753046383292
 30
0.0
 11
-3335.381490481037
 21
2962.753046383292
 31
0.0
  0
LINE
  5
D7BC
330
A132
100
AcDbEntity
  8
01-寸法線
 62
     4
440
 16777216
 48
0.5
370
     9
100
AcDbLine
 10
-3710.381490481037
 20
2947.753046383292
 30
0.0
 11
-3365.381490481036
 21
2947.753046383292
 31
0.0
  0
INSERT
  5
D7BD
330
A132
100
AcDbEntity
  8
01-寸法線
 62
     4
440
 16777216
 48
0.5
370
     9
100
AcDbBlockReference
  2
_OPEN
 10
-3740.381490481037
 20
2947.753046383292
 30
0.0
 41
30.0
 42
30.0
 43
30.0
 50
180.0
  0
INSERT
  5
D7BE
330
A132
100
AcDbEntity
  8
01-寸法線
 62
     4
440
 16777216
 48
0.5
370
     9
100
AcDbBlockReference
  2
_OPEN
 10
-3335.381490481037
 20
2947.753046383292
 30
0.0
 41
30.0
 42
30.0
 43
30.0
  0
MTEXT
  5
D7BF
330
A132
100
AcDbEntity
  8
01-寸法線
 62
     4
440
 16777216
 48
0.5
100
AcDbMText
 10
-3537.881490481036
 20
2981.503046383292
 30
0.0
 40
52.5
 41
0.0
 71
     5
 72
     1
  1
\A1;135
  7
寸法ｽﾀｲﾙ
 73
     1
 44
1.0
  0
POINT
  5
D7C0
330
A132
100
AcDbEntity
  8
DEFPOINTS
 62
     0
440
 16777216
 48
0.5
100
AcDbPoint
 10
-3740.381490481037
 20
2747.753046383292
 30
0.0
  0
POINT
  5
D7C1
330
A132
100
AcDbEntity
  8
DEFPOINTS
 62
     0
440
 16777216
 48
0.5
100
AcDbPoint
 10
-3335.381490481037
 20
2612.753046383292
 30
0.0
  0
POINT
  5
D7C2
330
A132
100
AcDbEntity
  8
DEFPOINTS
 62
     0
440
 16777216
 48
0.5
100
AcDbPoint
 10
-3335.381490481037
 20
2947.753046383292
 30
0.0
  0
ENDBLK
  5
A13D
330
A132
100
AcDbEntity
  8
0
 48
0.5
100
AcDbBlockEnd
  0
BLOCK
  5
AABD
330
AAB1
100
AcDbEntity
  8
0
 48
0.5
100
AcDbBlockBegin
  2
*D14
 70
     1
 10
0.0
 20
0.0
 30
0.0
  3
*D14
  1

  0
LINE
  5
D7C3
330
AAB1
100
AcDbEntity
  8
01-寸法線
 62
     4
440
 16777216
 48
0.5
370
     9
100
AcDbLine
 10
-5180.381490481035
 20
4147.753046383292
 30
0.0
 11
-5380.381490481036
 21
4147.753046383292
 31
0.0
  0
LINE
  5
D7C4
330
AAB1
100
AcDbEntity
  8
01-寸法線
 62
     4
440
 16777216
 48
0.5
370
     9
100
AcDbLine
 10
-5180.381490481035
 20
4207.753046383292
 30
0.0
 11
-5380.381490481036
 21
4207.753046383292
 31
0.0
  0
LINE
  5
D7C5
330
AAB1
100
AcDbEntity
  8
01-寸法線
 62
     4
440
 16777216
 48
0.5
370
     9
100
AcDbLine
 10
-5365.381490481036
 20
4117.753046383291
 30
0.0
 11
-5365.381490481036
 21
4087.753046383292
 31
0.0
  0
LINE
  5
D7C6
330
AAB1
100
AcDbEntity
  8
01-寸法線
 62
     4
440
 16777216
 48
0.5
370
     9
100
AcDbLine
 10
-5365.381490481036
 20
4237.753046383292
 30
0.0
 11
-5365.381490481036
 21
4336.653046383291
 31
0.0
  0
LINE
  5
D7C7
330
AAB1
100
AcDbEntity
  8
01-寸法線
 62
     4
440
 16777216
 48
0.5
370
     9
100
AcDbLine
 10
-5365.381490481036
 20
4147.753046383292
 30
0.0
 11
-5365.381490481036
 21
4207.753046383292
 31
0.0
  0
INSERT
  5
D7C8
330
AAB1
100
AcDbEntity
  8
01-寸法線
 62
     4
440
 16777216
 48
0.5
370
     9
100
AcDbBlockReference
  2
_OPEN
 10
-5365.381490481036
 20
4147.753046383292
 30
0.0
 41
30.0
 42
30.0
 43
30.0
 50
90.0
  0
INSERT
  5
D7C9
330
AAB1
100
AcDbEntity
  8
01-寸法線
 62
     4
440
 16777216
 48
0.5
370
     9
100
AcDbBlockReference
  2
_OPEN
 10
-5365.381490481036
 20
4207.753046383292
 30
0.0
 41
30.0
 42
30.0
 43
30.0
 50
270.0
  0
MTEXT
  5
D7CA
330
AAB1
100
AcDbEntity
  8
01-寸法線
 62
     4
440
 16777216
 48
0.5
100
AcDbMText
 10
-5399.131490481037
 20
4302.20304638329
 30
0.0
 40
52.5
 41
0.0
 71
     5
 72
     1
  1
\A1;60
  7
寸法ｽﾀｲﾙ
 11
0.0000000000000001
 21
1.0
 31
0.0
 73
     1
 44
1.0
  0
POINT
  5
D7CB
330
AAB1
100
AcDbEntity
  8
DEFPOINTS
 62
     0
440
 16777216
 48
0.5
100
AcDbPoint
 10
-5165.381490481036
 20
4147.753046383292
 30
0.0
  0
POINT
  5
D7CC
330
AAB1
100
AcDbEntity
  8
DEFPOINTS
 62
     0
440
 16777216
 48
0.5
100
AcDbPoint
 10
-5165.381490481036
 20
4207.753046383292
 30
0.0
  0
POINT
  5
D7CD
330
AAB1
100
AcDbEntity
  8
DEFPOINTS
 62
     0
440
 16777216
 48
0.5
100
AcDbPoint
 10
-5365.381490481036
 20
4207.753046383292
 30
0.0
  0
ENDBLK
  5
AABE
330
AAB1
100
AcDbEntity
  8
0
 48
0.5
100
AcDbBlockEnd
  0
BLOCK
  5
AAE2
330
AAD6
100
AcDbEntity
  8
0
 48
0.5
100
AcDbBlockBegin
  2
*D15
 70
     1
 10
0.0
 20
0.0
 30
0.0
  3
*D15
  1

  0
LINE
  5
D7CE
330
AAD6
100
AcDbEntity
  8
01-寸法線
 62
     4
440
 16777216
 48
0.5
370
     9
100
AcDbLine
 10
-5165.381490481036
 20
4512.753046383291
 30
0.0
 11
-5165.381490481036
 21
4712.753046383292
 31
0.0
  0
LINE
  5
D7CF
330
AAD6
100
AcDbEntity
  8
01-寸法線
 62
     4
440
 16777216
 48
0.5
370
     9
100
AcDbLine
 10
-5090.381490481036
 20
4312.753046383291
 30
0.0
 11
-5090.381490481036
 21
4712.753046383292
 31
0.0
  0
LINE
  5
D7D0
330
AAD6
100
AcDbEntity
  8
01-寸法線
 62
     4
440
 16777216
 48
0.5
370
     9
100
AcDbLine
 10
-5135.381490481036
 20
4697.753046383292
 30
0.0
 11
-5120.381490481037
 21
4697.753046383292
 31
0.0
  0
INSERT
  5
D7D1
330
AAD6
100
AcDbEntity
  8
01-寸法線
 62
     4
440
 16777216
 48
0.5
370
     9
100
AcDbBlockReference
  2
_OPEN
 10
-5165.381490481036
 20
4697.753046383292
 30
0.0
 41
30.0
 42
30.0
 43
30.0
 50
180.0
  0
INSERT
  5
D7D2
330
AAD6
100
AcDbEntity
  8
01-寸法線
 62
     4
440
 16777216
 48
0.5
370
     9
100
AcDbBlockReference
  2
_OPEN
 10
-5090.381490481036
 20
4697.753046383292
 30
0.0
 41
30.0
 42
30.0
 43
30.0
  0
MTEXT
  5
D7D3
330
AAD6
100
AcDbEntity
  8
01-寸法線
 62
     4
440
 16777216
 48
0.5
100
AcDbMText
 10
-5127.881490481036
 20
4731.503046383291
 30
0.0
 40
52.5
 41
0.0
 71
     5
 72
     1
  1
\A1;75
  7
寸法ｽﾀｲﾙ
 73
     1
 44
1.0
  0
POINT
  5
D7D4
330
AAD6
100
AcDbEntity
  8
DEFPOINTS
 62
     0
440
 16777216
 48
0.5
100
AcDbPoint
 10
-5165.381490481036
 20
4497.753046383292
 30
0.0
  0
POINT
  5
D7D5
330
AAD6
100
AcDbEntity
  8
DEFPOINTS
 62
     0
440
 16777216
 48
0.5
100
AcDbPoint
 10
-5090.381490481036
 20
4297.753046383292
 30
0.0
  0
POINT
  5
D7D6
330
AAD6
100
AcDbEntity
  8
DEFPOINTS
 62
     0
440
 16777216
 48
0.5
100
AcDbPoint
 10
-5090.381490481036
 20
4697.753046383292
 30
0.0
  0
ENDBLK
  5
AAE3
330
AAD6
100
AcDbEntity
  8
0
 48
0.5
100
AcDbBlockEnd
  0
BLOCK
  5
AAF1
330
AAE5
100
AcDbEntity
  8
0
 48
0.5
100
AcDbBlockBegin
  2
*D16
 70
     1
 10
0.0
 20
0.0
 30
0.0
  3
*D16
  1

  0
LINE
  5
D7D7
330
AAE5
100
AcDbEntity
  8
01-寸法線
 62
     4
440
 16777216
 48
0.5
370
     9
100
AcDbLine
 10
-3240.381490481036
 20
4312.753046383291
 30
0.0
 11
-3240.381490481036
 21
4712.753046383292
 31
0.0
  0
LINE
  5
D7D8
330
AAE5
100
AcDbEntity
  8
01-寸法線
 62
     4
440
 16777216
 48
0.5
370
     9
100
AcDbLine
 10
-3165.381490481036
 20
4512.753046383291
 30
0.0
 11
-3165.381490481036
 21
4712.753046383292
 31
0.0
  0
LINE
  5
D7D9
330
AAE5
100
AcDbEntity
  8
01-寸法線
 62
     4
440
 16777216
 48
0.5
370
     9
100
AcDbLine
 10
-3210.381490481037
 20
4697.753046383292
 30
0.0
 11
-3195.381490481036
 21
4697.753046383292
 31
0.0
  0
INSERT
  5
D7DA
330
AAE5
100
AcDbEntity
  8
01-寸法線
 62
     4
440
 16777216
 48
0.5
370
     9
100
AcDbBlockReference
  2
_OPEN
 10
-3240.381490481036
 20
4697.753046383292
 30
0.0
 41
30.0
 42
30.0
 43
30.0
 50
180.0
  0
INSERT
  5
D7DB
330
AAE5
100
AcDbEntity
  8
01-寸法線
 62
     4
440
 16777216
 48
0.5
370
     9
100
AcDbBlockReference
  2
_OPEN
 10
-3165.381490481036
 20
4697.753046383292
 30
0.0
 41
30.0
 42
30.0
 43
30.0
  0
MTEXT
  5
D7DC
330
AAE5
100
AcDbEntity
  8
01-寸法線
 62
     4
440
 16777216
 48
0.5
100
AcDbMText
 10
-3202.881490481036
 20
4731.503046383291
 30
0.0
 40
52.5
 41
0.0
 71
     5
 72
     1
  1
\A1;75
  7
寸法ｽﾀｲﾙ
 73
     1
 44
1.0
  0
POINT
  5
D7DD
330
AAE5
100
AcDbEntity
  8
DEFPOINTS
 62
     0
440
 16777216
 48
0.5
100
AcDbPoint
 10
-3240.381490481036
 20
4297.753046383292
 30
0.0
  0
POINT
  5
D7DE
330
AAE5
100
AcDbEntity
  8
DEFPOINTS
 62
     0
440
 16777216
 48
0.5
100
AcDbPoint
 10
-3165.381490481036
 20
4497.753046383292
 30
0.0
  0
POINT
  5
D7DF
330
AAE5
100
AcDbEntity
  8
DEFPOINTS
 62
     0
440
 16777216
 48
0.5
100
AcDbPoint
 10
-3165.381490481036
 20
4697.753046383292
 30
0.0
  0
ENDBLK
  5
AAF2
330
AAE5
100
AcDbEntity
  8
0
 48
0.5
100
AcDbBlockEnd
  0
BLOCK
  5
AB42
330
AB38
100
AcDbEntity
  8
0
 48
0.5
100
AcDbBlockBegin
  2
*D17
 70
     1
 10
0.0
 20
0.0
 30
0.0
  3
*D17
  1

  0
LINE
  5
D7E0
330
AB38
100
AcDbEntity
  8
01-寸法線
 62
     4
440
 16777216
 48
0.5
370
     9
100
AcDbLine
 10
-5262.881490481037
 20
2697.753046383292
 30
0.0
 11
-4850.381490481037
 21
2697.753046383291
 31
0.0
  0
LINE
  5
D7E1
330
AB38
100
AcDbEntity
  8
01-寸法線
 62
     4
440
 16777216
 48
0.5
370
     9
100
AcDbLine
 10
-5000.381490481037
 20
2847.753046383292
 30
0.0
 11
-4850.381490481037
 21
2847.753046383292
 31
0.0
  0
LINE
  5
D7E2
330
AB38
100
AcDbEntity
  8
01-寸法線
 62
     4
440
 16777216
 48
0.5
370
     9
100
AcDbLine
 10
-4865.381490481037
 20
2727.753046383292
 30
0.0
 11
-4865.381490481037
 21
2817.753046383292
 31
0.0
  0
INSERT
  5
D7E3
330
AB38
100
AcDbEntity
  8
01-寸法線
 62
     4
440
 16777216
 48
0.5
370
     9
100
AcDbBlockReference
  2
_OPEN
 10
-4865.381490481037
 20
2697.753046383291
 30
0.0
 41
30.0
 42
30.0
 43
30.0
 50
270.0
  0
INSERT
  5
D7E4
330
AB38
100
AcDbEntity
  8
01-寸法線
 62
     4
440
 16777216
 48
0.5
370
     9
100
AcDbBlockReference
  2
_OPEN
 10
-4865.381490481037
 20
2847.753046383292
 30
0.0
 41
30.0
 42
30.0
 43
30.0
 50
90.0
  0
MTEXT
  5
D7E5
330
AB38
100
AcDbEntity
  8
01-寸法線
 62
     4
440
 16777216
 48
0.5
100
AcDbMText
 10
-4899.131490481038
 20
2772.753046383292
 30
0.0
 40
52.5
 41
0.0
 71
     5
 72
     1
  1
\A1;20
  7
寸法ｽﾀｲﾙ
 11
0.0000000000000001
 21
1.0
 31
0.0
 73
     1
 44
1.0
  0
POINT
  5
D7E6
330
AB38
100
AcDbEntity
  8
DEFPOINTS
 62
     0
440
 16777216
 48
0.5
100
AcDbPoint
 10
-5277.881490481036
 20
2697.753046383292
 30
0.0
  0
POINT
  5
D7E7
330
AB38
100
AcDbEntity
  8
DEFPOINTS
 62
     0
440
 16777216
 48
0.5
100
AcDbPoint
 10
-5015.381490481036
 20
2847.753046383292
 30
0.0
  0
POINT
  5
D7E8
330
AB38
100
AcDbEntity
  8
DEFPOINTS
 62
     0
440
 16777216
 48
0.5
100
AcDbPoint
 10
-4865.381490481037
 20
2847.753046383292
 30
0.0
  0
ENDBLK
  5
AB43
330
AB38
100
AcDbEntity
  8
0
 48
0.5
100
AcDbBlockEnd
  0
BLOCK
  5
AC48
330
AC3E
100
AcDbEntity
  8
0
 48
0.5
100
AcDbBlockBegin
  2
*D18
 70
     1
 10
0.0
 20
0.0
 30
0.0
  3
*D18
  1

  0
LINE
  5
D7E9
330
AC3E
100
AcDbEntity
  8
01-寸法線
 62
     4
440
 16777216
 48
0.5
370
     9
100
AcDbLine
 10
-6710.381490481037
 20
4147.753046383292
 30
0.0
 11
-6910.381490481038
 21
4147.753046383292
 31
0.0
  0
LINE
  5
D7EA
330
AC3E
100
AcDbEntity
  8
01-寸法線
 62
     4
440
 16777216
 48
0.5
370
     9
100
AcDbLine
 10
-6705.381490481037
 20
4297.753046383293
 30
0.0
 11
-6910.381490481038
 21
4297.753046383293
 31
0.0
  0
LINE
  5
D7EB
330
AC3E
100
AcDbEntity
  8
01-寸法線
 62
     4
440
 16777216
 48
0.5
370
     9
100
AcDbLine
 10
-6895.381490481037
 20
4177.753046383292
 30
0.0
 11
-6895.381490481037
 21
4267.753046383293
 31
0.0
  0
INSERT
  5
D7EC
330
AC3E
100
AcDbEntity
  8
01-寸法線
 62
     4
440
 16777216
 48
0.5
370
     9
100
AcDbBlockReference
  2
_OPEN
 10
-6895.381490481037
 20
4147.753046383292
 30
0.0
 41
30.0
 42
30.0
 43
30.0
 50
270.0
  0
INSERT
  5
D7ED
330
AC3E
100
AcDbEntity
  8
01-寸法線
 62
     4
440
 16777216
 48
0.5
370
     9
100
AcDbBlockReference
  2
_OPEN
 10
-6895.381490481037
 20
4297.753046383293
 30
0.0
 41
30.0
 42
30.0
 43
30.0
 50
90.0
  0
MTEXT
  5
D7EE
330
AC3E
100
AcDbEntity
  8
01-寸法線
 62
     4
440
 16777216
 48
0.5
100
AcDbMText
 10
-6929.131490481037
 20
4222.753046383291
 30
0.0
 40
52.5
 41
0.0
 71
     5
 72
     1
  1
\A1;150
  7
寸法ｽﾀｲﾙ
 11
0.0000000000000001
 21
1.0
 31
0.0
 73
     1
 44
1.0
  0
POINT
  5
D7EF
330
AC3E
100
AcDbEntity
  8
DEFPOINTS
 62
     0
440
 16777216
 48
0.5
100
AcDbPoint
 10
-6695.381490481037
 20
4147.753046383292
 30
0.0
  0
POINT
  5
D7F0
330
AC3E
100
AcDbEntity
  8
DEFPOINTS
 62
     0
440
 16777216
 48
0.5
100
AcDbPoint
 10
-6690.381490481037
 20
4297.753046383293
 30
0.0
  0
POINT
  5
D7F1
330
AC3E
100
AcDbEntity
  8
DEFPOINTS
 62
     0
440
 16777216
 48
0.5
100
AcDbPoint
 10
-6895.381490481037
 20
4297.753046383293
 30
0.0
  0
ENDBLK
  5
AC49
330
AC3E
100
AcDbEntity
  8
0
 48
0.5
100
AcDbBlockEnd
  0
BLOCK
  5
AC55
330
AC4B
100
AcDbEntity
  8
0
 48
0.5
100
AcDbBlockBegin
  2
*D19
 70
     1
 10
0.0
 20
0.0
 30
0.0
  3
*D19
  1

  0
LINE
  5
D7F2
330
AC4B
100
AcDbEntity
  8
01-寸法線
 62
     4
440
 16777216
 48
0.5
370
     9
100
AcDbLine
 10
-6705.381490481037
 20
4297.753046383293
 30
0.0
 11
-6910.381490481038
 21
4297.753046383293
 31
0.0
  0
LINE
  5
D7F3
330
AC4B
100
AcDbEntity
  8
01-寸法線
 62
     4
440
 16777216
 48
0.5
370
     9
100
AcDbLine
 10
-6595.381490481037
 20
4497.753046383293
 30
0.0
 11
-6910.381490481038
 21
4497.753046383293
 31
0.0
  0
LINE
  5
D7F4
330
AC4B
100
AcDbEntity
  8
01-寸法線
 62
     4
440
 16777216
 48
0.5
370
     9
100
AcDbLine
 10
-6895.381490481037
 20
4327.753046383294
 30
0.0
 11
-6895.381490481037
 21
4467.753046383292
 31
0.0
  0
INSERT
  5
D7F5
330
AC4B
100
AcDbEntity
  8
01-寸法線
 62
     4
440
 16777216
 48
0.5
370
     9
100
AcDbBlockReference
  2
_OPEN
 10
-6895.381490481037
 20
4297.753046383293
 30
0.0
 41
30.0
 42
30.0
 43
30.0
 50
270.0
  0
INSERT
  5
D7F6
330
AC4B
100
AcDbEntity
  8
01-寸法線
 62
     4
440
 16777216
 48
0.5
370
     9
100
AcDbBlockReference
  2
_OPEN
 10
-6895.381490481037
 20
4497.753046383293
 30
0.0
 41
30.0
 42
30.0
 43
30.0
 50
90.0
  0
MTEXT
  5
D7F7
330
AC4B
100
AcDbEntity
  8
01-寸法線
 62
     4
440
 16777216
 48
0.5
100
AcDbMText
 10
-6929.131490481037
 20
4397.753046383292
 30
0.0
 40
52.5
 41
0.0
 71
     5
 72
     1
  1
\A1;200
  7
寸法ｽﾀｲﾙ
 11
0.0000000000000001
 21
1.0
 31
0.0
 73
     1
 44
1.0
  0
POINT
  5
D7F8
330
AC4B
100
AcDbEntity
  8
DEFPOINTS
 62
     0
440
 16777216
 48
0.5
100
AcDbPoint
 10
-6690.381490481037
 20
4297.753046383293
 30
0.0
  0
POINT
  5
D7F9
330
AC4B
100
AcDbEntity
  8
DEFPOINTS
 62
     0
440
 16777216
 48
0.5
100
AcDbPoint
 10
-6580.381490481037
 20
4497.753046383293
 30
0.0
  0
POINT
  5
D7FA
330
AC4B
100
AcDbEntity
  8
DEFPOINTS
 62
     0
440
 16777216
 48
0.5
100
AcDbPoint
 10
-6895.381490481037
 20
4497.753046383293
 30
0.0
  0
ENDBLK
  5
AC56
330
AC4B
100
AcDbEntity
  8
0
 48
0.5
100
AcDbBlockEnd
  0
BLOCK
  5
AC62
330
AC58
100
AcDbEntity
  8
0
 48
0.5
100
AcDbBlockBegin
  2
*D20
 70
     1
 10
0.0
 20
0.0
 30
0.0
  3
*D20
  1

  0
LINE
  5
D7FB
330
AC58
100
AcDbEntity
  8
01-寸法線
 62
     4
440
 16777216
 48
0.5
370
     9
100
AcDbLine
 10
-6910.381490481038
 20
4147.753046383292
 30
0.0
 11
-7010.381490481037
 21
4147.753046383292
 31
0.0
  0
LINE
  5
D7FC
330
AC58
100
AcDbEntity
  8
01-寸法線
 62
     4
440
 16777216
 48
0.5
370
     9
100
AcDbLine
 10
-6910.381490481038
 20
4497.753046383293
 30
0.0
 11
-7010.381490481037
 21
4497.753046383293
 31
0.0
  0
LINE
  5
D7FD
330
AC58
100
AcDbEntity
  8
01-寸法線
 62
     4
440
 16777216
 48
0.5
370
     9
100
AcDbLine
 10
-6995.381490481037
 20
4177.753046383292
 30
0.0
 11
-6995.381490481037
 21
4467.753046383292
 31
0.0
  0
INSERT
  5
D7FE
330
AC58
100
AcDbEntity
  8
01-寸法線
 62
     4
440
 16777216
 48
0.5
370
     9
100
AcDbBlockReference
  2
_OPEN
 10
-6995.381490481037
 20
4147.753046383292
 30
0.0
 41
30.0
 42
30.0
 43
30.0
 50
270.0
  0
INSERT
  5
D7FF
330
AC58
100
AcDbEntity
  8
01-寸法線
 62
     4
440
 16777216
 48
0.5
370
     9
100
AcDbBlockReference
  2
_OPEN
 10
-6995.381490481037
 20
4497.753046383293
 30
0.0
 41
30.0
 42
30.0
 43
30.0
 50
90.0
  0
MTEXT
  5
D800
330
AC58
100
AcDbEntity
  8
01-寸法線
 62
     4
440
 16777216
 48
0.5
100
AcDbMText
 10
-7029.131490481038
 20
4322.753046383291
 30
0.0
 40
52.5
 41
0.0
 71
     5
 72
     1
  1
\A1;350
  7
寸法ｽﾀｲﾙ
 11
0.0000000000000001
 21
1.0
 31
0.0
 73
     1
 44
1.0
  0
POINT
  5
D801
330
AC58
100
AcDbEntity
  8
DEFPOINTS
 62
     0
440
 16777216
 48
0.5
100
AcDbPoint
 10
-6895.381490481037
 20
4147.753046383292
 30
0.0
  0
POINT
  5
D802
330
AC58
100
AcDbEntity
  8
DEFPOINTS
 62
     0
440
 16777216
 48
0.5
100
AcDbPoint
 10
-6895.381490481037
 20
4497.753046383293
 30
0.0
  0
POINT
  5
D803
330
AC58
100
AcDbEntity
  8
DEFPOINTS
 62
     0
440
 16777216
 48
0.5
100
AcDbPoint
 10
-6995.381490481037
 20
4497.753046383293
 30
0.0
  0
ENDBLK
  5
AC63
330
AC58
100
AcDbEntity
  8
0
 48
0.5
100
AcDbBlockEnd
  0
BLOCK
  5
AC6F
330
AC65
100
AcDbEntity
  8
0
 48
0.5
100
AcDbBlockBegin
  2
*D21
 70
     1
 10
0.0
 20
0.0
 30
0.0
  3
*D21
  1

  0
LINE
  5
D804
330
AC65
100
AcDbEntity
  8
01-寸法線
 62
     4
440
 16777216
 48
0.5
370
     9
100
AcDbLine
 10
-6690.381490481037
 20
4312.753046383292
 30
0.0
 11
-6690.381490481037
 21
4712.753046383292
 31
0.0
  0
LINE
  5
D805
330
AC65
100
AcDbEntity
  8
01-寸法線
 62
     4
440
 16777216
 48
0.5
370
     9
100
AcDbLine
 10
-6600.381490481037
 20
4312.753046383292
 30
0.0
 11
-6600.381490481037
 21
4712.753046383292
 31
0.0
  0
LINE
  5
D806
330
AC65
100
AcDbEntity
  8
01-寸法線
 62
     4
440
 16777216
 48
0.5
370
     9
100
AcDbLine
 10
-6660.381490481038
 20
4697.753046383293
 30
0.0
 11
-6630.381490481036
 21
4697.753046383293
 31
0.0
  0
INSERT
  5
D807
330
AC65
100
AcDbEntity
  8
01-寸法線
 62
     4
440
 16777216
 48
0.5
370
     9
100
AcDbBlockReference
  2
_OPEN
 10
-6690.381490481037
 20
4697.753046383293
 30
0.0
 41
30.0
 42
30.0
 43
30.0
 50
180.0
  0
INSERT
  5
D808
330
AC65
100
AcDbEntity
  8
01-寸法線
 62
     4
440
 16777216
 48
0.5
370
     9
100
AcDbBlockReference
  2
_OPEN
 10
-6600.381490481037
 20
4697.753046383293
 30
0.0
 41
30.0
 42
30.0
 43
30.0
  0
MTEXT
  5
D809
330
AC65
100
AcDbEntity
  8
01-寸法線
 62
     4
440
 16777216
 48
0.5
100
AcDbMText
 10
-6645.381490481037
 20
4731.503046383292
 30
0.0
 40
52.5
 41
0.0
 71
     5
 72
     1
  1
\A1;90
  7
寸法ｽﾀｲﾙ
 73
     1
 44
1.0
  0
POINT
  5
D80A
330
AC65
100
AcDbEntity
  8
DEFPOINTS
 62
     0
440
 16777216
 48
0.5
100
AcDbPoint
 10
-6690.381490481037
 20
4297.753046383292
 30
0.0
  0
POINT
  5
D80B
330
AC65
100
AcDbEntity
  8
DEFPOINTS
 62
     0
440
 16777216
 48
0.5
100
AcDbPoint
 10
-6600.381490481037
 20
4297.753046383292
 30
0.0
  0
POINT
  5
D80C
330
AC65
100
AcDbEntity
  8
DEFPOINTS
 62
     0
440
 16777216
 48
0.5
100
AcDbPoint
 10
-6600.381490481037
 20
4697.753046383293
 30
0.0
  0
ENDBLK
  5
AC70
330
AC65
100
AcDbEntity
  8
0
 48
0.5
100
AcDbBlockEnd
  0
BLOCK
  5
AC81
330
AC72
100
AcDbEntity
  8
0
 48
0.5
100
AcDbBlockBegin
  2
*D22
 70
     1
 10
0.0
 20
0.0
 30
0.0
  3
*D22
  1

  0
LINE
  5
D80D
330
AC72
100
AcDbEntity
  8
01-寸法線
 62
     4
440
 16777216
 48
0.5
370
     9
100
AcDbLine
 10
-6600.381490481037
 20
4312.753046383292
 30
0.0
 11
-6600.381490481037
 21
4712.753046383292
 31
0.0
  0
LINE
  5
D80E
330
AC72
100
AcDbEntity
  8
01-寸法線
 62
     4
440
 16777216
 48
0.5
370
     9
100
AcDbLine
 10
-6580.381490481037
 20
4512.753046383292
 30
0.0
 11
-6580.381490481037
 21
4712.753046383292
 31
0.0
  0
LINE
  5
D80F
330
AC72
100
AcDbEntity
  8
01-寸法線
 62
     4
440
 16777216
 48
0.5
370
     9
100
AcDbLine
 10
-6630.381490481036
 20
4697.753046383293
 30
0.0
 11
-6660.381490481038
 21
4697.753046383293
 31
0.0
  0
LINE
  5
D810
330
AC72
100
AcDbEntity
  8
01-寸法線
 62
     4
440
 16777216
 48
0.5
370
     9
100
AcDbLine
 10
-6550.381490481036
 20
4697.753046383293
 30
0.0
 11
-6520.381490481037
 21
4697.753046383293
 31
0.0
  0
MTEXT
  5
D811
330
AC72
100
AcDbEntity
  8
01-寸法線
 62
     4
440
 16777216
 48
0.5
100
AcDbMText
 10
-6590.381490481037
 20
4799.003046383293
 30
0.0
 40
52.5
 41
0.0
 71
     5
 72
     1
  1
\A1;20
  7
寸法ｽﾀｲﾙ
 73
     1
 44
1.0
  0
LINE
  5
D812
330
AC72
100
AcDbEntity
  8
01-寸法線
 62
     4
440
 16777216
 48
0.5
370
     9
100
AcDbLine
 10
-6600.381490481037
 20
4697.753046383293
 30
0.0
 11
-6580.381490481037
 21
4697.753046383293
 31
0.0
  0
INSERT
  5
D813
330
AC72
100
AcDbEntity
  8
01-寸法線
 62
     4
440
 16777216
 48
0.5
370
     9
100
AcDbBlockReference
  2
_OPEN
 10
-6600.381490481037
 20
4697.753046383293
 30
0.0
 41
30.0
 42
30.0
 43
30.0
  0
INSERT
  5
D814
330
AC72
100
AcDbEntity
  8
01-寸法線
 62
     4
440
 16777216
 48
0.5
370
     9
100
AcDbBlockReference
  2
_OPEN
 10
-6580.381490481037
 20
4697.753046383293
 30
0.0
 41
30.0
 42
30.0
 43
30.0
 50
180.0
  0
POINT
  5
D815
330
AC72
100
AcDbEntity
  8
DEFPOINTS
 62
     0
440
 16777216
 48
0.5
100
AcDbPoint
 10
-6600.381490481037
 20
4297.753046383292
 30
0.0
  0
POINT
  5
D816
330
AC72
100
AcDbEntity
  8
DEFPOINTS
 62
     0
440
 16777216
 48
0.5
100
AcDbPoint
 10
-6580.381490481037
 20
4497.753046383293
 30
0.0
  0
POINT
  5
D817
330
AC72
100
AcDbEntity
  8
DEFPOINTS
 62
     0
440
 16777216
 48
0.5
100
AcDbPoint
 10
-6580.381490481037
 20
4697.753046383293
 30
0.0
  0
ENDBLK
  5
AC82
330
AC72
100
AcDbEntity
  8
0
 48
0.5
100
AcDbBlockEnd
  0
BLOCK
  5
ACD6
330
ACCC
100
AcDbEntity
  8
0
 48
0.5
100
AcDbBlockBegin
  2
*D23
 70
     1
 10
0.0
 20
0.0
 30
0.0
  3
*D23
  1

  0
LINE
  5
D818
330
ACCC
100
AcDbEntity
  8
01-寸法線
 62
     4
440
 16777216
 48
0.5
370
     9
100
AcDbLine
 10
-6400.381490481037
 20
4512.753046383292
 30
0.0
 11
-6400.381490481037
 21
4712.753046383292
 31
0.0
  0
LINE
  5
D819
330
ACCC
100
AcDbEntity
  8
01-寸法線
 62
     4
440
 16777216
 48
0.5
370
     9
100
AcDbLine
 10
-6580.381490481037
 20
4512.753046383292
 30
0.0
 11
-6580.381490481037
 21
4712.753046383292
 31
0.0
  0
LINE
  5
D81A
330
ACCC
100
AcDbEntity
  8
01-寸法線
 62
     4
440
 16777216
 48
0.5
370
     9
100
AcDbLine
 10
-6430.381490481036
 20
4697.753046383293
 30
0.0
 11
-6550.381490481036
 21
4697.753046383293
 31
0.0
  0
INSERT
  5
D81B
330
ACCC
100
AcDbEntity
  8
01-寸法線
 62
     4
440
 16777216
 48
0.5
370
     9
100
AcDbBlockReference
  2
_OPEN
 10
-6400.381490481037
 20
4697.753046383293
 30
0.0
 41
30.0
 42
30.0
 43
30.0
  0
INSERT
  5
D81C
330
ACCC
100
AcDbEntity
  8
01-寸法線
 62
     4
440
 16777216
 48
0.5
370
     9
100
AcDbBlockReference
  2
_OPEN
 10
-6580.381490481037
 20
4697.753046383293
 30
0.0
 41
30.0
 42
30.0
 43
30.0
 50
180.0
  0
MTEXT
  5
D81D
330
ACCC
100
AcDbEntity
  8
01-寸法線
 62
     4
440
 16777216
 48
0.5
100
AcDbMText
 10
-6490.381490481038
 20
4731.503046383292
 30
0.0
 40
52.5
 41
0.0
 71
     5
 72
     1
  1
\A1;180
  7
寸法ｽﾀｲﾙ
 73
     1
 44
1.0
  0
POINT
  5
D81E
330
ACCC
100
AcDbEntity
  8
DEFPOINTS
 62
     0
440
 16777216
 48
0.5
100
AcDbPoint
 10
-6400.381490481037
 20
4497.753046383293
 30
0.0
  0
POINT
  5
D81F
330
ACCC
100
AcDbEntity
  8
DEFPOINTS
 62
     0
440
 16777216
 48
0.5
100
AcDbPoint
 10
-6580.381490481037
 20
4497.753046383293
 30
0.0
  0
POINT
  5
D820
330
ACCC
100
AcDbEntity
  8
DEFPOINTS
 62
     0
440
 16777216
 48
0.5
100
AcDbPoint
 10
-6580.381490481037
 20
4697.753046383293
 30
0.0
  0
ENDBLK
  5
ACD7
330
ACCC
100
AcDbEntity
  8
0
 48
0.5
100
AcDbBlockEnd
  0
BLOCK
  5
AD4B
330
AD41
100
AcDbEntity
  8
0
 48
0.5
100
AcDbBlockBegin
  2
*D24
 70
     1
 10
0.0
 20
0.0
 30
0.0
  3
*D24
  1

  0
LINE
  5
D821
330
AD41
100
AcDbEntity
  8
01-寸法線
 62
     4
440
 16777216
 48
0.5
370
     9
100
AcDbLine
 10
-6710.381490481037
 20
1047.753046383292
 30
0.0
 11
-7010.381490481037
 21
1047.753046383292
 31
0.0
  0
LINE
  5
D822
330
AD41
100
AcDbEntity
  8
01-寸法線
 62
     4
440
 16777216
 48
0.5
370
     9
100
AcDbLine
 10
-6710.381490481037
 20
3047.753046383292
 30
0.0
 11
-7010.381490481037
 21
3047.753046383292
 31
0.0
  0
LINE
  5
D823
330
AD41
100
AcDbEntity
  8
01-寸法線
 62
     4
440
 16777216
 48
0.5
370
     9
100
AcDbLine
 10
-6995.381490481038
 20
1077.753046383292
 30
0.0
 11
-6995.381490481037
 21
3017.753046383292
 31
0.0
  0
INSERT
  5
D824
330
AD41
100
AcDbEntity
  8
01-寸法線
 62
     4
440
 16777216
 48
0.5
370
     9
100
AcDbBlockReference
  2
_OPEN
 10
-6995.381490481038
 20
1047.753046383292
 30
0.0
 41
30.0
 42
30.0
 43
30.0
 50
270.0
  0
INSERT
  5
D825
330
AD41
100
AcDbEntity
  8
01-寸法線
 62
     4
440
 16777216
 48
0.5
370
     9
100
AcDbBlockReference
  2
_OPEN
 10
-6995.381490481037
 20
3047.753046383292
 30
0.0
 41
30.0
 42
30.0
 43
30.0
 50
90.0
  0
MTEXT
  5
D826
330
AD41
100
AcDbEntity
  8
01-寸法線
 62
     4
440
 16777216
 48
0.5
100
AcDbMText
 10
-7029.131490481038
 20
2047.753046383291
 30
0.0
 40
52.5
 41
0.0
 71
     5
 72
     1
  1
\A1;2000
  7
寸法ｽﾀｲﾙ
 11
0.0000000000000001
 21
1.0
 31
0.0
 73
     1
 44
1.0
  0
POINT
  5
D827
330
AD41
100
AcDbEntity
  8
DEFPOINTS
 62
     0
440
 16777216
 48
0.5
100
AcDbPoint
 10
-6695.381490481037
 20
1047.753046383292
 30
0.0
  0
POINT
  5
D828
330
AD41
100
AcDbEntity
  8
DEFPOINTS
 62
     0
440
 16777216
 48
0.5
100
AcDbPoint
 10
-6695.381490481037
 20
3047.753046383292
 30
0.0
  0
POINT
  5
D829
330
AD41
100
AcDbEntity
  8
DEFPOINTS
 62
     0
440
 16777216
 48
0.5
100
AcDbPoint
 10
-6995.381490481037
 20
3047.753046383292
 30
0.0
  0
ENDBLK
  5
AD4C
330
AD41
100
AcDbEntity
  8
0
 48
0.5
100
AcDbBlockEnd
  0
BLOCK
  5
ADF4
330
ADEA
100
AcDbEntity
  8
0
 48
0.5
100
AcDbBlockBegin
  2
*D25
 70
     1
 10
0.0
 20
0.0
 30
0.0
  3
*D25
  1

  0
LINE
  5
D82A
330
ADEA
100
AcDbEntity
  8
01-寸法線
 62
     4
440
 16777216
 48
0.5
370
     9
100
AcDbLine
 10
-1705.629630970537
 20
4212.777860432241
 30
0.0
 11
-1675.778515264237
 21
4209.792748861612
 31
0.0
  0
LINE
  5
D82B
330
ADEA
100
AcDbEntity
  8
01-寸法線
 62
     4
440
 16777216
 48
0.5
370
     9
100
AcDbLine
 10
-1785.232606187339
 20
4220.73815795392
 30
0.0
 11
-1883.409608954725
 21
4230.555858230657
 31
0.0
  0
LINE
  5
D82C
330
ADEA
100
AcDbEntity
  8
01-寸法線
 62
     4
440
 16777216
 48
0.5
370
     9
100
AcDbLine
 10
-1735.480746676837
 20
4215.76297200287
 30
0.0
 11
-1755.38149048104
 21
4217.753046383291
 31
0.0
  0
INSERT
  5
D82D
330
ADEA
100
AcDbEntity
  8
01-寸法線
 62
     4
440
 16777216
 48
0.5
370
     9
100
AcDbBlockReference
  2
_OPEN
 10
-1735.480746676837
 20
4215.76297200287
 30
0.0
 41
30.0
 42
30.0
 43
30.0
 50
174.289406862501
  0
INSERT
  5
D82E
330
ADEA
100
AcDbEntity
  8
01-寸法線
 62
     4
440
 16777216
 48
0.5
370
     9
100
AcDbBlockReference
  2
_OPEN
 10
-1755.38149048104
 20
4217.753046383291
 30
0.0
 41
30.0
 42
30.0
 43
30.0
 50
354.289406862501
  0
MTEXT
  5
D82F
330
ADEA
100
AcDbEntity
  8
01-寸法線
 62
     4
440
 16777216
 48
0.5
100
AcDbMText
 10
-1845.888414907224
 20
4260.722069047191
 30
0.0
 40
52.5
 41
0.0
 71
     5
 72
     1
  1
\A1;20
  7
寸法ｽﾀｲﾙ
 11
0.9950371902099902
 21
-0.0995037190209873
 31
0.0
 73
     1
 44
1.0
  0
POINT
  5
D830
330
ADEA
100
AcDbEntity
  8
DEFPOINTS
 62
     0
440
 16777216
 48
0.5
100
AcDbPoint
 10
-1735.480746676837
 20
4215.76297200287
 30
0.0
  0
POINT
  5
D831
330
ADEA
100
AcDbEntity
  8
DEFPOINTS
 62
     0
440
 16777216
 48
0.5
100
AcDbPoint
 10
-1755.381490481039
 20
4217.753046383291
 30
0.0
  0
POINT
  5
D832
330
ADEA
100
AcDbEntity
  8
DEFPOINTS
 62
     0
440
 16777216
 48
0.5
100
AcDbPoint
 10
-1755.38149048104
 20
4217.753046383291
 30
0.0
  0
ENDBLK
  5
ADF5
330
ADEA
100
AcDbEntity
  8
0
 48
0.5
100
AcDbBlockEnd
  0
BLOCK
  5
AF72
330
AF66
100
AcDbEntity
  8
0
 48
0.5
100
AcDbBlockBegin
  2
*D26
 70
     1
 10
0.0
 20
0.0
 30
0.0
  3
*D26
  1

  0
LINE
  5
D833
330
AF66
100
AcDbEntity
  8
01-寸法線
 62
     4
440
 16777216
 48
0.5
370
     9
100
AcDbLine
 10
-950.3814904810372
 20
4332.753046383292
 30
0.0
 11
-950.3814904810372
 21
4532.753046383292
 31
0.0
  0
LINE
  5
D834
330
AF66
100
AcDbEntity
  8
01-寸法線
 62
     4
440
 16777216
 48
0.5
370
     9
100
AcDbLine
 10
-955.3814904810362
 20
4332.75304638329
 30
0.0
 11
-955.3814904810362
 21
4532.753046383292
 31
0.0
  0
LINE
  5
D835
330
AF66
100
AcDbEntity
  8
01-寸法線
 62
     4
440
 16777216
 48
0.5
370
     9
100
AcDbLine
 10
-920.3814904810371
 20
4517.753046383291
 30
0.0
 11
-890.3814904810372
 21
4517.753046383291
 31
0.0
  0
LINE
  5
D836
330
AF66
100
AcDbEntity
  8
01-寸法線
 62
     4
440
 16777216
 48
0.5
370
     9
100
AcDbLine
 10
-985.3814904810363
 20
4517.753046383291
 30
0.0
 11
-1053.014823814369
 21
4517.753046383291
 31
0.0
  0
LINE
  5
D837
330
AF66
100
AcDbEntity
  8
01-寸法線
 62
     4
440
 16777216
 48
0.5
370
     9
100
AcDbLine
 10
-950.3814904810372
 20
4517.753046383291
 30
0.0
 11
-955.3814904810362
 21
4517.753046383291
 31
0.0
  0
INSERT
  5
D838
330
AF66
100
AcDbEntity
  8
01-寸法線
 62
     4
440
 16777216
 48
0.5
370
     9
100
AcDbBlockReference
  2
_OPEN
 10
-950.3814904810372
 20
4517.753046383291
 30
0.0
 41
30.0
 42
30.0
 43
30.0
 50
180.0
  0
INSERT
  5
D839
330
AF66
100
AcDbEntity
  8
01-寸法線
 62
     4
440
 16777216
 48
0.5
370
     9
100
AcDbBlockReference
  2
_OPEN
 10
-955.3814904810362
 20
4517.753046383291
 30
0.0
 41
30.0
 42
30.0
 43
30.0
  0
MTEXT
  5
D83A
330
AF66
100
AcDbEntity
  8
01-寸法線
 62
     4
440
 16777216
 48
0.5
100
AcDbMText
 10
-1034.198157147703
 20
4551.503046383292
 30
0.0
 40
52.5
 41
0.0
 71
     5
 72
     1
  1
\A1;5
  7
寸法ｽﾀｲﾙ
 73
     1
 44
1.0
  0
POINT
  5
D83B
330
AF66
100
AcDbEntity
  8
DEFPOINTS
 62
     0
440
 16777216
 48
0.5
100
AcDbPoint
 10
-950.3814904810372
 20
4317.753046383291
 30
0.0
  0
POINT
  5
D83C
330
AF66
100
AcDbEntity
  8
DEFPOINTS
 62
     0
440
 16777216
 48
0.5
100
AcDbPoint
 10
-955.3814904810362
 20
4317.75304638329
 30
0.0
  0
POINT
  5
D83D
330
AF66
100
AcDbEntity
  8
DEFPOINTS
 62
     0
440
 16777216
 48
0.5
100
AcDbPoint
 10
-955.3814904810362
 20
4517.753046383291
 30
0.0
  0
ENDBLK
  5
AF73
330
AF66
100
AcDbEntity
  8
0
 48
0.5
100
AcDbBlockEnd
  0
BLOCK
  5
B0C9
330
B0BD
100
AcDbEntity
  8
0
 48
0.5
100
AcDbBlockBegin
  2
*D27
 70
     1
 10
0.0
 20
0.0
 30
0.0
  3
*D27
  1

  0
LINE
  5
D83E
330
B0BD
100
AcDbEntity
  8
01-寸法線
 62
     4
440
 16777216
 48
0.5
370
     9
100
AcDbLine
 10
-6400.381490481037
 20
4512.753046383292
 30
0.0
 11
-6400.381490481037
 21
4712.753046383292
 31
0.0
  0
LINE
  5
D83F
330
B0BD
100
AcDbEntity
  8
01-寸法線
 62
     4
440
 16777216
 48
0.5
370
     9
100
AcDbLine
 10
-6380.381490481037
 20
4312.753046383294
 30
0.0
 11
-6380.381490481037
 21
4712.753046383292
 31
0.0
  0
LINE
  5
D840
330
B0BD
100
AcDbEntity
  8
01-寸法線
 62
     4
440
 16777216
 48
0.5
370
     9
100
AcDbLine
 10
-6430.381490481036
 20
4697.753046383293
 30
0.0
 11
-6460.381490481037
 21
4697.753046383293
 31
0.0
  0
LINE
  5
D841
330
B0BD
100
AcDbEntity
  8
01-寸法線
 62
     4
440
 16777216
 48
0.5
370
     9
100
AcDbLine
 10
-6350.381490481037
 20
4697.753046383293
 30
0.0
 11
-6251.714823814371
 21
4697.753046383293
 31
0.0
  0
LINE
  5
D842
330
B0BD
100
AcDbEntity
  8
01-寸法線
 62
     4
440
 16777216
 48
0.5
370
     9
100
AcDbLine
 10
-6400.381490481037
 20
4697.753046383293
 30
0.0
 11
-6380.381490481037
 21
4697.753046383293
 31
0.0
  0
INSERT
  5
D843
330
B0BD
100
AcDbEntity
  8
01-寸法線
 62
     4
440
 16777216
 48
0.5
370
     9
100
AcDbBlockReference
  2
_OPEN
 10
-6400.381490481037
 20
4697.753046383293
 30
0.0
 41
30.0
 42
30.0
 43
30.0
  0
INSERT
  5
D844
330
B0BD
100
AcDbEntity
  8
01-寸法線
 62
     4
440
 16777216
 48
0.5
370
     9
100
AcDbBlockReference
  2
_OPEN
 10
-6380.381490481037
 20
4697.753046383293
 30
0.0
 41
30.0
 42
30.0
 43
30.0
 50
180.0
  0
MTEXT
  5
D845
330
B0BD
100
AcDbEntity
  8
01-寸法線
 62
     4
440
 16777216
 48
0.5
100
AcDbMText
 10
-6286.048157147703
 20
4731.503046383292
 30
0.0
 40
52.5
 41
0.0
 71
     5
 72
     1
  1
\A1;20
  7
寸法ｽﾀｲﾙ
 73
     1
 44
1.0
  0
POINT
  5
D846
330
B0BD
100
AcDbEntity
  8
DEFPOINTS
 62
     0
440
 16777216
 48
0.5
100
AcDbPoint
 10
-6400.381490481037
 20
4497.753046383293
 30
0.0
  0
POINT
  5
D847
330
B0BD
100
AcDbEntity
  8
DEFPOINTS
 62
     0
440
 16777216
 48
0.5
100
AcDbPoint
 10
-6380.381490481037
 20
4297.753046383293
 30
0.0
  0
POINT
  5
D848
330
B0BD
100
AcDbEntity
  8
DEFPOINTS
 62
     0
440
 16777216
 48
0.5
100
AcDbPoint
 10
-6380.381490481037
 20
4697.753046383293
 30
0.0
  0
ENDBLK
  5
B0CA
330
B0BD
100
AcDbEntity
  8
0
 48
0.5
100
AcDbBlockEnd
  0
BLOCK
  5
B0DE
330
B0D2
100
AcDbEntity
  8
0
 48
0.5
100
AcDbBlockBegin
  2
*D28
 70
     1
 10
0.0
 20
0.0
 30
0.0
  3
*D28
  1

  0
LINE
  5
D849
330
B0D2
100
AcDbEntity
  8
01-寸法線
 62
     4
440
 16777216
 48
0.5
370
     9
100
AcDbLine
 10
-6690.381490481037
 20
4132.753046383292
 30
0.0
 11
-6690.381490481037
 21
3932.753046383293
 31
0.0
  0
LINE
  5
D84A
330
B0D2
100
AcDbEntity
  8
01-寸法線
 62
     4
440
 16777216
 48
0.5
370
     9
100
AcDbLine
 10
-6695.381490481037
 20
4132.753046383292
 30
0.0
 11
-6695.381490481037
 21
3932.753046383293
 31
0.0
  0
LINE
  5
D84B
330
B0D2
100
AcDbEntity
  8
01-寸法線
 62
     4
440
 16777216
 48
0.5
370
     9
100
AcDbLine
 10
-6660.381490481038
 20
3947.753046383293
 30
0.0
 11
-6630.381490481036
 21
3947.753046383293
 31
0.0
  0
LINE
  5
D84C
330
B0D2
100
AcDbEntity
  8
01-寸法線
 62
     4
440
 16777216
 48
0.5
370
     9
100
AcDbLine
 10
-6725.381490481037
 20
3947.753046383293
 30
0.0
 11
-6793.01482381437
 21
3947.753046383293
 31
0.0
  0
LINE
  5
D84D
330
B0D2
100
AcDbEntity
  8
01-寸法線
 62
     4
440
 16777216
 48
0.5
370
     9
100
AcDbLine
 10
-6690.381490481037
 20
3947.753046383293
 30
0.0
 11
-6695.381490481037
 21
3947.753046383293
 31
0.0
  0
INSERT
  5
D84E
330
B0D2
100
AcDbEntity
  8
01-寸法線
 62
     4
440
 16777216
 48
0.5
370
     9
100
AcDbBlockReference
  2
_OPEN
 10
-6690.381490481037
 20
3947.753046383293
 30
0.0
 41
30.0
 42
30.0
 43
30.0
 50
180.0
  0
INSERT
  5
D84F
330
B0D2
100
AcDbEntity
  8
01-寸法線
 62
     4
440
 16777216
 48
0.5
370
     9
100
AcDbBlockReference
  2
_OPEN
 10
-6695.381490481037
 20
3947.753046383293
 30
0.0
 41
30.0
 42
30.0
 43
30.0
  0
MTEXT
  5
D850
330
B0D2
100
AcDbEntity
  8
01-寸法線
 62
     4
440
 16777216
 48
0.5
100
AcDbMText
 10
-6774.198157147704
 20
3981.503046383293
 30
0.0
 40
52.5
 41
0.0
 71
     5
 72
     1
  1
\A1;5
  7
寸法ｽﾀｲﾙ
 73
     1
 44
1.0
  0
POINT
  5
D851
330
B0D2
100
AcDbEntity
  8
DEFPOINTS
 62
     0
440
 16777216
 48
0.5
100
AcDbPoint
 10
-6690.381490481037
 20
4147.753046383292
 30
0.0
  0
POINT
  5
D852
330
B0D2
100
AcDbEntity
  8
DEFPOINTS
 62
     0
440
 16777216
 48
0.5
100
AcDbPoint
 10
-6695.381490481037
 20
4147.753046383292
 30
0.0
  0
POINT
  5
D853
330
B0D2
100
AcDbEntity
  8
DEFPOINTS
 62
     0
440
 16777216
 48
0.5
100
AcDbPoint
 10
-6695.381490481037
 20
3947.753046383293
 30
0.0
  0
ENDBLK
  5
B0DF
330
B0D2
100
AcDbEntity
  8
0
 48
0.5
100
AcDbBlockEnd
  0
BLOCK
  5
B0ED
330
B0E1
100
AcDbEntity
  8
0
 48
0.5
100
AcDbBlockBegin
  2
*D29
 70
     1
 10
0.0
 20
0.0
 30
0.0
  3
*D29
  1

  0
LINE
  5
D854
330
B0E1
100
AcDbEntity
  8
01-寸法線
 62
     4
440
 16777216
 48
0.5
370
     9
100
AcDbLine
 10
-6380.381490481037
 20
4282.753046383294
 30
0.0
 11
-6380.381490481037
 21
3932.753046383293
 31
0.0
  0
LINE
  5
D855
330
B0E1
100
AcDbEntity
  8
01-寸法線
 62
     4
440
 16777216
 48
0.5
370
     9
100
AcDbLine
 10
-6365.381490481037
 20
4132.753046383292
 30
0.0
 11
-6365.381490481037
 21
3932.753046383293
 31
0.0
  0
LINE
  5
D856
330
B0E1
100
AcDbEntity
  8
01-寸法線
 62
     4
440
 16777216
 48
0.5
370
     9
100
AcDbLine
 10
-6410.381490481038
 20
3947.753046383293
 30
0.0
 11
-6440.381490481037
 21
3947.753046383293
 31
0.0
  0
LINE
  5
D857
330
B0E1
100
AcDbEntity
  8
01-寸法線
 62
     4
440
 16777216
 48
0.5
370
     9
100
AcDbLine
 10
-6335.381490481037
 20
3947.753046383293
 30
0.0
 11
-6241.148157147703
 21
3947.753046383293
 31
0.0
  0
LINE
  5
D858
330
B0E1
100
AcDbEntity
  8
01-寸法線
 62
     4
440
 16777216
 48
0.5
370
     9
100
AcDbLine
 10
-6380.381490481037
 20
3947.753046383293
 30
0.0
 11
-6365.381490481037
 21
3947.753046383293
 31
0.0
  0
INSERT
  5
D859
330
B0E1
100
AcDbEntity
  8
01-寸法線
 62
     4
440
 16777216
 48
0.5
370
     9
100
AcDbBlockReference
  2
_OPEN
 10
-6380.381490481037
 20
3947.753046383293
 30
0.0
 41
30.0
 42
30.0
 43
30.0
  0
INSERT
  5
D85A
330
B0E1
100
AcDbEntity
  8
01-寸法線
 62
     4
440
 16777216
 48
0.5
370
     9
100
AcDbBlockReference
  2
_OPEN
 10
-6365.381490481037
 20
3947.753046383293
 30
0.0
 41
30.0
 42
30.0
 43
30.0
 50
180.0
  0
MTEXT
  5
D85B
330
B0E1
100
AcDbEntity
  8
01-寸法線
 62
     4
440
 16777216
 48
0.5
100
AcDbMText
 10
-6273.26482381437
 20
3981.503046383293
 30
0.0
 40
52.5
 41
0.0
 71
     5
 72
     1
  1
\A1;15
  7
寸法ｽﾀｲﾙ
 73
     1
 44
1.0
  0
POINT
  5
D85C
330
B0E1
100
AcDbEntity
  8
DEFPOINTS
 62
     0
440
 16777216
 48
0.5
100
AcDbPoint
 10
-6380.381490481037
 20
4297.753046383293
 30
0.0
  0
POINT
  5
D85D
330
B0E1
100
AcDbEntity
  8
DEFPOINTS
 62
     0
440
 16777216
 48
0.5
100
AcDbPoint
 10
-6365.381490481037
 20
4147.753046383292
 30
0.0
  0
POINT
  5
D85E
330
B0E1
100
AcDbEntity
  8
DEFPOINTS
 62
     0
440
 16777216
 48
0.5
100
AcDbPoint
 10
-6365.381490481037
 20
3947.753046383293
 30
0.0
  0
ENDBLK
  5
B0EE
330
B0E1
100
AcDbEntity
  8
0
 48
0.5
100
AcDbBlockEnd
  0
BLOCK
  5
B0FB
330
B0F1
100
AcDbEntity
  8
0
 48
0.5
100
AcDbBlockBegin
  2
*D30
 70
     1
 10
0.0
 20
0.0
 30
0.0
  3
*D30
  1

  0
LINE
  5
D85F
330
B0F1
100
AcDbEntity
  8
01-寸法線
 62
     4
440
 16777216
 48
0.5
370
     9
100
AcDbLine
 10
-6690.381490481037
 20
4132.753046383292
 30
0.0
 11
-6690.381490481037
 21
3932.753046383293
 31
0.0
  0
LINE
  5
D860
330
B0F1
100
AcDbEntity
  8
01-寸法線
 62
     4
440
 16777216
 48
0.5
370
     9
100
AcDbLine
 10
-6380.381490481037
 20
4132.753046383292
 30
0.0
 11
-6380.381490481037
 21
3932.753046383293
 31
0.0
  0
LINE
  5
D861
330
B0F1
100
AcDbEntity
  8
01-寸法線
 62
     4
440
 16777216
 48
0.5
370
     9
100
AcDbLine
 10
-6660.381490481038
 20
3947.753046383293
 30
0.0
 11
-6410.381490481038
 21
3947.753046383293
 31
0.0
  0
INSERT
  5
D862
330
B0F1
100
AcDbEntity
  8
01-寸法線
 62
     4
440
 16777216
 48
0.5
370
     9
100
AcDbBlockReference
  2
_OPEN
 10
-6690.381490481037
 20
3947.753046383293
 30
0.0
 41
30.0
 42
30.0
 43
30.0
 50
180.0
  0
INSERT
  5
D863
330
B0F1
100
AcDbEntity
  8
01-寸法線
 62
     4
440
 16777216
 48
0.5
370
     9
100
AcDbBlockReference
  2
_OPEN
 10
-6380.381490481037
 20
3947.753046383293
 30
0.0
 41
30.0
 42
30.0
 43
30.0
  0
MTEXT
  5
D864
330
B0F1
100
AcDbEntity
  8
01-寸法線
 62
     4
440
 16777216
 48
0.5
100
AcDbMText
 10
-6535.381490481038
 20
3981.503046383293
 30
0.0
 40
52.5
 41
0.0
 71
     5
 72
     1
  1
\A1;310
  7
寸法ｽﾀｲﾙ
 73
     1
 44
1.0
  0
POINT
  5
D865
330
B0F1
100
AcDbEntity
  8
DEFPOINTS
 62
     0
440
 16777216
 48
0.5
100
AcDbPoint
 10
-6690.381490481037
 20
4147.753046383292
 30
0.0
  0
POINT
  5
D866
330
B0F1
100
AcDbEntity
  8
DEFPOINTS
 62
     0
440
 16777216
 48
0.5
100
AcDbPoint
 10
-6380.381490481037
 20
4147.753046383292
 30
0.0
  0
POINT
  5
D867
330
B0F1
100
AcDbEntity
  8
DEFPOINTS
 62
     0
440
 16777216
 48
0.5
100
AcDbPoint
 10
-6380.381490481037
 20
3947.753046383293
 30
0.0
  0
ENDBLK
  5
B0FC
330
B0F1
100
AcDbEntity
  8
0
 48
0.5
100
AcDbBlockEnd
  0
BLOCK
  5
B108
330
B0FE
100
AcDbEntity
  8
0
 48
0.5
100
AcDbBlockBegin
  2
*D31
 70
     1
 10
0.0
 20
0.0
 30
0.0
  3
*D31
  1

  0
LINE
  5
D868
330
B0FE
100
AcDbEntity
  8
01-寸法線
 62
     4
440
 16777216
 48
0.5
370
     9
100
AcDbLine
 10
-6695.381490481037
 20
3932.753046383293
 30
0.0
 11
-6695.381490481037
 21
3832.753046383293
 31
0.0
  0
LINE
  5
D869
330
B0FE
100
AcDbEntity
  8
01-寸法線
 62
     4
440
 16777216
 48
0.5
370
     9
100
AcDbLine
 10
-6365.381490481037
 20
3932.753046383293
 30
0.0
 11
-6365.381490481037
 21
3832.753046383293
 31
0.0
  0
LINE
  5
D86A
330
B0FE
100
AcDbEntity
  8
01-寸法線
 62
     4
440
 16777216
 48
0.5
370
     9
100
AcDbLine
 10
-6665.381490481038
 20
3847.753046383293
 30
0.0
 11
-6395.381490481037
 21
3847.753046383293
 31
0.0
  0
INSERT
  5
D86B
330
B0FE
100
AcDbEntity
  8
01-寸法線
 62
     4
440
 16777216
 48
0.5
370
     9
100
AcDbBlockReference
  2
_OPEN
 10
-6695.381490481037
 20
3847.753046383293
 30
0.0
 41
30.0
 42
30.0
 43
30.0
 50
180.0
  0
INSERT
  5
D86C
330
B0FE
100
AcDbEntity
  8
01-寸法線
 62
     4
440
 16777216
 48
0.5
370
     9
100
AcDbBlockReference
  2
_OPEN
 10
-6365.381490481037
 20
3847.753046383293
 30
0.0
 41
30.0
 42
30.0
 43
30.0
  0
MTEXT
  5
D86D
330
B0FE
100
AcDbEntity
  8
01-寸法線
 62
     4
440
 16777216
 48
0.5
100
AcDbMText
 10
-6530.381490481037
 20
3881.503046383293
 30
0.0
 40
52.5
 41
0.0
 71
     5
 72
     1
  1
\A1;330
  7
寸法ｽﾀｲﾙ
 73
     1
 44
1.0
  0
POINT
  5
D86E
330
B0FE
100
AcDbEntity
  8
DEFPOINTS
 62
     0
440
 16777216
 48
0.5
100
AcDbPoint
 10
-6695.381490481037
 20
3947.753046383293
 30
0.0
  0
POINT
  5
D86F
330
B0FE
100
AcDbEntity
  8
DEFPOINTS
 62
     0
440
 16777216
 48
0.5
100
AcDbPoint
 10
-6365.381490481037
 20
3947.753046383293
 30
0.0
  0
POINT
  5
D870
330
B0FE
100
AcDbEntity
  8
DEFPOINTS
 62
     0
440
 16777216
 48
0.5
100
AcDbPoint
 10
-6365.381490481037
 20
3847.753046383293
 30
0.0
  0
ENDBLK
  5
B109
330
B0FE
100
AcDbEntity
  8
0
 48
0.5
100
AcDbBlockEnd
  0
BLOCK
  5
C521
330
C515
100
AcDbEntity
  8
0
 48
0.5
100
AcDbBlockBegin
  2
*D32
 70
     1
 10
0.0
 20
0.0
 30
0.0
  3
*D32
  1

  0
LINE
  5
D871
330
C515
100
AcDbEntity
  8
01-寸法線
 62
     4
440
 16777216
 48
0.5
370
     9
100
AcDbLine
 10
-1515.381490481037
 20
3517.753046383293
 30
0.0
 11
-1315.381490481037
 21
3517.753046383293
 31
0.0
  0
LINE
  5
D872
330
C515
100
AcDbEntity
  8
01-寸法線
 62
     4
440
 16777216
 48
0.5
370
     9
100
AcDbLine
 10
-1515.381490481037
 20
3522.753046383292
 30
0.0
 11
-1315.381490481037
 21
3522.753046383292
 31
0.0
  0
LINE
  5
D873
330
C515
100
AcDbEntity
  8
01-寸法線
 62
     4
440
 16777216
 48
0.5
370
     9
100
AcDbLine
 10
-1330.381490481037
 20
3487.753046383293
 30
0.0
 11
-1330.381490481037
 21
3457.753046383292
 31
0.0
  0
LINE
  5
D874
330
C515
100
AcDbEntity
  8
01-寸法線
 62
     4
440
 16777216
 48
0.5
370
     9
100
AcDbLine
 10
-1330.381490481037
 20
3552.753046383293
 30
0.0
 11
-1330.381490481037
 21
3620.386379716626
 31
0.0
  0
LINE
  5
D875
330
C515
100
AcDbEntity
  8
01-寸法線
 62
     4
440
 16777216
 48
0.5
370
     9
100
AcDbLine
 10
-1330.381490481037
 20
3517.753046383293
 30
0.0
 11
-1330.381490481037
 21
3522.753046383292
 31
0.0
  0
INSERT
  5
D876
330
C515
100
AcDbEntity
  8
01-寸法線
 62
     4
440
 16777216
 48
0.5
370
     9
100
AcDbBlockReference
  2
_OPEN
 10
-1330.381490481037
 20
3517.753046383293
 30
0.0
 41
30.0
 42
30.0
 43
30.0
 50
90.0
  0
INSERT
  5
D877
330
C515
100
AcDbEntity
  8
01-寸法線
 62
     4
440
 16777216
 48
0.5
370
     9
100
AcDbBlockReference
  2
_OPEN
 10
-1330.381490481037
 20
3522.753046383292
 30
0.0
 41
30.0
 42
30.0
 43
30.0
 50
270.0
  0
MTEXT
  5
D878
330
C515
100
AcDbEntity
  8
01-寸法線
 62
     4
440
 16777216
 48
0.5
100
AcDbMText
 10
-1364.131490481037
 20
3601.569713049958
 30
0.0
 40
52.5
 41
0.0
 71
     5
 72
     1
  1
\A1;5
  7
寸法ｽﾀｲﾙ
 11
0.0000000000000001
 21
1.0
 31
0.0
 73
     1
 44
1.0
  0
POINT
  5
D879
330
C515
100
AcDbEntity
  8
DEFPOINTS
 62
     0
440
 16777216
 48
0.5
100
AcDbPoint
 10
-1530.381490481037
 20
3517.753046383293
 30
0.0
  0
POINT
  5
D87A
330
C515
100
AcDbEntity
  8
DEFPOINTS
 62
     0
440
 16777216
 48
0.5
100
AcDbPoint
 10
-1530.381490481037
 20
3522.753046383292
 30
0.0
  0
POINT
  5
D87B
330
C515
100
AcDbEntity
  8
DEFPOINTS
 62
     0
440
 16777216
 48
0.5
100
AcDbPoint
 10
-1330.381490481037
 20
3522.753046383292
 30
0.0
  0
ENDBLK
  5
C522
330
C515
100
AcDbEntity
  8
0
 48
0.5
100
AcDbBlockEnd
  0
BLOCK
  5
D8CE
330
D8C2
100
AcDbEntity
  8
0
 48
0.5
100
AcDbBlockBegin
  2
*D33
 70
     1
 10
0.0
 20
0.0
 30
0.0
  3
*D33
  1

  0
LINE
  5
D8C3
330
D8C2
100
AcDbEntity
  8
01-寸法線
 62
     4
440
 16777216
 48
0.5
370
     9
100
AcDbLine
 10
-3150.381490481036
 20
4297.753046383292
 30
0.0
 11
-2950.381490481036
 21
4297.753046383292
 31
0.0
  0
LINE
  5
D8C4
330
D8C2
100
AcDbEntity
  8
01-寸法線
 62
     4
440
 16777216
 48
0.5
370
     9
100
AcDbLine
 10
-3150.381490481036
 20
4267.753046383293
 30
0.0
 11
-2950.381490481036
 21
4267.753046383293
 31
0.0
  0
LINE
  5
D8C5
330
D8C2
100
AcDbEntity
  8
01-寸法線
 62
     4
440
 16777216
 48
0.5
370
     9
100
AcDbLine
 10
-2965.381490481036
 20
4327.753046383292
 30
0.0
 11
-2965.381490481036
 21
4357.753046383292
 31
0.0
  0
LINE
  5
D8C6
330
D8C2
100
AcDbEntity
  8
01-寸法線
 62
     4
440
 16777216
 48
0.5
370
     9
100
AcDbLine
 10
-2965.381490481036
 20
4237.753046383294
 30
0.0
 11
-2965.381490481036
 21
4139.553046383293
 31
0.0
  0
LINE
  5
D8C7
330
D8C2
100
AcDbEntity
  8
01-寸法線
 62
     4
440
 16777216
 48
0.5
370
     9
100
AcDbLine
 10
-2965.381490481036
 20
4297.753046383292
 30
0.0
 11
-2965.381490481036
 21
4267.753046383293
 31
0.0
  0
INSERT
  5
D8C8
330
D8C2
100
AcDbEntity
  8
01-寸法線
 62
     4
440
 16777216
 48
0.5
370
     9
100
AcDbBlockReference
  2
_OPEN
 10
-2965.381490481036
 20
4297.753046383292
 30
0.0
 41
30.0
 42
30.0
 43
30.0
 50
270.0
  0
INSERT
  5
D8C9
330
D8C2
100
AcDbEntity
  8
01-寸法線
 62
     4
440
 16777216
 48
0.5
370
     9
100
AcDbBlockReference
  2
_OPEN
 10
-2965.381490481036
 20
4267.753046383293
 30
0.0
 41
30.0
 42
30.0
 43
30.0
 50
90.0
  0
MTEXT
  5
D8CA
330
D8C2
100
AcDbEntity
  8
01-寸法線
 62
     4
440
 16777216
 48
0.5
100
AcDbMText
 10
-2999.131490481037
 20
4173.653046383292
 30
0.0
 40
52.5
 41
0.0
 71
     5
 72
     1
  1
\A1;30
  7
寸法ｽﾀｲﾙ
 11
0.0000000000000001
 21
1.0
 31
0.0
 73
     1
 44
1.0
  0
POINT
  5
D8CB
330
D8C2
100
AcDbEntity
  8
DEFPOINTS
 62
     0
440
 16777216
 48
0.5
100
AcDbPoint
 10
-3165.381490481036
 20
4297.753046383292
 30
0.0
  0
POINT
  5
D8CC
330
D8C2
100
AcDbEntity
  8
DEFPOINTS
 62
     0
440
 16777216
 48
0.5
100
AcDbPoint
 10
-3165.381490481036
 20
4267.753046383293
 30
0.0
  0
POINT
  5
D8CD
330
D8C2
100
AcDbEntity
  8
DEFPOINTS
 62
     0
440
 16777216
 48
0.5
100
AcDbPoint
 10
-2965.381490481036
 20
4267.753046383293
 30
0.0
  0
ENDBLK
  5
D8CF
330
D8C2
100
AcDbEntity
  8
0
 48
0.5
100
AcDbBlockEnd
  0
ENDSEC
  0
SECTION
  2
ENTITIES
  0
LINE
  5
8635
330
2
100
AcDbEntity
  8
DEFPOINTS
 48
0.5
100
AcDbLine
 10
-7865.381490481038
 20
189.7530463832918
 30
0.0
 11
114.618509518963
 21
189.7530463832918
 31
0.0
  0
LINE
  5
8636
330
2
100
AcDbEntity
  8
DEFPOINTS
 48
0.5
100
AcDbLine
 10
-7865.381490481038
 20
189.7530463832918
 30
0.0
 11
-7865.381490481038
 21
5832.753046383293
 31
0.0
  0
LINE
  5
8637
330
2
100
AcDbEntity
  8
DEFPOINTS
 48
0.5
100
AcDbLine
 10
-7865.381490481038
 20
5832.753046383292
 30
0.0
 11
114.6185095189636
 21
5832.753046383292
 31
0.0
  0
LINE
  5
863D
330
2
100
AcDbEntity
  8
11-外枠線
 48
0.5
100
AcDbLine
 10
-7580.381490481037
 20
5547.753046383292
 30
0.0
 11
-170.3814904810364
 21
5547.753046383292
 31
0.0
  0
LINE
  5
863E
330
2
100
AcDbEntity
  8
11-外枠線
 48
0.5
100
AcDbLine
 10
-170.3814904810364
 20
5547.753046383292
 30
0.0
 11
-170.3814904810369
 21
379.7530463832918
 31
0.0
  0
LINE
  5
863F
330
2
100
AcDbEntity
  8
11-外枠線
 48
0.5
100
AcDbLine
 10
-170.3814904810369
 20
379.7530463832918
 30
0.0
 11
-7580.381490481037
 21
379.7530463832918
 31
0.0
  0
LINE
  5
8640
330
2
100
AcDbEntity
  8
11-外枠線
 48
0.5
100
AcDbLine
 10
-7580.381490481037
 20
379.7530463832918
 30
0.0
 11
-7580.381490481037
 21
5547.753046383292
 31
0.0
  0
TEXT
  5
8713
330
2
100
AcDbEntity
  8
09-下線
100
AcDbText
 10
-7280.381490481037
 20
5264.210189240435
 30
0.0
 40
80.0
  1
%%Uベース付中央分離帯ブロック－Ｂ(外側防草タイプ)
  7
ｵﾘｼﾞﾅﾙｽﾀｲﾙ
 11
-7280.381490481037
 21
5247.753046383292
 31
0.0
100
AcDbText
 73
     1
  0
LINE
  5
8C1B
330
2
100
AcDbEntity
  8
03-隠れ線
 48
0.5
100
AcDbLine
 10
-3170.381490481036
 20
4277.753046383291
 30
0.0
 11
-3165.381490481036
 21
4272.753046383291
 31
0.0
  0
LINE
  5
8C1E
330
2
100
AcDbEntity
  8
02-外形線
 48
0.5
100
AcDbLine
 10
-3165.381490481036
 20
4472.753046383291
 30
0.0
 11
-3165.381490481036
 21
4147.753046383292
 31
0.0
  0
LINE
  5
8C1F
330
2
100
AcDbEntity
  8
02-外形線
 48
0.5
100
AcDbLine
 10
-3170.381490481035
 20
4497.753046383291
 30
0.0
 11
-5165.381490481036
 21
4497.753046383292
 31
0.0
  0
LINE
  5
8C20
330
2
100
AcDbEntity
  8
02-外形線
 48
0.5
100
AcDbLine
 10
-5165.381490481035
 20
4497.753046383292
 30
0.0
 11
-5165.381490481036
 21
4147.753046383292
 31
0.0
  0
LINE
  5
8C21
330
2
100
AcDbEntity
  8
02-外形線
 48
0.5
100
AcDbLine
 10
-5165.381490481036
 20
4147.753046383292
 30
0.0
 11
-3165.381490481036
 21
4147.753046383292
 31
0.0
  0
CIRCLE
  5
8C2C
330
2
100
AcDbEntity
  8
02-外形線
 48
0.5
100
AcDbCircle
 10
-5090.381490481036
 20
4207.753046383292
 30
0.0
 40
8.5
  0
CIRCLE
  5
8C2D
330
2
100
AcDbEntity
  8
03-隠れ線
 48
0.5
100
AcDbCircle
 10
-5090.381490481036
 20
4207.753046383292
 30
0.0
 40
14.0
  0
CIRCLE
  5
8C2E
330
2
100
AcDbEntity
  8
03-隠れ線
 48
0.5
100
AcDbCircle
 10
-3240.381490481036
 20
4207.753046383292
 30
0.0
 40
14.0
  0
CIRCLE
  5
8C2F
330
2
100
AcDbEntity
  8
02-外形線
 48
0.5
100
AcDbCircle
 10
-3240.381490481036
 20
4207.753046383292
 30
0.0
 40
8.5
  0
DIMENSION
  5
8CA5
330
2
100
AcDbEntity
  8
01-寸法線
 48
0.5
100
AcDbDimension
  2
*D3
 10
-3165.381490481036
 20
3847.753046383292
 30
0.0
 11
-4165.381490481036
 21
3881.503046383292
 31
0.0
 70
    32
 71
     5
 42
2000.0
  3
スタイル15
100
AcDbAlignedDimension
 13
-5165.381490481036
 23
4147.753046383292
 33
0.0
 14
-3165.381490481036
 24
4147.753046383292
 34
0.0
100
AcDbRotatedDimension
  0
LINE
  5
8CCB
330
2
100
AcDbEntity
  8
01-寸法線
 48
0.5
100
AcDbLine
 10
-5086.131490481037
 20
4215.114262315458
 30
0.0
 11
-4692.009804740193
 21
4897.753046383292
 31
0.0
  0
LINE
  5
8CCD
330
2
100
AcDbEntity
  8
01-寸法線
 48
0.5
100
AcDbLine
 10
-4692.009804740193
 20
4897.753046383292
 30
0.0
 11
-4062.009804740192
 21
4897.753046383293
 31
0.0
  0
TEXT
  5
8CCE
330
2
100
AcDbEntity
  8
08-下線
100
AcDbText
 10
-4665.009804740193
 20
4908.553046383293
 30
0.0
 40
52.5
  1
連結用ｲﾝｻｰﾄ M12
  7
ｵﾘｼﾞﾅﾙｽﾀｲﾙ
 72
     4
 11
-4377.009804740192
 21
4935.703046383292
 31
0.0
100
AcDbText
  0
TEXT
  5
8CD5
330
2
100
AcDbEntity
  8
08-下線
100
AcDbText
 10
-4530.609804740193
 20
4833.103046383293
 30
0.0
 40
52.5
  1
(２箇所)
  7
ｵﾘｼﾞﾅﾙｽﾀｲﾙ
 72
     4
 11
-4377.009804740192
 21
4859.803046383293
 31
0.0
100
AcDbText
  0
INSERT
  5
8CF9
330
2
100
AcDbEntity
  8
01-寸法線
 62
     4
 48
0.5
370
    13
100
AcDbBlockReference
  2
_OPEN
 10
-5086.131490481037
 20
4215.114262315458
 30
0.0
 41
30.0
 42
30.0
 43
30.0
 50
239.9999999999992
  0
LINE
  5
8DEA
102
{ACAD_REACTORS
330
8F84
102
}
330
2
100
AcDbEntity
  8
02-外形線
 48
0.5
100
AcDbLine
 10
-5615.381490481037
 20
2847.753046383292
 30
0.0
 11
-5015.381490481036
 21
2847.753046383292
 31
0.0
  0
LINE
  5
8DEC
330
2
100
AcDbEntity
  8
06-中心線
 48
0.5
100
AcDbLine
 10
-5615.381490481037
 20
2897.753046383292
 30
0.0
 11
-5615.381490481037
 21
2497.753046383293
 31
0.0
  0
LINE
  5
8DED
330
2
100
AcDbEntity
  8
06-中心線
 48
0.5
100
AcDbLine
 10
-5015.381490481036
 20
2897.753046383292
 30
0.0
 11
-5015.381490481036
 21
2497.753046383292
 31
0.0
  0
LINE
  5
8DEE
330
2
100
AcDbEntity
  8
06-中心線
 48
0.5
100
AcDbLine
 10
-5665.381490481037
 20
2547.753046383292
 30
0.0
 11
-4965.381490481036
 21
2547.753046383292
 31
0.0
  0
LINE
  5
8DFD
102
{ACAD_REACTORS
330
8F84
102
}
330
2
100
AcDbEntity
  8
02-外形線
 48
0.5
100
AcDbLine
 10
-5315.381490481037
 20
2847.753046383292
 30
0.0
 11
-5315.381490481037
 21
2547.753046383292
 31
0.0
  0
LINE
  5
8DFE
102
{ACAD_REACTORS
330
8F84
102
}
330
2
100
AcDbEntity
  8
02-外形線
 48
0.5
100
AcDbLine
 10
-5277.881490481036
 20
2847.753046383292
 30
0.0
 11
-5277.881490481036
 21
2697.753046383292
 31
0.0
  0
LINE
  5
8DFF
102
{ACAD_REACTORS
330
8F84
102
}
330
2
100
AcDbEntity
  8
02-外形線
 48
0.5
100
AcDbLine
 10
-5277.881490481036
 20
2697.753046383292
 30
0.0
 11
-5315.381490481037
 21
2660.253046383292
 31
0.0
  0
LINE
  5
8F39
330
2
100
AcDbEntity
  8
01-寸法線
 48
0.5
100
AcDbLine
 10
-5296.631490481036
 20
3047.753046383292
 30
0.0
 11
-5296.631490481036
 21
2847.753046383292
 31
0.0
  0
TEXT
  5
8F3A
330
2
100
AcDbEntity
  8
08-下線
100
AcDbText
 10
-5552.631490481036
 20
3059.603046383292
 30
0.0
 40
52.5
  1
ｼｰﾙ材
  7
ｵﾘｼﾞﾅﾙｽﾀｲﾙ
 72
     4
 11
-5456.631490481036
 21
3085.703046383292
 31
0.0
100
AcDbText
  0
LINE
  5
8F3B
330
2
100
AcDbEntity
  8
01-寸法線
 48
0.5
100
AcDbLine
 10
-5616.631490481037
 20
3047.753046383292
 30
0.0
 11
-5296.631490481036
 21
3047.753046383292
 31
0.0
  0
TEXT
  5
8F3C
330
2
100
AcDbEntity
  8
08-下線
100
AcDbText
 10
-5591.031490481037
 20
2982.203046383293
 30
0.0
 40
52.5
  1
(ｔ=17)
  7
ｵﾘｼﾞﾅﾙｽﾀｲﾙ
 72
     4
 11
-5456.631490481036
 21
3009.803046383292
 31
0.0
100
AcDbText
  0
INSERT
  5
8F41
330
2
100
AcDbEntity
  8
01-寸法線
 62
     4
 48
0.5
370
    13
100
AcDbBlockReference
  2
_OPEN
 10
-5296.631490481036
 20
2847.753046383292
 30
0.0
 41
30.0
 42
30.0
 43
30.0
 50
269.9999999999993
  0
HATCH
  5
8F84
330
2
100
AcDbEntity
  8
13-ﾊｯﾁ線
 48
0.5
100
AcDbHatch
 10
0.0
 20
0.0
 30
0.0
210
0.0
220
0.0
230
1.0
  2
ANSI37
 70
     0
 71
     1
 91
        1
 92
        7
 72
     0
 73
     1
 93
        4
 10
-5315.381490481037
 20
2847.753046383292
 10
-5315.381490481037
 20
2660.253046383293
 10
-5277.881490481036
 20
2697.753046383292
 10
-5277.881490481036
 20
2847.753046383292
 97
        4
330
8DEA
330
8DFD
330
8DFF
330
8DFE
 75
     0
 76
     1
 52
0.0
 41
300.0
 77
     0
 78
     2
 53
45.0
 43
-713.3224733528277
 44
665.0184799818835
 45
-26.51650429449553
 46
26.51650429449553
 79
     0
 53
135.0
 43
-713.3224733528277
 44
665.0184799818835
 45
-26.51650429449553
 46
-26.51650429449553
 79
     0
 47
1.66931800700684
 98
        1
 10
-5290.262874234612
 20
2624.525519756726
  0
TEXT
  5
8F86
330
2
100
AcDbEntity
  8
08-下線
100
AcDbText
 10
-5600.63863333818
 20
3336.124474954721
 30
0.0
 40
65.0
  1
%%U接合部詳細図
  7
ｵﾘｼﾞﾅﾙｽﾀｲﾙ
 72
     1
 11
-5315.381490481037
 21
3322.753046383292
 31
0.0
100
AcDbText
 73
     1
  0
TEXT
  5
8F88
330
2
100
AcDbEntity
  8
08-下線
100
AcDbText
 10
-5700.381490481037
 20
1646.503046383292
 30
0.0
 40
52.5
  1
製品ﾎﾞﾘｭｰﾑ
  7
ｵﾘｼﾞﾅﾙｽﾀｲﾙ
 11
-5700.381490481037
 21
1672.753046383292
 31
0.0
100
AcDbText
 73
     2
  0
TEXT
  5
8F89
330
2
100
AcDbEntity
  8
08-下線
100
AcDbText
 10
-5700.381490481037
 20
1446.503046383291
 30
0.0
 40
52.5
  1
製品重量
  7
ｵﾘｼﾞﾅﾙｽﾀｲﾙ
 11
-5700.381490481037
 21
1472.753046383292
 31
0.0
100
AcDbText
 73
     2
  0
TEXT
  5
8F8A
330
2
100
AcDbEntity
  8
08-下線
100
AcDbText
 10
-5242.381490481037
 20
1646.503046383292
 30
0.0
 40
52.5
  1
0.174
  7
ｵﾘｼﾞﾅﾙｽﾀｲﾙ
 72
     2
 11
-5050.381490481036
 21
1672.753046383292
 31
0.0
100
AcDbText
 73
     2
  0
TEXT
  5
8F8B
330
2
100
AcDbEntity
  8
08-下線
100
AcDbText
 10
-4961.981490481037
 20
1674.003046383292
 30
0.0
 40
25.0
  1
3
  7
ｵﾘｼﾞﾅﾙｽﾀｲﾙ
 11
-4961.981490481037
 21
1699.003046383292
 31
0.0
100
AcDbText
 73
     3
  0
TEXT
  5
8F8C
330
2
100
AcDbEntity
  8
08-下線
100
AcDbText
 10
-5000.381490481037
 20
1646.503046383292
 30
0.0
 40
52.5
  1
m
  7
ｵﾘｼﾞﾅﾙｽﾀｲﾙ
 11
-5000.381490481037
 21
1672.753046383292
 31
0.0
100
AcDbText
 73
     2
  0
LINE
  5
8F8E
330
2
100
AcDbEntity
  8
10-罫線
 48
0.5
100
AcDbLine
 10
-5765.381490481036
 20
1772.753046383291
 30
0.0
 11
-4865.381490481037
 21
1772.753046383291
 31
0.0
  0
LINE
  5
8F91
330
2
100
AcDbEntity
  8
10-罫線
 48
0.5
100
AcDbLine
 10
-5765.381490481036
 20
1372.753046383292
 30
0.0
 11
-4865.381490481037
 21
1372.753046383292
 31
0.0
  0
LINE
  5
8F93
330
2
100
AcDbEntity
  8
10-罫線
 48
0.5
100
AcDbLine
 10
-5765.381490481036
 20
1772.753046383291
 30
0.0
 11
-5765.381490481036
 21
1372.753046383292
 31
0.0
  0
TEXT
  5
8F95
330
2
100
AcDbEntity
  8
08-下線
100
AcDbText
 10
-5165.581490481037
 20
1446.503046383291
 30
0.0
 40
52.5
  1
417
  7
ｵﾘｼﾞﾅﾙｽﾀｲﾙ
 72
     2
 11
-5050.381490481036
 21
1472.753046383292
 31
0.0
100
AcDbText
 73
     2
  0
TEXT
  5
8F97
330
2
100
AcDbEntity
  8
08-下線
100
AcDbText
 10
-5000.381490481037
 20
1446.503046383291
 30
0.0
 40
52.5
  1
kg
  7
ｵﾘｼﾞﾅﾙｽﾀｲﾙ
 11
-5000.381490481037
 21
1472.753046383292
 31
0.0
100
AcDbText
 73
     2
  0
LINE
  5
8F98
330
2
100
AcDbEntity
  8
10-罫線
 48
0.5
100
AcDbLine
 10
-4865.381490481037
 20
1772.753046383291
 30
0.0
 11
-4865.381490481037
 21
1372.753046383292
 31
0.0
  0
TEXT
  5
8FB3
330
2
100
AcDbEntity
  8
08-下線
100
AcDbText
 10
-4025.638633338179
 20
3336.124474954721
 30
0.0
 40
65.0
  1
%%U連結部詳細図
  7
ｵﾘｼﾞﾅﾙｽﾀｲﾙ
 72
     1
 11
-3740.381490481037
 21
3322.753046383292
 31
0.0
100
AcDbText
 73
     1
  0
CIRCLE
  5
8FC2
330
2
100
AcDbEntity
  8
02-外形線
 48
0.5
100
AcDbCircle
 10
-3965.381490481036
 20
2537.753046383292
 30
0.0
 40
18.0
  0
CIRCLE
  5
8FC3
330
2
100
AcDbEntity
  8
02-外形線
 48
0.5
100
AcDbCircle
 10
-3515.381490481036
 20
2537.753046383292
 30
0.0
 40
18.0
  0
CIRCLE
  5
8FC4
330
2
100
AcDbEntity
  8
02-外形線
 48
0.5
100
AcDbCircle
 10
-3965.381490481036
 20
2537.753046383292
 30
0.0
 40
22.5
  0
ARC
  5
8FC5
330
2
100
AcDbEntity
  8
02-外形線
 48
0.5
100
AcDbCircle
 10
-3492.881490481036
 20
2537.753046383292
 30
0.0
 40
22.5
100
AcDbArc
 50
270.0
 51
90.0
  0
ARC
  5
8FC8
330
2
100
AcDbEntity
  8
02-外形線
 48
0.5
100
AcDbCircle
 10
-3537.881490481036
 20
2537.753046383292
 30
0.0
 40
22.5
100
AcDbArc
 50
90.0
 51
270.0
  0
LINE
  5
8FC9
330
2
100
AcDbEntity
  8
02-外形線
 48
0.5
100
AcDbLine
 10
-3537.881490481036
 20
2560.253046383292
 30
0.0
 11
-3492.881490481036
 21
2560.253046383292
 31
0.0
  0
LINE
  5
8FCA
330
2
100
AcDbEntity
  8
02-外形線
 48
0.5
100
AcDbLine
 10
-3537.881490481036
 20
2515.253046383292
 30
0.0
 11
-3492.881490481036
 21
2515.253046383292
 31
0.0
  0
LINE
  5
8FCB
330
2
100
AcDbEntity
  8
02-外形線
 48
0.5
100
AcDbLine
 10
-4115.381490481036
 20
2597.753046383292
 30
0.0
 11
-3365.381490481036
 21
2597.753046383292
 31
0.0
  0
LINE
  5
8FCC
330
2
100
AcDbEntity
  8
02-外形線
 48
0.5
100
AcDbLine
 10
-3365.381490481036
 20
2597.753046383292
 30
0.0
 11
-3365.381490481036
 21
2477.753046383292
 31
0.0
  0
LINE
  5
8FCD
330
2
100
AcDbEntity
  8
02-外形線
 48
0.5
100
AcDbLine
 10
-3365.381490481036
 20
2477.753046383292
 30
0.0
 11
-4115.381490481036
 21
2477.753046383292
 31
0.0
  0
LINE
  5
8FCE
330
2
100
AcDbEntity
  8
02-外形線
 48
0.5
100
AcDbLine
 10
-4115.381490481036
 20
2477.753046383292
 30
0.0
 11
-4115.381490481036
 21
2597.753046383292
 31
0.0
  0
LINE
  5
8FDE
330
2
100
AcDbEntity
  8
02-外形線
 48
0.5
100
AcDbLine
 10
-4115.381490481036
 20
1643.253046383292
 30
0.0
 11
-4115.381490481036
 21
1629.753046383292
 31
0.0
  0
LINE
  5
8FDF
330
2
100
AcDbEntity
  8
02-外形線
 48
0.5
100
AcDbLine
 10
-4115.381490481036
 20
1643.253046383292
 30
0.0
 11
-3365.381490481038
 21
1643.253046383292
 31
0.0
  0
LINE
  5
8FE0
330
2
100
AcDbEntity
  8
02-外形線
 48
0.5
100
AcDbLine
 10
-3365.381490481038
 20
1643.253046383292
 30
0.0
 11
-3365.381490481038
 21
1629.753046383292
 31
0.0
  0
LINE
  5
8FE1
330
2
100
AcDbEntity
  8
02-外形線
 48
0.5
100
AcDbLine
 10
-3365.381490481038
 20
1629.753046383292
 30
0.0
 11
-4115.381490481036
 21
1629.753046383292
 31
0.0
  0
LINE
  5
8FE2
330
2
100
AcDbEntity
  8
02-外形線
 48
0.5
100
AcDbLine
 10
-4004.381490481037
 20
1643.253046383292
 30
0.0
 11
-4004.381490481037
 21
1650.153046383291
 31
0.0
  0
LINE
  5
8FE3
330
2
100
AcDbEntity
  8
02-外形線
 48
0.5
100
AcDbLine
 10
-4004.381490481037
 20
1650.153046383291
 30
0.0
 11
-3926.381490481038
 21
1650.153046383291
 31
0.0
  0
LINE
  5
8FE4
330
2
100
AcDbEntity
  8
02-外形線
 48
0.5
100
AcDbLine
 10
-3926.381490481038
 20
1650.153046383291
 30
0.0
 11
-3926.381490481038
 21
1643.253046383292
 31
0.0
  0
LINE
  5
8FE5
330
2
100
AcDbEntity
  8
02-外形線
 48
0.5
100
AcDbLine
 10
-3993.881490481038
 20
1650.153046383291
 30
0.0
 11
-3993.881490481038
 21
1674.153046383291
 31
0.0
  0
LINE
  5
8FE6
330
2
100
AcDbEntity
  8
02-外形線
 48
0.5
100
AcDbLine
 10
-3993.881490481038
 20
1674.153046383291
 30
0.0
 11
-3936.881490481038
 21
1674.153046383291
 31
0.0
  0
LINE
  5
8FE7
330
2
100
AcDbEntity
  8
02-外形線
 48
0.5
100
AcDbLine
 10
-3936.881490481038
 20
1674.153046383291
 30
0.0
 11
-3936.881490481038
 21
1650.153046383291
 31
0.0
  0
LINE
  5
8FE8
330
2
100
AcDbEntity
  8
02-外形線
 48
0.5
100
AcDbLine
 10
-3965.381490481038
 20
1650.153046383291
 30
0.0
 11
-3965.381490481038
 21
1674.153046383291
 31
0.0
  0
LINE
  5
8FF5
330
2
100
AcDbEntity
  8
02-外形線
 48
0.5
100
AcDbLine
 10
-3990.881490481038
 20
1629.753046383292
 30
0.0
 11
-3990.881490481038
 21
1521.753046383292
 31
0.0
  0
LINE
  5
8FF6
330
2
100
AcDbEntity
  8
02-外形線
 48
0.5
100
AcDbLine
 10
-3983.381490481038
 20
1629.753046383292
 30
0.0
 11
-3983.381490481038
 21
1554.753046383292
 31
0.0
  0
LINE
  5
8FF7
330
2
100
AcDbEntity
  8
02-外形線
 48
0.5
100
AcDbLine
 10
-3983.381490481038
 20
1554.753046383292
 30
0.0
 11
-3947.381490481038
 21
1554.753046383292
 31
0.0
  0
LINE
  5
8FF8
330
2
100
AcDbEntity
  8
02-外形線
 48
0.5
100
AcDbLine
 10
-3947.381490481038
 20
1554.753046383292
 30
0.0
 11
-3947.381490481038
 21
1629.753046383292
 31
0.0
  0
LINE
  5
8FF9
330
2
100
AcDbEntity
  8
02-外形線
 48
0.5
100
AcDbLine
 10
-3939.881490481037
 20
1629.753046383292
 30
0.0
 11
-3939.881490481037
 21
1521.753046383292
 31
0.0
  0
LINE
  5
8FFA
330
2
100
AcDbEntity
  8
02-外形線
 48
0.5
100
AcDbLine
 10
-3939.881490481037
 20
1521.753046383292
 30
0.0
 11
-3923.381490481038
 21
1521.753046383292
 31
0.0
  0
LINE
  5
8FFB
330
2
100
AcDbEntity
  8
02-外形線
 48
0.5
100
AcDbLine
 10
-3923.381490481038
 20
1521.753046383292
 30
0.0
 11
-3923.381490481038
 21
1509.753046383291
 31
0.0
  0
LINE
  5
8FFC
330
2
100
AcDbEntity
  8
02-外形線
 48
0.5
100
AcDbLine
 10
-3923.381490481038
 20
1509.753046383291
 30
0.0
 11
-4007.381490481037
 21
1509.753046383291
 31
0.0
  0
LINE
  5
8FFD
330
2
100
AcDbEntity
  8
02-外形線
 48
0.5
100
AcDbLine
 10
-4007.381490481037
 20
1509.753046383291
 30
0.0
 11
-4007.381490481037
 21
1521.753046383292
 31
0.0
  0
LINE
  5
8FFE
330
2
100
AcDbEntity
  8
02-外形線
 48
0.5
100
AcDbLine
 10
-4007.381490481037
 20
1521.753046383292
 30
0.0
 11
-3990.881490481038
 21
1521.753046383292
 31
0.0
  0
LINE
  5
8FFF
330
2
100
AcDbEntity
  8
02-外形線
 48
0.5
100
AcDbLine
 10
-3983.381490481038
 20
1575.153046383291
 30
0.0
 11
-3947.381490481038
 21
1575.153046383291
 31
0.0
  0
LINE
  5
901C
330
2
100
AcDbEntity
  8
02-外形線
 48
0.5
100
AcDbLine
 10
-3983.381490481038
 20
1575.153046383291
 30
0.0
 11
-3947.381490481038
 21
1577.403046383291
 31
0.0
  0
LINE
  5
9028
330
2
100
AcDbEntity
  8
02-外形線
 48
0.5
100
AcDbLine
 10
-3983.381490481038
 20
1629.153046383291
 30
0.0
 11
-3973.781490481033
 21
1629.753046383292
 31
0.0
  0
LINE
  5
903A
330
2
100
AcDbEntity
  8
02-外形線
 48
0.5
100
AcDbLine
 10
-3557.381490481037
 20
1521.753046383292
 30
0.0
 11
-3540.881490481036
 21
1521.753046383292
 31
0.0
  0
LINE
  5
903B
330
2
100
AcDbEntity
  8
02-外形線
 48
0.5
100
AcDbLine
 10
-3557.381490481037
 20
1509.753046383291
 30
0.0
 11
-3557.381490481037
 21
1521.753046383292
 31
0.0
  0
LINE
  5
903C
330
2
100
AcDbEntity
  8
02-外形線
 48
0.5
100
AcDbLine
 10
-3473.381490481036
 20
1509.753046383291
 30
0.0
 11
-3557.381490481037
 21
1509.753046383291
 31
0.0
  0
LINE
  5
903D
330
2
100
AcDbEntity
  8
02-外形線
 48
0.5
100
AcDbLine
 10
-3473.381490481036
 20
1521.753046383292
 30
0.0
 11
-3473.381490481036
 21
1509.753046383291
 31
0.0
  0
LINE
  5
903E
330
2
100
AcDbEntity
  8
02-外形線
 48
0.5
100
AcDbLine
 10
-3489.881490481036
 20
1521.753046383292
 30
0.0
 11
-3473.381490481036
 21
1521.753046383292
 31
0.0
  0
LINE
  5
903F
330
2
100
AcDbEntity
  8
02-外形線
 48
0.5
100
AcDbLine
 10
-3489.881490481036
 20
1629.753046383292
 30
0.0
 11
-3489.881490481036
 21
1521.753046383292
 31
0.0
  0
LINE
  5
9043
330
2
100
AcDbEntity
  8
02-外形線
 48
0.5
100
AcDbLine
 10
-3540.881490481036
 20
1629.753046383292
 30
0.0
 11
-3540.881490481036
 21
1521.753046383292
 31
0.0
  0
LINE
  5
9044
330
2
100
AcDbEntity
  8
02-外形線
 48
0.5
100
AcDbLine
 10
-3515.381490481036
 20
1650.153046383291
 30
0.0
 11
-3515.381490481036
 21
1674.153046383291
 31
0.0
  0
LINE
  5
9045
330
2
100
AcDbEntity
  8
02-外形線
 48
0.5
100
AcDbLine
 10
-3486.881490481037
 20
1674.153046383291
 30
0.0
 11
-3486.881490481037
 21
1650.153046383291
 31
0.0
  0
LINE
  5
9046
330
2
100
AcDbEntity
  8
02-外形線
 48
0.5
100
AcDbLine
 10
-3543.881490481036
 20
1674.153046383291
 30
0.0
 11
-3486.881490481037
 21
1674.153046383291
 31
0.0
  0
LINE
  5
9047
330
2
100
AcDbEntity
  8
02-外形線
 48
0.5
100
AcDbLine
 10
-3543.881490481036
 20
1650.153046383291
 30
0.0
 11
-3543.881490481036
 21
1674.153046383291
 31
0.0
  0
LINE
  5
9048
330
2
100
AcDbEntity
  8
02-外形線
 48
0.5
100
AcDbLine
 10
-3476.381490481036
 20
1650.153046383291
 30
0.0
 11
-3476.381490481036
 21
1643.253046383292
 31
0.0
  0
LINE
  5
9049
330
2
100
AcDbEntity
  8
02-外形線
 48
0.5
100
AcDbLine
 10
-3554.381490481036
 20
1650.153046383291
 30
0.0
 11
-3476.381490481036
 21
1650.153046383291
 31
0.0
  0
LINE
  5
904A
330
2
100
AcDbEntity
  8
02-外形線
 48
0.5
100
AcDbLine
 10
-3554.381490481036
 20
1643.253046383292
 30
0.0
 11
-3554.381490481036
 21
1650.153046383291
 31
0.0
  0
LINE
  5
9051
330
2
100
AcDbEntity
  8
02-外形線
 48
0.5
100
AcDbLine
 10
-4265.381490481035
 20
2327.753046383292
 30
0.0
 11
-3215.381490481036
 21
2327.753046383291
 31
0.0
  0
LINE
  5
9055
330
2
100
AcDbEntity
  8
06-中心線
 48
0.5
100
AcDbLine
 10
-4265.381490481036
 20
2797.753046383292
 30
0.0
 11
-4265.381490481035
 21
2277.753046383292
 31
0.0
  0
LINE
  5
9056
330
2
100
AcDbEntity
  8
06-中心線
 48
0.5
100
AcDbLine
 10
-4315.381490481036
 20
2747.753046383292
 30
0.0
 11
-3165.381490481036
 21
2747.753046383292
 31
0.0
  0
LINE
  5
9057
330
2
100
AcDbEntity
  8
06-中心線
 48
0.5
100
AcDbLine
 10
-3215.381490481037
 20
2797.753046383293
 30
0.0
 11
-3215.381490481036
 21
2277.753046383292
 31
0.0
  0
LINE
  5
9067
330
2
100
AcDbEntity
  8
02-外形線
 48
0.5
100
AcDbLine
 10
-3740.381490481036
 20
2597.753046383292
 30
0.0
 11
-3740.381490481037
 21
2747.753046383292
 31
0.0
  0
LINE
  5
9068
330
2
100
AcDbEntity
  8
02-外形線
 48
0.5
100
AcDbLine
 10
-3740.381490481036
 20
2477.753046383292
 30
0.0
 11
-3740.381490481036
 21
2327.753046383292
 31
0.0
  0
DIMENSION
  5
906D
330
2
100
AcDbEntity
  8
01-寸法線
 48
0.5
100
AcDbDimension
  2
*D4
 10
-3740.381490481036
 20
2177.753046383292
 30
0.0
 11
-3852.881490481036
 21
2177.753046383292
 31
0.0
 70
   160
  1
75
 71
     5
 42
225.0
  3
スタイル15
100
AcDbAlignedDimension
 13
-3965.381490481036
 23
2477.753046383292
 33
0.0
 14
-3740.381490481036
 24
2327.753046383292
 34
0.0
100
AcDbRotatedDimension
  0
DIMENSION
  5
907A
330
2
100
AcDbEntity
  8
01-寸法線
 48
0.5
100
AcDbDimension
  2
*D5
 10
-3515.381490481036
 20
2177.753046383292
 30
0.0
 11
-3627.881490481036
 21
2211.503046383292
 31
0.0
 70
    32
  1
75
 71
     5
 42
225.0
  3
スタイル15
100
AcDbAlignedDimension
 13
-3740.381490481036
 23
2327.753046383292
 33
0.0
 14
-3515.381490481036
 24
2477.753046383292
 34
0.0
100
AcDbRotatedDimension
1001
ACAD
1000
DSTYLE
1002
{
1070
   279
1070
     1
1002
}
  0
DIMENSION
  5
9087
330
2
100
AcDbEntity
  8
01-寸法線
 48
0.5
100
AcDbDimension
  2
*D6
 10
-3365.381490481036
 20
2077.753046383292
 30
0.0
 11
-3740.381490481036
 21
2077.753046383292
 31
0.0
 70
   160
  1
250
 71
     5
 42
750.0
  3
スタイル15
100
AcDbAlignedDimension
 13
-4115.381490481036
 23
2477.753046383292
 33
0.0
 14
-3365.381490481036
 24
2477.753046383292
 34
0.0
100
AcDbRotatedDimension
  0
DIMENSION
  5
90A7
330
2
100
AcDbEntity
  8
01-寸法線
 48
0.5
100
AcDbDimension
  2
*D7
 10
-2965.381490481036
 20
2597.753046383291
 30
0.0
 11
-2999.131490481037
 21
2537.753046383291
 31
0.0
 70
    32
  1
40
 71
     5
 42
120.0
  3
スタイル15
100
AcDbAlignedDimension
 13
-3365.381490481036
 23
2477.753046383292
 33
0.0
 14
-3365.381490481036
 24
2597.753046383292
 34
0.0
 50
90.0
100
AcDbRotatedDimension
  0
DIMENSION
  5
9106
330
2
100
AcDbEntity
  8
01-寸法線
 48
0.5
100
AcDbDimension
  2
*D8
 10
-3470.381490481037
 20
2847.753046383292
 30
0.0
 11
-3515.381490481036
 21
2881.503046383292
 31
0.0
 70
    32
  1
30
 71
     5
 42
90.0
  3
スタイル15
100
AcDbAlignedDimension
 13
-3560.381490481037
 23
2537.753046383292
 33
0.0
 14
-3470.381490481037
 24
2537.753046383292
 34
0.0
100
AcDbRotatedDimension
  0
LINE
  5
9119
330
2
100
AcDbEntity
  8
01-寸法線
 48
0.5
100
AcDbLine
 10
-3840.381490481036
 20
2597.753046383291
 30
0.0
 11
-3840.381490481038
 21
3097.753046383291
 31
0.0
  0
TEXT
  5
911B
330
2
100
AcDbEntity
  8
08-下線
100
AcDbText
 10
-4509.181490481037
 20
3108.55304638329
 30
0.0
 40
52.5
  1
連結ﾌﾟﾚｰﾄ(ﾒｯｷ)
  7
ｵﾘｼﾞﾅﾙｽﾀｲﾙ
 72
     4
 11
-4240.381490481037
 21
3135.70304638329
 31
0.0
100
AcDbText
  0
LINE
  5
911C
330
2
100
AcDbEntity
  8
01-寸法線
 48
0.5
100
AcDbLine
 10
-4540.381490481037
 20
3097.753046383289
 30
0.0
 11
-3840.381490481038
 21
3097.753046383291
 31
0.0
  0
TEXT
  5
911D
330
2
100
AcDbEntity
  8
08-下線
100
AcDbText
 10
-4470.781490481036
 20
3034.15304638329
 30
0.0
 40
52.5
  1
250\U+00D740\U+00D74.5
  7
ｵﾘｼﾞﾅﾙｽﾀｲﾙ
 72
     4
 11
-4240.381490481037
 21
3059.803046383291
 31
0.0
100
AcDbText
  0
LINE
  5
9125
330
2
100
AcDbEntity
  8
01-寸法線
 48
0.5
100
AcDbLine
 10
-3976.631490481036
 20
2518.267474798142
 30
0.0
 11
-4173.227587389301
 21
2177.753046383292
 31
0.0
  0
LINE
  5
912A
330
2
100
AcDbEntity
  8
01-寸法線
 48
0.5
100
AcDbLine
 10
-4343.227587389301
 20
2177.753046383291
 30
0.0
 11
-4173.227587389301
 21
2177.753046383292
 31
0.0
  0
MTEXT
  5
912B
330
2
100
AcDbEntity
  8
01-寸法線
 62
     4
100
AcDbMText
 10
-4258.227587389302
 20
2211.503046383292
 30
0.0
 40
52.5
 41
0.0
 71
     5
 72
     1
  1
{\fNSimSun|b0|i0|c128|p49;\U+03C6}15
  7
寸法ｽﾀｲﾙ
 73
     1
 44
1.0
  0
INSERT
  5
9130
330
2
100
AcDbEntity
  8
01-寸法線
 62
     4
 48
0.5
370
    13
100
AcDbBlockReference
  2
_OPEN
 10
-3840.381490481036
 20
2597.753046383291
 30
0.0
 41
30.0
 42
30.0
 43
30.0
 50
269.9999999999993
  0
INSERT
  5
9131
330
2
100
AcDbEntity
  8
01-寸法線
 62
     4
 48
0.5
370
    13
100
AcDbBlockReference
  2
_OPEN
 10
-3976.631490481037
 20
2518.267474798143
 30
0.0
 41
30.0
 42
30.0
 43
30.0
 50
59.99999999999986
  0
LINE
  5
9174
330
2
100
AcDbEntity
  8
02-外形線
 48
0.5
100
AcDbLine
 10
-4265.381490481035
 20
1677.753046383292
 30
0.0
 11
-4163.381490481036
 21
1677.753046383292
 31
0.0
  0
LINE
  5
9183
330
2
100
AcDbEntity
  8
06-中心線
 48
0.5
100
AcDbLine
 10
-4265.381490481035
 20
1727.753046383291
 30
0.0
 11
-4265.381490481035
 21
1377.753046383292
 31
0.0
  0
LINE
  5
9184
330
2
100
AcDbEntity
  8
06-中心線
 48
0.5
100
AcDbLine
 10
-3215.381490481036
 20
1727.753046383291
 30
0.0
 11
-3215.381490481036
 21
1377.753046383292
 31
0.0
  0
LINE
  5
9186
330
2
100
AcDbEntity
  8
02-外形線
 48
0.5
100
AcDbLine
 10
-3740.381490481037
 20
1629.753046383292
 30
0.0
 11
-3740.381490481036
 21
1427.753046383292
 31
0.0
  0
LINE
  5
9194
330
2
100
AcDbEntity
  8
01-寸法線
 48
0.5
100
AcDbLine
 10
-3489.881490481035
 20
1509.753046383291
 30
0.0
 11
-3313.789658378199
 21
1204.753046383291
 31
0.0
  0
INSERT
  5
9199
330
2
100
AcDbEntity
  8
01-寸法線
 62
     4
 48
0.5
370
    13
100
AcDbBlockReference
  2
_OPEN
 10
-4004.381490481036
 20
1650.153046383292
 30
0.0
 41
30.0
 42
30.0
 43
30.0
 50
300.000000000001
  0
INSERT
  5
919A
330
2
100
AcDbEntity
  8
01-寸法線
 62
     4
 48
0.5
370
    13
100
AcDbBlockReference
  2
_OPEN
 10
-3486.881490481037
 20
1674.153046383291
 30
0.0
 41
30.0
 42
30.0
 43
30.0
 50
239.9999999999997
  0
INSERT
  5
919B
330
2
100
AcDbEntity
  8
01-寸法線
 62
     4
 48
0.5
370
    13
100
AcDbBlockReference
  2
_OPEN
 10
-3489.881490481035
 20
1509.753046383292
 30
0.0
 41
30.0
 42
30.0
 43
30.0
 50
120.0000000000003
  0
TEXT
  5
919C
330
2
100
AcDbEntity
  8
08-下線
100
AcDbText
 10
-4366.786411748595
 20
1892.603046383291
 30
0.0
 40
52.5
  1
ﾜｯｼｬｰ
  7
ｵﾘｼﾞﾅﾙｽﾀｲﾙ
 72
     4
 11
-4270.786411748595
 21
1915.703046383292
 31
0.0
100
AcDbText
  0
TEXT
  5
919D
330
2
100
AcDbEntity
  8
08-下線
100
AcDbText
 10
-4366.786411748595
 20
1812.653046383292
 30
0.0
 40
52.5
  1
(ﾒｯｷ)
  7
ｵﾘｼﾞﾅﾙｽﾀｲﾙ
 72
     4
 11
-4270.786411748595
 21
1839.803046383292
 31
0.0
100
AcDbText
  0
LINE
  5
919E
330
2
100
AcDbEntity
  8
01-寸法線
 48
0.5
100
AcDbLine
 10
-4405.786411748596
 20
1877.753046383291
 30
0.0
 11
-4135.786411748596
 21
1877.753046383292
 31
0.0
  0
TEXT
  5
91A4
330
2
100
AcDbEntity
  8
08-下線
100
AcDbText
 10
-3280.332975674029
 20
1812.653046383293
 30
0.0
 40
52.5
  1
(ﾒｯｷ)
  7
ｵﾘｼﾞﾅﾙｽﾀｲﾙ
 72
     4
 11
-3184.332975674029
 21
1839.803046383293
 31
0.0
100
AcDbText
  0
LINE
  5
91A5
330
2
100
AcDbEntity
  8
01-寸法線
 48
0.5
100
AcDbLine
 10
-3369.332975674029
 20
1877.753046383292
 30
0.0
 11
-2999.332975674029
 21
1877.753046383293
 31
0.0
  0
TEXT
  5
91A6
330
2
100
AcDbEntity
  8
08-下線
100
AcDbText
 10
-3337.932975674029
 20
1888.253046383292
 30
0.0
 40
52.5
  1
ﾎﾞﾙﾄ M12
  7
ｵﾘｼﾞﾅﾙｽﾀｲﾙ
 72
     4
 11
-3184.332975674029
 21
1915.703046383292
 31
0.0
100
AcDbText
  0
LINE
  5
91AB
330
2
100
AcDbEntity
  8
01-寸法線
 48
0.5
100
AcDbLine
 10
-3313.789658378199
 20
1204.753046383291
 30
0.0
 11
-2893.789658378199
 21
1204.753046383292
 31
0.0
  0
TEXT
  5
91AC
330
2
100
AcDbEntity
  8
08-下線
100
AcDbText
 10
-3276.589658378199
 20
1215.553046383291
 30
0.0
 40
52.5
  1
ｲﾝｻｰﾄ M12
  7
ｵﾘｼﾞﾅﾙｽﾀｲﾙ
 72
     4
 11
-3103.789658378199
 21
1242.703046383291
 31
0.0
100
AcDbText
  0
TEXT
  5
91AD
330
2
100
AcDbEntity
  8
08-下線
100
AcDbText
 10
-3199.789658378199
 20
1139.653046383292
 30
0.0
 40
52.5
  1
(ﾒｯｷ)
  7
ｵﾘｼﾞﾅﾙｽﾀｲﾙ
 72
     4
 11
-3103.789658378199
 21
1166.803046383292
 31
0.0
100
AcDbText
  0
LINE
  5
92DD
330
2
100
AcDbEntity
  8
02-外形線
 48
0.5
100
AcDbLine
 10
-3983.381490481038
 20
1581.153046383291
 30
0.0
 11
-3947.381490481038
 21
1583.403046383291
 31
0.0
  0
LINE
  5
92DE
330
2
100
AcDbEntity
  8
02-外形線
 48
0.5
100
AcDbLine
 10
-3983.381490481038
 20
1587.153046383291
 30
0.0
 11
-3947.381490481038
 21
1589.403046383291
 31
0.0
  0
LINE
  5
92DF
330
2
100
AcDbEntity
  8
02-外形線
 48
0.5
100
AcDbLine
 10
-3983.381490481038
 20
1593.153046383291
 30
0.0
 11
-3947.381490481038
 21
1595.403046383291
 31
0.0
  0
LINE
  5
92E0
330
2
100
AcDbEntity
  8
02-外形線
 48
0.5
100
AcDbLine
 10
-3983.381490481038
 20
1599.153046383291
 30
0.0
 11
-3947.381490481038
 21
1601.403046383291
 31
0.0
  0
LINE
  5
92E1
330
2
100
AcDbEntity
  8
02-外形線
 48
0.5
100
AcDbLine
 10
-3983.381490481038
 20
1605.153046383291
 30
0.0
 11
-3947.381490481038
 21
1607.403046383291
 31
0.0
  0
LINE
  5
92E2
330
2
100
AcDbEntity
  8
02-外形線
 48
0.5
100
AcDbLine
 10
-3983.381490481038
 20
1611.153046383291
 30
0.0
 11
-3947.381490481038
 21
1613.403046383291
 31
0.0
  0
LINE
  5
92E3
330
2
100
AcDbEntity
  8
02-外形線
 48
0.5
100
AcDbLine
 10
-3983.381490481038
 20
1617.153046383291
 30
0.0
 11
-3947.381490481038
 21
1619.403046383291
 31
0.0
  0
LINE
  5
92E4
330
2
100
AcDbEntity
  8
02-外形線
 48
0.5
100
AcDbLine
 10
-3983.381490481038
 20
1623.153046383291
 30
0.0
 11
-3947.381490481038
 21
1625.403046383291
 31
0.0
  0
LINE
  5
92E9
330
2
100
AcDbEntity
  8
02-外形線
 48
0.5
100
AcDbLine
 10
-3533.381490481036
 20
1623.153046383291
 30
0.0
 11
-3497.381490481036
 21
1625.403046383291
 31
0.0
  0
LINE
  5
92EA
330
2
100
AcDbEntity
  8
02-外形線
 48
0.5
100
AcDbLine
 10
-3533.381490481036
 20
1617.153046383291
 30
0.0
 11
-3497.381490481036
 21
1619.403046383291
 31
0.0
  0
LINE
  5
92EB
330
2
100
AcDbEntity
  8
02-外形線
 48
0.5
100
AcDbLine
 10
-3533.381490481036
 20
1611.153046383291
 30
0.0
 11
-3497.381490481036
 21
1613.403046383291
 31
0.0
  0
LINE
  5
92EC
330
2
100
AcDbEntity
  8
02-外形線
 48
0.5
100
AcDbLine
 10
-3533.381490481036
 20
1605.153046383291
 30
0.0
 11
-3497.381490481036
 21
1607.403046383291
 31
0.0
  0
LINE
  5
92ED
330
2
100
AcDbEntity
  8
02-外形線
 48
0.5
100
AcDbLine
 10
-3533.381490481036
 20
1599.153046383291
 30
0.0
 11
-3497.381490481036
 21
1601.403046383291
 31
0.0
  0
LINE
  5
92EE
330
2
100
AcDbEntity
  8
02-外形線
 48
0.5
100
AcDbLine
 10
-3533.381490481036
 20
1593.153046383291
 30
0.0
 11
-3497.381490481036
 21
1595.403046383291
 31
0.0
  0
LINE
  5
92EF
330
2
100
AcDbEntity
  8
02-外形線
 48
0.5
100
AcDbLine
 10
-3533.381490481036
 20
1587.153046383291
 30
0.0
 11
-3497.381490481036
 21
1589.403046383291
 31
0.0
  0
LINE
  5
92F0
330
2
100
AcDbEntity
  8
02-外形線
 48
0.5
100
AcDbLine
 10
-3533.381490481036
 20
1581.153046383291
 30
0.0
 11
-3497.381490481036
 21
1583.403046383291
 31
0.0
  0
LINE
  5
92F1
330
2
100
AcDbEntity
  8
02-外形線
 48
0.5
100
AcDbLine
 10
-3497.381490481036
 20
1554.753046383292
 30
0.0
 11
-3497.381490481036
 21
1629.753046383292
 31
0.0
  0
LINE
  5
92F2
330
2
100
AcDbEntity
  8
02-外形線
 48
0.5
100
AcDbLine
 10
-3533.381490481036
 20
1629.753046383292
 30
0.0
 11
-3533.381490481036
 21
1554.753046383292
 31
0.0
  0
LINE
  5
92F3
330
2
100
AcDbEntity
  8
02-外形線
 48
0.5
100
AcDbLine
 10
-3533.381490481036
 20
1629.153046383291
 30
0.0
 11
-3523.781490481031
 21
1629.753046383292
 31
0.0
  0
LINE
  5
92F4
330
2
100
AcDbEntity
  8
02-外形線
 48
0.5
100
AcDbLine
 10
-3533.381490481036
 20
1554.753046383292
 30
0.0
 11
-3497.381490481036
 21
1554.753046383292
 31
0.0
  0
LINE
  5
92F5
330
2
100
AcDbEntity
  8
02-外形線
 48
0.5
100
AcDbLine
 10
-3533.381490481036
 20
1575.153046383291
 30
0.0
 11
-3497.381490481036
 21
1575.153046383291
 31
0.0
  0
LINE
  5
92F6
330
2
100
AcDbEntity
  8
02-外形線
 48
0.5
100
AcDbLine
 10
-3533.381490481036
 20
1575.153046383291
 30
0.0
 11
-3497.381490481036
 21
1577.403046383291
 31
0.0
  0
DIMENSION
  5
92F9
330
2
100
AcDbEntity
  8
01-寸法線
 48
0.5
100
AcDbDimension
  2
*D9
 10
-3065.381490481037
 20
2515.253046383291
 30
0.0
 11
-3099.131490481037
 21
2652.369713049958
 31
0.0
 70
    32
  1
15
 71
     5
 42
45.0
  3
スタイル15
100
AcDbAlignedDimension
 13
-3492.881490481036
 23
2560.253046383292
 33
0.0
 14
-3492.881490481036
 24
2515.253046383292
 34
0.0
 50
90.0
100
AcDbRotatedDimension
1001
ACAD
1000
DSTYLE
1002
{
1070
   280
1070
     1
1002
}
  0
TEXT
  5
9317
330
2
100
AcDbEntity
  8
08-下線
100
AcDbText
 10
-4719.581490481036
 20
963.5530463832918
 30
0.0
 40
52.5
  1
　連結ﾌﾟﾚｰﾄ、ﾎﾞﾙﾄ、ﾜｯｼｬｰ、ｲﾝｻｰﾄの仕様
  7
ｵﾘｼﾞﾅﾙｽﾀｲﾙ
 11
-4719.581490481036
 21
952.7530463832917
 31
0.0
100
AcDbText
 73
     1
  0
TEXT
  5
931C
330
2
100
AcDbEntity
  8
08-下線
100
AcDbText
 10
-4719.581490481036
 20
838.5530463832918
 30
0.0
 40
52.5
  1
1.材質はSS400または同等以上のもの
  7
ｵﾘｼﾞﾅﾙｽﾀｲﾙ
 11
-4719.581490481036
 21
827.7530463832917
 31
0.0
100
AcDbText
 73
     1
  0
TEXT
  5
931D
330
2
100
AcDbEntity
  8
08-下線
100
AcDbText
 10
-4719.581490481036
 20
713.5530463832918
 30
0.0
 40
52.5
  1
2.電気亜鉛ﾒｯｷ(JIS H 8610)2種3級または同等以上のもの
  7
ｵﾘｼﾞﾅﾙｽﾀｲﾙ
 11
-4719.581490481036
 21
702.7530463832918
 31
0.0
100
AcDbText
 73
     1
  0
TEXT
  5
9716
330
2
100
AcDbEntity
  8
08-下線
100
AcDbText
 10
-1738.181490481037
 20
4731.124474954721
 30
0.0
 40
65.0
  1
%%Uｼﾞｮｲﾝﾄ部詳細図
  7
ｵﾘｼﾞﾅﾙｽﾀｲﾙ
 72
     1
 11
-1405.381490481037
 21
4717.753046383291
 31
0.0
100
AcDbText
 73
     1
  0
LINE
  5
9F91
330
2
100
AcDbEntity
  8
02-外形線
 48
0.5
100
AcDbLine
 10
-3170.381490481036
 20
4477.753046383291
 30
0.0
 11
-3165.381490481036
 21
4472.753046383291
 31
0.0
  0
LINE
  5
9F9E
330
2
100
AcDbEntity
  8
02-外形線
 48
0.5
100
AcDbLine
 10
-3170.381490481036
 20
4277.753046383291
 30
0.0
 11
-3170.381490481036
 21
4497.753046383291
 31
0.0
  0
DIMENSION
  5
A07F
330
2
100
AcDbEntity
  8
01-寸法線
 48
0.5
100
AcDbDimension
  2
*D10
 10
-5277.881490481036
 20
2397.753046383293
 30
0.0
 11
-5199.064823814371
 21
2431.503046383292
 31
0.0
 70
    32
  1
5
 71
     5
 42
37.5
  3
スタイル15
100
AcDbAlignedDimension
 13
-5315.381490481037
 23
2547.753046383292
 33
0.0
 14
-5277.881490481036
 24
2697.753046383292
 34
0.0
100
AcDbRotatedDimension
  0
LINE
  5
A0DA
330
2
100
AcDbEntity
  8
02-外形線
 48
0.5
100
AcDbLine
 10
-4163.381490481036
 20
2630.753046383292
 30
0.0
 11
-3317.381490481036
 21
2630.753046383292
 31
0.0
  0
LINE
  5
A0DB
330
2
100
AcDbEntity
  8
02-外形線
 48
0.5
100
AcDbLine
 10
-3317.381490481036
 20
2630.753046383292
 30
0.0
 11
-3317.381490481036
 21
2444.753046383292
 31
0.0
  0
LINE
  5
A0DC
330
2
100
AcDbEntity
  8
02-外形線
 48
0.5
100
AcDbLine
 10
-3317.381490481036
 20
2444.753046383292
 30
0.0
 11
-4163.381490481036
 21
2444.753046383292
 31
0.0
  0
LINE
  5
A0DD
330
2
100
AcDbEntity
  8
02-外形線
 48
0.5
100
AcDbLine
 10
-4163.381490481036
 20
2444.753046383292
 30
0.0
 11
-4163.381490481036
 21
2630.753046383292
 31
0.0
  0
LINE
  5
A0DE
330
2
100
AcDbEntity
  8
02-外形線
 48
0.5
100
AcDbLine
 10
-4145.381490481036
 20
2612.753046383291
 30
0.0
 11
-3335.381490481037
 21
2612.753046383292
 31
0.0
  0
LINE
  5
A0DF
330
2
100
AcDbEntity
  8
02-外形線
 48
0.5
100
AcDbLine
 10
-3335.381490481037
 20
2612.753046383292
 30
0.0
 11
-3335.381490481037
 21
2462.753046383292
 31
0.0
  0
LINE
  5
A0E0
330
2
100
AcDbEntity
  8
02-外形線
 48
0.5
100
AcDbLine
 10
-3335.381490481037
 20
2462.753046383292
 30
0.0
 11
-4145.381490481036
 21
2462.753046383292
 31
0.0
  0
LINE
  5
A0E1
330
2
100
AcDbEntity
  8
02-外形線
 48
0.5
100
AcDbLine
 10
-4145.381490481036
 20
2462.753046383292
 30
0.0
 11
-4145.381490481036
 21
2612.753046383291
 31
0.0
  0
DIMENSION
  5
A0E3
330
2
100
AcDbEntity
  8
01-寸法線
 48
0.5
100
AcDbDimension
  2
*D11
 10
-4415.381490481037
 20
2612.753046383291
 30
0.0
 11
-4449.131490481038
 21
2537.753046383291
 31
0.0
 70
    32
  1
50
 71
     5
 42
150.0
  3
スタイル15
100
AcDbAlignedDimension
 13
-4145.381490481036
 23
2462.753046383292
 33
0.0
 14
-4145.381490481036
 24
2612.753046383291
 34
0.0
 50
90.0
100
AcDbRotatedDimension
  0
DIMENSION
  5
A124
330
2
100
AcDbEntity
  8
01-寸法線
 48
0.5
100
AcDbDimension
  2
*D12
 10
-3740.381490481037
 20
2947.753046383292
 30
0.0
 11
-3942.881490481036
 21
2981.503046383292
 31
0.0
 70
    32
  1
135
 71
     5
 42
404.9999999999995
  3
スタイル15
100
AcDbAlignedDimension
 13
-4145.381490481036
 23
2630.753046383292
 33
0.0
 14
-3740.381490481037
 24
2747.753046383292
 34
0.0
100
AcDbRotatedDimension
  0
DIMENSION
  5
A131
330
2
100
AcDbEntity
  8
01-寸法線
 48
0.5
100
AcDbDimension
  2
*D13
 10
-3335.381490481037
 20
2947.753046383292
 30
0.0
 11
-3537.881490481036
 21
2981.503046383292
 31
0.0
 70
    32
  1
135
 71
     5
 42
405.0000000000004
  3
スタイル15
100
AcDbAlignedDimension
 13
-3740.381490481037
 23
2747.753046383292
 33
0.0
 14
-3335.381490481037
 24
2612.753046383292
 34
0.0
100
AcDbRotatedDimension
1001
ACAD
1000
DSTYLE
1002
{
1070
   279
1070
     1
1002
}
  0
LINE
  5
A1D6
330
2
100
AcDbEntity
  8
02-外形線
 48
0.5
100
AcDbLine
 10
-4163.381490481036
 20
2630.753046383292
 30
0.0
 11
-4145.381490481036
 21
2612.753046383291
 31
0.0
  0
LINE
  5
A1D7
330
2
100
AcDbEntity
  8
02-外形線
 48
0.5
100
AcDbLine
 10
-4163.381490481036
 20
2444.753046383292
 30
0.0
 11
-4145.381490481036
 21
2462.753046383292
 31
0.0
  0
LINE
  5
A1D8
330
2
100
AcDbEntity
  8
02-外形線
 48
0.5
100
AcDbLine
 10
-3335.381490481037
 20
2462.753046383292
 30
0.0
 11
-3317.381490481036
 21
2444.753046383292
 31
0.0
  0
LINE
  5
A1D9
330
2
100
AcDbEntity
  8
02-外形線
 48
0.5
100
AcDbLine
 10
-3335.381490481037
 20
2612.753046383292
 30
0.0
 11
-3317.381490481036
 21
2630.753046383292
 31
0.0
  0
LINE
  5
A1DB
330
2
100
AcDbEntity
  8
02-外形線
 48
0.5
100
AcDbLine
 10
-4145.381490481036
 20
1629.753046383292
 30
0.0
 11
-3335.381490481037
 21
1629.753046383292
 31
0.0
  0
LINE
  5
A1EB
330
2
100
AcDbEntity
  8
02-外形線
 48
0.5
100
AcDbLine
 10
-3317.381490481036
 20
1677.753046383292
 30
0.0
 11
-3215.381490481036
 21
1677.753046383292
 31
0.0
  0
LINE
  5
A1ED
330
2
100
AcDbEntity
  8
02-外形線
 48
0.5
100
AcDbLine
 10
-4163.381490481036
 20
1677.753046383292
 30
0.0
 11
-4145.381490481036
 21
1629.753046383292
 31
0.0
  0
LINE
  5
A1EE
330
2
100
AcDbEntity
  8
02-外形線
 48
0.5
100
AcDbLine
 10
-3317.381490481036
 20
1677.753046383292
 30
0.0
 11
-3335.381490481037
 21
1629.753046383292
 31
0.0
  0
LINE
  5
A1EF
330
2
100
AcDbEntity
  8
01-寸法線
 48
0.5
100
AcDbLine
 10
-3486.881490481037
 20
1674.153046383291
 30
0.0
 11
-3369.332975674029
 21
1877.753046383292
 31
0.0
  0
LINE
  5
A1F0
330
2
100
AcDbEntity
  8
01-寸法線
 48
0.5
100
AcDbLine
 10
-4004.381490481037
 20
1650.153046383291
 30
0.0
 11
-4135.786411748596
 21
1877.753046383292
 31
0.0
  0
LINE
  5
A1F3
330
2
100
AcDbEntity
  8
06-中心線
 48
0.5
100
AcDbLine
 10
-4315.381490481036
 20
1427.753046383292
 30
0.0
 11
-3165.381490481036
 21
1427.753046383292
 31
0.0
  0
LINE
  5
A2CF
330
2
100
AcDbEntity
  8
03-隠れ線
 48
0.5
100
AcDbLine
 10
-3165.381490481037
 20
4176.753046383291
 30
0.0
 11
-3306.381490481037
 21
4176.753046383291
 31
0.0
  0
LINE
  5
A2D0
330
2
100
AcDbEntity
  8
03-隠れ線
 48
0.5
100
AcDbLine
 10
-3306.381490481037
 20
4176.753046383291
 30
0.0
 11
-3306.381490481037
 21
4238.75304638329
 31
0.0
  0
LINE
  5
A2D1
330
2
100
AcDbEntity
  8
03-隠れ線
 48
0.5
100
AcDbLine
 10
-3306.381490481037
 20
4238.75304638329
 30
0.0
 11
-3165.381490481037
 21
4238.75304638329
 31
0.0
  0
LINE
  5
A2D2
330
2
100
AcDbEntity
  8
03-隠れ線
 48
0.5
100
AcDbLine
 10
-3165.381490481037
 20
4182.75304638329
 30
0.0
 11
-3300.381490481037
 21
4182.75304638329
 31
0.0
  0
LINE
  5
A2D3
330
2
100
AcDbEntity
  8
03-隠れ線
 48
0.5
100
AcDbLine
 10
-3300.381490481037
 20
4182.75304638329
 30
0.0
 11
-3300.381490481037
 21
4232.75304638329
 31
0.0
  0
LINE
  5
A2D4
330
2
100
AcDbEntity
  8
03-隠れ線
 48
0.5
100
AcDbLine
 10
-3300.381490481037
 20
4232.75304638329
 30
0.0
 11
-3165.381490481037
 21
4232.75304638329
 31
0.0
  0
LINE
  5
A2D5
330
2
100
AcDbEntity
  8
03-隠れ線
 48
0.5
100
AcDbLine
 10
-3300.381490481037
 20
4182.75304638329
 30
0.0
 11
-3306.381490481037
 21
4176.753046383291
 31
0.0
  0
LINE
  5
A2D6
330
2
100
AcDbEntity
  8
03-隠れ線
 48
0.5
100
AcDbLine
 10
-3300.381490481037
 20
4232.75304638329
 30
0.0
 11
-3306.381490481037
 21
4238.75304638329
 31
0.0
  0
LINE
  5
A2D9
330
2
100
AcDbEntity
  8
03-隠れ線
 48
0.5
100
AcDbLine
 10
-5030.381490481036
 20
4182.753046383292
 30
0.0
 11
-5165.381490481036
 21
4182.753046383292
 31
0.0
  0
LINE
  5
A2DA
330
2
100
AcDbEntity
  8
03-隠れ線
 48
0.5
100
AcDbLine
 10
-5165.381490481036
 20
4232.753046383292
 30
0.0
 11
-5030.381490481036
 21
4232.753046383292
 31
0.0
  0
LINE
  5
A2DB
330
2
100
AcDbEntity
  8
03-隠れ線
 48
0.5
100
AcDbLine
 10
-5024.381490481037
 20
4176.753046383292
 30
0.0
 11
-5165.381490481036
 21
4176.753046383292
 31
0.0
  0
LINE
  5
A2DC
330
2
100
AcDbEntity
  8
03-隠れ線
 48
0.5
100
AcDbLine
 10
-5165.381490481036
 20
4238.753046383291
 30
0.0
 11
-5024.381490481037
 21
4238.753046383291
 31
0.0
  0
LINE
  5
A2DD
330
2
100
AcDbEntity
  8
03-隠れ線
 48
0.5
100
AcDbLine
 10
-5030.381490481036
 20
4182.753046383292
 30
0.0
 11
-5024.381490481037
 21
4176.753046383292
 31
0.0
  0
LINE
  5
A2DE
330
2
100
AcDbEntity
  8
03-隠れ線
 48
0.5
100
AcDbLine
 10
-5024.381490481037
 20
4238.753046383291
 30
0.0
 11
-5024.381490481037
 21
4176.753046383292
 31
0.0
  0
LINE
  5
A2DF
330
2
100
AcDbEntity
  8
03-隠れ線
 48
0.5
100
AcDbLine
 10
-5030.381490481036
 20
4232.753046383292
 30
0.0
 11
-5024.381490481037
 21
4238.753046383291
 31
0.0
  0
LINE
  5
A2E0
330
2
100
AcDbEntity
  8
03-隠れ線
 48
0.5
100
AcDbLine
 10
-5030.381490481036
 20
4232.753046383292
 30
0.0
 11
-5030.381490481036
 21
4182.753046383292
 31
0.0
  0
LINE
  5
AA94
330
2
100
AcDbEntity
  8
02-外形線
 48
0.5
100
AcDbLine
 10
-5165.381490481035
 20
4297.753046383292
 30
0.0
 11
-3170.381490481035
 21
4297.753046383292
 31
0.0
  0
DIMENSION
  5
AAB0
330
2
100
AcDbEntity
  8
01-寸法線
 48
0.5
100
AcDbDimension
  2
*D14
 10
-5365.381490481036
 20
4207.753046383292
 30
0.0
 11
-5399.131490481037
 21
4302.20304638329
 31
0.0
 70
    32
 71
     5
 42
60.0
  3
スタイル15
100
AcDbAlignedDimension
 13
-5165.381490481036
 23
4147.753046383292
 33
0.0
 14
-5165.381490481036
 24
4207.753046383292
 34
0.0
 50
90.0
100
AcDbRotatedDimension
  0
DIMENSION
  5
AAD5
330
2
100
AcDbEntity
  8
01-寸法線
 48
0.5
100
AcDbDimension
  2
*D15
 10
-5090.381490481036
 20
4697.753046383292
 30
0.0
 11
-5127.881490481036
 21
4697.753046383292
 31
0.0
 70
   160
 71
     5
 42
75.0
  3
スタイル15
100
AcDbAlignedDimension
 13
-5165.381490481036
 23
4497.753046383292
 33
0.0
 14
-5090.381490481036
 24
4297.753046383292
 34
0.0
100
AcDbRotatedDimension
  0
DIMENSION
  5
AAE4
330
2
100
AcDbEntity
  8
01-寸法線
 48
0.5
100
AcDbDimension
  2
*D16
 10
-3165.381490481036
 20
4697.753046383292
 30
0.0
 11
-3202.881490481036
 21
4697.753046383292
 31
0.0
 70
   160
 71
     5
 42
75.0
  3
スタイル15
100
AcDbAlignedDimension
 13
-3240.381490481036
 23
4297.753046383292
 33
0.0
 14
-3165.381490481036
 24
4497.753046383292
 34
0.0
100
AcDbRotatedDimension
  0
DIMENSION
  5
AB37
330
2
100
AcDbEntity
  8
01-寸法線
 48
0.5
100
AcDbDimension
  2
*D17
 10
-4865.381490481037
 20
2847.753046383292
 30
0.0
 11
-4899.131490481038
 21
2772.753046383292
 31
0.0
 70
    32
  1
20
 71
     5
 42
150.0000000000004
  3
スタイル15
100
AcDbAlignedDimension
 13
-5277.881490481036
 23
2697.753046383292
 33
0.0
 14
-5015.381490481036
 24
2847.753046383292
 34
0.0
 50
90.0
100
AcDbRotatedDimension
  0
LINE
  5
AB5B
330
2
100
AcDbEntity
  8
02-外形線
 48
0.5
100
AcDbLine
 10
-6695.381490481037
 20
4147.753046383292
 30
0.0
 11
-6693.047231992668
 21
4217.780801034336
 31
0.0
  0
LINE
  5
AB5D
330
2
100
AcDbEntity
  8
02-外形線
 48
0.5
100
AcDbLine
 10
-6690.381490481037
 20
4297.753046383292
 30
0.0
 11
-6600.381490481037
 21
4297.753046383293
 31
0.0
  0
LINE
  5
AB5F
330
2
100
AcDbEntity
  8
02-外形線
 48
0.5
100
AcDbLine
 10
-6600.381490481037
 20
4297.753046383293
 30
0.0
 11
-6583.082979323973
 21
4470.738157953922
 31
0.0
  0
LINE
  5
AB60
330
2
100
AcDbEntity
  8
02-外形線
 48
0.5
100
AcDbLine
 10
-6553.231863617674
 20
4497.753046383293
 30
0.0
 11
-6427.5311173444
 21
4497.753046383293
 31
0.0
  0
LINE
  5
AB61
330
2
100
AcDbEntity
  8
02-外形線
 48
0.5
100
AcDbLine
 10
-6397.6800016381
 20
4470.738157953922
 30
0.0
 11
-6397.381490481038
 21
4467.753046383292
 31
0.0
  0
LINE
  5
AC2C
330
2
100
AcDbEntity
  8
02-外形線
 48
0.5
100
AcDbLine
 10
-6695.381490481037
 20
4147.753046383292
 30
0.0
 11
-6365.381490481037
 21
4147.753046383292
 31
0.0
  0
DIMENSION
  5
AC3D
330
2
100
AcDbEntity
  8
01-寸法線
 48
0.5
100
AcDbDimension
  2
*D18
 10
-6895.381490481037
 20
4297.753046383293
 30
0.0
 11
-6929.131490481037
 21
4222.753046383291
 31
0.0
 70
    32
 71
     5
 42
150.0000000000009
  3
スタイル15
100
AcDbAlignedDimension
 13
-6695.381490481037
 23
4147.753046383292
 33
0.0
 14
-6690.381490481037
 24
4297.753046383293
 34
0.0
 50
90.0
100
AcDbRotatedDimension
  0
DIMENSION
  5
AC4A
330
2
100
AcDbEntity
  8
01-寸法線
 48
0.5
100
AcDbDimension
  2
*D19
 10
-6895.381490481037
 20
4497.753046383293
 30
0.0
 11
-6929.131490481037
 21
4397.753046383292
 31
0.0
 70
    32
 71
     5
 42
199.9999999999991
  3
スタイル15
100
AcDbAlignedDimension
 13
-6690.381490481037
 23
4297.753046383293
 33
0.0
 14
-6580.381490481037
 24
4497.753046383293
 34
0.0
 50
90.0
100
AcDbRotatedDimension
1001
ACAD
1000
DSTYLE
1002
{
1070
   279
1070
     1
1002
}
  0
DIMENSION
  5
AC57
330
2
100
AcDbEntity
  8
01-寸法線
 48
0.5
100
AcDbDimension
  2
*D20
 10
-6995.381490481037
 20
4497.753046383293
 30
0.0
 11
-7029.131490481038
 21
4322.753046383291
 31
0.0
 70
    32
 71
     5
 42
350.0
  3
スタイル15
100
AcDbAlignedDimension
 13
-6895.381490481037
 23
4147.753046383292
 33
0.0
 14
-6895.381490481037
 24
4497.753046383293
 34
0.0
 50
90.0
100
AcDbRotatedDimension
  0
DIMENSION
  5
AC64
330
2
100
AcDbEntity
  8
01-寸法線
 48
0.5
100
AcDbDimension
  2
*D21
 10
-6600.381490481037
 20
4697.753046383293
 30
0.0
 11
-6645.381490481037
 21
4731.503046383292
 31
0.0
 70
    32
 71
     5
 42
90.0
  3
スタイル15
100
AcDbAlignedDimension
 13
-6690.381490481037
 23
4297.753046383292
 33
0.0
 14
-6600.381490481037
 24
4297.753046383292
 34
0.0
100
AcDbRotatedDimension
  0
DIMENSION
  5
AC71
330
2
100
AcDbEntity
  8
01-寸法線
 48
0.5
100
AcDbDimension
  2
*D22
 10
-6580.381490481037
 20
4697.753046383293
 30
0.0
 11
-6590.381490481037
 21
4799.003046383293
 31
0.0
 70
   160
 71
     5
 42
20.0
  3
スタイル15
100
AcDbAlignedDimension
 13
-6600.381490481037
 23
4297.753046383292
 33
0.0
 14
-6580.381490481037
 24
4497.753046383293
 34
0.0
100
AcDbRotatedDimension
1001
ACAD
1000
DSTYLE
1002
{
1070
   279
1070
     2
1002
}
  0
DIMENSION
  5
ACCB
330
2
100
AcDbEntity
  8
01-寸法線
 48
0.5
100
AcDbDimension
  2
*D23
 10
-6580.381490481037
 20
4697.753046383293
 30
0.0
 11
-6490.381490481038
 21
4731.503046383292
 31
0.0
 70
    32
 71
     5
 42
180.0
  3
スタイル15
100
AcDbAlignedDimension
 13
-6400.381490481037
 23
4497.753046383293
 33
0.0
 14
-6580.381490481037
 24
4497.753046383293
 34
0.0
100
AcDbRotatedDimension
1001
ACAD
1000
DSTYLE
1002
{
1070
   279
1070
     1
1002
}
  0
ARC
  5
AD12
330
2
100
AcDbEntity
  8
02-外形線
 48
0.5
100
AcDbCircle
 10
-6553.231863617674
 20
4467.753046383292
 30
0.0
 40
30.0
100
AcDbArc
 50
90.0
 51
174.2894068625003
  0
ARC
  5
AD13
330
2
100
AcDbEntity
  8
02-外形線
 48
0.5
100
AcDbCircle
 10
-6427.5311173444
 20
4467.753046383292
 30
0.0
 40
30.0
100
AcDbArc
 50
5.710593137499581
 51
90.0
  0
LINE
  5
AD19
330
2
100
AcDbEntity
  8
01-寸法線
 48
0.5
100
AcDbLine
 10
-6407.400957721572
 20
4489.996622389849
 30
0.0
 11
-6199.644533728128
 21
4697.753046383291
 31
0.0
  0
INSERT
  5
AD1B
330
2
100
AcDbEntity
  8
01-寸法線
 62
     4
 48
0.5
370
    13
100
AcDbBlockReference
  2
_OPEN
 10
-6407.400957721565
 20
4489.996622389857
 30
0.0
 41
30.0
 42
30.0
 43
30.0
 50
224.9999999999934
  0
MTEXT
  5
AD1C
330
2
100
AcDbEntity
  8
01-寸法線
 62
     4
100
AcDbMText
 10
-6866.118447233947
 20
4731.503046383291
 30
0.0
 40
52.5
 41
0.0
 71
     5
 72
     1
  1
R=30
  7
寸法ｽﾀｲﾙ
 73
     1
 44
1.0
  0
LINE
  5
AD1D
330
2
100
AcDbEntity
  8
01-寸法線
 48
0.5
100
AcDbLine
 10
-6951.118447233946
 20
4697.753046383289
 30
0.0
 11
-6781.118447233946
 21
4697.753046383291
 31
0.0
  0
LINE
  5
AD2A
330
2
100
AcDbEntity
  8
01-寸法線
 48
0.5
100
AcDbLine
 10
-6573.362023240503
 20
4489.996622389849
 30
0.0
 11
-6781.118447233946
 21
4697.753046383291
 31
0.0
  0
INSERT
  5
AD2B
330
2
100
AcDbEntity
  8
01-寸法線
 62
     4
 48
0.5
370
    13
100
AcDbBlockReference
  2
_OPEN
 10
-6573.362023240509
 20
4489.996622389857
 30
0.0
 41
-30.0
 42
30.0
 43
30.0
 50
135.0000000000065
  0
MTEXT
  5
AD2C
330
2
100
AcDbEntity
  8
01-寸法線
 62
     4
100
AcDbMText
 10
-6114.644533728128
 20
4731.503046383291
 30
0.0
 40
52.5
 41
0.0
 71
     5
 72
     1
  1
R=30
  7
寸法ｽﾀｲﾙ
 73
     1
 44
1.0
  0
LINE
  5
AD2D
330
2
100
AcDbEntity
  8
01-寸法線
 48
0.5
100
AcDbLine
 10
-6199.644533728128
 20
4697.753046383291
 30
0.0
 11
-6029.644533728127
 21
4697.753046383292
 31
0.0
  0
LINE
  5
AD33
330
2
100
AcDbEntity
  8
02-外形線
 48
0.5
100
AcDbLine
 10
-6695.381490481037
 20
3047.753046383292
 30
0.0
 11
-6365.381490481036
 21
3047.753046383292
 31
0.0
  0
LINE
  5
AD35
330
2
100
AcDbEntity
  8
02-外形線
 48
0.5
100
AcDbLine
 10
-6365.381490481038
 20
1047.753046383292
 30
0.0
 11
-6695.381490481037
 21
1047.753046383292
 31
0.0
  0
LINE
  5
AD36
330
2
100
AcDbEntity
  8
02-外形線
 48
0.5
100
AcDbLine
 10
-6695.381490481037
 20
1047.753046383292
 30
0.0
 11
-6695.381490481037
 21
3047.753046383292
 31
0.0
  0
LINE
  5
AD39
330
2
100
AcDbEntity
  8
02-外形線
 48
0.5
100
AcDbLine
 10
-6690.381490481037
 20
1047.753046383292
 30
0.0
 11
-6690.381490481037
 21
3047.753046383292
 31
0.0
  0
LINE
  5
AD3B
330
2
100
AcDbEntity
  8
02-外形線
 48
0.5
100
AcDbLine
 10
-6690.381490481037
 20
1052.753046383291
 30
0.0
 11
-6380.381490481037
 21
1052.753046383291
 31
0.0
  0
LINE
  5
AD3C
330
2
100
AcDbEntity
  8
02-外形線
 48
0.5
100
AcDbLine
 10
-6600.381490481037
 20
3047.753046383292
 30
0.0
 11
-6600.381490481037
 21
1052.753046383292
 31
0.0
  0
LINE
  5
AD3D
330
2
100
AcDbEntity
  8
02-外形線
 48
0.5
100
AcDbLine
 10
-6580.381490481037
 20
1052.753046383291
 30
0.0
 11
-6580.381490481037
 21
3047.753046383292
 31
0.0
  0
LINE
  5
AD3E
330
2
100
AcDbEntity
  8
02-外形線
 48
0.5
100
AcDbLine
 10
-6400.381490481037
 20
3047.753046383292
 30
0.0
 11
-6400.381490481037
 21
1052.753046383291
 31
0.0
  0
DIMENSION
  5
AD40
330
2
100
AcDbEntity
  8
01-寸法線
 48
0.5
100
AcDbDimension
  2
*D24
 10
-6995.381490481037
 20
3047.753046383292
 30
0.0
 11
-7029.131490481038
 21
2047.753046383291
 31
0.0
 70
    32
 71
     5
 42
2000.0
  3
スタイル15
100
AcDbAlignedDimension
 13
-6695.381490481037
 23
1047.753046383292
 33
0.0
 14
-6695.381490481037
 24
3047.753046383292
 34
0.0
 50
90.0
100
AcDbRotatedDimension
  0
TEXT
  5
AD4D
330
2
100
AcDbEntity
  8
08-下線
100
AcDbText
 10
-6711.381490481037
 20
858.5530463832917
 30
0.0
 40
52.5
  1
ｼｰﾙ溝
  7
ｵﾘｼﾞﾅﾙｽﾀｲﾙ
 72
     1
 11
-6615.381490481038
 21
847.7530463832918
 31
0.0
100
AcDbText
 73
     1
  0
LINE
  5
AD4E
330
2
100
AcDbEntity
  8
01-寸法線
 48
0.5
100
AcDbLine
 10
-6490.381490481038
 20
847.7530463832918
 30
0.0
 11
-6490.381490481038
 21
1047.753046383292
 31
0.0
  0
LINE
  5
AD4F
330
2
100
AcDbEntity
  8
01-寸法線
 48
0.5
100
AcDbLine
 10
-6740.381490481038
 20
847.7530463832918
 30
0.0
 11
-6490.381490481038
 21
847.7530463832918
 31
0.0
  0
INSERT
  5
AD50
330
2
100
AcDbEntity
  8
01-寸法線
 62
     4
 48
0.5
370
    13
100
AcDbBlockReference
  2
_OPEN
 10
-6490.381490481038
 20
1047.753046383292
 30
0.0
 41
30.0
 42
30.0
 43
30.0
 50
90.0
  0
LINE
  5
AD56
330
2
100
AcDbEntity
  8
03-隠れ線
 48
0.5
100
AcDbLine
 10
-6387.381490481037
 20
2912.753046383293
 30
0.0
 11
-6387.381490481037
 21
3047.753046383293
 31
0.0
  0
LINE
  5
AD57
330
2
100
AcDbEntity
  8
03-隠れ線
 48
0.5
100
AcDbLine
 10
-6371.381490481037
 20
2906.753046383293
 30
0.0
 11
-6387.381490481037
 21
2912.753046383293
 31
0.0
  0
LINE
  5
AD58
330
2
100
AcDbEntity
  8
03-隠れ線
 48
0.5
100
AcDbLine
 10
-6427.381490481038
 20
2958.753046383292
 30
0.0
 11
-6427.381490481038
 21
2986.753046383292
 31
0.0
  0
LINE
  5
AD59
330
2
100
AcDbEntity
  8
03-隠れ線
 48
0.5
100
AcDbLine
 10
-6387.381490481038
 20
2981.253046383292
 30
0.0
 11
-6427.381490481038
 21
2981.253046383292
 31
0.0
  0
LINE
  5
AD5A
330
2
100
AcDbEntity
  8
03-隠れ線
 48
0.5
100
AcDbLine
 10
-6387.381490481038
 20
2964.253046383292
 30
0.0
 11
-6427.381490481038
 21
2964.253046383292
 31
0.0
  0
LINE
  5
AD95
330
2
100
AcDbEntity
  8
02-外形線
 48
0.5
100
AcDbLine
 10
-6371.381490481037
 20
2906.753046383293
 30
0.0
 11
-6371.381490481037
 21
3047.753046383292
 31
0.0
  0
LINE
  5
ADAD
330
2
100
AcDbEntity
  8
02-外形線
 48
0.5
100
AcDbLine
 10
-1860.381490481037
 20
3967.753046383292
 30
0.0
 11
-1530.381490481037
 21
3967.753046383292
 31
0.0
  0
ARC
  5
ADBA
330
2
100
AcDbEntity
  8
02-外形線
 48
0.5
100
AcDbCircle
 10
-1592.5311173444
 20
4287.753046383292
 30
0.0
 40
30.0
100
AcDbArc
 50
5.710593137499581
 51
90.0
  0
ARC
  5
ADBB
330
2
100
AcDbEntity
  8
02-外形線
 48
0.5
100
AcDbCircle
 10
-1718.231863617673
 20
4287.753046383292
 30
0.0
 40
30.0
100
AcDbArc
 50
90.0
 51
174.2894068625003
  0
LINE
  5
ADBC
330
2
100
AcDbEntity
  8
02-外形線
 48
0.5
100
AcDbLine
 10
-1765.381490481037
 20
4117.753046383293
 30
0.0
 11
-1748.082979323973
 21
4290.738157953921
 31
0.0
  0
LINE
  5
ADBD
330
2
100
AcDbEntity
  8
02-外形線
 48
0.5
100
AcDbLine
 10
-1855.381490481037
 20
4117.753046383291
 30
0.0
 11
-1765.381490481037
 21
4117.753046383293
 31
0.0
  0
LINE
  5
ADBE
330
2
100
AcDbEntity
  8
02-外形線
 48
0.5
100
AcDbLine
 10
-1562.6800016381
 20
4290.738157953922
 30
0.0
 11
-1530.381490481037
 21
3967.753046383292
 31
0.0
  0
LINE
  5
ADC1
330
2
100
AcDbEntity
  8
02-外形線
 48
0.5
100
AcDbLine
 10
-1718.231863617673
 20
4317.753046383291
 30
0.0
 11
-1592.5311173444
 21
4317.753046383291
 31
0.0
  0
LINE
  5
ADC6
330
2
100
AcDbEntity
  8
02-外形線
 48
0.5
100
AcDbLine
 10
-1700.132112375431
 20
4297.753046383292
 30
0.0
 11
-1610.630868586641
 21
4297.753046383292
 31
0.0
  0
LINE
  5
ADD2
330
2
100
AcDbEntity
  8
02-外形線
 48
0.5
100
AcDbLine
 10
-1747.281739238796
 20
4097.753046383292
 30
0.0
 11
-1729.983228081731
 21
4270.738157953922
 31
0.0
  0
LINE
  5
ADD4
330
2
100
AcDbEntity
  8
02-外形線
 48
0.5
100
AcDbLine
 10
-1856.048157147704
 20
4097.753046383291
 30
0.0
 11
-1747.281739238796
 21
4097.753046383292
 31
0.0
  0
LINE
  5
ADD8
330
2
100
AcDbEntity
  8
02-外形線
 48
0.5
100
AcDbLine
 10
-1856.21482381437
 20
4092.753046383291
 30
0.0
 11
-1742.756801428235
 21
4092.753046383291
 31
0.0
  0
LINE
  5
ADDA
330
2
100
AcDbEntity
  8
02-外形線
 48
0.5
100
AcDbLine
 10
-1742.756801428235
 20
4092.753046383292
 30
0.0
 11
-1725.008042130681
 21
4270.240639358816
 31
0.0
  0
LINE
  5
ADDC
330
2
100
AcDbEntity
  8
02-外形線
 48
0.5
100
AcDbLine
 10
-1700.132112375431
 20
4292.753046383292
 30
0.0
 11
-1610.630868586642
 21
4292.753046383292
 31
0.0
  0
LINE
  5
ADDF
330
2
100
AcDbEntity
  8
02-外形線
 48
0.5
100
AcDbLine
 10
-1747.281739238796
 20
4097.753046383292
 30
0.0
 11
-1742.756801428235
 21
4092.753046383292
 31
0.0
  0
ARC
  5
ADE3
330
2
100
AcDbEntity
  8
02-外形線
 48
0.5
100
AcDbCircle
 10
-1700.132112375431
 20
4267.753046383291
 30
0.0
 40
30.0
100
AcDbArc
 50
90.0
 51
174.2894068624998
  0
ARC
  5
ADE4
330
2
100
AcDbEntity
  8
02-外形線
 48
0.5
100
AcDbCircle
 10
-1610.630868586641
 20
4267.753046383291
 30
0.0
 40
30.0
100
AcDbArc
 50
5.710593137499734
 51
90.0
  0
ARC
  5
ADE5
330
2
100
AcDbEntity
  8
02-外形線
 48
0.5
100
AcDbCircle
 10
-1700.132112375431
 20
4267.753046383291
 30
0.0
 40
25.0
100
AcDbArc
 50
90.0
 51
174.2894068624998
  0
ARC
  5
ADE6
330
2
100
AcDbEntity
  8
02-外形線
 48
0.5
100
AcDbCircle
 10
-1610.630868586642
 20
4267.753046383291
 30
0.0
 40
25.0
100
AcDbArc
 50
5.710593137499684
 51
90.0
  0
DIMENSION
  5
ADE9
330
2
100
AcDbEntity
  8
01-寸法線
 48
0.5
100
AcDbDimension
  2
*D25
 10
-1755.38149048104
 20
4217.753046383291
 30
0.0
 11
-1845.888414907224
 21
4260.722069047191
 31
0.0
 70
    33
 71
     5
 42
20.00000000000318
  3
スタイル15
100
AcDbAlignedDimension
 13
-1735.480746676836
 23
4215.762972002871
 33
0.0
 14
-1755.38149048104
 24
4217.753046383291
 34
0.0
  0
LINE
  5
ADFA
330
2
100
AcDbEntity
  8
01-寸法線
 48
0.5
100
AcDbLine
 10
-1655.381490481058
 20
4307.75304638327
 30
0.0
 11
-1555.381490481058
 21
4407.75304638327
 31
0.0
  0
TEXT
  5
ADFD
330
2
100
AcDbEntity
  8
08-下線
100
AcDbText
 10
-1526.381490481058
 20
4418.55304638327
 30
0.0
 40
52.5
  1
ｼｰﾙ溝
  7
ｵﾘｼﾞﾅﾙｽﾀｲﾙ
 72
     1
 11
-1430.381490481059
 21
4407.75304638327
 31
0.0
100
AcDbText
 73
     1
  0
LINE
  5
ADFE
330
2
100
AcDbEntity
  8
01-寸法線
 48
0.5
100
AcDbLine
 10
-1555.381490481059
 20
4407.75304638327
 30
0.0
 11
-1305.381490481059
 21
4407.75304638327
 31
0.0
  0
INSERT
  5
ADFF
330
2
100
AcDbEntity
  8
01-寸法線
 62
     4
 48
0.5
370
    13
100
AcDbBlockReference
  2
_OPEN
 10
-1655.381490481069
 20
4307.753046383267
 30
0.0
 41
30.0
 42
30.0
 43
30.0
 50
224.9999999999981
  0
LINE
  5
AE6E
330
2
100
AcDbEntity
  8
02-外形線
 48
0.5
100
AcDbLine
 10
-1100.381490481036
 20
4117.753046383291
 30
0.0
 11
-955.3814904810362
 21
4117.753046383291
 31
0.0
  0
LINE
  5
AE72
330
2
100
AcDbEntity
  8
02-外形線
 48
0.5
100
AcDbLine
 10
-1100.381490481036
 20
3967.753046383291
 30
0.0
 11
-950.3814904810372
 21
3967.753046383291
 31
0.0
  0
LINE
  5
AE73
330
2
100
AcDbEntity
  8
02-外形線
 48
0.5
100
AcDbLine
 10
-955.3814904810362
 20
4317.75304638329
 30
0.0
 11
-1100.381490481036
 21
4317.75304638329
 31
0.0
  0
LINE
  5
AE8C
330
2
100
AcDbEntity
  8
02-外形線
 48
0.5
100
AcDbLine
 10
-955.3814904810367
 20
4097.75304638329
 30
0.0
 11
-955.3814904810371
 21
4317.75304638329
 31
0.0
  0
LINE
  5
AE8D
330
2
100
AcDbEntity
  8
02-外形線
 48
0.5
100
AcDbLine
 10
-950.3814904810372
 20
4292.753046383291
 30
0.0
 11
-950.3814904810372
 21
3967.753046383291
 31
0.0
  0
LINE
  5
AE9B
330
2
100
AcDbEntity
  8
03-隠れ線
 48
0.5
100
AcDbLine
 10
-955.3814904810367
 20
4097.75304638329
 30
0.0
 11
-950.3814904810367
 21
4092.75304638329
 31
0.0
  0
LINE
  5
AE9E
330
2
100
AcDbEntity
  8
02-外形線
 48
0.5
100
AcDbLine
 10
-955.3814904810371
 20
4297.753046383291
 30
0.0
 11
-950.3814904810372
 21
4292.753046383291
 31
0.0
  0
LINE
  5
AF5B
330
2
100
AcDbEntity
  8
06-中心線
 48
0.5
100
AcDbLine
 10
-1100.381490481037
 20
3917.753046383291
 30
0.0
 11
-1100.381490481036
 21
4367.75304638329
 31
0.0
  0
DIMENSION
  5
AF65
330
2
100
AcDbEntity
  8
01-寸法線
 48
0.5
100
AcDbDimension
  2
*D26
 10
-955.3814904810362
 20
4517.753046383291
 30
0.0
 11
-1034.198157147703
 21
4551.503046383292
 31
0.0
 70
    32
 71
     5
 42
4.99999999999909
  3
スタイル15
100
AcDbAlignedDimension
 13
-950.3814904810372
 23
4317.753046383291
 33
0.0
 14
-955.3814904810362
 24
4317.75304638329
 34
0.0
100
AcDbRotatedDimension
  0
LINE
  5
AFCE
330
2
100
AcDbEntity
  8
DEFPOINTS
 48
0.5
100
AcDbLine
 10
114.6185095189636
 20
5832.753046383292
 30
0.0
 11
114.618509518963
 21
189.7530463832918
 31
0.0
  0
DIMENSION
  5
B0BC
330
2
100
AcDbEntity
  8
01-寸法線
 48
0.5
100
AcDbDimension
  2
*D27
 10
-6380.381490481037
 20
4697.753046383293
 30
0.0
 11
-6286.048157147703
 21
4731.503046383292
 31
0.0
 70
    32
 71
     5
 42
20.0
  3
スタイル15
100
AcDbAlignedDimension
 13
-6400.381490481037
 23
4497.753046383293
 33
0.0
 14
-6380.381490481037
 24
4297.753046383293
 34
0.0
100
AcDbRotatedDimension
  0
DIMENSION
  5
B0D1
330
2
100
AcDbEntity
  8
01-寸法線
 48
0.5
100
AcDbDimension
  2
*D28
 10
-6695.381490481037
 20
3947.753046383293
 30
0.0
 11
-6774.198157147704
 21
3981.503046383293
 31
0.0
 70
    32
 71
     5
 42
5.0
  3
スタイル15
100
AcDbAlignedDimension
 13
-6690.381490481037
 23
4147.753046383292
 33
0.0
 14
-6695.381490481037
 24
4147.753046383292
 34
0.0
100
AcDbRotatedDimension
  0
DIMENSION
  5
B0E0
330
2
100
AcDbEntity
  8
01-寸法線
 48
0.5
100
AcDbDimension
  2
*D29
 10
-6365.381490481037
 20
3947.753046383293
 30
0.0
 11
-6273.26482381437
 21
3981.503046383293
 31
0.0
 70
    32
 71
     5
 42
15.0
  3
スタイル15
100
AcDbAlignedDimension
 13
-6380.381490481037
 23
4297.753046383293
 33
0.0
 14
-6365.381490481037
 24
4147.753046383292
 34
0.0
100
AcDbRotatedDimension
  0
DIMENSION
  5
B0F0
330
2
100
AcDbEntity
  8
01-寸法線
 48
0.5
100
AcDbDimension
  2
*D30
 10
-6380.381490481037
 20
3947.753046383293
 30
0.0
 11
-6535.381490481038
 21
3981.503046383293
 31
0.0
 70
    32
 71
     5
 42
310.0
  3
スタイル15
100
AcDbAlignedDimension
 13
-6690.381490481037
 23
4147.753046383292
 33
0.0
 14
-6380.381490481037
 24
4147.753046383292
 34
0.0
100
AcDbRotatedDimension
  0
DIMENSION
  5
B0FD
330
2
100
AcDbEntity
  8
01-寸法線
 48
0.5
100
AcDbDimension
  2
*D31
 10
-6365.381490481037
 20
3847.753046383293
 30
0.0
 11
-6530.381490481037
 21
3881.503046383293
 31
0.0
 70
    32
 71
     5
 42
330.0
  3
スタイル15
100
AcDbAlignedDimension
 13
-6695.381490481037
 23
3947.753046383293
 33
0.0
 14
-6365.381490481037
 24
3947.753046383293
 34
0.0
100
AcDbRotatedDimension
  0
LINE
  5
B112
330
2
100
AcDbEntity
  8
03-隠れ線
 48
0.5
100
AcDbLine
 10
-6386.456303912718
 20
4197.703170762172
 30
0.0
 11
-6426.257791521116
 21
4193.723022001331
 31
0.0
  0
LINE
  5
B113
330
2
100
AcDbEntity
  8
03-隠れ線
 48
0.5
100
AcDbLine
 10
-6388.147867136074
 20
4214.618802995743
 30
0.0
 11
-6427.949354744474
 21
4210.638654234903
 31
0.0
  0
LINE
  5
B116
330
2
100
AcDbEntity
  8
03-隠れ線
 48
0.5
100
AcDbLine
 10
-6389.789678499919
 20
4231.036916634206
 30
0.0
 11
-6384.814492548872
 21
4181.285057123708
 31
0.0
  0
LINE
  5
B117
330
2
100
AcDbEntity
  8
03-隠れ線
 48
0.5
100
AcDbLine
 10
-6374.466105770687
 20
4238.599199279803
 30
0.0
 11
-6389.78967849992
 21
4231.036916634206
 31
0.0
  0
LINE
  5
B118
330
2
100
AcDbEntity
  8
03-隠れ線
 48
0.5
100
AcDbLine
 10
-6368.296875191386
 20
4176.906893486783
 30
0.0
 11
-6384.814492548873
 21
4181.285057123708
 31
0.0
  0
LINE
  5
B11A
330
2
100
AcDbEntity
  8
03-隠れ線
 48
0.5
100
AcDbLine
 10
-6428.496625199091
 20
4216.111358781057
 30
0.0
 11
-6425.710521066503
 21
4188.250317455176
 31
0.0
  0
LINE
  5
B126
330
2
100
AcDbEntity
  8
02-外形線
 48
0.5
100
AcDbLine
 10
-6380.381490481037
 20
1052.753046383291
 30
0.0
 11
-6380.381490481037
 21
1047.753046383292
 31
0.0
  0
LINE
  5
B127
330
2
100
AcDbEntity
  8
02-外形線
 48
0.5
100
AcDbLine
 10
-6365.381490481036
 20
3047.753046383292
 30
0.0
 11
-6365.381490481036
 21
1047.753046383292
 31
0.0
  0
LINE
  5
B133
330
2
100
AcDbEntity
  8
02-外形線
 48
0.5
100
AcDbLine
 10
-6371.381490481038
 20
1188.753046383291
 30
0.0
 11
-6371.381490481038
 21
1047.753046383292
 31
0.0
  0
LINE
  5
B134
330
2
100
AcDbEntity
  8
03-隠れ線
 48
0.5
100
AcDbLine
 10
-6387.381490481038
 20
1182.753046383291
 30
0.0
 11
-6387.381490481038
 21
1047.753046383291
 31
0.0
  0
LINE
  5
B135
330
2
100
AcDbEntity
  8
03-隠れ線
 48
0.5
100
AcDbLine
 10
-6371.381490481038
 20
1188.753046383291
 30
0.0
 11
-6387.381490481038
 21
1182.753046383291
 31
0.0
  0
LINE
  5
B136
330
2
100
AcDbEntity
  8
03-隠れ線
 48
0.5
100
AcDbLine
 10
-6387.381490481039
 20
1114.253046383291
 30
0.0
 11
-6427.381490481039
 21
1114.253046383291
 31
0.0
  0
LINE
  5
B137
330
2
100
AcDbEntity
  8
03-隠れ線
 48
0.5
100
AcDbLine
 10
-6387.381490481039
 20
1131.253046383291
 30
0.0
 11
-6427.381490481039
 21
1131.253046383291
 31
0.0
  0
LINE
  5
B138
330
2
100
AcDbEntity
  8
03-隠れ線
 48
0.5
100
AcDbLine
 10
-6427.381490481039
 20
1136.753046383291
 30
0.0
 11
-6427.381490481039
 21
1108.753046383291
 31
0.0
  0
LINE
  5
B159
330
2
100
AcDbEntity
  8
02-外形線
 48
0.5
100
AcDbLine
 10
-1563.481241723279
 20
4097.753046383291
 30
0.0
 11
-1543.381490481037
 21
4097.753046383291
 31
0.0
  0
LINE
  5
B15A
330
2
100
AcDbEntity
  8
02-外形線
 48
0.5
100
AcDbLine
 10
-1568.006179533839
 20
4092.753046383291
 30
0.0
 11
-1542.881490481037
 21
4092.753046383291
 31
0.0
  0
LINE
  5
B15B
330
2
100
AcDbEntity
  8
02-外形線
 48
0.5
100
AcDbLine
 10
-1568.006179533839
 20
4092.753046383291
 30
0.0
 11
-1563.481241723279
 21
4097.753046383291
 31
0.0
  0
LINE
  5
BC50
330
2
100
AcDbEntity
  8
02-外形線
 48
0.5
100
AcDbLine
 10
-6397.381490481038
 20
4467.753046383292
 30
0.0
 11
-6365.381490481037
 21
4147.753046383292
 31
0.0
  0
LINE
  5
C4DD
330
2
100
AcDbEntity
  8
02-外形線
 48
0.5
100
AcDbLine
 10
-1580.779752880342
 20
4270.738157953921
 30
0.0
 11
-1563.481241723279
 21
4097.753046383291
 31
0.0
  0
LINE
  5
C4DF
330
2
100
AcDbEntity
  8
02-外形線
 48
0.5
100
AcDbLine
 10
-1585.754938831392
 20
4270.240639358816
 30
0.0
 11
-1568.006179533839
 21
4092.753046383291
 31
0.0
  0
DIMENSION
  5
C509
330
2
100
AcDbEntity
  8
01-寸法線
 48
0.5
100
AcDbDimension
  2
*D32
 10
-1330.381490481037
 20
3522.753046383292
 30
0.0
 11
-1364.131490481037
 21
3601.569713049958
 31
0.0
 70
    32
 71
     5
 42
5.0
  3
スタイル15
100
AcDbAlignedDimension
 13
-1530.381490481037
 23
3517.753046383293
 33
0.0
 14
-1530.381490481037
 24
3522.753046383292
 34
0.0
 50
90.0
100
AcDbRotatedDimension
  0
LINE
  5
C50A
330
2
100
AcDbEntity
  8
02-外形線
 48
0.5
100
AcDbLine
 10
-1530.381490481037
 20
3517.753046383292
 30
0.0
 11
-1530.381490481037
 21
3667.753046383293
 31
0.0
  0
LINE
  5
C50B
330
2
100
AcDbEntity
  8
02-外形線
 48
0.5
100
AcDbLine
 10
-1565.381490481037
 20
3667.753046383293
 30
0.0
 11
-1565.381490481037
 21
3522.753046383292
 31
0.0
  0
LINE
  5
C50C
330
2
100
AcDbEntity
  8
02-外形線
 48
0.5
100
AcDbLine
 10
-1860.381490481037
 20
3517.753046383293
 30
0.0
 11
-1860.381490481038
 21
3667.753046383293
 31
0.0
  0
LINE
  5
C50D
330
2
100
AcDbEntity
  8
02-外形線
 48
0.5
100
AcDbLine
 10
-1855.381490481037
 20
3517.753046383293
 30
0.0
 11
-1855.381490481037
 21
3667.753046383293
 31
0.0
  0
LINE
  5
C50E
330
2
100
AcDbEntity
  8
02-外形線
 48
0.5
100
AcDbLine
 10
-1765.381490481037
 20
3667.753046383292
 30
0.0
 11
-1765.381490481037
 21
3522.753046383293
 31
0.0
  0
LINE
  5
C50F
330
2
100
AcDbEntity
  8
02-外形線
 48
0.5
100
AcDbLine
 10
-1745.381490481037
 20
3522.753046383292
 30
0.0
 11
-1745.381490481037
 21
3667.753046383293
 31
0.0
  0
LINE
  5
C510
330
2
100
AcDbEntity
  8
02-外形線
 48
0.5
100
AcDbLine
 10
-1565.381490481037
 20
3667.753046383293
 30
0.0
 11
-1565.381490481037
 21
3522.753046383292
 31
0.0
  0
LINE
  5
C511
330
2
100
AcDbEntity
  8
02-外形線
 48
0.5
100
AcDbLine
 10
-1855.381490481037
 20
3522.753046383292
 30
0.0
 11
-1543.381490481038
 21
3522.753046383292
 31
0.0
  0
LINE
  5
C512
330
2
100
AcDbEntity
  8
02-外形線
 48
0.5
100
AcDbLine
 10
-1530.381490481037
 20
3517.753046383292
 30
0.0
 11
-1860.381490481037
 21
3517.753046383293
 31
0.0
  0
LINE
  5
C513
330
2
100
AcDbEntity
  8
02-外形線
 48
0.5
100
AcDbLine
 10
-1543.381490481038
 20
3522.753046383292
 30
0.0
 11
-1543.381490481038
 21
3517.753046383292
 31
0.0
  0
LINE
  5
C514
330
2
100
AcDbEntity
  8
06-中心線
 48
0.5
100
AcDbLine
 10
-1480.381490481037
 20
3667.753046383293
 30
0.0
 11
-1910.381490481037
 21
3667.753046383293
 31
0.0
  0
TEXT
  5
C599
330
2
100
AcDbEntity
  8
08-下線
100
AcDbText
 10
-1857.03863333818
 20
3011.124474954721
 30
0.0
 40
65.0
  1
%%Uｼｰﾙ材の品質及び性能
  7
ｵﾘｼﾞﾅﾙｽﾀｲﾙ
 72
     1
 11
-1405.381490481037
 21
2997.753046383292
 31
0.0
100
AcDbText
 73
     1
  0
TEXT
  5
C59A
330
2
100
AcDbEntity
  8
08-下線
100
AcDbText
 10
-1293.981490481037
 20
2671.503046383292
 30
0.0
 40
52.5
  1
0.05以上
  7
ｵﾘｼﾞﾅﾙｽﾀｲﾙ
 72
     1
 11
-1140.381490481037
 21
2697.753046383292
 31
0.0
100
AcDbText
 73
     2
  0
TEXT
  5
C59B
330
2
100
AcDbEntity
  8
08-下線
100
AcDbText
 10
-1293.981490481037
 20
2471.503046383292
 30
0.0
 40
52.5
  1
0.05以下
  7
ｵﾘｼﾞﾅﾙｽﾀｲﾙ
 72
     1
 11
-1140.381490481037
 21
2497.753046383292
 31
0.0
100
AcDbText
 73
     2
  0
LINE
  5
C59C
330
2
100
AcDbEntity
  8
10-罫線
 48
0.5
100
AcDbLine
 10
-2390.381490481037
 20
2047.753046383292
 30
0.0
 11
-320.381490481037
 21
2047.753046383292
 31
0.0
  0
TEXT
  5
C59D
330
2
100
AcDbEntity
  8
08-下線
100
AcDbText
 10
-1851.181490481037
 20
2171.503046383292
 30
0.0
 40
52.5
  1
亀裂、削れ等異常なきこと
  7
ｵﾘｼﾞﾅﾙｽﾀｲﾙ
 72
     1
 11
-1390.381490481037
 21
2197.753046383292
 31
0.0
100
AcDbText
 73
     2
  0
LINE
  5
C59E
330
2
100
AcDbEntity
  8
10-罫線
 48
0.5
100
AcDbLine
 10
-2390.381490481037
 20
2347.753046383292
 30
0.0
 11
-320.381490481037
 21
2347.753046383292
 31
0.0
  0
LINE
  5
C59F
330
2
100
AcDbEntity
  8
10-罫線
 48
0.5
100
AcDbLine
 10
-2490.381490481037
 20
2447.753046383292
 30
0.0
 11
-320.381490481037
 21
2447.753046383292
 31
0.0
  0
LINE
  5
C5A0
330
2
100
AcDbEntity
  8
10-罫線
 48
0.5
100
AcDbLine
 10
-2390.381490481037
 20
2547.753046383292
 30
0.0
 11
-320.381490481037
 21
2547.753046383292
 31
0.0
  0
LINE
  5
C5A1
330
2
100
AcDbEntity
  8
10-罫線
 48
0.5
100
AcDbLine
 10
-2390.381490481037
 20
2647.753046383292
 30
0.0
 11
-320.381490481037
 21
2647.753046383292
 31
0.0
  0
LINE
  5
C5A2
330
2
100
AcDbEntity
  8
10-罫線
 48
0.5
100
AcDbLine
 10
-2390.381490481037
 20
2747.753046383292
 30
0.0
 11
-320.381490481037
 21
2747.753046383292
 31
0.0
  0
LINE
  5
C5A3
330
2
100
AcDbEntity
  8
10-罫線
 48
0.5
100
AcDbLine
 10
-2490.381490481037
 20
2847.753046383292
 30
0.0
 11
-320.381490481037
 21
2847.753046383292
 31
0.0
  0
TEXT
  5
C5A4
330
2
100
AcDbEntity
  8
08-下線
100
AcDbText
 10
-1543.981490481037
 20
2371.503046383292
 30
0.0
 40
52.5
  1
規 格 値
  7
ｵﾘｼﾞﾅﾙｽﾀｲﾙ
 72
     1
 11
-1390.381490481037
 21
2397.753046383292
 31
0.0
100
AcDbText
 73
     2
  0
TEXT
  5
C5A5
330
2
100
AcDbEntity
  8
08-下線
100
AcDbText
 10
-1543.981490481037
 20
2271.503046383292
 30
0.0
 40
52.5
  1
外観表面
  7
ｵﾘｼﾞﾅﾙｽﾀｲﾙ
 72
     1
 11
-1390.381490481037
 21
2297.753046383292
 31
0.0
100
AcDbText
 73
     2
  0
TEXT
  5
C5A6
330
2
100
AcDbEntity
  8
08-下線
100
AcDbText
 10
-1390.381490481036
 20
1771.503046383292
 30
0.0
 40
52.5
  1
異常なきこと
  7
ｵﾘｼﾞﾅﾙｽﾀｲﾙ
 72
     2
 11
-929.5814904810368
 21
1797.753046383292
 31
0.0
100
AcDbText
 73
     2
  0
LINE
  5
C5A7
330
2
100
AcDbEntity
  8
10-罫線
 48
0.5
100
AcDbLine
 10
-2490.381490481037
 20
1747.753046383292
 30
0.0
 11
-320.381490481037
 21
1747.753046383292
 31
0.0
  0
TEXT
  5
C5A8
330
2
100
AcDbEntity
  8
08-下線
100
AcDbText
 10
-1851.181490481036
 20
1871.503046383292
 30
0.0
 40
52.5
  1
亀裂、破れ、溶け等
  7
ｵﾘｼﾞﾅﾙｽﾀｲﾙ
 11
-1851.181490481036
 21
1897.753046383291
 31
0.0
100
AcDbText
 73
     2
  0
TEXT
  5
C5AA
330
2
100
AcDbEntity
  8
08-下線
100
AcDbText
 10
-1543.981490481037
 20
1971.503046383292
 30
0.0
 40
52.5
  1
外観表面
  7
ｵﾘｼﾞﾅﾙｽﾀｲﾙ
 72
     1
 11
-1390.381490481037
 21
1997.753046383292
 31
0.0
100
AcDbText
 73
     2
  0
TEXT
  5
C5AB
330
2
100
AcDbEntity
  8
08-下線
100
AcDbText
 10
-2351.581490481037
 20
2371.503046383292
 30
0.0
 40
52.5
  1
試 験 項 目
  7
ｵﾘｼﾞﾅﾙｽﾀｲﾙ
 72
     1
 11
-2140.381490481037
 21
2397.753046383292
 31
0.0
100
AcDbText
 73
     2
  0
LINE
  5
C5AC
330
2
100
AcDbEntity
  8
10-罫線
 48
0.5
100
AcDbLine
 10
-2390.381490481037
 20
2847.753046383292
 30
0.0
 11
-2390.381490481037
 21
1747.753046383292
 31
0.0
  0
LINE
  5
C5AD
330
2
100
AcDbEntity
  8
10-罫線
 48
0.5
100
AcDbLine
 10
-1890.381490481037
 20
2847.753046383292
 30
0.0
 11
-1890.381490481037
 21
1747.753046383292
 31
0.0
  0
LINE
  5
C5AE
330
2
100
AcDbEntity
  8
10-罫線
 48
0.5
100
AcDbLine
 10
-2490.381490481037
 20
2847.753046383292
 30
0.0
 11
-2490.381490481037
 21
1747.753046383292
 31
0.0
  0
TEXT
  5
C5AF
330
2
100
AcDbEntity
  8
08-下線
100
AcDbText
 10
-2466.631490481037
 20
2328.153046383292
 30
0.0
 40
52.5
  1
製品性能試験
 50
270.0
  7
縦字ｽﾀｲﾙ
 72
     1
 11
-2440.381490481037
 21
2097.753046383292
 31
0.0
100
AcDbText
 73
     2
  0
TEXT
  5
C5B0
330
2
100
AcDbEntity
  8
08-下線
100
AcDbText
 10
-2332.381490481037
 20
1971.503046383292
 30
0.0
 40
52.5
  1
耐ｱｽﾌｧﾙﾄ性
  7
ｵﾘｼﾞﾅﾙｽﾀｲﾙ
 72
     1
 11
-2140.381490481037
 21
1997.753046383292
 31
0.0
100
AcDbText
 73
     2
  0
TEXT
  5
C5B1
330
2
100
AcDbEntity
  8
08-下線
100
AcDbText
 10
-2255.581490481037
 20
2271.503046383292
 30
0.0
 40
52.5
  1
耐候性
  7
ｵﾘｼﾞﾅﾙｽﾀｲﾙ
 72
     1
 11
-2140.381490481037
 21
2297.753046383292
 31
0.0
100
AcDbText
 73
     2
  0
TEXT
  5
C5B2
330
2
100
AcDbEntity
  8
08-下線
100
AcDbText
 10
-2351.581490481037
 20
2771.503046383292
 30
0.0
 40
52.5
  1
試 験 項 目
  7
ｵﾘｼﾞﾅﾙｽﾀｲﾙ
 72
     1
 11
-2140.381490481037
 21
2797.753046383292
 31
0.0
100
AcDbText
 73
     2
  0
TEXT
  5
C5B3
330
2
100
AcDbEntity
  8
08-下線
100
AcDbText
 10
-2370.781490481037
 20
2471.503046383292
 30
0.0
 40
52.5
  1
50％圧縮硬さ
  7
ｵﾘｼﾞﾅﾙｽﾀｲﾙ
 72
     1
 11
-2140.381490481037
 21
2497.753046383292
 31
0.0
100
AcDbText
 73
     2
  0
TEXT
  5
C5B4
330
2
100
AcDbEntity
  8
08-下線
100
AcDbText
 10
-2293.981490481037
 20
2671.503046383292
 30
0.0
 40
52.5
  1
引張強さ
  7
ｵﾘｼﾞﾅﾙｽﾀｲﾙ
 72
     1
 11
-2140.381490481037
 21
2697.753046383292
 31
0.0
100
AcDbText
 73
     2
  0
TEXT
  5
C5B5
330
2
100
AcDbEntity
  8
08-下線
100
AcDbText
 10
-2466.631490481037
 20
2801.353046383292
 30
0.0
 40
52.5
  1
一般物性
 50
270.0
  7
縦字ｽﾀｲﾙ
 72
     1
 11
-2440.381490481037
 21
2647.753046383292
 31
0.0
100
AcDbText
 73
     2
  0
TEXT
  5
C5B6
330
2
100
AcDbEntity
  8
08-下線
100
AcDbText
 10
-2255.581490481037
 20
2571.503046383292
 30
0.0
 40
52.5
  1
伸び率
  7
ｵﾘｼﾞﾅﾙｽﾀｲﾙ
 72
     1
 11
-2140.381490481037
 21
2597.753046383292
 31
0.0
100
AcDbText
 73
     2
  0
TEXT
  5
C5B7
330
2
100
AcDbEntity
  8
08-下線
100
AcDbText
 10
-1736.381490481037
 20
2771.503046383292
 30
0.0
 40
52.5
  1
単 位
  7
ｵﾘｼﾞﾅﾙｽﾀｲﾙ
 72
     1
 11
-1640.381490481037
 21
2797.753046383292
 31
0.0
100
AcDbText
 73
     2
  0
TEXT
  5
C5B8
330
2
100
AcDbEntity
  8
08-下線
100
AcDbText
 10
-1678.781490481037
 20
2571.503046383292
 30
0.0
 40
52.5
  1
％
  7
ｵﾘｼﾞﾅﾙｽﾀｲﾙ
 72
     1
 11
-1640.381490481037
 21
2597.753046383292
 31
0.0
100
AcDbText
 73
     2
  0
TEXT
  5
C5B9
330
2
100
AcDbEntity
  8
08-下線
100
AcDbText
 10
-1717.181490481037
 20
2671.503046383292
 30
0.0
 40
52.5
  1
N/mm
  7
ｵﾘｼﾞﾅﾙｽﾀｲﾙ
 72
     1
 11
-1640.381490481037
 21
2697.753046383292
 31
0.0
100
AcDbText
 73
     2
  0
TEXT
  5
C5BA
330
2
100
AcDbEntity
  8
08-下線
100
AcDbText
 10
-1717.181490481037
 20
2471.503046383292
 30
0.0
 40
52.5
  1
N/mm
  7
ｵﾘｼﾞﾅﾙｽﾀｲﾙ
 72
     1
 11
-1640.381490481037
 21
2497.753046383292
 31
0.0
100
AcDbText
 73
     2
  0
LINE
  5
C5BB
330
2
100
AcDbEntity
  8
10-罫線
 48
0.5
100
AcDbLine
 10
-1390.381490481037
 20
2847.753046383292
 30
0.0
 11
-1390.381490481037
 21
2447.753046383292
 31
0.0
  0
TEXT
  5
C5BC
330
2
100
AcDbEntity
  8
08-下線
100
AcDbText
 10
-1563.581490481038
 20
2499.003046383292
 30
0.0
 40
25.0
  1
2
  7
ｵﾘｼﾞﾅﾙｽﾀｲﾙ
 11
-1563.581490481038
 21
2524.003046383292
 31
0.0
100
AcDbText
 73
     3
  0
TEXT
  5
C5BD
330
2
100
AcDbEntity
  8
08-下線
100
AcDbText
 10
-1563.581490481038
 20
2699.003046383292
 30
0.0
 40
25.0
  1
2
  7
ｵﾘｼﾞﾅﾙｽﾀｲﾙ
 11
-1563.581490481038
 21
2724.003046383292
 31
0.0
100
AcDbText
 73
     3
  0
TEXT
  5
C5BE
330
2
100
AcDbEntity
  8
08-下線
100
AcDbText
 10
-816.5814904810369
 20
2371.503046383292
 30
0.0
 40
52.5
  1
試 験 方 法
  7
ｵﾘｼﾞﾅﾙｽﾀｲﾙ
 72
     1
 11
-605.3814904810369
 21
2397.753046383292
 31
0.0
100
AcDbText
 73
     2
  0
LINE
  5
C5BF
330
2
100
AcDbEntity
  8
10-罫線
 48
0.5
100
AcDbLine
 10
-890.3814904810369
 20
2847.753046383292
 30
0.0
 11
-890.3814904810369
 21
1747.753046383292
 31
0.0
  0
LINE
  5
C5C0
330
2
100
AcDbEntity
  8
10-罫線
 48
0.5
100
AcDbLine
 10
-320.381490481037
 20
2847.753046383292
 30
0.0
 11
-320.381490481037
 21
1747.753046383292
 31
0.0
  0
TEXT
  5
C5C1
330
2
100
AcDbEntity
  8
08-下線
100
AcDbText
 10
-701.3814904810369
 20
2071.503046383292
 30
0.0
 40
52.5
  1
1000H
  7
ｵﾘｼﾞﾅﾙｽﾀｲﾙ
 72
     1
 11
-605.3814904810369
 21
2097.753046383292
 31
0.0
100
AcDbText
 73
     2
  0
TEXT
  5
C5C2
330
2
100
AcDbEntity
  8
08-下線
100
AcDbText
 10
-874.1814904810368
 20
2171.503046383292
 30
0.0
 40
52.5
  1
る ｻﾝｼｬｲﾝｶｰﾎﾞﾝ
  7
ｵﾘｼﾞﾅﾙｽﾀｲﾙ
 72
     1
 11
-605.3814904810369
 21
2197.753046383292
 31
0.0
100
AcDbText
 73
     2
  0
TEXT
  5
C5C3
330
2
100
AcDbEntity
  8
08-下線
100
AcDbText
 10
-874.1814904810368
 20
2271.503046383292
 30
0.0
 40
52.5
  1
JIS K 6266によ
  7
ｵﾘｼﾞﾅﾙｽﾀｲﾙ
 72
     1
 11
-605.3814904810369
 21
2297.753046383292
 31
0.0
100
AcDbText
 73
     2
  0
TEXT
  5
C5C4
330
2
100
AcDbEntity
  8
08-下線
100
AcDbText
 10
-682.1814904810358
 20
1871.503046383292
 30
0.0
 40
52.5
  1
1分間放置
  7
ｵﾘｼﾞﾅﾙｽﾀｲﾙ
 72
     2
 11
-336.5814904810359
 21
1897.753046383291
 31
0.0
100
AcDbText
 73
     2
  0
TEXT
  5
C5C5
330
2
100
AcDbEntity
  8
08-下線
100
AcDbText
 10
-874.1814904810372
 20
1971.503046383292
 30
0.0
 40
52.5
  1
185℃熱板で
  7
ｵﾘｼﾞﾅﾙｽﾀｲﾙ
 11
-874.1814904810372
 21
1997.753046383292
 31
0.0
100
AcDbText
 73
     2
  0
TEXT
  5
C5C6
330
2
100
AcDbEntity
  8
08-下線
100
AcDbText
 10
-816.5814904810369
 20
2771.503046383292
 30
0.0
 40
52.5
  1
試 験 方 法
  7
ｵﾘｼﾞﾅﾙｽﾀｲﾙ
 72
     1
 11
-605.3814904810369
 21
2797.753046383292
 31
0.0
100
AcDbText
 73
     2
  0
TEXT
  5
C5C7
330
2
100
AcDbEntity
  8
08-下線
100
AcDbText
 10
-797.3814904810369
 20
2571.503046383292
 30
0.0
 40
52.5
  1
JIS K 6767
  7
ｵﾘｼﾞﾅﾙｽﾀｲﾙ
 72
     1
 11
-605.3814904810369
 21
2597.753046383292
 31
0.0
100
AcDbText
 73
     2
  0
TEXT
  5
C5C8
330
2
100
AcDbEntity
  8
08-下線
100
AcDbText
 10
-797.3814904810369
 20
2671.503046383292
 30
0.0
 40
52.5
  1
JIS K 6767
  7
ｵﾘｼﾞﾅﾙｽﾀｲﾙ
 72
     1
 11
-605.3814904810369
 21
2697.753046383292
 31
0.0
100
AcDbText
 73
     2
  0
TEXT
  5
C5C9
330
2
100
AcDbEntity
  8
08-下線
100
AcDbText
 10
-797.3814904810369
 20
2471.503046383292
 30
0.0
 40
52.5
  1
JIS K 6767
  7
ｵﾘｼﾞﾅﾙｽﾀｲﾙ
 72
     1
 11
-605.3814904810369
 21
2497.753046383292
 31
0.0
100
AcDbText
 73
     2
  0
TEXT
  5
C5CA
330
2
100
AcDbEntity
  8
08-下線
100
AcDbText
 10
-1274.781490481037
 20
2571.503046383292
 30
0.0
 40
52.5
  1
100以上
  7
ｵﾘｼﾞﾅﾙｽﾀｲﾙ
 72
     1
 11
-1140.381490481037
 21
2597.753046383292
 31
0.0
100
AcDbText
 73
     2
  0
TEXT
  5
C5CB
330
2
100
AcDbEntity
  8
08-下線
100
AcDbText
 10
-1255.581490481037
 20
2771.503046383292
 30
0.0
 40
52.5
  1
規格値
  7
ｵﾘｼﾞﾅﾙｽﾀｲﾙ
 72
     1
 11
-1140.381490481037
 21
2797.753046383292
 31
0.0
100
AcDbText
 73
     2
  0
MTEXT
  5
CB07
330
2
100
AcDbEntity
  8
01-寸法線
 62
     4
 48
0.5
100
AcDbMText
 10
-1736.28104176672
 20
1073.827463531765
 30
0.0
 40
52.5
 41
0.0
 71
     5
 72
     1
  1
50
  7
寸法ｽﾀｲﾙ
 11
0.0333148302326377
 21
0.9994449069791546
 31
0.0
 73
     1
 44
1.0
  0
LINE
  5
CB08
330
2
100
AcDbEntity
  8
01-寸法線
 62
     4
 48
0.5
370
     9
100
AcDbLine
 10
-1704.881814272458
 20
1002.741944522876
 30
0.0
 11
-1700.217738039889
 21
1142.664231499952
 31
0.0
  0
CIRCLE
  5
CB09
330
2
100
AcDbEntity
  8
01-寸法線
 48
0.5
100
AcDbCircle
 10
-1405.381490481038
 20
982.7530463832916
 30
0.0
 40
415.0
  0
INSERT
  5
CB0A
330
2
100
AcDbEntity
  8
01-寸法線
 62
     4
 48
0.5
370
     9
100
AcDbBlockReference
  2
_OPEN
 10
-1111.806144349055
 20
1082.110749833909
 30
0.0
 41
29.99999999999997
 42
29.99999999999997
 43
29.99999999999997
 50
313.0908475670036
  0
LINE
  5
CB0B
330
2
100
AcDbEntity
  8
01-寸法線
 62
     4
 48
0.5
370
     9
100
AcDbLine
 10
-1257.860427052834
 20
945.4793240787607
 30
0.0
 11
-1100.852073146272
 21
1092.358106765545
 31
0.0
  0
LINE
  5
CB0C
330
2
100
AcDbEntity
  8
01-寸法線
 62
     4
 48
0.5
370
     9
100
AcDbLine
 10
-1405.381490481038
 20
982.7530463832919
 30
0.0
 11
-1188.296185629566
 21
1185.83284769596
 31
0.0
  0
MTEXT
  5
CB0D
330
2
100
AcDbEntity
  8
01-寸法線
 62
     4
 48
0.5
100
AcDbMText
 10
-1636.003402766478
 20
1080.490429578292
 30
0.0
 40
52.5
 41
0.0
 71
     5
 72
     1
  1
\A1;45
  7
寸法ｽﾀｲﾙ
 11
0.0333148302326377
 21
0.9994449069791546
 31
0.0
 73
     1
 44
1.0
  0
LINE
  5
CB0E
330
2
100
AcDbEntity
  8
01-寸法線
 62
     4
 48
0.5
370
     9
100
AcDbLine
 10
-1604.27102696989
 20
1019.399359639194
 30
0.0
 11
-1600.273247341974
 21
1139.332748476689
 31
0.0
  0
INSERT
  5
CB0F
330
2
100
AcDbEntity
  8
01-寸法線
 62
     4
 48
0.5
370
     9
100
AcDbBlockReference
  2
_OPEN
 10
-1344.788007360754
 20
1078.872535608674
 30
0.0
 41
29.99999999999983
 42
29.99999999999983
 43
29.99999999999983
 50
221.7177741256824
  0
LINE
  5
CB10
330
2
100
AcDbEntity
  8
02-外形線
 48
0.5
100
AcDbLine
 10
-1399.384821039163
 20
1162.653129639541
 30
0.0
 11
-1264.412044694239
 21
955.5329953624596
 31
0.0
  0
MTEXT
  5
CB14
330
2
100
AcDbEntity
  8
01-寸法線
 62
     4
 48
0.5
100
AcDbMText
 10
-1353.996531449627
 20
1004.561553809946
 30
0.0
 40
52.5
 41
0.0
 71
     5
 72
     1
  1
C=3
  7
寸法ｽﾀｲﾙ
 11
0.9994449069791546
 21
-0.0333148302326376
 31
0.0
 73
     1
 44
1.0
  0
LINE
  5
CB15
330
2
100
AcDbEntity
  8
01-寸法線
 48
0.5
100
AcDbLine
 10
-1386.058888946108
 20
962.0978516390573
 30
0.0
 11
-1517.282981454316
 21
751.3525767721455
 31
0.0
  0
LINE
  5
CB16
330
2
100
AcDbEntity
  8
01-寸法線
 48
0.5
100
AcDbLine
 10
-1406.047787085691
 20
962.76414824371
 30
0.0
 11
-1537.2718795939
 21
752.0188733767981
 31
0.0
  0
LINE
  5
CB17
330
2
100
AcDbEntity
  8
01-寸法線
 62
     4
 48
0.5
370
     9
100
AcDbLine
 10
-1405.381490481038
 20
982.7530463832919
 30
0.0
 11
-1620.262145481556
 21
989.9157348833091
 31
0.0
  0
LINE
  5
CB18
330
2
100
AcDbEntity
  8
01-寸法線
 62
     4
 48
0.5
370
     9
100
AcDbLine
 10
-1606.936213388501
 20
939.4437670808629
 30
0.0
 11
-1609.210949996785
 21
871.2016688323265
 31
0.0
  0
LINE
  5
CB19
330
2
100
AcDbEntity
  8
01-寸法線
 62
     4
 48
0.5
370
     9
100
AcDbLine
 10
-1558.100057558515
 20
767.7214769954223
 30
0.0
 11
-1626.342155807052
 21
769.9962136037068
 31
0.0
  0
MTEXT
  5
CB1A
330
2
100
AcDbEntity
  8
01-寸法線
 62
     4
 48
0.5
100
AcDbMText
 10
-1606.08840476712
 20
803.0898333636006
 30
0.0
 40
52.5
 41
0.0
 71
     5
 72
     1
  1
\A1;5
  7
寸法ｽﾀｲﾙ
 11
0.9994449069791546
 21
-0.0333148302326376
 31
0.0
 73
     1
 44
1.0
  0
INSERT
  5
CB1B
330
2
100
AcDbEntity
  8
01-寸法線
 62
     4
 48
0.5
370
     9
100
AcDbBlockReference
  2
_OPEN
 10
-1528.116710349141
 20
766.7220320884432
 30
0.0
 41
30.0
 42
30.0
 43
30.0
 50
358.0908475670037
  0
INSERT
  5
CB1C
330
2
100
AcDbEntity
  8
01-寸法線
 62
     4
 48
0.5
370
     9
100
AcDbBlockReference
  2
_OPEN
 10
-1508.127812209558
 20
766.0557354837905
 30
0.0
 41
30.0
 42
30.0
 43
30.0
 50
178.0908475670036
  0
LINE
  5
CB1D
330
2
100
AcDbEntity
  8
01-寸法線
 62
     4
 48
0.5
370
     9
100
AcDbLine
 10
-1508.127812209557
 20
766.0557354837905
 30
0.0
 11
-1528.116710349141
 21
766.7220320884432
 31
0.0
  0
LINE
  5
CB1E
330
2
100
AcDbEntity
  8
01-寸法線
 62
     4
 48
0.5
370
     9
100
AcDbLine
 10
-1478.144465000183
 20
765.0562905768112
 30
0.0
 11
-1448.161117790808
 21
764.0568456698322
 31
0.0
  0
LINE
  5
CB1F
330
2
100
AcDbEntity
  8
01-寸法線
 62
     4
 48
0.5
370
     9
100
AcDbLine
 10
-1620.92844208621
 20
969.9268367437271
 30
0.0
 11
-1720.872932784125
 21
973.258319766991
 31
0.0
  0
INSERT
  5
CB20
330
2
100
AcDbEntity
  8
01-寸法線
 62
     4
 48
0.5
370
     9
100
AcDbBlockReference
  2
_OPEN
 10
-1705.881259179436
 20
972.7585973135017
 30
0.0
 41
30.0
 42
30.0
 43
30.0
 50
268.0908475670037
  0
LINE
  5
CB21
330
2
100
AcDbEntity
  8
01-寸法線
 62
     4
 48
0.5
370
     9
100
AcDbLine
 10
-1605.270471876869
 20
989.4160124298194
 30
0.0
 11
-1605.936768481522
 21
969.4271142902376
 31
0.0
  0
LINE
  5
CB22
330
2
100
AcDbEntity
  8
01-寸法線
 62
     4
 48
0.5
370
     9
100
AcDbLine
 10
-1421.039460690378
 20
963.2638706971997
 30
0.0
 11
-1620.92844208621
 21
969.9268367437271
 31
0.0
  0
MTEXT
  5
CB23
330
2
100
AcDbEntity
  8
01-寸法線
 62
     4
 48
0.5
100
AcDbMText
 10
-1642.304569756679
 20
891.4554198722585
 30
0.0
 40
52.5
 41
0.0
 71
     5
 72
     1
  1
\A1;5
  7
寸法ｽﾀｲﾙ
 11
0.0333148302326377
 21
0.9994449069791546
 31
0.0
 73
     1
 44
1.0
  0
INSERT
  5
CB24
330
2
100
AcDbEntity
  8
01-寸法線
 62
     4
 48
0.5
370
     9
100
AcDbBlockReference
  2
_OPEN
 10
-1605.936768481521
 20
969.4271142902378
 30
0.0
 41
30.0
 42
30.0
 43
30.0
 50
88.09084756700368
  0
LINE
  5
CB25
330
2
100
AcDbEntity
  8
01-寸法線
 62
     4
 48
0.5
370
     9
100
AcDbLine
 10
-1420.373164085725
 20
983.2527688367814
 30
0.0
 11
-1620.262145481556
 21
989.9157348833091
 31
0.0
  0
INSERT
  5
CB26
330
2
100
AcDbEntity
  8
01-寸法線
 62
     4
 48
0.5
370
     9
100
AcDbBlockReference
  2
_OPEN
 10
-1605.270471876869
 20
989.4160124298197
 30
0.0
 41
30.0
 42
30.0
 43
30.0
 50
268.0908475670037
  0
LINE
  5
CB27
330
2
100
AcDbEntity
  8
01-寸法線
 62
     4
 48
0.5
370
     9
100
AcDbLine
 10
-1604.27102696989
 20
1019.399359639194
 30
0.0
 11
-1603.271582062911
 21
1049.382706848568
 31
0.0
  0
INSERT
  5
CB28
330
2
100
AcDbEntity
  8
01-寸法線
 62
     4
 48
0.5
370
     9
100
AcDbBlockReference
  2
_OPEN
 10
-1605.270471876869
 20
989.4160124298197
 30
0.0
 41
30.0
 42
30.0
 43
30.0
 50
268.0908475670037
  0
LINE
  5
CB29
330
2
100
AcDbEntity
  8
02-外形線
 48
0.5
100
AcDbLine
 10
-1406.047787085691
 20
962.76414824371
 30
0.0
 11
-1419.040570876419
 21
572.9806345218388
 31
0.0
  0
MTEXT
  5
CB2A
330
2
100
AcDbEntity
  8
01-寸法線
 62
     4
 48
0.5
100
AcDbMText
 10
-1076.501761791041
 20
887.4823462742059
 30
0.0
 40
52.5
 41
0.0
 71
     5
 72
     1
  1
\A1;15
  7
寸法ｽﾀｲﾙ
 11
0.730271413518895
 21
0.6831571287757416
 31
0.0
 73
     1
 44
1.0
  0
LINE
  5
CB2B
330
2
100
AcDbEntity
  8
01-寸法線
 62
     4
 48
0.5
370
     9
100
AcDbLine
 10
-1099.320858892117
 20
819.9197552382507
 30
0.0
 11
-1029.477700903169
 21
885.2569030343627
 31
0.0
  0
LINE
  5
CB2C
330
2
100
AcDbEntity
  8
01-寸法線
 62
     4
 48
0.5
370
     9
100
AcDbLine
 10
-1257.860427052832
 20
945.4793240787573
 30
0.0
 11
-1110.981644366047
 21
788.4709701721949
 31
0.0
  0
LINE
  5
CB2D
330
2
100
AcDbEntity
  8
01-寸法線
 62
     4
 48
0.5
370
     9
100
AcDbLine
 10
-1301.455259156975
 20
904.6970617877857
 30
0.0
 11
-1154.57647647019
 21
747.6887078812234
 31
0.0
  0
MTEXT
  5
CB2E
330
2
100
AcDbEntity
  8
01-寸法線
 62
     4
 48
0.5
100
AcDbMText
 10
-1328.118141936297
 20
866.0564241722044
 30
0.0
 40
52.5
 41
0.0
 71
     5
 72
     1
  1
55{\fNSimSun|b0|i0|c128|p49;\U+00B0}
  7
寸法ｽﾀｲﾙ
 11
0.8987940462991669
 21
0.4383711467890774
 31
0.0
 73
     1
 44
1.0
  0
LINE
  5
CB2F
330
2
100
AcDbEntity
  8
01-寸法線
 62
     4
 48
0.5
370
     9
100
AcDbLine
 10
-1164.823833401826
 20
758.6427790840069
 30
0.0
 11
-1121.229001297683
 21
799.4250413749784
 31
0.0
  0
INSERT
  5
CB30
330
2
100
AcDbEntity
  8
01-寸法線
 62
     4
 48
0.5
370
     9
100
AcDbBlockReference
  2
_OPEN
 10
-1164.823833401825
 20
758.6427790840068
 30
0.0
 41
29.99999999999996
 42
29.99999999999996
 43
29.99999999999996
 50
43.09084756700375
  0
LINE
  5
CB31
330
2
100
AcDbEntity
  8
01-寸法線
 62
     4
 48
0.5
370
     9
100
AcDbLine
 10
-1186.731975807392
 20
738.1480652207346
 30
0.0
 11
-1208.640118212959
 21
717.6533513574623
 31
0.0
  0
INSERT
  5
CB32
330
2
100
AcDbEntity
  8
01-寸法線
 62
     4
 48
0.5
370
     9
100
AcDbBlockReference
  2
_OPEN
 10
-1121.229001297683
 20
799.4250413749786
 30
0.0
 41
29.99999999999996
 42
29.99999999999996
 43
29.99999999999996
 50
223.0908475670037
  0
LINE
  5
CB33
330
2
100
AcDbEntity
  8
01-寸法線
 48
0.5
100
AcDbLine
 10
-1405.381490481038
 20
982.7530463832918
 30
0.0
 11
-1393.387659424481
 21
973.7448269928243
 31
0.0
  0
LINE
  5
CB34
330
2
100
AcDbEntity
  8
01-寸法線
 48
0.5
100
AcDbLine
 10
-1405.881212934528
 20
967.7613727786045
 30
0.0
 11
-1405.381490481038
 21
982.7530463832916
 31
0.0
  0
INSERT
  5
CB35
330
2
100
AcDbEntity
  8
01-寸法線
 62
     4
 48
0.5
370
     9
100
AcDbBlockReference
  2
_OPEN
 10
-1265.51786435465
 20
946.4072169479555
 30
0.0
 41
29.99999999999998
 42
29.99999999999998
 43
29.99999999999998
 50
337.8005641810561
  0
LINE
  5
CB36
330
2
100
AcDbEntity
  8
01-寸法線
 48
0.5
100
AcDbLine
 10
-1320.647270831444
 20
968.9044777444014
 30
0.0
 11
-1265.51786435465
 21
946.4072169479551
 31
0.0
  0
LINE
  5
CB37
330
2
100
AcDbEntity
  8
02-外形線
 48
0.5
100
AcDbLine
 10
-1292.69200219475
 20
912.8949473331001
 30
0.0
 11
-1266.623684015062
 21
937.2814385334493
 31
0.0
  0
INSERT
  5
CB38
330
2
100
AcDbEntity
  8
01-寸法線
 62
     4
 48
0.5
370
     9
100
AcDbBlockReference
  2
_OPEN
 10
-1301.871163098482
 20
912.3992923166275
 30
0.0
 41
-29.99999999999987
 42
30.0
 43
30.0
 50
108.3811309529503
  0
LINE
  5
CB39
330
2
100
AcDbEntity
  8
01-寸法線
 48
0.5
100
AcDbLine
 10
-1320.647270831447
 20
968.9044777444113
 30
0.0
 11
-1301.871163098483
 21
912.3992923166284
 31
0.0
  0
LINE
  5
CB3A
330
2
100
AcDbEntity
  8
01-寸法線
 48
0.5
100
AcDbLine
 10
-1279.657843104906
 20
925.0881929332747
 30
0.0
 11
-1279.657843104906
 21
925.0881929332747
 31
0.0
  0
LINE
  5
CB3B
330
2
100
AcDbEntity
  8
01-寸法線
 48
0.5
100
AcDbLine
 10
-1307.0523803167
 20
908.9008975033372
 30
0.0
 11
-1301.455259156975
 21
904.6970617877859
 31
0.0
  0
LINE
  5
CB3C
330
2
100
AcDbEntity
  8
01-寸法線
 48
0.5
100
AcDbLine
 10
-1296.343359262342
 20
909.4791616892162
 30
0.0
 11
-1301.455259156974
 21
904.6970617877859
 31
0.0
  0
LINE
  5
CB3D
330
2
100
AcDbEntity
  8
02-外形線
 48
0.5
100
AcDbLine
 10
-1406.047787085691
 20
962.76414824371
 30
0.0
 11
-1385.859138246716
 21
968.0903726207976
 31
0.0
  0
INSERT
  5
CB3E
330
2
100
AcDbEntity
  8
01-寸法線
 62
     4
 48
0.5
370
     9
100
AcDbBlockReference
  2
_OPEN
 10
-1325.422616770665
 20
922.6982504468425
 30
0.0
 41
30.00000000000024
 42
30.00000000000024
 43
30.00000000000024
 50
44.46392100832574
  0
INSERT
  5
CB3F
330
2
100
AcDbEntity
  8
01-寸法線
 62
     4
 48
0.5
370
     9
100
AcDbBlockReference
  2
_OPEN
 10
-1408.712973504301
 20
882.8085556853766
 30
0.0
 41
30.00000000000027
 42
30.00000000000027
 43
30.00000000000027
 50
186.7177741256822
  0
ARC
  5
CB40
330
2
100
AcDbEntity
  8
01-寸法線
 62
     4
 48
0.5
370
     9
100
AcDbCircle
 10
-1405.381490481038
 20
982.7530463832916
 30
0.0
 40
99.9999999999998
100
AcDbArc
 50
285.3447006843341
 51
305.8369944496489
  0
LINE
  5
CB41
330
2
100
AcDbEntity
  8
02-外形線
 48
0.5
100
AcDbLine
 10
-1311.05032400222
 20
911.9036373001605
 30
0.0
 11
-1292.692002194746
 21
912.8949473330962
 31
0.0
  0
LINE
  5
CB42
330
2
100
AcDbEntity
  8
02-外形線
 48
0.5
100
AcDbLine
 10
-1385.859138246716
 20
968.0903726207976
 30
0.0
 11
-1311.05032400222
 21
911.9036373001605
 31
0.0
  0
LINE
  5
CB43
330
2
100
AcDbEntity
  8
01-寸法線
 48
0.5
100
AcDbLine
 10
-1261.682204010321
 20
951.3439656609183
 30
0.0
 11
-1257.860427052832
 21
945.4793240787576
 31
0.0
  0
LINE
  5
CB44
330
2
100
AcDbEntity
  8
01-寸法線
 48
0.5
100
AcDbLine
 10
-1262.972326947464
 20
940.6972241773273
 30
0.0
 11
-1257.860427052832
 21
945.4793240787573
 31
0.0
  0
LINE
  5
CB45
330
2
100
AcDbEntity
  8
02-外形線
 48
0.5
100
AcDbLine
 10
-1264.412044694239
 20
955.5329953624612
 30
0.0
 11
-1266.623684015059
 21
937.2814385334491
 31
0.0
  0
TEXT
  5
CBBF
330
2
100
AcDbEntity
  8
08-下線
100
AcDbText
 10
-1643.095776195323
 20
1471.12447495472
 30
0.0
 40
65.0
  1
%%UＡ部詳細図
  7
ｵﾘｼﾞﾅﾙｽﾀｲﾙ
 72
     1
 11
-1405.381490481038
 21
1457.753046383292
 31
0.0
100
AcDbText
 73
     1
  0
LINE
  5
CBC1
330
2
100
AcDbEntity
  8
01-寸法線
 62
     4
 48
0.5
370
     9
100
AcDbLine
 10
-1614.265476039681
 20
1169.815818139553
 30
0.0
 11
-1714.209966737597
 21
1173.147301162816
 31
0.0
  0
MTEXT
  5
CBC2
330
2
100
AcDbEntity
  8
01-寸法線
 62
     4
 48
0.5
100
AcDbMText
 10
-1599.137041411247
 20
1222.586518477036
 30
0.0
 40
52.5
 41
0.0
 71
     5
 72
     1
  1
\A1;30
  7
寸法ｽﾀｲﾙ
 11
0.0000000000000001
 21
1.0
 31
0.0
 73
     1
 44
1.0
  0
LINE
  5
CBC3
330
2
100
AcDbEntity
  8
01-寸法線
 62
     4
 48
0.5
370
     9
100
AcDbLine
 10
-1565.387041411247
 20
1192.586518477034
 30
0.0
 11
-1565.387041411247
 21
1252.586518477039
 31
0.0
  0
LINE
  5
CBC4
330
2
100
AcDbEntity
  8
01-寸法線
 62
     4
 48
0.5
370
     9
100
AcDbLine
 10
-1414.376494643847
 20
1163.152852093025
 30
0.0
 11
-1614.265476039681
 21
1169.815818139553
 31
0.0
  0
LINE
  5
CBC5
330
2
100
AcDbEntity
  8
01-寸法線
 62
     4
 48
0.5
370
     9
100
AcDbLine
 10
-1414.376494643847
 20
1163.152852093025
 30
0.0
 11
-1614.265476039681
 21
1169.815818139553
 31
0.0
  0
INSERT
  5
CBC6
330
2
100
AcDbEntity
  8
01-寸法線
 62
     4
 48
0.5
370
     9
100
AcDbBlockReference
  2
_OPEN
 10
-1699.218293132909
 20
1172.647578709327
 30
0.0
 41
30.0
 42
30.0
 43
30.0
 50
88.09084756700368
  0
INSERT
  5
CBC7
330
2
100
AcDbEntity
  8
01-寸法線
 62
     4
 48
0.5
370
     9
100
AcDbBlockReference
  2
_OPEN
 10
-1599.273802434994
 20
1169.316095686063
 30
0.0
 41
30.0
 42
30.0
 43
30.0
 50
88.09084756700368
  0
INSERT
  5
CBC8
330
2
100
AcDbEntity
  8
01-寸法線
 62
     4
 48
0.5
370
     9
100
AcDbBlockReference
  2
_OPEN
 10
-1565.387041411247
 20
1162.586518477034
 30
0.0
 41
30.0
 42
30.0
 43
30.0
 50
270.0
  0
LINE
  5
CBC9
330
2
100
AcDbEntity
  8
01-寸法線
 62
     4
 48
0.5
370
     9
100
AcDbLine
 10
-1410.387041411247
 20
1282.586518477039
 30
0.0
 11
-1580.387041411247
 21
1282.586518477039
 31
0.0
  0
INSERT
  5
CBCA
330
2
100
AcDbEntity
  8
01-寸法線
 62
     4
 48
0.5
370
     9
100
AcDbBlockReference
  2
_OPEN
 10
-1565.387041411247
 20
1282.586518477039
 30
0.0
 41
30.0
 42
30.0
 43
30.0
 50
90.0
  0
MTEXT
  5
CBCC
330
2
100
AcDbEntity
  8
01-寸法線
 62
     4
 48
0.5
100
AcDbMText
 10
-1130.881540384439
 20
1151.904673395298
 30
0.0
 40
52.5
 41
0.0
 71
     5
 72
     1
  1
\A1;32
  7
寸法ｽﾀｲﾙ
 11
0.6831571287757417
 21
-0.7302714135188949
 31
0.0
 73
     1
 44
1.0
  0
MTEXT
  5
CBCD
330
2
100
AcDbEntity
  8
01-寸法線
 62
     4
 48
0.5
100
AcDbMText
 10
-1265.797089071025
 20
1186.587250415558
 30
0.0
 40
52.5
 41
0.0
 71
     5
 72
     1
  1
145{\fNSimSun|b0|i0|c128|p49;\U+00B0}
  7
寸法ｽﾀｲﾙ
 11
0.2756373558169995
 21
-0.961261695938319
 31
0.0
 73
     1
 44
1.0
  0
ARC
  5
CBCE
330
2
100
AcDbEntity
  8
01-寸法線
 62
     4
 48
0.5
370
     9
100
AcDbCircle
 10
-1399.384821039162
 20
1162.653129639541
 30
0.0
 40
99.9999999999993
100
AcDbArc
 50
320.344700684354
 51
70.83699444961917
  0
LINE
  5
CBCF
330
2
100
AcDbEntity
  8
02-外形線
 48
0.5
100
AcDbLine
 10
-1399.384821039159
 20
1162.653129639537
 30
0.0
 11
-1395.387041411247
 21
1282.586518477039
 31
0.0
  0
INSERT
  5
CBD0
330
2
100
AcDbEntity
  8
01-寸法線
 62
     4
 48
0.5
370
     9
100
AcDbBlockReference
  2
_OPEN
 10
-1199.250256832349
 20
1175.585490764325
 30
0.0
 41
29.99999999999996
 42
29.99999999999996
 43
29.99999999999996
 50
133.0908475670036
  0
LINE
  5
CBD1
330
2
100
AcDbEntity
  8
01-寸法線
 62
     4
 48
0.5
370
     9
100
AcDbLine
 10
-1178.755542969075
 20
1153.677348358758
 30
0.0
 11
-1132.300858212327
 21
1104.018892239475
 31
0.0
  0
INSERT
  5
CBD3
330
2
100
AcDbEntity
  8
01-寸法線
 62
     4
 48
0.5
370
     9
100
AcDbBlockReference
  2
_OPEN
 10
-1396.053338015898
 20
1262.597620337456
 30
0.0
 41
30.0000000000003
 42
30.0000000000003
 43
30.0000000000003
 50
169.4639210083247
  0
LINE
  5
D068
330
2
100
AcDbEntity
  8
02-外形線
 48
0.5
100
AcDbLine
 10
-1395.387041411247
 20
1282.586518477039
 30
0.0
 11
-1118.45834918322
 21
1282.586518477039
 31
0.0
  0
LINE
  5
D07C
330
2
100
AcDbEntity
  8
01-寸法線
 62
     4
 48
0.5
370
     9
100
AcDbLine
 10
-1414.384821039161
 20
1162.586518477039
 30
0.0
 11
-1580.387041411249
 21
1162.586518477039
 31
0.0
  0
CIRCLE
  5
D1B2
330
2
100
AcDbEntity
  8
01-寸法線
 48
0.5
100
AcDbCircle
 10
-6692.212974017848
 20
4242.808540278963
 30
0.0
 40
75.0
  0
TEXT
  5
D1B3
330
2
100
AcDbEntity
  8
08-下線
100
AcDbText
 10
-6869.106688077074
 20
4340.541864644981
 30
0.0
 40
52.5
  1
Ａ部
  7
ｵﾘｼﾞﾅﾙｽﾀｲﾙ
 72
     2
 11
-6715.506688077074
 21
4329.74186464498
 31
0.0
100
AcDbText
 73
     1
  0
LINE
  5
D1B9
330
2
100
AcDbEntity
  8
02-外形線
 48
0.5
100
AcDbLine
 10
-6664.708285769936
 20
4205.313500806681
 30
0.0
 11
-6658.191206225012
 21
4211.41012360677
 31
0.0
  0
LINE
  5
D1BA
330
2
100
AcDbEntity
  8
02-外形線
 48
0.5
100
AcDbLine
 10
-6691.381490481036
 20
4267.753046383293
 30
0.0
 11
-6657.638296394807
 21
4215.973012814021
 31
0.0
  0
LINE
  5
D1BB
330
2
100
AcDbEntity
  8
02-外形線
 48
0.5
100
AcDbLine
 10
-6693.047231992669
 20
4217.780801034336
 30
0.0
 11
-6688.000069782924
 21
4219.112357128607
 31
0.0
  0
LINE
  5
D1BC
330
2
100
AcDbEntity
  8
02-外形線
 48
0.5
100
AcDbLine
 10
-6688.000069782924
 20
4219.112357128607
 30
0.0
 11
-6669.297866221802
 21
4205.065673298448
 31
0.0
  0
LINE
  5
D1BD
330
2
100
AcDbEntity
  8
02-外形線
 48
0.5
100
AcDbLine
 10
-6669.297866221802
 20
4205.065673298448
 30
0.0
 11
-6664.708285769934
 21
4205.313500806681
 31
0.0
  0
LINE
  5
D1BE
330
2
100
AcDbEntity
  8
02-外形線
 48
0.5
100
AcDbLine
 10
-6657.638296394806
 20
4215.973012814024
 30
0.0
 11
-6658.191206225012
 21
4211.41012360677
 31
0.0
  0
LINE
  5
D315
330
2
100
AcDbEntity
  8
02-外形線
 48
0.5
100
AcDbLine
 10
-6691.381490481036
 20
4267.753046383293
 30
0.0
 11
-6690.381490481037
 21
4297.753046383293
 31
0.0
  0
LINE
  5
D33C
330
2
100
AcDbEntity
  8
03-隠れ線
 48
0.5
100
AcDbLine
 10
-5165.381490481036
 20
4205.065673298448
 30
0.0
 11
-3165.381490481036
 21
4205.065673298448
 31
0.0
  0
LINE
  5
D340
330
2
100
AcDbEntity
  8
02-外形線
 48
0.5
100
AcDbLine
 10
-5165.381490481036
 20
4267.753046383293
 30
0.0
 11
-3165.381490481036
 21
4267.753046383293
 31
0.0
  0
LINE
  5
D341
330
2
100
AcDbEntity
  8
02-外形線
 48
0.5
100
AcDbLine
 10
-5165.381490481036
 20
4219.112357128607
 30
0.0
 11
-3165.381490481036
 21
4219.112357128607
 31
0.0
  0
LINE
  5
D342
330
2
100
AcDbEntity
  8
02-外形線
 48
0.5
100
AcDbLine
 10
-5165.381490481036
 20
4217.780801034336
 30
0.0
 11
-3165.381490481036
 21
4217.780801034336
 31
0.0
  0
LINE
  5
D36F
330
2
100
AcDbEntity
  8
02-外形線
 48
0.5
100
AcDbLine
 10
-1856.381490481037
 20
4087.753046383292
 30
0.0
 11
-1855.381490481037
 21
4117.753046383291
 31
0.0
  0
LINE
  5
D370
330
2
100
AcDbEntity
  8
02-外形線
 48
0.5
100
AcDbLine
 10
-1860.381490481037
 20
3967.753046383291
 30
0.0
 11
-1858.047231992668
 21
4037.780801034333
 31
0.0
  0
LINE
  5
D371
330
2
100
AcDbEntity
  8
02-外形線
 48
0.5
100
AcDbLine
 10
-1822.638296394806
 20
4035.973012814022
 30
0.0
 11
-1823.191206225012
 21
4031.410123606768
 31
0.0
  0
LINE
  5
D372
330
2
100
AcDbEntity
  8
02-外形線
 48
0.5
100
AcDbLine
 10
-1834.297866221802
 20
4025.065673298446
 30
0.0
 11
-1829.708285769934
 21
4025.31350080668
 31
0.0
  0
LINE
  5
D373
330
2
100
AcDbEntity
  8
02-外形線
 48
0.5
100
AcDbLine
 10
-1853.000069782925
 20
4039.112357128605
 30
0.0
 11
-1834.297866221803
 21
4025.065673298446
 31
0.0
  0
LINE
  5
D374
330
2
100
AcDbEntity
  8
02-外形線
 48
0.5
100
AcDbLine
 10
-1858.047231992669
 20
4037.780801034334
 30
0.0
 11
-1853.000069782925
 21
4039.112357128605
 31
0.0
  0
LINE
  5
D375
330
2
100
AcDbEntity
  8
02-外形線
 48
0.5
100
AcDbLine
 10
-1856.381490481037
 20
4087.753046383292
 30
0.0
 11
-1822.638296394807
 21
4035.97301281402
 31
0.0
  0
LINE
  5
D376
330
2
100
AcDbEntity
  8
02-外形線
 48
0.5
100
AcDbLine
 10
-1829.708285769935
 20
4025.31350080668
 30
0.0
 11
-1823.191206225013
 21
4031.410123606768
 31
0.0
  0
LINE
  5
D388
330
2
100
AcDbEntity
  8
02-外形線
 48
0.5
100
AcDbLine
 10
-1100.381490481037
 20
4087.753046383292
 30
0.0
 11
-950.3814904810372
 21
4087.753046383292
 31
0.0
  0
LINE
  5
D389
330
2
100
AcDbEntity
  8
02-外形線
 48
0.5
100
AcDbLine
 10
-1100.381490481037
 20
4039.112357128605
 30
0.0
 11
-950.3814904810372
 21
4039.112357128605
 31
0.0
  0
LINE
  5
D38A
330
2
100
AcDbEntity
  8
02-外形線
 48
0.5
100
AcDbLine
 10
-1100.381490481037
 20
4037.780801034333
 30
0.0
 11
-950.3814904810372
 21
4037.780801034333
 31
0.0
  0
LINE
  5
D38B
330
2
100
AcDbEntity
  8
03-隠れ線
 48
0.5
100
AcDbLine
 10
-1100.381490481037
 20
4025.065673298446
 30
0.0
 11
-950.3814904810372
 21
4025.065673298446
 31
0.0
  0
LINE
  5
D39B
330
2
100
AcDbEntity
  8
02-外形線
 48
0.5
100
AcDbLine
 10
-1858.047231992669
 20
3667.753046383293
 30
0.0
 11
-1858.047231992669
 21
3517.753046383293
 31
0.0
  0
LINE
  5
D39C
330
2
100
AcDbEntity
  8
02-外形線
 48
0.5
100
AcDbLine
 10
-1856.381490481037
 20
3517.753046383293
 30
0.0
 11
-1856.381490481037
 21
3667.753046383293
 31
0.0
  0
LINE
  5
D39D
330
2
100
AcDbEntity
  8
03-隠れ線
 48
0.5
100
AcDbLine
 10
-1822.638296394806
 20
3667.753046383293
 30
0.0
 11
-1822.638296394806
 21
3517.753046383293
 31
0.0
  0
LINE
  5
D3A4
330
2
100
AcDbEntity
  8
02-外形線
 48
0.5
100
AcDbLine
 10
-6693.047231992668
 20
3047.753046383292
 30
0.0
 11
-6693.047231992668
 21
1047.753046383292
 31
0.0
  0
LINE
  5
D3A5
330
2
100
AcDbEntity
  8
02-外形線
 48
0.5
100
AcDbLine
 10
-6691.381490481038
 20
1047.753046383292
 30
0.0
 11
-6691.381490481036
 21
3047.753046383292
 31
0.0
  0
LINE
  5
D3A6
330
2
100
AcDbEntity
  8
03-隠れ線
 48
0.5
100
AcDbLine
 10
-6657.638296394807
 20
3047.753046383292
 30
0.0
 11
-6657.638296394807
 21
1047.753046383292
 31
0.0
  0
INSERT
  5
D8A2
330
2
100
AcDbEntity
  8
01-寸法線
 62
     4
 48
0.5
370
    13
100
AcDbBlockReference
  2
_OPEN
 10
-3170.381490481036
 20
4487.753046383292
 30
0.0
 41
29.99999999999992
 42
29.99999999999992
 43
29.99999999999992
 50
225.0
  0
LINE
  5
D8A3
330
2
100
AcDbEntity
  8
01-寸法線
 48
0.5
100
AcDbLine
 10
-3170.381490481036
 20
4487.753046383292
 30
0.0
 11
-3070.381490481036
 21
4587.753046383292
 31
0.0
  0
LINE
  5
D8A4
330
2
100
AcDbEntity
  8
01-寸法線
 48
0.5
100
AcDbLine
 10
-3070.381490481036
 20
4587.753046383292
 30
0.0
 11
-2820.381490481036
 21
4587.753046383292
 31
0.0
  0
TEXT
  5
D8A5
330
2
100
AcDbEntity
  8
08-下線
100
AcDbText
 10
-3041.381490481036
 20
4598.553046383292
 30
0.0
 40
52.5
  1
ｼｰﾙ溝
  7
ｵﾘｼﾞﾅﾙｽﾀｲﾙ
 72
     1
 11
-2945.381490481036
 21
4587.753046383292
 31
0.0
100
AcDbText
 73
     1
  0
DIMENSION
  5
D8C1
330
2
100
AcDbEntity
  8
01-寸法線
 48
0.5
100
AcDbDimension
  2
*D33
 10
-2965.381490481036
 20
4267.753046383293
 30
0.0
 11
-2999.131490481037
 21
4173.653046383292
 31
0.0
 70
    32
 71
     5
 42
29.99999999999818
  3
スタイル15
100
AcDbAlignedDimension
 13
-3165.381490481036
 23
4297.753046383292
 33
0.0
 14
-3165.381490481036
 24
4267.753046383293
 34
0.0
 50
90.0
100
AcDbRotatedDimension
  0
VIEWPORT
  5
295B
330
7
100
AcDbEntity
 67
     1
  8
0
100
AcDbViewport
 10
5.249999639556163
 20
3.999999883606677
 30
0.0
 40
15.11229656525498
 41
8.992999745766947
 68
     1
 69
     1
 12
5.249999639556163
 22
3.999999883606677
 13
0.0
 23
0.0
 14
10.0
 24
10.0
 15
10.0
 25
10.0
 16
0.0
 26
0.0
 36
1.0
 17
0.0
 27
0.0
 37
0.0
 42
50.0
 43
0.0
 44
0.0
 45
8.992999745766947
 50
0.0
 51
0.0
 72
   100
 90
    32800
  1

281
     0
 71
     1
 74
     0
110
0.0
120
0.0
130
0.0
111
1.0
121
0.0
131
0.0
112
0.0
122
1.0
132
0.0
 79
     0
146
0.0
170
     0
  0
VIEWPORT
  5
295D
330
7
100
AcDbEntity
 67
     1
  8
04-鉄筋線
100
AcDbViewport
 10
5.24999976158142
 20
3.99999976158142
 30
0.0
 40
8.399999618530271
 41
6.399999618530272
 68
     2
 69
     2
 12
3712.5
 22
2625.0
 13
0.0
 23
0.0
 14
100.0
 24
100.0
 15
0.0
 25
0.0
 16
0.0
 26
0.0
 36
1.0
 17
0.0
 27
0.0
 37
0.0
 42
50.0
 43
0.0
 44
0.0
 45
5340.1442243592
 50
0.0
 51
0.0
 72
   100
 90
    32768
  1

281
     0
 71
     1
 74
     0
110
0.0
120
0.0
130
0.0
111
1.0
121
0.0
131
0.0
112
0.0
122
1.0
132
0.0
 79
     0
146
0.0
170
     0
  0
ENDSEC
  0
SECTION
  2
OBJECTS
  0
DICTIONARY
  5
1A
330
0
100
AcDbDictionary
281
     1
  3
ACAD_CIP_PREVIOUS_PRODUCT_INFO
350
D933
  3
ACAD_COLOR
350
1FC9
  3
ACAD_DETAILVIEWSTYLE
350
D924
  3
ACAD_GROUP
350
18
  3
ACAD_LAYOUT
350
1FCC
  3
ACAD_MATERIAL
350
1FC8
  3
ACAD_MLEADERSTYLE
350
D920
  3
ACAD_MLINESTYLE
350
19
  3
ACAD_PLOTSETTINGS
350
1FCD
  3
ACAD_PLOTSTYLENAME
350
1FC6
  3
ACAD_SCALELIST
350
D90E
  3
ACAD_SECTIONVIEWSTYLE
350
D922
  3
ACAD_TABLESTYLE
350
1FCA
  3
ACAD_VISUALSTYLE
350
D8F5
  3
ACDB_RECOMPOSE_DATA
350
D958
  3
AcDbVariableDictionary
350
1FDC
  0
DICTIONARY
  5
D934
330
4
100
AcDbDictionary
280
     1
281
     1
  3
ADSK_XREC_LAYER_RECONCILED
360
D935
  0
DICTIONARY
  5
D936
330
55A
100
AcDbDictionary
280
     1
281
     1
  3
ADSK_XREC_LAYER_RECONCILED
360
D937
  0
DICTIONARY
  5
D938
330
86C
100
AcDbDictionary
280
     1
281
     1
  3
ADSK_XREC_LAYER_RECONCILED
360
D939
  0
DICTIONARY
  5
D93A
330
104E
100
AcDbDictionary
280
     1
281
     1
  3
ADSK_XREC_LAYER_RECONCILED
360
D93B
  0
DICTIONARY
  5
D93C
330
104F
100
AcDbDictionary
280
     1
281
     1
  3
ADSK_XREC_LAYER_RECONCILED
360
D93D
  0
DICTIONARY
  5
D93E
330
1050
100
AcDbDictionary
280
     1
281
     1
  3
ADSK_XREC_LAYER_RECONCILED
360
D93F
  0
DICTIONARY
  5
D940
330
1051
100
AcDbDictionary
280
     1
281
     1
  3
ADSK_XREC_LAYER_RECONCILED
360
D941
  0
DICTIONARY
  5
D942
330
1052
100
AcDbDictionary
280
     1
281
     1
  3
ADSK_XREC_LAYER_RECONCILED
360
D943
  0
DICTIONARY
  5
D944
330
1053
100
AcDbDictionary
280
     1
281
     1
  3
ADSK_XREC_LAYER_RECONCILED
360
D945
  0
DICTIONARY
  5
D946
330
1054
100
AcDbDictionary
280
     1
281
     1
  3
ADSK_XREC_LAYER_RECONCILED
360
D947
  0
DICTIONARY
  5
D948
330
218B
100
AcDbDictionary
280
     1
281
     1
  3
ADSK_XREC_LAYER_RECONCILED
360
D949
  0
DICTIONARY
  5
D94A
330
218C
100
AcDbDictionary
280
     1
281
     1
  3
ADSK_XREC_LAYER_RECONCILED
360
D94B
  0
DICTIONARY
  5
D94C
330
2B0E
100
AcDbDictionary
280
     1
281
     1
  3
ADSK_XREC_LAYER_RECONCILED
360
D94D
  0
DICTIONARY
  5
D94E
330
8DFB
100
AcDbDictionary
280
     1
281
     1
  3
ADSK_XREC_LAYER_RECONCILED
360
D94F
  0
XRECORD
  5
D933
102
{ACAD_REACTORS
330
1A
102
}
330
1A
100
AcDbXrecord
280
     1
300
ACDLT
300
2013
300
ACDLT_F_S
  0
DICTIONARY
  5
1FC9
102
{ACAD_REACTORS
330
1A
102
}
330
1A
100
AcDbDictionary
281
     1
  0
DICTIONARY
  5
D924
102
{ACAD_REACTORS
330
1A
102
}
330
1A
100
AcDbDictionary
281
     1
  3
Imperial24
350
D925
  0
DICTIONARY
  5
18
102
{ACAD_REACTORS
330
1A
102
}
330
1A
100
AcDbDictionary
281
     1
  0
DICTIONARY
  5
1FCC
102
{ACAD_REACTORS
330
1A
102
}
330
1A
100
AcDbDictionary
281
     1
  3
Model
350
1FCE
  3
レイアウト1
350
1FCF
  0
DICTIONARY
  5
1FC8
102
{ACAD_REACTORS
330
1A
102
}
330
1A
100
AcDbDictionary
281
     1
  3
ByBlock
350
D8E5
  3
ByLayer
350
D8DD
  3
Global
350
D8ED
  0
DICTIONARY
  5
D920
102
{ACAD_REACTORS
330
1A
102
}
330
1A
100
AcDbDictionary
281
     1
  3
Standard
350
D921
  0
DICTIONARY
  5
19
102
{ACAD_REACTORS
330
1A
102
}
330
1A
100
AcDbDictionary
281
     1
  3
STANDARD
350
1C
  0
DICTIONARY
  5
1FCD
102
{ACAD_REACTORS
330
1A
102
}
330
1A
100
AcDbDictionary
281
     1
  0
ACDBDICTIONARYWDFLT
  5
1FC6
102
{ACAD_REACTORS
330
1A
102
}
330
1A
100
AcDbDictionary
281
     1
  3
Normal
350
1FC7
100
AcDbDictionaryWithDefault
340
1FC7
  0
DICTIONARY
  5
D90E
102
{ACAD_REACTORS
330
1A
102
}
330
1A
100
AcDbDictionary
281
     1
  3
A0
350
D90F
  3
A1
350
D910
  3
A2
350
D911
  3
A3
350
D912
  3
A4
350
D913
  3
A5
350
D914
  3
A6
350
D915
  3
A7
350
D916
  3
A8
350
D917
  3
A9
350
D918
  3
B0
350
D919
  3
B1
350
D91A
  3
B2
350
D91B
  3
B3
350
D91C
  3
B4
350
D91D
  3
B5
350
D91E
  3
B6
350
D91F
  0
DICTIONARY
  5
D922
102
{ACAD_REACTORS
330
1A
102
}
330
1A
100
AcDbDictionary
281
     1
  3
Imperial24
350
D923
  0
DICTIONARY
  5
1FCA
102
{ACAD_REACTORS
330
1A
102
}
330
1A
100
AcDbDictionary
281
     1
  3
Standard
350
1FCB
  0
DICTIONARY
  5
D8F5
102
{ACAD_REACTORS
330
1A
102
}
330
1A
100
AcDbDictionary
281
     1
  3
2dWireframe
350
D8FB
  3
Basic
350
D8FA
  3
Brighten
350
D901
  3
ColorChange
350
D905
  3
Conceptual
350
D8FE
  3
Dim
350
D900
  3
EdgeColorOff
350
D90D
  3
Facepattern
350
D904
  3
Flat
350
D8F6
  3
FlatWithEdges
350
D8F7
  3
Gouraud
350
D8F8
  3
GouraudWithEdges
350
D8F9
  3
Hidden
350
D8FD
  3
JitterOff
350
D90B
  3
Linepattern
350
D903
  3
OverhangOff
350
D90C
  3
Realistic
350
D8FF
  3
Shaded
350
D90A
  3
Shaded with edges
350
D909
  3
Shades of Gray
350
D906
  3
Sketchy
350
D907
  3
Thicken
350
D902
  3
Wireframe
350
D8FC
  3
X-Ray
350
D908
  0
XRECORD
  5
D958
102
{ACAD_REACTORS
330
1A
102
}
330
1A
100
AcDbXrecord
280
     1
 90
        1
330
1FCB
330
AC71
  0
DICTIONARY
  5
1FDC
102
{ACAD_REACTORS
330
1A
102
}
330
1A
100
AcDbDictionary
281
     1
  3
CANNOSCALE
350
D953
  3
CMLEADERSTYLE
350
D950
  3
CTABLESTYLE
350
1FDD
  3
CVIEWDETAILSTYLE
350
D951
  3
CVIEWSECTIONSTYLE
350
D952
  3
DIMASSOC
350
1FDE
  3
PROJECTNAME
350
1FDF
  3
XCLIPFRAME
350
D954
  0
XRECORD
  5
D935
102
{ACAD_REACTORS
330
D934
102
}
330
D934
100
AcDbXrecord
280
     1
290
     1
  0
XRECORD
  5
D937
102
{ACAD_REACTORS
330
D936
102
}
330
D936
100
AcDbXrecord
280
     1
290
     1
  0
XRECORD
  5
D939
102
{ACAD_REACTORS
330
D938
102
}
330
D938
100
AcDbXrecord
280
     1
290
     1
  0
XRECORD
  5
D93B
102
{ACAD_REACTORS
330
D93A
102
}
330
D93A
100
AcDbXrecord
280
     1
290
     1
  0
XRECORD
  5
D93D
102
{ACAD_REACTORS
330
D93C
102
}
330
D93C
100
AcDbXrecord
280
     1
290
     1
  0
XRECORD
  5
D93F
102
{ACAD_REACTORS
330
D93E
102
}
330
D93E
100
AcDbXrecord
280
     1
290
     1
  0
XRECORD
  5
D941
102
{ACAD_REACTORS
330
D940
102
}
330
D940
100
AcDbXrecord
280
     1
290
     1
  0
XRECORD
  5
D943
102
{ACAD_REACTORS
330
D942
102
}
330
D942
100
AcDbXrecord
280
     1
290
     1
  0
XRECORD
  5
D945
102
{ACAD_REACTORS
330
D944
102
}
330
D944
100
AcDbXrecord
280
     1
290
     1
  0
XRECORD
  5
D947
102
{ACAD_REACTORS
330
D946
102
}
330
D946
100
AcDbXrecord
280
     1
290
     1
  0
XRECORD
  5
D949
102
{ACAD_REACTORS
330
D948
102
}
330
D948
100
AcDbXrecord
280
     1
290
     1
  0
XRECORD
  5
D94B
102
{ACAD_REACTORS
330
D94A
102
}
330
D94A
100
AcDbXrecord
280
     1
290
     1
  0
XRECORD
  5
D94D
102
{ACAD_REACTORS
330
D94C
102
}
330
D94C
100
AcDbXrecord
280
     1
290
     1
  0
XRECORD
  5
D94F
102
{ACAD_REACTORS
330
D94E
102
}
330
D94E
100
AcDbXrecord
280
     1
290
     1
  0
ACDBDETAILVIEWSTYLE
  5
D925
102
{ACAD_REACTORS
330
D924
102
}
330
D924
100
AcDbModelDocViewStyle
 70
     0
  3
Imperial24
290
     0
100
AcDbDetailViewStyle
 70
     0
 71
     0
 90
        3
 71
     1
340
C
 62
   256
 40
0.24
340
0
 62
   256
 40
0.24
300

 40
0.36
280
     3
 71
     2
340
5
 90
       25
 62
   256
 71
     3
340
C
 62
   256
 40
0.24
 90
        1
 40
0.75
 90
        1
300
%<\AcVar ViewType \f "%tc1">% %<\AcVar ViewDetailId>%\PSCALE %<\AcVar ViewScale \f "%sn">%
 71
     4
340
5
 90
       25
 62
   256
340
5
 90
       25
 62
   256
280
     0
  0
LAYOUT
  5
1FCE
102
{ACAD_REACTORS
330
1FCC
102
}
330
1FCC
100
AcDbPlotSettings
  1

  2
RICOH SEIZOU
  4
A3
  6

 40
5.873749732971191
 41
5.873747825622558
 42
5.873748779296875
 43
5.873748779296875
 44
296.9259948730469
 45
419.9466552734374
 46
1.5
 47
4.559999999999999
 48
-5354.693592560336
 49
2800.613080426188
140
-2384.693592560336
141
4900.613080426189
142
1.0
143
20.0
 70
 11940
 72
     1
 73
     1
 74
     1
  7
monochrome.ctb
 75
     0
147
0.05
 76
     0
 77
     2
 78
   300
148
7865.848080292583
149
-189.39360637147
100
AcDbLayout
  1
Model
 70
     1
 71
     0
 10
0.0
 20
0.0
 11
12.0
 21
9.0
 12
0.0
 22
0.0
 32
0.0
 14
0.0
 24
0.0
 34
0.0
 15
0.0
 25
0.0
 35
0.0
146
0.0
 13
0.0
 23
0.0
 33
0.0
 16
1.0
 26
0.0
 36
0.0
 17
0.0
 27
1.0
 37
0.0
 76
     0
330
2
331
D8DB
  0
LAYOUT
  5
1FCF
102
{ACAD_REACTORS
330
1FCC
102
}
330
1FCC
100
AcDbPlotSettings
  1

  2
none_device
  4
Letter_(8.50_x_11.00_Inches)
  6

 40
6.349999904632568
 41
6.349999904632568
 42
6.350006103515625
 43
6.350006103515625
 44
215.8999938964844
 45
279.3999938964844
 46
0.0
 47
0.0
 48
0.0
 49
0.0
140
0.0
141
0.0
142
1.0
143
1.0
 70
   688
 72
     0
 73
     1
 74
     5
  7
monochrome.ctb
 75
    16
147
1.0
 76
     0
 77
     2
 78
   300
148
0.0
149
0.0
100
AcDbLayout
  1
レイアウト1
 70
     0
 71
     1
 10
-0.2500002402958907
 20
-0.2499999962453767
 11
10.74999951940821
 21
8.249999763458731
 12
0.0
 22
0.0
 32
0.0
 14
1.049999952316284
 24
0.7999999523162842
 34
0.0
 15
9.449999570846555
 25
7.199999570846556
 35
0.0
146
0.0
 13
0.0
 23
0.0
 33
0.0
 16
1.0
 26
0.0
 36
0.0
 17
0.0
 27
1.0
 37
0.0
 76
     0
330
7
331
295B
  0
MATERIAL
  5
D8E5
102
{ACAD_XDICTIONARY
360
D8E6
102
}
102
{ACAD_REACTORS
330
1FC8
102
}
330
1FC8
100
AcDbMaterial
  1
ByBlock
 72
     0
 43
0.0008202099737533
 43
0.0
 43
0.0
 43
0.0
 43
0.0
 43
0.0008202099737533
 43
0.0
 43
0.0
 43
0.0
 43
0.0
 43
1.0
 43
0.0
 43
0.0
 43
0.0
 43
0.0
 43
1.0
 77
     0
 47
0.0008202099737533
 47
0.0
 47
0.0
 47
0.0
 47
0.0
 47
0.0008202099737533
 47
0.0
 47
0.0
 47
0.0
 47
0.0
 47
1.0
 47
0.0
 47
0.0
 47
0.0
 47
0.0
 47
1.0
171
     0
 49
0.0008202099737533
 49
0.0
 49
0.0
 49
0.0
 49
0.0
 49
0.0008202099737533
 49
0.0
 49
0.0
 49
0.0
 49
0.0
 49
1.0
 49
0.0
 49
0.0
 49
0.0
 49
0.0
 49
1.0
175
     0
142
0.0008202099737533
142
0.0
142
0.0
142
0.0
142
0.0
142
0.0008202099737533
142
0.0
142
0.0
142
0.0
142
0.0
142
1.0
142
0.0
142
0.0
142
0.0
142
0.0
142
1.0
179
     0
144
0.0008202099737533
144
0.0
144
0.0
144
0.0
144
0.0
144
0.0008202099737533
144
0.0
144
0.0
144
0.0
144
0.0
144
1.0
144
0.0
144
0.0
144
0.0
144
0.0
144
1.0
147
0.0008202099737533
147
0.0
147
0.0
147
0.0
147
0.0
147
0.0008202099737533
147
0.0
147
0.0
147
0.0
147
0.0
147
1.0
147
0.0
147
0.0
147
0.0
147
0.0
147
1.0
  0
MATERIAL
  5
D8DD
102
{ACAD_XDICTIONARY
360
D8DE
102
}
102
{ACAD_REACTORS
330
1FC8
102
}
330
1FC8
100
AcDbMaterial
  1
ByLayer
 72
     0
 43
0.0008202099737533
 43
0.0
 43
0.0
 43
0.0
 43
0.0
 43
0.0008202099737533
 43
0.0
 43
0.0
 43
0.0
 43
0.0
 43
1.0
 43
0.0
 43
0.0
 43
0.0
 43
0.0
 43
1.0
 77
     0
 47
0.0008202099737533
 47
0.0
 47
0.0
 47
0.0
 47
0.0
 47
0.0008202099737533
 47
0.0
 47
0.0
 47
0.0
 47
0.0
 47
1.0
 47
0.0
 47
0.0
 47
0.0
 47
0.0
 47
1.0
171
     0
 49
0.0008202099737533
 49
0.0
 49
0.0
 49
0.0
 49
0.0
 49
0.0008202099737533
 49
0.0
 49
0.0
 49
0.0
 49
0.0
 49
1.0
 49
0.0
 49
0.0
 49
0.0
 49
0.0
 49
1.0
175
     0
142
0.0008202099737533
142
0.0
142
0.0
142
0.0
142
0.0
142
0.0008202099737533
142
0.0
142
0.0
142
0.0
142
0.0
142
1.0
142
0.0
142
0.0
142
0.0
142
0.0
142
1.0
179
     0
144
0.0008202099737533
144
0.0
144
0.0
144
0.0
144
0.0
144
0.0008202099737533
144
0.0
144
0.0
144
0.0
144
0.0
144
1.0
144
0.0
144
0.0
144
0.0
144
0.0
144
1.0
147
0.0008202099737533
147
0.0
147
0.0
147
0.0
147
0.0
147
0.0008202099737533
147
0.0
147
0.0
147
0.0
147
0.0
147
1.0
147
0.0
147
0.0
147
0.0
147
0.0
147
1.0
  0
MATERIAL
  5
D8ED
102
{ACAD_XDICTIONARY
360
D8EE
102
}
102
{ACAD_REACTORS
330
1FC8
102
}
330
1FC8
100
AcDbMaterial
  1
Global
 72
     0
 43
0.0008202099737533
 43
0.0
 43
0.0
 43
0.0
 43
0.0
 43
0.0008202099737533
 43
0.0
 43
0.0
 43
0.0
 43
0.0
 43
1.0
 43
0.0
 43
0.0
 43
0.0
 43
0.0
 43
1.0
 77
     0
 47
0.0008202099737533
 47
0.0
 47
0.0
 47
0.0
 47
0.0
 47
0.0008202099737533
 47
0.0
 47
0.0
 47
0.0
 47
0.0
 47
1.0
 47
0.0
 47
0.0
 47
0.0
 47
0.0
 47
1.0
171
     0
 49
0.0008202099737533
 49
0.0
 49
0.0
 49
0.0
 49
0.0
 49
0.0008202099737533
 49
0.0
 49
0.0
 49
0.0
 49
0.0
 49
1.0
 49
0.0
 49
0.0
 49
0.0
 49
0.0
 49
1.0
175
     0
142
0.0008202099737533
142
0.0
142
0.0
142
0.0
142
0.0
142
0.0008202099737533
142
0.0
142
0.0
142
0.0
142
0.0
142
1.0
142
0.0
142
0.0
142
0.0
142
0.0
142
1.0
179
     0
144
0.0008202099737533
144
0.0
144
0.0
144
0.0
144
0.0
144
0.0008202099737533
144
0.0
144
0.0
144
0.0
144
0.0
144
1.0
144
0.0
144
0.0
144
0.0
144
0.0
144
1.0
147
0.0008202099737533
147
0.0
147
0.0
147
0.0
147
0.0
147
0.0008202099737533
147
0.0
147
0.0
147
0.0
147
0.0
147
1.0
147
0.0
147
0.0
147
0.0
147
0.0
147
1.0
  0
MLEADERSTYLE
  5
D921
102
{ACAD_XDICTIONARY
360
D98F
102
}
102
{ACAD_REACTORS
330
D920
102
}
330
D920
100
AcDbMLeaderStyle
170
     2
171
     1
172
     0
 90
        2
 40
0.0
 41
0.0
173
     1
 91
-1056964608
340
E
 92
       -2
290
     1
 42
0.09
291
     1
 43
0.36
  3
Standard
 44
0.18
300

342
C
174
     1
178
     6
175
     1
176
     0
 93
-1056964608
 45
0.18
292
     0
297
     0
 46
0.18
 94
-1056964608
 47
1.0
 49
1.0
140
1.0
293
     1
141
0.0
294
     1
177
     0
142
1.0
295
     0
296
     0
143
0.125
1001
ACAD_MLEADERVER
1070
     2
  0
MLINESTYLE
  5
1C
102
{ACAD_REACTORS
330
19
102
}
330
19
100
AcDbMlineStyle
  2
STANDARD
 70
     0
  3

 62
     0
 51
90.0
 52
90.0
 71
     2
 49
0.5
 62
   256
  6
BYLAYER
 49
-0.5
 62
   256
  6
BYLAYER
  0
ACDBPLACEHOLDER
  5
1FC7
102
{ACAD_REACTORS
330
1FC6
102
}
330
1FC6
  0
SCALE
  5
D90F
102
{ACAD_REACTORS
330
D90E
102
}
330
D90E
100
AcDbScale
 70
     0
300
1:1
140
1.0
141
1.0
290
     1
  0
SCALE
  5
D910
102
{ACAD_REACTORS
330
D90E
102
}
330
D90E
100
AcDbScale
 70
     0
300
1/128" = 1'-0"
140
0.0078125
141
12.0
290
     0
  0
SCALE
  5
D911
102
{ACAD_REACTORS
330
D90E
102
}
330
D90E
100
AcDbScale
 70
     0
300
1/64" = 1'-0"
140
0.015625
141
12.0
290
     0
  0
SCALE
  5
D912
102
{ACAD_REACTORS
330
D90E
102
}
330
D90E
100
AcDbScale
 70
     0
300
1/32" = 1'-0"
140
0.03125
141
12.0
290
     0
  0
SCALE
  5
D913
102
{ACAD_REACTORS
330
D90E
102
}
330
D90E
100
AcDbScale
 70
     0
300
1/16" = 1'-0"
140
0.0625
141
12.0
290
     0
  0
SCALE
  5
D914
102
{ACAD_REACTORS
330
D90E
102
}
330
D90E
100
AcDbScale
 70
     0
300
3/32" = 1'-0"
140
0.09375
141
12.0
290
     0
  0
SCALE
  5
D915
102
{ACAD_REACTORS
330
D90E
102
}
330
D90E
100
AcDbScale
 70
     0
300
1/8" = 1'-0"
140
0.125
141
12.0
290
     0
  0
SCALE
  5
D916
102
{ACAD_REACTORS
330
D90E
102
}
330
D90E
100
AcDbScale
 70
     0
300
3/16" = 1'-0"
140
0.1875
141
12.0
290
     0
  0
SCALE
  5
D917
102
{ACAD_REACTORS
330
D90E
102
}
330
D90E
100
AcDbScale
 70
     0
300
1/4" = 1'-0"
140
0.25
141
12.0
290
     0
  0
SCALE
  5
D918
102
{ACAD_REACTORS
330
D90E
102
}
330
D90E
100
AcDbScale
 70
     0
300
3/8" = 1'-0"
140
0.375
141
12.0
290
     0
  0
SCALE
  5
D919
102
{ACAD_REACTORS
330
D90E
102
}
330
D90E
100
AcDbScale
 70
     0
300
1/2" = 1'-0"
140
0.5
141
12.0
290
     0
  0
SCALE
  5
D91A
102
{ACAD_REACTORS
330
D90E
102
}
330
D90E
100
AcDbScale
 70
     0
300
3/4" = 1'-0"
140
0.75
141
12.0
290
     0
  0
SCALE
  5
D91B
102
{ACAD_REACTORS
330
D90E
102
}
330
D90E
100
AcDbScale
 70
     0
300
1" = 1'-0"
140
1.0
141
12.0
290
     0
  0
SCALE
  5
D91C
102
{ACAD_REACTORS
330
D90E
102
}
330
D90E
100
AcDbScale
 70
     0
300
1-1/2" = 1'-0"
140
1.5
141
12.0
290
     0
  0
SCALE
  5
D91D
102
{ACAD_REACTORS
330
D90E
102
}
330
D90E
100
AcDbScale
 70
     0
300
3" = 1'-0"
140
3.0
141
12.0
290
     0
  0
SCALE
  5
D91E
102
{ACAD_REACTORS
330
D90E
102
}
330
D90E
100
AcDbScale
 70
     0
300
6" = 1'-0"
140
6.0
141
12.0
290
     0
  0
SCALE
  5
D91F
102
{ACAD_REACTORS
330
D90E
102
}
330
D90E
100
AcDbScale
 70
     0
300
1'-0" = 1'-0"
140
12.0
141
12.0
290
     0
  0
ACDBSECTIONVIEWSTYLE
  5
D923
102
{ACAD_REACTORS
330
D922
102
}
330
D922
100
AcDbModelDocViewStyle
 70
     0
  3
Imperial24
290
     0
100
AcDbSectionViewStyle
 70
     0
 71
     0
 90
       78
 71
     1
340
C
 62
   256
 40
0.24
340
0
340
0
 62
   256
 40
0.24
300
I, O, Q, S, X, Z
 40
0.48
 90
        3
 40
0.18
 90
        1
 71
     2
340
104D
 90
       25
 62
   256
340
5
 90
       50
 62
   256
 40
0.24
 40
0.0
 40
0.24
 71
     3
340
C
 62
   256
 40
0.24
 90
        1
 40
0.75
 90
        1
300
%<\AcVar ViewType \f "%tc1">% %<\AcVar ViewSectionStartId>%-%<\AcVar ViewSectionEndId>%\PSCALE %<\AcVar ViewScale \f "%sn">%
 71
     4
 62
   256
 62
   257
300
ANSI31
 40
1.0
 90
        0
290
     0
290
     0
 90
        6
 40
0.0
 40
1.570796326794896
 40
0.2617993877991494
 40
1.308996938995747
 40
-0.2617993877991494
 40
1.832595714594046
  0
TABLESTYLE
  5
1FCB
102
{ACAD_XDICTIONARY
360
D956
102
}
102
{ACAD_REACTORS
330
1FCA
102
}
330
1FCA
100
AcDbTableStyle
  3
Standard
 70
     0
 71
     0
 40
0.06
 41
0.06
280
     0
281
     0
  7
STANDARD
140
0.18
170
     2
 62
     0
 63
     7
283
     0
274
    -2
284
     1
 64
     0
275
    -2
285
     1
 65
     0
276
    -2
286
     1
 66
     0
277
    -2
287
     1
 67
     0
278
    -2
288
     1
 68
     0
279
    -2
289
     1
 69
     0
  7
STANDARD
140
0.25
170
     5
 62
     0
 63
     7
283
     0
274
    -2
284
     1
 64
     0
275
    -2
285
     1
 65
     0
276
    -2
286
     1
 66
     0
277
    -2
287
     1
 67
     0
278
    -2
288
     1
 68
     0
279
    -2
289
     1
 69
     0
  7
STANDARD
140
0.18
170
     5
 62
     0
 63
     7
283
     0
274
    -2
284
     1
 64
     0
275
    -2
285
     1
 65
     0
276
    -2
286
     1
 66
     0
277
    -2
287
     1
 67
     0
278
    -2
288
     1
 68
     0
279
    -2
289
     1
 69
     0
  0
VISUALSTYLE
  5
D8FB
102
{ACAD_XDICTIONARY
360
D968
102
}
102
{ACAD_REACTORS
330
D8F5
102
}
330
D8F5
100
AcDbVisualStyle
  2
2dWireframe
 70
     4
 71
     0
 72
     2
 73
     0
 90
        0
 40
-0.6
 41
-30.0
 62
     5
 63
     7
421
 16777215
 74
     1
 91
        4
 64
     7
 65
   257
 75
     1
175
     1
 42
1.0
 92
        0
 66
   257
 43
1.0
 76
     1
 77
     6
 78
     2
 67
     7
 79
     5
170
     0
171
     0
290
     0
174
     0
 93
        1
 44
0.0
173
     0
291
     0
 45
0.0
1001
ACAD
1000
AcDbSavedByObjectVersion
1070
     0
  0
VISUALSTYLE
  5
D8FA
102
{ACAD_XDICTIONARY
360
D966
102
}
102
{ACAD_REACTORS
330
D8F5
102
}
330
D8F5
100
AcDbVisualStyle
  2
Basic
 70
     7
 71
     1
 72
     0
 73
     1
 90
        0
 40
-0.6
 41
-30.0
 62
     5
 63
     7
421
 16777215
 74
     0
 91
        4
 64
     7
 65
   257
 75
     1
175
     1
 42
1.0
 92
        8
 66
     7
 43
1.0
 76
     1
 77
     6
 78
     2
 67
     7
 79
     5
170
     0
171
     0
290
     0
174
     0
 93
        1
 44
0.0
173
     0
291
     1
 45
0.0
1001
ACAD
1000
AcDbSavedByObjectVersion
1070
     0
  0
VISUALSTYLE
  5
D901
102
{ACAD_XDICTIONARY
360
D974
102
}
102
{ACAD_REACTORS
330
D8F5
102
}
330
D8F5
100
AcDbVisualStyle
  2
Brighten
 70
    12
 71
     2
 72
     2
 73
     0
 90
        0
 40
-0.6
 41
-30.0
 62
     5
 63
     7
421
 16777215
 74
     1
 91
        4
 64
     7
 65
   257
 75
     1
175
     1
 42
1.0
 92
        8
 66
     7
 43
1.0
 76
     1
 77
     6
 78
     2
 67
     7
 79
     5
170
     0
171
     0
290
     0
174
     0
 93
        1
 44
50.0
173
     0
291
     1
 45
0.0
1001
ACAD
1000
AcDbSavedByObjectVersion
1070
     0
  0
VISUALSTYLE
  5
D905
102
{ACAD_XDICTIONARY
360
D97C
102
}
102
{ACAD_REACTORS
330
D8F5
102
}
330
D8F5
100
AcDbVisualStyle
  2
ColorChange
 70
    16
 71
     2
 72
     2
 73
     3
 90
        0
 40
-0.6
 41
-30.0
 62
     5
 63
     8
421
  8421504
 74
     1
 91
        4
 64
     7
 65
   257
 75
     1
175
     1
 42
1.0
 92
        8
 66
     8
424
  8421504
 43
1.0
 76
     1
 77
     6
 78
     2
 67
     7
 79
     5
170
     0
171
     0
290
     0
174
     0
 93
        1
 44
0.0
173
     0
291
     1
 45
0.0
1001
ACAD
1000
AcDbSavedByObjectVersion
1070
     0
  0
VISUALSTYLE
  5
D8FE
102
{ACAD_XDICTIONARY
360
D96E
102
}
102
{ACAD_REACTORS
330
D8F5
102
}
330
D8F5
100
AcDbVisualStyle
  2
Conceptual
 70
     9
 71
     3
 72
     2
 73
     0
 90
        0
 40
-0.6
 41
-30.0
 62
     5
 63
     7
421
 16777215
 74
     2
 91
        2
 64
     7
 65
   257
 75
     1
175
     1
 42
179.0
 92
        8
 66
     7
 43
1.0
 76
     1
 77
     6
 78
     2
 67
     7
 79
     3
170
     0
171
     0
290
     0
174
     0
 93
        1
 44
0.0
173
     0
291
     0
 45
0.0
1001
ACAD
1000
AcDbSavedByObjectVersion
1070
     0
  0
VISUALSTYLE
  5
D900
102
{ACAD_XDICTIONARY
360
D972
102
}
102
{ACAD_REACTORS
330
D8F5
102
}
330
D8F5
100
AcDbVisualStyle
  2
Dim
 70
    11
 71
     2
 72
     2
 73
     0
 90
        0
 40
-0.6
 41
-30.0
 62
     5
 63
     7
421
 16777215
 74
     1
 91
        4
 64
     7
 65
   257
 75
     1
175
     1
 42
1.0
 92
        8
 66
     7
 43
1.0
 76
     1
 77
     6
 78
     2
 67
     7
 79
     5
170
     0
171
     0
290
     0
174
     0
 93
        1
 44
-50.0
173
     0
291
     1
 45
0.0
1001
ACAD
1000
AcDbSavedByObjectVersion
1070
     0
  0
VISUALSTYLE
  5
D90D
102
{ACAD_XDICTIONARY
360
D98C
102
}
102
{ACAD_REACTORS
330
D8F5
102
}
330
D8F5
100
AcDbVisualStyle
  2
EdgeColorOff
 70
    22
 71
     2
 72
     2
 73
     0
 90
        0
 40
-0.6
 41
-30.0
 62
     5
 63
     7
421
 16777215
 74
     1
 91
        4
 64
     7
 65
   257
 75
     1
175
     1
 42
1.0
 92
        8
 66
     7
 43
1.0
 76
     1
 77
     6
 78
     2
 67
     7
 79
     5
170
     0
171
     0
290
     0
174
     0
 93
        1
 44
0.0
173
     0
291
     1
 45
0.0
1001
ACAD
1000
AcDbSavedByObjectVersion
1070
     0
  0
VISUALSTYLE
  5
D904
102
{ACAD_XDICTIONARY
360
D97A
102
}
102
{ACAD_REACTORS
330
D8F5
102
}
330
D8F5
100
AcDbVisualStyle
  2
Facepattern
 70
    15
 71
     2
 72
     2
 73
     0
 90
        0
 40
-0.6
 41
-30.0
 62
     5
 63
     7
421
 16777215
 74
     1
 91
        4
 64
     7
 65
   257
 75
     1
175
     1
 42
1.0
 92
        8
 66
     7
 43
1.0
 76
     1
 77
     6
 78
     2
 67
     7
 79
     5
170
     0
171
     0
290
     0
174
     0
 93
        1
 44
0.0
173
     0
291
     1
 45
0.0
1001
ACAD
1000
AcDbSavedByObjectVersion
1070
     0
  0
VISUALSTYLE
  5
D8F6
102
{ACAD_XDICTIONARY
360
D95E
102
}
102
{ACAD_REACTORS
330
D8F5
102
}
330
D8F5
100
AcDbVisualStyle
  2
Flat
 70
     0
 71
     2
 72
     1
 73
     1
 90
        2
 40
-0.6
 41
30.0
 62
     5
 63
     7
421
 16777215
 74
     0
 91
        0
 64
     7
 65
   257
 75
     1
175
     1
 42
1.0
 92
        8
 66
     7
 43
1.0
 76
     1
 77
     6
 78
     2
 67
     7
 79
     5
170
     0
171
     0
290
     0
174
     0
 93
       13
 44
0.0
173
     0
291
     1
 45
0.0
1001
ACAD
1000
AcDbSavedByObjectVersion
1070
     0
  0
VISUALSTYLE
  5
D8F7
102
{ACAD_XDICTIONARY
360
D960
102
}
102
{ACAD_REACTORS
330
D8F5
102
}
330
D8F5
100
AcDbVisualStyle
  2
FlatWithEdges
 70
     1
 71
     2
 72
     1
 73
     1
 90
        2
 40
-0.6
 41
30.0
 62
     5
 63
     7
421
 16777215
 74
     1
 91
        0
 64
     7
 65
   257
 75
     1
175
     1
 42
1.0
 92
        0
 66
   257
 43
1.0
 76
     1
 77
     6
 78
     2
 67
     7
 79
     5
170
     0
171
     0
290
     0
174
     0
 93
       13
 44
0.0
173
     0
291
     1
 45
0.0
1001
ACAD
1000
AcDbSavedByObjectVersion
1070
     0
  0
VISUALSTYLE
  5
D8F8
102
{ACAD_XDICTIONARY
360
D962
102
}
102
{ACAD_REACTORS
330
D8F5
102
}
330
D8F5
100
AcDbVisualStyle
  2
Gouraud
 70
     2
 71
     2
 72
     2
 73
     1
 90
        2
 40
-0.6
 41
30.0
 62
     5
 63
     7
421
 16777215
 74
     0
 91
        0
 64
     7
 65
   257
 75
     1
175
     1
 42
1.0
 92
        0
 66
     7
 43
1.0
 76
     1
 77
     6
 78
     2
 67
     7
 79
     5
170
     0
171
     0
290
     0
174
     0
 93
       13
 44
0.0
173
     0
291
     1
 45
0.0
1001
ACAD
1000
AcDbSavedByObjectVersion
1070
     0
  0
VISUALSTYLE
  5
D8F9
102
{ACAD_XDICTIONARY
360
D964
102
}
102
{ACAD_REACTORS
330
D8F5
102
}
330
D8F5
100
AcDbVisualStyle
  2
GouraudWithEdges
 70
     3
 71
     2
 72
     2
 73
     1
 90
        2
 40
-0.6
 41
30.0
 62
     5
 63
     7
421
 16777215
 74
     1
 91
        0
 64
     7
 65
   257
 75
     1
175
     1
 42
1.0
 92
        0
 66
   257
 43
1.0
 76
     1
 77
     6
 78
     2
 67
     7
 79
     5
170
     0
171
     0
290
     0
174
     0
 93
       13
 44
0.0
173
     0
291
     1
 45
0.0
1001
ACAD
1000
AcDbSavedByObjectVersion
1070
     0
  0
VISUALSTYLE
  5
D8FD
102
{ACAD_XDICTIONARY
360
D96C
102
}
102
{ACAD_REACTORS
330
D8F5
102
}
330
D8F5
100
AcDbVisualStyle
  2
Hidden
 70
     6
 71
     1
 72
     2
 73
     2
 90
        0
 40
-0.6
 41
-30.0
 62
     5
 63
     7
421
 16777215
 74
     2
 91
        2
 64
     7
 65
   257
 75
     2
175
     1
 42
40.0
 92
        0
 66
   257
 43
1.0
 76
     1
 77
     6
 78
     2
 67
     7
 79
     3
170
     0
171
     0
290
     0
174
     0
 93
        1
 44
0.0
173
     0
291
     0
 45
0.0
1001
ACAD
1000
AcDbSavedByObjectVersion
1070
     0
  0
VISUALSTYLE
  5
D90B
102
{ACAD_XDICTIONARY
360
D988
102
}
102
{ACAD_REACTORS
330
D8F5
102
}
330
D8F5
100
AcDbVisualStyle
  2
JitterOff
 70
    20
 71
     2
 72
     2
 73
     0
 90
        0
 40
-0.6
 41
-30.0
 62
     5
 63
     7
421
 16777215
 74
     1
 91
        4
 64
     7
 65
   257
 75
     1
175
     1
 42
1.0
 92
       10
 66
     7
 43
1.0
 76
     1
 77
     6
 78
     2
 67
     7
 79
     5
170
     0
171
     0
290
     0
174
     0
 93
        1
 44
0.0
173
     0
291
     1
 45
0.0
1001
ACAD
1000
AcDbSavedByObjectVersion
1070
     0
  0
VISUALSTYLE
  5
D903
102
{ACAD_XDICTIONARY
360
D978
102
}
102
{ACAD_REACTORS
330
D8F5
102
}
330
D8F5
100
AcDbVisualStyle
  2
Linepattern
 70
    14
 71
     2
 72
     2
 73
     0
 90
        0
 40
-0.6
 41
-30.0
 62
     5
 63
     7
421
 16777215
 74
     1
 91
        4
 64
     7
 65
   257
 75
     7
175
     7
 42
1.0
 92
        8
 66
     7
 43
1.0
 76
     1
 77
     6
 78
     2
 67
     7
 79
     5
170
     0
171
     0
290
     0
174
     0
 93
        1
 44
0.0
173
     0
291
     1
 45
0.0
1001
ACAD
1000
AcDbSavedByObjectVersion
1070
     0
  0
VISUALSTYLE
  5
D90C
102
{ACAD_XDICTIONARY
360
D98A
102
}
102
{ACAD_REACTORS
330
D8F5
102
}
330
D8F5
100
AcDbVisualStyle
  2
OverhangOff
 70
    21
 71
     2
 72
     2
 73
     0
 90
        0
 40
-0.6
 41
-30.0
 62
     5
 63
     7
421
 16777215
 74
     1
 91
        4
 64
     7
 65
   257
 75
     1
175
     1
 42
1.0
 92
        9
 66
     7
 43
1.0
 76
     1
 77
     6
 78
     2
 67
     7
 79
     5
170
     0
171
     0
290
     0
174
     0
 93
        1
 44
0.0
173
     0
291
     1
 45
0.0
1001
ACAD
1000
AcDbSavedByObjectVersion
1070
     0
  0
VISUALSTYLE
  5
D8FF
102
{ACAD_XDICTIONARY
360
D970
102
}
102
{ACAD_REACTORS
330
D8F5
102
}
330
D8F5
100
AcDbVisualStyle
  2
Realistic
 70
     8
 71
     2
 72
     3
 73
     0
 90
        2
 40
-0.6
 41
30.0
 62
     5
 63
     7
421
 16777215
 74
     0
 91
        0
 64
     7
 65
   257
 75
     1
175
     1
 42
1.0
 92
        8
 66
   257
 43
1.0
 76
     1
 77
     6
 78
     2
 67
     7
 79
     3
170
     0
171
     0
290
     0
174
     0
 93
       13
 44
0.0
173
     0
291
     0
 45
0.0
1001
ACAD
1000
AcDbSavedByObjectVersion
1070
     0
  0
VISUALSTYLE
  5
D90A
102
{ACAD_XDICTIONARY
360
D986
102
}
102
{ACAD_REACTORS
330
D8F5
102
}
330
D8F5
100
AcDbVisualStyle
  2
Shaded
 70
    27
 71
     2
 72
     2
 73
     1
 90
        2
 40
-0.6
 41
30.0
 62
     5
 63
     7
421
 16777215
 74
     0
 91
        4
 64
     7
 65
   257
 75
     1
175
     1
 42
1.0
 92
        8
 66
   257
 43
1.0
 76
     1
 77
     6
 78
     2
 67
     8
425
  7895160
 79
     3
170
     0
171
     0
290
     0
174
     0
 93
        5
 44
0.0
173
     0
291
     0
 45
0.0
1001
ACAD
1000
AcDbSavedByObjectVersion
1070
     0
  0
VISUALSTYLE
  5
D909
102
{ACAD_XDICTIONARY
360
D984
102
}
102
{ACAD_REACTORS
330
D8F5
102
}
330
D8F5
100
AcDbVisualStyle
  2
Shaded with edges
 70
    26
 71
     2
 72
     2
 73
     1
 90
        2
 40
-0.6
 41
30.0
 62
     5
 63
     7
421
 16777215
 74
     1
 91
       10
 64
     7
 65
   257
 75
     2
175
     1
 42
1.0
 92
        8
 66
   257
 43
1.0
 76
     1
 77
     6
 78
     2
 67
     7
 79
     3
170
     0
171
     0
290
     0
174
     0
 93
        5
 44
0.0
173
     0
291
     0
 45
0.0
1001
ACAD
1000
AcDbSavedByObjectVersion
1070
     0
  0
VISUALSTYLE
  5
D906
102
{ACAD_XDICTIONARY
360
D97E
102
}
102
{ACAD_REACTORS
330
D8F5
102
}
330
D8F5
100
AcDbVisualStyle
  2
Shades of Gray
 70
    23
 71
     2
 72
     2
 73
     3
 90
        0
 40
-0.6
 41
-30.0
 62
     5
 63
     7
421
 16777215
 74
     2
 91
        2
 64
     7
 65
     7
 75
     1
175
     1
 42
40.0
 92
        8
 66
     7
 43
1.0
 76
     1
 77
     6
 78
     2
 67
     7
 79
     3
170
     0
171
     0
290
     0
174
     0
 93
        1
 44
0.0
173
     0
291
     0
 45
0.0
1001
ACAD
1000
AcDbSavedByObjectVersion
1070
     0
  0
VISUALSTYLE
  5
D907
102
{ACAD_XDICTIONARY
360
D980
102
}
102
{ACAD_REACTORS
330
D8F5
102
}
330
D8F5
100
AcDbVisualStyle
  2
Sketchy
 70
    24
 71
     1
 72
     2
 73
     2
 90
        0
 40
-0.6
 41
-30.0
 62
     5
 63
     7
421
 16777215
 74
     2
 91
        2
 64
     7
 65
     7
 75
     1
175
     1
 42
40.0
 92
       11
 66
     7
 43
1.0
 76
     1
 77
     6
 78
     2
 67
     7
 79
     6
170
     0
171
     0
290
     0
174
     0
 93
        1
 44
0.0
173
     0
291
     0
 45
0.0
1001
ACAD
1000
AcDbSavedByObjectVersion
1070
     0
  0
VISUALSTYLE
  5
D902
102
{ACAD_XDICTIONARY
360
D976
102
}
102
{ACAD_REACTORS
330
D8F5
102
}
330
D8F5
100
AcDbVisualStyle
  2
Thicken
 70
    13
 71
     2
 72
     2
 73
     0
 90
        0
 40
-0.6
 41
-30.0
 62
     5
 63
     7
421
 16777215
 74
     1
 91
        4
 64
     7
 65
   257
 75
     1
175
     1
 42
1.0
 92
       12
 66
     7
 43
1.0
 76
     1
 77
     6
 78
     2
 67
     7
 79
     5
170
     0
171
     0
290
     0
174
     0
 93
        1
 44
0.0
173
     0
291
     1
 45
0.0
1001
ACAD
1000
AcDbSavedByObjectVersion
1070
     0
  0
VISUALSTYLE
  5
D8FC
102
{ACAD_XDICTIONARY
360
D96A
102
}
102
{ACAD_REACTORS
330
D8F5
102
}
330
D8F5
100
AcDbVisualStyle
  2
Wireframe
 70
     5
 71
     0
 72
     2
 73
     0
 90
        0
 40
-0.6
 41
-30.0
 62
     5
 63
     7
421
 16777215
 74
     1
 91
        4
 64
     7
 65
   257
 75
     1
175
     1
 42
1.0
 92
        0
 66
   257
 43
1.0
 76
     1
 77
     6
 78
     2
 67
     7
 79
     3
170
     0
171
     0
290
     0
174
     0
 93
        1
 44
0.0
173
     0
291
     0
 45
0.0
1001
ACAD
1000
AcDbSavedByObjectVersion
1070
     0
  0
VISUALSTYLE
  5
D908
102
{ACAD_XDICTIONARY
360
D982
102
}
102
{ACAD_REACTORS
330
D8F5
102
}
330
D8F5
100
AcDbVisualStyle
  2
X-Ray
 70
    25
 71
     2
 72
     2
 73
     1
 90
        1
 40
0.5
 41
-30.0
 62
     5
 63
     7
421
 16777215
 74
     1
 91
        0
 64
     7
 65
   257
 75
     1
175
     1
 42
1.0
 92
        8
 66
     7
 43
1.0
 76
     1
 77
     6
 78
     2
 67
     7
 79
     3
170
     0
171
     0
290
     0
174
     0
 93
       13
 44
0.0
173
     0
291
     0
 45
0.0
1001
ACAD
1000
AcDbSavedByObjectVersion
1070
     0
  0
DICTIONARYVAR
  5
D953
102
{ACAD_REACTORS
330
1FDC
102
}
330
1FDC
100
DictionaryVariables
280
     0
  1
1:1
  0
DICTIONARYVAR
  5
D950
102
{ACAD_REACTORS
330
1FDC
102
}
330
1FDC
100
DictionaryVariables
280
     0
  1
STANDARD
  0
DICTIONARYVAR
  5
1FDD
102
{ACAD_REACTORS
330
1FDC
102
}
330
1FDC
100
DictionaryVariables
280
     0
  1
STANDARD
  0
DICTIONARYVAR
  5
D951
102
{ACAD_REACTORS
330
1FDC
102
}
330
1FDC
100
DictionaryVariables
280
     0
  1
Imperial24
  0
DICTIONARYVAR
  5
D952
102
{ACAD_REACTORS
330
1FDC
102
}
330
1FDC
100
DictionaryVariables
280
     0
  1
Imperial24
  0
DICTIONARYVAR
  5
1FDE
102
{ACAD_REACTORS
330
1FDC
102
}
330
1FDC
100
DictionaryVariables
280
     0
  1
1
  0
DICTIONARYVAR
  5
1FDF
102
{ACAD_REACTORS
330
1FDC
102
}
330
1FDC
100
DictionaryVariables
280
     0
  1

  0
DICTIONARYVAR
  5
D954
102
{ACAD_REACTORS
330
1FDC
102
}
330
1FDC
100
DictionaryVariables
280
     0
  1
2
  0
DICTIONARY
  5
D8E6
330
D8E5
100
AcDbDictionary
280
     1
281
     1
  3
ACAD_XREC_ROUNDTRIP
360
D95C
  3
BUMPTILE
360
D8E8
  3
DIFFUSETILE
360
D8E7
  3
OPACITYTILE
360
D8EB
  3
REFLECTIONTILE
360
D8EA
  3
REFRACTIONTILE
360
D8EC
  3
SPECULARTILE
360
D8E9
  0
DICTIONARY
  5
D8DE
330
D8DD
100
AcDbDictionary
280
     1
281
     1
  3
ACAD_XREC_ROUNDTRIP
360
D95B
  3
BUMPTILE
360
D8E0
  3
DIFFUSETILE
360
D8DF
  3
OPACITYTILE
360
D8E3
  3
REFLECTIONTILE
360
D8E2
  3
REFRACTIONTILE
360
D8E4
  3
SPECULARTILE
360
D8E1
  0
DICTIONARY
  5
D8EE
330
D8ED
100
AcDbDictionary
280
     1
281
     1
  3
ACAD_XREC_ROUNDTRIP
360
D95D
  3
BUMPTILE
360
D8F0
  3
DIFFUSETILE
360
D8EF
  3
OPACITYTILE
360
D8F3
  3
REFLECTIONTILE
360
D8F2
  3
REFRACTIONTILE
360
D8F4
  3
SPECULARTILE
360
D8F1
  0
DICTIONARY
  5
D98F
330
D921
100
AcDbDictionary
280
     1
281
     1
  3
ACAD_XREC_ROUNDTRIP
360
D990
  0
DICTIONARY
  5
D956
330
1FCB
100
AcDbDictionary
280
     1
281
     1
  3
ACAD_ROUNDTRIP_2008_TABLESTYLE_CELLSTYLEMAP
360
D957
  3
ACAD_XREC_ROUNDTRIP
360
D959
  0
DICTIONARY
  5
D968
330
D8FB
100
AcDbDictionary
280
     1
281
     1
  3
ACAD_XREC_ROUNDTRIP
360
D969
  0
DICTIONARY
  5
D966
330
D8FA
100
AcDbDictionary
280
     1
281
     1
  3
ACAD_XREC_ROUNDTRIP
360
D967
  0
DICTIONARY
  5
D974
330
D901
100
AcDbDictionary
280
     1
281
     1
  3
ACAD_XREC_ROUNDTRIP
360
D975
  0
DICTIONARY
  5
D97C
330
D905
100
AcDbDictionary
280
     1
281
     1
  3
ACAD_XREC_ROUNDTRIP
360
D97D
  0
DICTIONARY
  5
D96E
330
D8FE
100
AcDbDictionary
280
     1
281
     1
  3
ACAD_XREC_ROUNDTRIP
360
D96F
  0
DICTIONARY
  5
D972
330
D900
100
AcDbDictionary
280
     1
281
     1
  3
ACAD_XREC_ROUNDTRIP
360
D973
  0
DICTIONARY
  5
D98C
330
D90D
100
AcDbDictionary
280
     1
281
     1
  3
ACAD_XREC_ROUNDTRIP
360
D98D
  0
DICTIONARY
  5
D97A
330
D904
100
AcDbDictionary
280
     1
281
     1
  3
ACAD_XREC_ROUNDTRIP
360
D97B
  0
DICTIONARY
  5
D95E
330
D8F6
100
AcDbDictionary
280
     1
281
     1
  3
ACAD_XREC_ROUNDTRIP
360
D95F
  0
DICTIONARY
  5
D960
330
D8F7
100
AcDbDictionary
280
     1
281
     1
  3
ACAD_XREC_ROUNDTRIP
360
D961
  0
DICTIONARY
  5
D962
330
D8F8
100
AcDbDictionary
280
     1
281
     1
  3
ACAD_XREC_ROUNDTRIP
360
D963
  0
DICTIONARY
  5
D964
330
D8F9
100
AcDbDictionary
280
     1
281
     1
  3
ACAD_XREC_ROUNDTRIP
360
D965
  0
DICTIONARY
  5
D96C
330
D8FD
100
AcDbDictionary
280
     1
281
     1
  3
ACAD_XREC_ROUNDTRIP
360
D96D
  0
DICTIONARY
  5
D988
330
D90B
100
AcDbDictionary
280
     1
281
     1
  3
ACAD_XREC_ROUNDTRIP
360
D989
  0
DICTIONARY
  5
D978
330
D903
100
AcDbDictionary
280
     1
281
     1
  3
ACAD_XREC_ROUNDTRIP
360
D979
  0
DICTIONARY
  5
D98A
330
D90C
100
AcDbDictionary
280
     1
281
     1
  3
ACAD_XREC_ROUNDTRIP
360
D98B
  0
DICTIONARY
  5
D970
330
D8FF
100
AcDbDictionary
280
     1
281
     1
  3
ACAD_XREC_ROUNDTRIP
360
D971
  0
DICTIONARY
  5
D986
330
D90A
100
AcDbDictionary
280
     1
281
     1
  3
ACAD_XREC_ROUNDTRIP
360
D987
  0
DICTIONARY
  5
D984
330
D909
100
AcDbDictionary
280
     1
281
     1
  3
ACAD_XREC_ROUNDTRIP
360
D985
  0
DICTIONARY
  5
D97E
330
D906
100
AcDbDictionary
280
     1
281
     1
  3
ACAD_XREC_ROUNDTRIP
360
D97F
  0
DICTIONARY
  5
D980
330
D907
100
AcDbDictionary
280
     1
281
     1
  3
ACAD_XREC_ROUNDTRIP
360
D981
  0
DICTIONARY
  5
D976
330
D902
100
AcDbDictionary
280
     1
281
     1
  3
ACAD_XREC_ROUNDTRIP
360
D977
  0
DICTIONARY
  5
D96A
330
D8FC
100
AcDbDictionary
280
     1
281
     1
  3
ACAD_XREC_ROUNDTRIP
360
D96B
  0
DICTIONARY
  5
D982
330
D908
100
AcDbDictionary
280
     1
281
     1
  3
ACAD_XREC_ROUNDTRIP
360
D983
  0
XRECORD
  5
D95C
102
{ACAD_REACTORS
330
D8E6
102
}
330
D8E6
100
AcDbXrecord
280
     1
102
MATERIAL
148
0.0
149
0.0
149
0.0
 93
        0
 94
      127
282
     0
 72
     0
 77
     0
171
     0
175
     0
179
     0
273
     0
  0
XRECORD
  5
D8E8
102
{ACAD_REACTORS
330
D8E6
102
}
330
D8E6
100
AcDbXrecord
280
     1
270
     1
271
     1
  0
XRECORD
  5
D8E7
102
{ACAD_REACTORS
330
D8E6
102
}
330
D8E6
100
AcDbXrecord
280
     1
270
     1
271
     1
  0
XRECORD
  5
D8EB
102
{ACAD_REACTORS
330
D8E6
102
}
330
D8E6
100
AcDbXrecord
280
     1
270
     1
271
     1
  0
XRECORD
  5
D8EA
102
{ACAD_REACTORS
330
D8E6
102
}
330
D8E6
100
AcDbXrecord
280
     1
270
     1
271
     1
  0
XRECORD
  5
D8EC
102
{ACAD_REACTORS
330
D8E6
102
}
330
D8E6
100
AcDbXrecord
280
     1
270
     1
271
     1
  0
XRECORD
  5
D8E9
102
{ACAD_REACTORS
330
D8E6
102
}
330
D8E6
100
AcDbXrecord
280
     1
270
     1
271
     1
  0
XRECORD
  5
D95B
102
{ACAD_REACTORS
330
D8DE
102
}
330
D8DE
100
AcDbXrecord
280
     1
102
MATERIAL
148
0.0
149
0.0
149
0.0
 93
        0
 94
      127
282
     0
 72
     0
 77
     0
171
     0
175
     0
179
     0
273
     0
  0
XRECORD
  5
D8E0
102
{ACAD_REACTORS
330
D8DE
102
}
330
D8DE
100
AcDbXrecord
280
     1
270
     1
271
     1
  0
XRECORD
  5
D8DF
102
{ACAD_REACTORS
330
D8DE
102
}
330
D8DE
100
AcDbXrecord
280
     1
270
     1
271
     1
  0
XRECORD
  5
D8E3
102
{ACAD_REACTORS
330
D8DE
102
}
330
D8DE
100
AcDbXrecord
280
     1
270
     1
271
     1
  0
XRECORD
  5
D8E2
102
{ACAD_REACTORS
330
D8DE
102
}
330
D8DE
100
AcDbXrecord
280
     1
270
     1
271
     1
  0
XRECORD
  5
D8E4
102
{ACAD_REACTORS
330
D8DE
102
}
330
D8DE
100
AcDbXrecord
280
     1
270
     1
271
     1
  0
XRECORD
  5
D8E1
102
{ACAD_REACTORS
330
D8DE
102
}
330
D8DE
100
AcDbXrecord
280
     1
270
     1
271
     1
  0
XRECORD
  5
D95D
102
{ACAD_REACTORS
330
D8EE
102
}
330
D8EE
100
AcDbXrecord
280
     1
102
MATERIAL
148
0.0
149
0.0
149
0.0
 93
        0
 94
      127
282
     0
 72
     0
 77
     0
171
     0
175
     0
179
     0
273
     0
  0
XRECORD
  5
D8F0
102
{ACAD_REACTORS
330
D8EE
102
}
330
D8EE
100
AcDbXrecord
280
     1
270
     1
271
     1
  0
XRECORD
  5
D8EF
102
{ACAD_REACTORS
330
D8EE
102
}
330
D8EE
100
AcDbXrecord
280
     1
270
     1
271
     1
  0
XRECORD
  5
D8F3
102
{ACAD_REACTORS
330
D8EE
102
}
330
D8EE
100
AcDbXrecord
280
     1
270
     1
271
     1
  0
XRECORD
  5
D8F2
102
{ACAD_REACTORS
330
D8EE
102
}
330
D8EE
100
AcDbXrecord
280
     1
270
     1
271
     1
  0
XRECORD
  5
D8F4
102
{ACAD_REACTORS
330
D8EE
102
}
330
D8EE
100
AcDbXrecord
280
     1
270
     1
271
     1
  0
XRECORD
  5
D8F1
102
{ACAD_REACTORS
330
D8EE
102
}
330
D8EE
100
AcDbXrecord
280
     1
270
     1
271
     1
  0
XRECORD
  5
D990
102
{ACAD_REACTORS
330
D98F
102
}
330
D98F
100
AcDbXrecord
280
     1
102
ACAD_ROUNDTRIP_2012_MLEADER_STYLE
298
     1
  0
CELLSTYLEMAP
  5
D957
102
{ACAD_REACTORS
330
D956
102
}
330
D956
100
AcDbCellStyleMap
 90
        3
300
CELLSTYLE
  1
TABLEFORMAT_BEGIN
 90
        5
170
     1
 91
        0
 92
    32768
 62
   257
 93
        1
300
CONTENTFORMAT
  1
CONTENTFORMAT_BEGIN
 90
        0
 91
        0
 92
        4
 93
        0
300

 40
0.0
140
1.0
 94
        5
 62
     0
340
C
144
0.25
309
CONTENTFORMAT_END
171
     0
 94
        6
 95
        1
302
GRIDFORMAT
  1
GRIDFORMAT_BEGIN
 90
        0
 91
        1
 62
     0
 92
       -2
340
0
 93
        0
 40
0.045
309
GRIDFORMAT_END
 95
        2
302
GRIDFORMAT
  1
GRIDFORMAT_BEGIN
 90
        0
 91
        1
 62
     0
 92
       -2
340
0
 93
        0
 40
0.045
309
GRIDFORMAT_END
 95
        4
302
GRIDFORMAT
  1
GRIDFORMAT_BEGIN
 90
        0
 91
        1
 62
     0
 92
       -2
340
0
 93
        0
 40
0.045
309
GRIDFORMAT_END
 95
        8
302
GRIDFORMAT
  1
GRIDFORMAT_BEGIN
 90
        0
 91
        1
 62
     0
 92
       -2
340
0
 93
        0
 40
0.045
309
GRIDFORMAT_END
 95
       16
302
GRIDFORMAT
  1
GRIDFORMAT_BEGIN
 90
        0
 91
        1
 62
     0
 92
       -2
340
0
 93
        0
 40
0.045
309
GRIDFORMAT_END
 95
       32
302
GRIDFORMAT
  1
GRIDFORMAT_BEGIN
 90
        0
 91
        1
 62
     0
 92
       -2
340
0
 93
        0
 40
0.045
309
GRIDFORMAT_END
309
TABLEFORMAT_END
  1
CELLSTYLE_BEGIN
 90
        1
 91
        1
300
_TITLE
309
CELLSTYLE_END
300
CELLSTYLE
  1
TABLEFORMAT_BEGIN
 90
        5
170
     1
 91
        0
 92
        0
 62
   257
 93
        1
300
CONTENTFORMAT
  1
CONTENTFORMAT_BEGIN
 90
        0
 91
        0
 92
        4
 93
        0
300

 40
0.0
140
1.0
 94
        5
 62
     0
340
C
144
0.18
309
CONTENTFORMAT_END
171
     0
 94
        6
 95
        1
302
GRIDFORMAT
  1
GRIDFORMAT_BEGIN
 90
        0
 91
        1
 62
     0
 92
       -2
340
0
 93
        0
 40
0.045
309
GRIDFORMAT_END
 95
        2
302
GRIDFORMAT
  1
GRIDFORMAT_BEGIN
 90
        0
 91
        1
 62
     0
 92
       -2
340
0
 93
        0
 40
0.045
309
GRIDFORMAT_END
 95
        4
302
GRIDFORMAT
  1
GRIDFORMAT_BEGIN
 90
        0
 91
        1
 62
     0
 92
       -2
340
0
 93
        0
 40
0.045
309
GRIDFORMAT_END
 95
        8
302
GRIDFORMAT
  1
GRIDFORMAT_BEGIN
 90
        0
 91
        1
 62
     0
 92
       -2
340
0
 93
        0
 40
0.045
309
GRIDFORMAT_END
 95
       16
302
GRIDFORMAT
  1
GRIDFORMAT_BEGIN
 90
        0
 91
        1
 62
     0
 92
       -2
340
0
 93
        0
 40
0.045
309
GRIDFORMAT_END
 95
       32
302
GRIDFORMAT
  1
GRIDFORMAT_BEGIN
 90
        0
 91
        1
 62
     0
 92
       -2
340
0
 93
        0
 40
0.045
309
GRIDFORMAT_END
309
TABLEFORMAT_END
  1
CELLSTYLE_BEGIN
 90
        2
 91
        1
300
_HEADER
309
CELLSTYLE_END
300
CELLSTYLE
  1
TABLEFORMAT_BEGIN
 90
        5
170
     1
 91
        0
 92
        0
 62
   257
 93
        1
300
CONTENTFORMAT
  1
CONTENTFORMAT_BEGIN
 90
        0
 91
        0
 92
        4
 93
        0
300

 40
0.0
140
1.0
 94
        2
 62
     0
340
C
144
0.18
309
CONTENTFORMAT_END
171
     0
 94
        6
 95
        1
302
GRIDFORMAT
  1
GRIDFORMAT_BEGIN
 90
        0
 91
        1
 62
     0
 92
       -2
340
0
 93
        0
 40
0.045
309
GRIDFORMAT_END
 95
        2
302
GRIDFORMAT
  1
GRIDFORMAT_BEGIN
 90
        0
 91
        1
 62
     0
 92
       -2
340
0
 93
        0
 40
0.045
309
GRIDFORMAT_END
 95
        4
302
GRIDFORMAT
  1
GRIDFORMAT_BEGIN
 90
        0
 91
        1
 62
     0
 92
       -2
340
0
 93
        0
 40
0.045
309
GRIDFORMAT_END
 95
        8
302
GRIDFORMAT
  1
GRIDFORMAT_BEGIN
 90
        0
 91
        1
 62
     0
 92
       -2
340
0
 93
        0
 40
0.045
309
GRIDFORMAT_END
 95
       16
302
GRIDFORMAT
  1
GRIDFORMAT_BEGIN
 90
        0
 91
        1
 62
     0
 92
       -2
340
0
 93
        0
 40
0.045
309
GRIDFORMAT_END
 95
       32
302
GRIDFORMAT
  1
GRIDFORMAT_BEGIN
 90
        0
 91
        1
 62
     0
 92
       -2
340
0
 93
        0
 40
0.045
309
GRIDFORMAT_END
309
TABLEFORMAT_END
  1
CELLSTYLE_BEGIN
 90
        3
 91
        2
300
_DATA
309
CELLSTYLE_END
  0
XRECORD
  5
D959
102
{ACAD_REACTORS
330
D956
102
}
330
D956
100
AcDbXrecord
280
     1
102
ACAD_ROUNDTRIP_PRE2007_TABLESTYLE
 90
        4
 91
        0
  1

 92
        4
 93
        0
  2

 94
        4
 95
        0
  3

  0
XRECORD
  5
D969
102
{ACAD_REACTORS
330
D968
102
}
330
D968
100
AcDbXrecord
280
     1
102
RTVSPost2010Prop28
280
     1
102
RTVSPost2010PropOp28
 70
     1
102
RTVSPost2010Prop29
280
     1
102
RTVSPost2010PropOp29
 70
     1
102
RTVSPost2010Prop30
280
     0
102
RTVSPost2010PropOp30
 70
     1
102
RTVSPost2010Prop31
280
     0
102
RTVSPost2010PropOp31
 70
     1
102
RTVSPost2010Prop32
280
     0
102
RTVSPost2010PropOp32
 70
     1
102
RTVSPost2010Prop33
280
     0
102
RTVSPost2010PropOp33
 70
     1
102
RTVSPost2010Prop34
280
     0
102
RTVSPost2010PropOp34
 70
     1
102
RTVSPost2010Prop35
280
     0
102
RTVSPost2010PropOp35
 70
     1
102
RTVSPost2010Prop36
280
     0
102
RTVSPost2010PropOp36
 70
     1
102
RTVSPost2010Prop37
 90
       50
102
RTVSPost2010PropOp37
 70
     1
102
RTVSPost2010Prop38
140
0.0
102
RTVSPost2010PropOp38
 70
     1
102
RTVSPost2010Prop39
140
1.0
102
RTVSPost2010PropOp39
 70
     1
102
RTVSPost2010Prop40
 90
        0
102
RTVSPost2010PropOp40
 70
     1
102
RTVSPost2010Prop41ColorIndex
 90
       18
102
RTVSPost2010Prop41ColorRGB
 90
        0
102
RTVSPost2010PropOp41
 70
     1
102
RTVSPost2010Prop42
 90
       50
102
RTVSPost2010PropOp42
 70
     1
102
RTVSPost2010Prop43
 90
        3
102
RTVSPost2010PropOp43
 70
     1
102
RTVSPost2010Prop44ColorIndex
 90
        5
102
RTVSPost2010Prop44ColorRGB
 90
      255
102
RTVSPost2010PropOp44
 70
     1
102
RTVSPost2010Prop45
280
     0
102
RTVSPost2010PropOp45
 70
     1
102
RTVSPost2010Prop46
 90
       50
102
RTVSPost2010PropOp46
 70
     1
102
RTVSPost2010Prop47
 90
       50
102
RTVSPost2010PropOp47
 70
     1
102
RTVSPost2010Prop48
 90
       50
102
RTVSPost2010PropOp48
 70
     1
102
RTVSPost2010Prop49
280
     0
102
RTVSPost2010PropOp49
 70
     1
102
RTVSPost2010Prop50
 90
       50
102
RTVSPost2010PropOp50
 70
     1
102
RTVSPost2010Prop51ColorIndex
 90
      256
102
RTVSPost2010Prop51ColorRGB
 90
-16777216
102
RTVSPost2010PropOp51
 70
     0
102
RTVSPost2010Prop52
140
1.0
102
RTVSPost2010PropOp52
 70
     0
102
RTVSPost2010Prop53
 90
        2
102
RTVSPost2010PropOp53
 70
     1
102
RTVSPost2010Prop54
  1
strokes_ogs.tif
102
RTVSPost2010PropOp54
 70
     1
102
RTVSPost2010Prop55
280
     0
102
RTVSPost2010PropOp55
 70
     1
102
RTVSPost2010Prop56
140
1.0
102
RTVSPost2010PropOp56
 70
     1
102
RTVSPost2010Prop57
140
1.0
102
RTVSPost2010PropOp57
 70
     1
102
RTVSPropertyOp0
 70
     1
102
RTVSPropertyOp1
 70
     1
102
RTVSPropertyOp2
 70
     1
102
RTVSPropertyOp3
 70
     1
102
RTVSPropertyOp4
 70
     1
102
RTVSPropertyOp5
 70
     1
102
RTVSPropertyOp6
 70
     1
102
RTVSPropertyOp7
 70
     1
102
RTVSPropertyOp8
 70
     1
102
RTVSPropertyOp9
 70
     1
102
RTVSPropertyOp10
 70
     1
102
RTVSPropertyOp11
 70
     1
102
RTVSPropertyOp12
 70
     1
102
RTVSPropertyOp13
 70
     1
102
RTVSPropertyOp14
 70
     1
102
RTVSPropertyOp15
 70
     1
102
RTVSPropertyOp16
 70
     1
102
RTVSPropertyOp17
 70
     1
102
RTVSPropertyOp18
 70
     1
102
RTVSPropertyOp19
 70
     1
102
RTVSPropertyOp20
 70
     1
102
RTVSPropertyOp21
 70
     1
102
RTVSPropertyOp22
 70
     1
102
RTVSPropertyOp23
 70
     1
102
RTVSPropertyOp24
 70
     1
102
RTVSPropertyOp25
 70
     1
102
RTVSPropertyOp26
 70
     1
102
RTVSPropertyOp27
 70
     1
102
RTVSPropertyOp28
 70
     1
102
RTVSPropertyOp29
 70
     1
102
RTVSPropertyOp30
 70
     1
102
RTVSPropertyOp31
 70
     1
102
RTVSPropertyOp32
 70
     1
102
RTVSPropertyOp33
 70
     1
102
RTVSPropertyOp34
 70
     1
102
RTVSPropertyOp35
 70
     1
102
RTVSPropertyOp36
 70
     1
102
RTVSPropertyOp37
 70
     1
102
RTVSPropertyOp38
 70
     1
102
RTVSPropertyOp39
 70
     1
102
RTVSPropertyOp40
 70
     1
102
RTVSPropertyOp41
 70
     1
102
RTVSPropertyOp42
 70
     1
102
RTVSPropertyOp43
 70
     1
102
RTVSPropertyOp44
 70
     1
102
RTVSPropertyOp45
 70
     1
102
RTVSPropertyOp46
 70
     1
102
RTVSPropertyOp47
 70
     1
102
RTVSPropertyOp48
 70
     1
102
RTVSPropertyOp49
 70
     1
102
RTVSPropertyOp50
 70
     1
102
RTVSPropertyOp51
 70
     0
102
RTVSPropertyOp52
 70
     0
102
RTVSPropertyOp53
 70
     1
102
RTVSPropertyOp54
 70
     1
102
RTVSPropertyOp55
 70
     1
102
RTVSPropertyOp56
 70
     1
102
RTVSPropertyOp57
 70
     1
102
RTVSPropertyOp58
 70
     1
102
RTVSPropertyOp59
 70
     1
102
RTVSPropertyOp60
 70
     1
102
RTVSPropertyOp61
 70
     1
102
RTVSPropertyOp62
 70
     1
  0
XRECORD
  5
D967
102
{ACAD_REACTORS
330
D966
102
}
330
D966
100
AcDbXrecord
280
     1
102
RTVSPost2010Prop28
280
     0
102
RTVSPost2010PropOp28
 70
     1
102
RTVSPost2010Prop29
280
     1
102
RTVSPost2010PropOp29
 70
     1
102
RTVSPost2010Prop30
280
     1
102
RTVSPost2010PropOp30
 70
     1
102
RTVSPost2010Prop31
280
     0
102
RTVSPost2010PropOp31
 70
     1
102
RTVSPost2010Prop32
280
     0
102
RTVSPost2010PropOp32
 70
     1
102
RTVSPost2010Prop33
280
     0
102
RTVSPost2010PropOp33
 70
     1
102
RTVSPost2010Prop34
280
     0
102
RTVSPost2010PropOp34
 70
     1
102
RTVSPost2010Prop35
280
     0
102
RTVSPost2010PropOp35
 70
     1
102
RTVSPost2010Prop36
280
     0
102
RTVSPost2010PropOp36
 70
     1
102
RTVSPost2010Prop37
 90
       50
102
RTVSPost2010PropOp37
 70
     1
102
RTVSPost2010Prop38
140
0.0
102
RTVSPost2010PropOp38
 70
     1
102
RTVSPost2010Prop39
140
1.0
102
RTVSPost2010PropOp39
 70
     1
102
RTVSPost2010Prop40
 90
        0
102
RTVSPost2010PropOp40
 70
     1
102
RTVSPost2010Prop41ColorIndex
 90
       18
102
RTVSPost2010Prop41ColorRGB
 90
        0
102
RTVSPost2010PropOp41
 70
     1
102
RTVSPost2010Prop42
 90
       50
102
RTVSPost2010PropOp42
 70
     1
102
RTVSPost2010Prop43
 90
        3
102
RTVSPost2010PropOp43
 70
     1
102
RTVSPost2010Prop44ColorIndex
 90
        5
102
RTVSPost2010Prop44ColorRGB
 90
      255
102
RTVSPost2010PropOp44
 70
     1
102
RTVSPost2010Prop45
280
     0
102
RTVSPost2010PropOp45
 70
     1
102
RTVSPost2010Prop46
 90
       50
102
RTVSPost2010PropOp46
 70
     1
102
RTVSPost2010Prop47
 90
       50
102
RTVSPost2010PropOp47
 70
     1
102
RTVSPost2010Prop48
 90
       50
102
RTVSPost2010PropOp48
 70
     1
102
RTVSPost2010Prop49
280
     0
102
RTVSPost2010PropOp49
 70
     1
102
RTVSPost2010Prop50
 90
       50
102
RTVSPost2010PropOp50
 70
     1
102
RTVSPost2010Prop51ColorIndex
 90
      256
102
RTVSPost2010Prop51ColorRGB
 90
-16777216
102
RTVSPost2010PropOp51
 70
     0
102
RTVSPost2010Prop52
140
1.0
102
RTVSPost2010PropOp52
 70
     0
102
RTVSPost2010Prop53
 90
        2
102
RTVSPost2010PropOp53
 70
     1
102
RTVSPost2010Prop54
  1
strokes_ogs.tif
102
RTVSPost2010PropOp54
 70
     1
102
RTVSPost2010Prop55
280
     0
102
RTVSPost2010PropOp55
 70
     1
102
RTVSPost2010Prop56
140
1.0
102
RTVSPost2010PropOp56
 70
     1
102
RTVSPost2010Prop57
140
1.0
102
RTVSPost2010PropOp57
 70
     1
102
RTVSPropertyOp0
 70
     1
102
RTVSPropertyOp1
 70
     1
102
RTVSPropertyOp2
 70
     1
102
RTVSPropertyOp3
 70
     1
102
RTVSPropertyOp4
 70
     1
102
RTVSPropertyOp5
 70
     1
102
RTVSPropertyOp6
 70
     1
102
RTVSPropertyOp7
 70
     1
102
RTVSPropertyOp8
 70
     1
102
RTVSPropertyOp9
 70
     1
102
RTVSPropertyOp10
 70
     1
102
RTVSPropertyOp11
 70
     1
102
RTVSPropertyOp12
 70
     1
102
RTVSPropertyOp13
 70
     1
102
RTVSPropertyOp14
 70
     1
102
RTVSPropertyOp15
 70
     1
102
RTVSPropertyOp16
 70
     1
102
RTVSPropertyOp17
 70
     1
102
RTVSPropertyOp18
 70
     1
102
RTVSPropertyOp19
 70
     1
102
RTVSPropertyOp20
 70
     1
102
RTVSPropertyOp21
 70
     1
102
RTVSPropertyOp22
 70
     1
102
RTVSPropertyOp23
 70
     1
102
RTVSPropertyOp24
 70
     1
102
RTVSPropertyOp25
 70
     1
102
RTVSPropertyOp26
 70
     1
102
RTVSPropertyOp27
 70
     1
102
RTVSPropertyOp28
 70
     1
102
RTVSPropertyOp29
 70
     1
102
RTVSPropertyOp30
 70
     1
102
RTVSPropertyOp31
 70
     1
102
RTVSPropertyOp32
 70
     1
102
RTVSPropertyOp33
 70
     1
102
RTVSPropertyOp34
 70
     1
102
RTVSPropertyOp35
 70
     1
102
RTVSPropertyOp36
 70
     1
102
RTVSPropertyOp37
 70
     1
102
RTVSPropertyOp38
 70
     1
102
RTVSPropertyOp39
 70
     1
102
RTVSPropertyOp40
 70
     1
102
RTVSPropertyOp41
 70
     1
102
RTVSPropertyOp42
 70
     1
102
RTVSPropertyOp43
 70
     1
102
RTVSPropertyOp44
 70
     1
102
RTVSPropertyOp45
 70
     1
102
RTVSPropertyOp46
 70
     1
102
RTVSPropertyOp47
 70
     1
102
RTVSPropertyOp48
 70
     1
102
RTVSPropertyOp49
 70
     1
102
RTVSPropertyOp50
 70
     1
102
RTVSPropertyOp51
 70
     0
102
RTVSPropertyOp52
 70
     0
102
RTVSPropertyOp53
 70
     1
102
RTVSPropertyOp54
 70
     1
102
RTVSPropertyOp55
 70
     1
102
RTVSPropertyOp56
 70
     1
102
RTVSPropertyOp57
 70
     1
102
RTVSPropertyOp58
 70
     1
102
RTVSPropertyOp59
 70
     1
102
RTVSPropertyOp60
 70
     1
102
RTVSPropertyOp61
 70
     1
102
RTVSPropertyOp62
 70
     1
  0
XRECORD
  5
D975
102
{ACAD_REACTORS
330
D974
102
}
330
D974
100
AcDbXrecord
280
     1
102
RTVSPost2010Prop28
280
     0
102
RTVSPost2010PropOp28
 70
     1
102
RTVSPost2010Prop29
280
     1
102
RTVSPost2010PropOp29
 70
     1
102
RTVSPost2010Prop30
280
     1
102
RTVSPost2010PropOp30
 70
     1
102
RTVSPost2010Prop31
280
     0
102
RTVSPost2010PropOp31
 70
     1
102
RTVSPost2010Prop32
280
     0
102
RTVSPost2010PropOp32
 70
     1
102
RTVSPost2010Prop33
280
     0
102
RTVSPost2010PropOp33
 70
     1
102
RTVSPost2010Prop34
280
     0
102
RTVSPost2010PropOp34
 70
     1
102
RTVSPost2010Prop35
280
     0
102
RTVSPost2010PropOp35
 70
     1
102
RTVSPost2010Prop36
280
     0
102
RTVSPost2010PropOp36
 70
     1
102
RTVSPost2010Prop37
 90
       50
102
RTVSPost2010PropOp37
 70
     1
102
RTVSPost2010Prop38
140
0.0
102
RTVSPost2010PropOp38
 70
     1
102
RTVSPost2010Prop39
140
1.0
102
RTVSPost2010PropOp39
 70
     1
102
RTVSPost2010Prop40
 90
        0
102
RTVSPost2010PropOp40
 70
     1
102
RTVSPost2010Prop41ColorIndex
 90
       18
102
RTVSPost2010Prop41ColorRGB
 90
        0
102
RTVSPost2010PropOp41
 70
     1
102
RTVSPost2010Prop42
 90
       50
102
RTVSPost2010PropOp42
 70
     1
102
RTVSPost2010Prop43
 90
        3
102
RTVSPost2010PropOp43
 70
     1
102
RTVSPost2010Prop44ColorIndex
 90
        5
102
RTVSPost2010Prop44ColorRGB
 90
      255
102
RTVSPost2010PropOp44
 70
     1
102
RTVSPost2010Prop45
280
     0
102
RTVSPost2010PropOp45
 70
     1
102
RTVSPost2010Prop46
 90
       50
102
RTVSPost2010PropOp46
 70
     1
102
RTVSPost2010Prop47
 90
       50
102
RTVSPost2010PropOp47
 70
     1
102
RTVSPost2010Prop48
 90
       50
102
RTVSPost2010PropOp48
 70
     1
102
RTVSPost2010Prop49
280
     0
102
RTVSPost2010PropOp49
 70
     1
102
RTVSPost2010Prop50
 90
       50
102
RTVSPost2010PropOp50
 70
     1
102
RTVSPost2010Prop51ColorIndex
 90
      256
102
RTVSPost2010Prop51ColorRGB
 90
-16777216
102
RTVSPost2010PropOp51
 70
     0
102
RTVSPost2010Prop52
140
1.0
102
RTVSPost2010PropOp52
 70
     0
102
RTVSPost2010Prop53
 90
        2
102
RTVSPost2010PropOp53
 70
     1
102
RTVSPost2010Prop54
  1
strokes_ogs.tif
102
RTVSPost2010PropOp54
 70
     1
102
RTVSPost2010Prop55
280
     0
102
RTVSPost2010PropOp55
 70
     1
102
RTVSPost2010Prop56
140
1.0
102
RTVSPost2010PropOp56
 70
     1
102
RTVSPost2010Prop57
140
1.0
102
RTVSPost2010PropOp57
 70
     1
102
RTVSPropertyOp0
 70
     1
102
RTVSPropertyOp1
 70
     1
102
RTVSPropertyOp2
 70
     1
102
RTVSPropertyOp3
 70
     1
102
RTVSPropertyOp4
 70
     1
102
RTVSPropertyOp5
 70
     1
102
RTVSPropertyOp6
 70
     1
102
RTVSPropertyOp7
 70
     1
102
RTVSPropertyOp8
 70
     1
102
RTVSPropertyOp9
 70
     1
102
RTVSPropertyOp10
 70
     1
102
RTVSPropertyOp11
 70
     1
102
RTVSPropertyOp12
 70
     1
102
RTVSPropertyOp13
 70
     1
102
RTVSPropertyOp14
 70
     1
102
RTVSPropertyOp15
 70
     1
102
RTVSPropertyOp16
 70
     1
102
RTVSPropertyOp17
 70
     1
102
RTVSPropertyOp18
 70
     1
102
RTVSPropertyOp19
 70
     1
102
RTVSPropertyOp20
 70
     1
102
RTVSPropertyOp21
 70
     1
102
RTVSPropertyOp22
 70
     1
102
RTVSPropertyOp23
 70
     1
102
RTVSPropertyOp24
 70
     1
102
RTVSPropertyOp25
 70
     1
102
RTVSPropertyOp26
 70
     1
102
RTVSPropertyOp27
 70
     1
102
RTVSPropertyOp28
 70
     1
102
RTVSPropertyOp29
 70
     1
102
RTVSPropertyOp30
 70
     1
102
RTVSPropertyOp31
 70
     1
102
RTVSPropertyOp32
 70
     1
102
RTVSPropertyOp33
 70
     1
102
RTVSPropertyOp34
 70
     1
102
RTVSPropertyOp35
 70
     1
102
RTVSPropertyOp36
 70
     1
102
RTVSPropertyOp37
 70
     1
102
RTVSPropertyOp38
 70
     1
102
RTVSPropertyOp39
 70
     1
102
RTVSPropertyOp40
 70
     1
102
RTVSPropertyOp41
 70
     1
102
RTVSPropertyOp42
 70
     1
102
RTVSPropertyOp43
 70
     1
102
RTVSPropertyOp44
 70
     1
102
RTVSPropertyOp45
 70
     1
102
RTVSPropertyOp46
 70
     1
102
RTVSPropertyOp47
 70
     1
102
RTVSPropertyOp48
 70
     1
102
RTVSPropertyOp49
 70
     1
102
RTVSPropertyOp50
 70
     1
102
RTVSPropertyOp51
 70
     0
102
RTVSPropertyOp52
 70
     0
102
RTVSPropertyOp53
 70
     1
102
RTVSPropertyOp54
 70
     1
102
RTVSPropertyOp55
 70
     1
102
RTVSPropertyOp56
 70
     1
102
RTVSPropertyOp57
 70
     1
102
RTVSPropertyOp58
 70
     1
102
RTVSPropertyOp59
 70
     1
102
RTVSPropertyOp60
 70
     1
102
RTVSPropertyOp61
 70
     1
102
RTVSPropertyOp62
 70
     1
  0
XRECORD
  5
D97D
102
{ACAD_REACTORS
330
D97C
102
}
330
D97C
100
AcDbXrecord
280
     1
102
RTVSPost2010Prop28
280
     0
102
RTVSPost2010PropOp28
 70
     1
102
RTVSPost2010Prop29
280
     1
102
RTVSPost2010PropOp29
 70
     1
102
RTVSPost2010Prop30
280
     1
102
RTVSPost2010PropOp30
 70
     1
102
RTVSPost2010Prop31
280
     0
102
RTVSPost2010PropOp31
 70
     1
102
RTVSPost2010Prop32
280
     0
102
RTVSPost2010PropOp32
 70
     1
102
RTVSPost2010Prop33
280
     0
102
RTVSPost2010PropOp33
 70
     1
102
RTVSPost2010Prop34
280
     0
102
RTVSPost2010PropOp34
 70
     1
102
RTVSPost2010Prop35
280
     0
102
RTVSPost2010PropOp35
 70
     1
102
RTVSPost2010Prop36
280
     0
102
RTVSPost2010PropOp36
 70
     1
102
RTVSPost2010Prop37
 90
       50
102
RTVSPost2010PropOp37
 70
     1
102
RTVSPost2010Prop38
140
0.0
102
RTVSPost2010PropOp38
 70
     1
102
RTVSPost2010Prop39
140
1.0
102
RTVSPost2010PropOp39
 70
     1
102
RTVSPost2010Prop40
 90
        0
102
RTVSPost2010PropOp40
 70
     1
102
RTVSPost2010Prop41ColorIndex
 90
       18
102
RTVSPost2010Prop41ColorRGB
 90
        0
102
RTVSPost2010PropOp41
 70
     1
102
RTVSPost2010Prop42
 90
       50
102
RTVSPost2010PropOp42
 70
     1
102
RTVSPost2010Prop43
 90
        3
102
RTVSPost2010PropOp43
 70
     1
102
RTVSPost2010Prop44ColorIndex
 90
        5
102
RTVSPost2010Prop44ColorRGB
 90
      255
102
RTVSPost2010PropOp44
 70
     1
102
RTVSPost2010Prop45
280
     0
102
RTVSPost2010PropOp45
 70
     1
102
RTVSPost2010Prop46
 90
       50
102
RTVSPost2010PropOp46
 70
     1
102
RTVSPost2010Prop47
 90
       50
102
RTVSPost2010PropOp47
 70
     1
102
RTVSPost2010Prop48
 90
       50
102
RTVSPost2010PropOp48
 70
     1
102
RTVSPost2010Prop49
280
     0
102
RTVSPost2010PropOp49
 70
     1
102
RTVSPost2010Prop50
 90
       50
102
RTVSPost2010PropOp50
 70
     1
102
RTVSPost2010Prop51ColorIndex
 90
      256
102
RTVSPost2010Prop51ColorRGB
 90
-16777216
102
RTVSPost2010PropOp51
 70
     0
102
RTVSPost2010Prop52
140
1.0
102
RTVSPost2010PropOp52
 70
     0
102
RTVSPost2010Prop53
 90
        2
102
RTVSPost2010PropOp53
 70
     1
102
RTVSPost2010Prop54
  1
strokes_ogs.tif
102
RTVSPost2010PropOp54
 70
     1
102
RTVSPost2010Prop55
280
     0
102
RTVSPost2010PropOp55
 70
     1
102
RTVSPost2010Prop56
140
1.0
102
RTVSPost2010PropOp56
 70
     1
102
RTVSPost2010Prop57
140
1.0
102
RTVSPost2010PropOp57
 70
     1
102
RTVSPropertyOp0
 70
     1
102
RTVSPropertyOp1
 70
     1
102
RTVSPropertyOp2
 70
     1
102
RTVSPropertyOp3
 70
     1
102
RTVSPropertyOp4
 70
     1
102
RTVSPropertyOp5
 70
     1
102
RTVSPropertyOp6
 70
     1
102
RTVSPropertyOp7
 70
     1
102
RTVSPropertyOp8
 70
     1
102
RTVSPropertyOp9
 70
     1
102
RTVSPropertyOp10
 70
     1
102
RTVSPropertyOp11
 70
     1
102
RTVSPropertyOp12
 70
     1
102
RTVSPropertyOp13
 70
     1
102
RTVSPropertyOp14
 70
     1
102
RTVSPropertyOp15
 70
     1
102
RTVSPropertyOp16
 70
     1
102
RTVSPropertyOp17
 70
     1
102
RTVSPropertyOp18
 70
     1
102
RTVSPropertyOp19
 70
     1
102
RTVSPropertyOp20
 70
     1
102
RTVSPropertyOp21
 70
     1
102
RTVSPropertyOp22
 70
     1
102
RTVSPropertyOp23
 70
     1
102
RTVSPropertyOp24
 70
     1
102
RTVSPropertyOp25
 70
     1
102
RTVSPropertyOp26
 70
     1
102
RTVSPropertyOp27
 70
     1
102
RTVSPropertyOp28
 70
     1
102
RTVSPropertyOp29
 70
     1
102
RTVSPropertyOp30
 70
     1
102
RTVSPropertyOp31
 70
     1
102
RTVSPropertyOp32
 70
     1
102
RTVSPropertyOp33
 70
     1
102
RTVSPropertyOp34
 70
     1
102
RTVSPropertyOp35
 70
     1
102
RTVSPropertyOp36
 70
     1
102
RTVSPropertyOp37
 70
     1
102
RTVSPropertyOp38
 70
     1
102
RTVSPropertyOp39
 70
     1
102
RTVSPropertyOp40
 70
     1
102
RTVSPropertyOp41
 70
     1
102
RTVSPropertyOp42
 70
     1
102
RTVSPropertyOp43
 70
     1
102
RTVSPropertyOp44
 70
     1
102
RTVSPropertyOp45
 70
     1
102
RTVSPropertyOp46
 70
     1
102
RTVSPropertyOp47
 70
     1
102
RTVSPropertyOp48
 70
     1
102
RTVSPropertyOp49
 70
     1
102
RTVSPropertyOp50
 70
     1
102
RTVSPropertyOp51
 70
     0
102
RTVSPropertyOp52
 70
     0
102
RTVSPropertyOp53
 70
     1
102
RTVSPropertyOp54
 70
     1
102
RTVSPropertyOp55
 70
     1
102
RTVSPropertyOp56
 70
     1
102
RTVSPropertyOp57
 70
     1
102
RTVSPropertyOp58
 70
     1
102
RTVSPropertyOp59
 70
     1
102
RTVSPropertyOp60
 70
     1
102
RTVSPropertyOp61
 70
     1
102
RTVSPropertyOp62
 70
     1
  0
XRECORD
  5
D96F
102
{ACAD_REACTORS
330
D96E
102
}
330
D96E
100
AcDbXrecord
280
     1
102
RTVSPost2010Prop28
280
     0
102
RTVSPost2010PropOp28
 70
     1
102
RTVSPost2010Prop29
280
     1
102
RTVSPost2010PropOp29
 70
     1
102
RTVSPost2010Prop30
280
     1
102
RTVSPost2010PropOp30
 70
     1
102
RTVSPost2010Prop31
280
     0
102
RTVSPost2010PropOp31
 70
     1
102
RTVSPost2010Prop32
280
     0
102
RTVSPost2010PropOp32
 70
     1
102
RTVSPost2010Prop33
280
     0
102
RTVSPost2010PropOp33
 70
     1
102
RTVSPost2010Prop34
280
     0
102
RTVSPost2010PropOp34
 70
     1
102
RTVSPost2010Prop35
280
     0
102
RTVSPost2010PropOp35
 70
     1
102
RTVSPost2010Prop36
280
     0
102
RTVSPost2010PropOp36
 70
     1
102
RTVSPost2010Prop37
 90
       50
102
RTVSPost2010PropOp37
 70
     1
102
RTVSPost2010Prop38
140
0.0
102
RTVSPost2010PropOp38
 70
     1
102
RTVSPost2010Prop39
140
1.0
102
RTVSPost2010PropOp39
 70
     1
102
RTVSPost2010Prop40
 90
        0
102
RTVSPost2010PropOp40
 70
     1
102
RTVSPost2010Prop41ColorIndex
 90
       18
102
RTVSPost2010Prop41ColorRGB
 90
        0
102
RTVSPost2010PropOp41
 70
     1
102
RTVSPost2010Prop42
 90
       50
102
RTVSPost2010PropOp42
 70
     1
102
RTVSPost2010Prop43
 90
        3
102
RTVSPost2010PropOp43
 70
     1
102
RTVSPost2010Prop44ColorIndex
 90
        5
102
RTVSPost2010Prop44ColorRGB
 90
      255
102
RTVSPost2010PropOp44
 70
     1
102
RTVSPost2010Prop45
280
     0
102
RTVSPost2010PropOp45
 70
     1
102
RTVSPost2010Prop46
 90
       50
102
RTVSPost2010PropOp46
 70
     1
102
RTVSPost2010Prop47
 90
       50
102
RTVSPost2010PropOp47
 70
     1
102
RTVSPost2010Prop48
 90
       50
102
RTVSPost2010PropOp48
 70
     1
102
RTVSPost2010Prop49
280
     0
102
RTVSPost2010PropOp49
 70
     1
102
RTVSPost2010Prop50
 90
       50
102
RTVSPost2010PropOp50
 70
     1
102
RTVSPost2010Prop51ColorIndex
 90
      256
102
RTVSPost2010Prop51ColorRGB
 90
-16777216
102
RTVSPost2010PropOp51
 70
     0
102
RTVSPost2010Prop52
140
1.0
102
RTVSPost2010PropOp52
 70
     0
102
RTVSPost2010Prop53
 90
        2
102
RTVSPost2010PropOp53
 70
     1
102
RTVSPost2010Prop54
  1
strokes_ogs.tif
102
RTVSPost2010PropOp54
 70
     1
102
RTVSPost2010Prop55
280
     0
102
RTVSPost2010PropOp55
 70
     1
102
RTVSPost2010Prop56
140
1.0
102
RTVSPost2010PropOp56
 70
     1
102
RTVSPost2010Prop57
140
1.0
102
RTVSPost2010PropOp57
 70
     1
102
RTVSPropertyOp0
 70
     1
102
RTVSPropertyOp1
 70
     1
102
RTVSPropertyOp2
 70
     1
102
RTVSPropertyOp3
 70
     1
102
RTVSPropertyOp4
 70
     1
102
RTVSPropertyOp5
 70
     1
102
RTVSPropertyOp6
 70
     1
102
RTVSPropertyOp7
 70
     1
102
RTVSPropertyOp8
 70
     1
102
RTVSPropertyOp9
 70
     1
102
RTVSPropertyOp10
 70
     1
102
RTVSPropertyOp11
 70
     1
102
RTVSPropertyOp12
 70
     1
102
RTVSPropertyOp13
 70
     1
102
RTVSPropertyOp14
 70
     1
102
RTVSPropertyOp15
 70
     1
102
RTVSPropertyOp16
 70
     1
102
RTVSPropertyOp17
 70
     1
102
RTVSPropertyOp18
 70
     1
102
RTVSPropertyOp19
 70
     1
102
RTVSPropertyOp20
 70
     1
102
RTVSPropertyOp21
 70
     1
102
RTVSPropertyOp22
 70
     1
102
RTVSPropertyOp23
 70
     1
102
RTVSPropertyOp24
 70
     1
102
RTVSPropertyOp25
 70
     1
102
RTVSPropertyOp26
 70
     1
102
RTVSPropertyOp27
 70
     1
102
RTVSPropertyOp28
 70
     1
102
RTVSPropertyOp29
 70
     1
102
RTVSPropertyOp30
 70
     1
102
RTVSPropertyOp31
 70
     1
102
RTVSPropertyOp32
 70
     1
102
RTVSPropertyOp33
 70
     1
102
RTVSPropertyOp34
 70
     1
102
RTVSPropertyOp35
 70
     1
102
RTVSPropertyOp36
 70
     1
102
RTVSPropertyOp37
 70
     1
102
RTVSPropertyOp38
 70
     1
102
RTVSPropertyOp39
 70
     1
102
RTVSPropertyOp40
 70
     1
102
RTVSPropertyOp41
 70
     1
102
RTVSPropertyOp42
 70
     1
102
RTVSPropertyOp43
 70
     1
102
RTVSPropertyOp44
 70
     1
102
RTVSPropertyOp45
 70
     1
102
RTVSPropertyOp46
 70
     1
102
RTVSPropertyOp47
 70
     1
102
RTVSPropertyOp48
 70
     1
102
RTVSPropertyOp49
 70
     1
102
RTVSPropertyOp50
 70
     1
102
RTVSPropertyOp51
 70
     0
102
RTVSPropertyOp52
 70
     0
102
RTVSPropertyOp53
 70
     1
102
RTVSPropertyOp54
 70
     1
102
RTVSPropertyOp55
 70
     1
102
RTVSPropertyOp56
 70
     1
102
RTVSPropertyOp57
 70
     1
102
RTVSPropertyOp58
 70
     1
102
RTVSPropertyOp59
 70
     1
102
RTVSPropertyOp60
 70
     1
102
RTVSPropertyOp61
 70
     1
102
RTVSPropertyOp62
 70
     1
  0
XRECORD
  5
D973
102
{ACAD_REACTORS
330
D972
102
}
330
D972
100
AcDbXrecord
280
     1
102
RTVSPost2010Prop28
280
     0
102
RTVSPost2010PropOp28
 70
     1
102
RTVSPost2010Prop29
280
     1
102
RTVSPost2010PropOp29
 70
     1
102
RTVSPost2010Prop30
280
     1
102
RTVSPost2010PropOp30
 70
     1
102
RTVSPost2010Prop31
280
     0
102
RTVSPost2010PropOp31
 70
     1
102
RTVSPost2010Prop32
280
     0
102
RTVSPost2010PropOp32
 70
     1
102
RTVSPost2010Prop33
280
     0
102
RTVSPost2010PropOp33
 70
     1
102
RTVSPost2010Prop34
280
     0
102
RTVSPost2010PropOp34
 70
     1
102
RTVSPost2010Prop35
280
     0
102
RTVSPost2010PropOp35
 70
     1
102
RTVSPost2010Prop36
280
     0
102
RTVSPost2010PropOp36
 70
     1
102
RTVSPost2010Prop37
 90
       50
102
RTVSPost2010PropOp37
 70
     1
102
RTVSPost2010Prop38
140
0.0
102
RTVSPost2010PropOp38
 70
     1
102
RTVSPost2010Prop39
140
1.0
102
RTVSPost2010PropOp39
 70
     1
102
RTVSPost2010Prop40
 90
        0
102
RTVSPost2010PropOp40
 70
     1
102
RTVSPost2010Prop41ColorIndex
 90
       18
102
RTVSPost2010Prop41ColorRGB
 90
        0
102
RTVSPost2010PropOp41
 70
     1
102
RTVSPost2010Prop42
 90
       50
102
RTVSPost2010PropOp42
 70
     1
102
RTVSPost2010Prop43
 90
        3
102
RTVSPost2010PropOp43
 70
     1
102
RTVSPost2010Prop44ColorIndex
 90
        5
102
RTVSPost2010Prop44ColorRGB
 90
      255
102
RTVSPost2010PropOp44
 70
     1
102
RTVSPost2010Prop45
280
     0
102
RTVSPost2010PropOp45
 70
     1
102
RTVSPost2010Prop46
 90
       50
102
RTVSPost2010PropOp46
 70
     1
102
RTVSPost2010Prop47
 90
       50
102
RTVSPost2010PropOp47
 70
     1
102
RTVSPost2010Prop48
 90
       50
102
RTVSPost2010PropOp48
 70
     1
102
RTVSPost2010Prop49
280
     0
102
RTVSPost2010PropOp49
 70
     1
102
RTVSPost2010Prop50
 90
       50
102
RTVSPost2010PropOp50
 70
     1
102
RTVSPost2010Prop51ColorIndex
 90
      256
102
RTVSPost2010Prop51ColorRGB
 90
-16777216
102
RTVSPost2010PropOp51
 70
     0
102
RTVSPost2010Prop52
140
1.0
102
RTVSPost2010PropOp52
 70
     0
102
RTVSPost2010Prop53
 90
        2
102
RTVSPost2010PropOp53
 70
     1
102
RTVSPost2010Prop54
  1
strokes_ogs.tif
102
RTVSPost2010PropOp54
 70
     1
102
RTVSPost2010Prop55
280
     0
102
RTVSPost2010PropOp55
 70
     1
102
RTVSPost2010Prop56
140
1.0
102
RTVSPost2010PropOp56
 70
     1
102
RTVSPost2010Prop57
140
1.0
102
RTVSPost2010PropOp57
 70
     1
102
RTVSPropertyOp0
 70
     1
102
RTVSPropertyOp1
 70
     1
102
RTVSPropertyOp2
 70
     1
102
RTVSPropertyOp3
 70
     1
102
RTVSPropertyOp4
 70
     1
102
RTVSPropertyOp5
 70
     1
102
RTVSPropertyOp6
 70
     1
102
RTVSPropertyOp7
 70
     1
102
RTVSPropertyOp8
 70
     1
102
RTVSPropertyOp9
 70
     1
102
RTVSPropertyOp10
 70
     1
102
RTVSPropertyOp11
 70
     1
102
RTVSPropertyOp12
 70
     1
102
RTVSPropertyOp13
 70
     1
102
RTVSPropertyOp14
 70
     1
102
RTVSPropertyOp15
 70
     1
102
RTVSPropertyOp16
 70
     1
102
RTVSPropertyOp17
 70
     1
102
RTVSPropertyOp18
 70
     1
102
RTVSPropertyOp19
 70
     1
102
RTVSPropertyOp20
 70
     1
102
RTVSPropertyOp21
 70
     1
102
RTVSPropertyOp22
 70
     1
102
RTVSPropertyOp23
 70
     1
102
RTVSPropertyOp24
 70
     1
102
RTVSPropertyOp25
 70
     1
102
RTVSPropertyOp26
 70
     1
102
RTVSPropertyOp27
 70
     1
102
RTVSPropertyOp28
 70
     1
102
RTVSPropertyOp29
 70
     1
102
RTVSPropertyOp30
 70
     1
102
RTVSPropertyOp31
 70
     1
102
RTVSPropertyOp32
 70
     1
102
RTVSPropertyOp33
 70
     1
102
RTVSPropertyOp34
 70
     1
102
RTVSPropertyOp35
 70
     1
102
RTVSPropertyOp36
 70
     1
102
RTVSPropertyOp37
 70
     1
102
RTVSPropertyOp38
 70
     1
102
RTVSPropertyOp39
 70
     1
102
RTVSPropertyOp40
 70
     1
102
RTVSPropertyOp41
 70
     1
102
RTVSPropertyOp42
 70
     1
102
RTVSPropertyOp43
 70
     1
102
RTVSPropertyOp44
 70
     1
102
RTVSPropertyOp45
 70
     1
102
RTVSPropertyOp46
 70
     1
102
RTVSPropertyOp47
 70
     1
102
RTVSPropertyOp48
 70
     1
102
RTVSPropertyOp49
 70
     1
102
RTVSPropertyOp50
 70
     1
102
RTVSPropertyOp51
 70
     0
102
RTVSPropertyOp52
 70
     0
102
RTVSPropertyOp53
 70
     1
102
RTVSPropertyOp54
 70
     1
102
RTVSPropertyOp55
 70
     1
102
RTVSPropertyOp56
 70
     1
102
RTVSPropertyOp57
 70
     1
102
RTVSPropertyOp58
 70
     1
102
RTVSPropertyOp59
 70
     1
102
RTVSPropertyOp60
 70
     1
102
RTVSPropertyOp61
 70
     1
102
RTVSPropertyOp62
 70
     1
  0
XRECORD
  5
D98D
102
{ACAD_REACTORS
330
D98C
102
}
330
D98C
100
AcDbXrecord
280
     1
102
RTVSPost2010Prop28
280
     0
102
RTVSPost2010PropOp28
 70
     0
102
RTVSPost2010Prop29
280
     1
102
RTVSPost2010PropOp29
 70
     0
102
RTVSPost2010Prop30
280
     1
102
RTVSPost2010PropOp30
 70
     0
102
RTVSPost2010Prop31
280
     0
102
RTVSPost2010PropOp31
 70
     0
102
RTVSPost2010Prop32
280
     0
102
RTVSPost2010PropOp32
 70
     0
102
RTVSPost2010Prop33
280
     0
102
RTVSPost2010PropOp33
 70
     0
102
RTVSPost2010Prop34
280
     0
102
RTVSPost2010PropOp34
 70
     0
102
RTVSPost2010Prop35
280
     0
102
RTVSPost2010PropOp35
 70
     0
102
RTVSPost2010Prop36
280
     0
102
RTVSPost2010PropOp36
 70
     0
102
RTVSPost2010Prop37
 90
       50
102
RTVSPost2010PropOp37
 70
     0
102
RTVSPost2010Prop38
140
0.0
102
RTVSPost2010PropOp38
 70
     0
102
RTVSPost2010Prop39
140
1.0
102
RTVSPost2010PropOp39
 70
     0
102
RTVSPost2010Prop40
 90
        0
102
RTVSPost2010PropOp40
 70
     0
102
RTVSPost2010Prop41ColorIndex
 90
       18
102
RTVSPost2010Prop41ColorRGB
 90
        0
102
RTVSPost2010PropOp41
 70
     0
102
RTVSPost2010Prop42
 90
       50
102
RTVSPost2010PropOp42
 70
     0
102
RTVSPost2010Prop43
 90
        3
102
RTVSPost2010PropOp43
 70
     0
102
RTVSPost2010Prop44ColorIndex
 90
        5
102
RTVSPost2010Prop44ColorRGB
 90
      255
102
RTVSPost2010PropOp44
 70
     0
102
RTVSPost2010Prop45
280
     0
102
RTVSPost2010PropOp45
 70
     0
102
RTVSPost2010Prop46
 90
       50
102
RTVSPost2010PropOp46
 70
     0
102
RTVSPost2010Prop47
 90
       50
102
RTVSPost2010PropOp47
 70
     0
102
RTVSPost2010Prop48
 90
       50
102
RTVSPost2010PropOp48
 70
     0
102
RTVSPost2010Prop49
280
     0
102
RTVSPost2010PropOp49
 70
     0
102
RTVSPost2010Prop50
 90
       50
102
RTVSPost2010PropOp50
 70
     0
102
RTVSPost2010Prop51ColorIndex
 90
      256
102
RTVSPost2010Prop51ColorRGB
 90
-16777216
102
RTVSPost2010PropOp51
 70
     0
102
RTVSPost2010Prop52
140
1.0
102
RTVSPost2010PropOp52
 70
     0
102
RTVSPost2010Prop53
 90
        2
102
RTVSPost2010PropOp53
 70
     0
102
RTVSPost2010Prop54
  1
strokes_ogs.tif
102
RTVSPost2010PropOp54
 70
     0
102
RTVSPost2010Prop55
280
     0
102
RTVSPost2010PropOp55
 70
     0
102
RTVSPost2010Prop56
140
1.0
102
RTVSPost2010PropOp56
 70
     0
102
RTVSPost2010Prop57
140
1.0
102
RTVSPost2010PropOp57
 70
     0
102
RTVSPropertyOp0
 70
     0
102
RTVSPropertyOp1
 70
     0
102
RTVSPropertyOp2
 70
     0
102
RTVSPropertyOp3
 70
     0
102
RTVSPropertyOp4
 70
     0
102
RTVSPropertyOp5
 70
     0
102
RTVSPropertyOp6
 70
     0
102
RTVSPropertyOp7
 70
     0
102
RTVSPropertyOp8
 70
     0
102
RTVSPropertyOp9
 70
     0
102
RTVSPropertyOp10
 70
     0
102
RTVSPropertyOp11
 70
     0
102
RTVSPropertyOp12
 70
     0
102
RTVSPropertyOp13
 70
     0
102
RTVSPropertyOp14
 70
     2
102
RTVSPropertyOp15
 70
     0
102
RTVSPropertyOp16
 70
     0
102
RTVSPropertyOp17
 70
     0
102
RTVSPropertyOp18
 70
     0
102
RTVSPropertyOp19
 70
     0
102
RTVSPropertyOp20
 70
     0
102
RTVSPropertyOp21
 70
     0
102
RTVSPropertyOp22
 70
     0
102
RTVSPropertyOp23
 70
     0
102
RTVSPropertyOp24
 70
     0
102
RTVSPropertyOp25
 70
     0
102
RTVSPropertyOp26
 70
     0
102
RTVSPropertyOp27
 70
     0
102
RTVSPropertyOp28
 70
     0
102
RTVSPropertyOp29
 70
     0
102
RTVSPropertyOp30
 70
     0
102
RTVSPropertyOp31
 70
     0
102
RTVSPropertyOp32
 70
     0
102
RTVSPropertyOp33
 70
     0
102
RTVSPropertyOp34
 70
     0
102
RTVSPropertyOp35
 70
     0
102
RTVSPropertyOp36
 70
     0
102
RTVSPropertyOp37
 70
     0
102
RTVSPropertyOp38
 70
     0
102
RTVSPropertyOp39
 70
     0
102
RTVSPropertyOp40
 70
     0
102
RTVSPropertyOp41
 70
     0
102
RTVSPropertyOp42
 70
     0
102
RTVSPropertyOp43
 70
     0
102
RTVSPropertyOp44
 70
     0
102
RTVSPropertyOp45
 70
     0
102
RTVSPropertyOp46
 70
     0
102
RTVSPropertyOp47
 70
     0
102
RTVSPropertyOp48
 70
     0
102
RTVSPropertyOp49
 70
     0
102
RTVSPropertyOp50
 70
     0
102
RTVSPropertyOp51
 70
     0
102
RTVSPropertyOp52
 70
     0
102
RTVSPropertyOp53
 70
     0
102
RTVSPropertyOp54
 70
     0
102
RTVSPropertyOp55
 70
     0
102
RTVSPropertyOp56
 70
     0
102
RTVSPropertyOp57
 70
     0
102
RTVSPropertyOp58
 70
     0
102
RTVSPropertyOp59
 70
     0
102
RTVSPropertyOp60
 70
     0
102
RTVSPropertyOp61
 70
     0
102
RTVSPropertyOp62
 70
     0
  0
XRECORD
  5
D97B
102
{ACAD_REACTORS
330
D97A
102
}
330
D97A
100
AcDbXrecord
280
     1
102
RTVSPost2010Prop28
280
     0
102
RTVSPost2010PropOp28
 70
     1
102
RTVSPost2010Prop29
280
     1
102
RTVSPost2010PropOp29
 70
     1
102
RTVSPost2010Prop30
280
     1
102
RTVSPost2010PropOp30
 70
     1
102
RTVSPost2010Prop31
280
     0
102
RTVSPost2010PropOp31
 70
     1
102
RTVSPost2010Prop32
280
     0
102
RTVSPost2010PropOp32
 70
     1
102
RTVSPost2010Prop33
280
     0
102
RTVSPost2010PropOp33
 70
     1
102
RTVSPost2010Prop34
280
     0
102
RTVSPost2010PropOp34
 70
     1
102
RTVSPost2010Prop35
280
     0
102
RTVSPost2010PropOp35
 70
     1
102
RTVSPost2010Prop36
280
     0
102
RTVSPost2010PropOp36
 70
     1
102
RTVSPost2010Prop37
 90
       50
102
RTVSPost2010PropOp37
 70
     1
102
RTVSPost2010Prop38
140
0.0
102
RTVSPost2010PropOp38
 70
     1
102
RTVSPost2010Prop39
140
1.0
102
RTVSPost2010PropOp39
 70
     1
102
RTVSPost2010Prop40
 90
        0
102
RTVSPost2010PropOp40
 70
     1
102
RTVSPost2010Prop41ColorIndex
 90
       18
102
RTVSPost2010Prop41ColorRGB
 90
        0
102
RTVSPost2010PropOp41
 70
     1
102
RTVSPost2010Prop42
 90
       50
102
RTVSPost2010PropOp42
 70
     1
102
RTVSPost2010Prop43
 90
        3
102
RTVSPost2010PropOp43
 70
     1
102
RTVSPost2010Prop44ColorIndex
 90
        5
102
RTVSPost2010Prop44ColorRGB
 90
      255
102
RTVSPost2010PropOp44
 70
     1
102
RTVSPost2010Prop45
280
     0
102
RTVSPost2010PropOp45
 70
     1
102
RTVSPost2010Prop46
 90
       50
102
RTVSPost2010PropOp46
 70
     1
102
RTVSPost2010Prop47
 90
       50
102
RTVSPost2010PropOp47
 70
     1
102
RTVSPost2010Prop48
 90
       50
102
RTVSPost2010PropOp48
 70
     1
102
RTVSPost2010Prop49
280
     0
102
RTVSPost2010PropOp49
 70
     1
102
RTVSPost2010Prop50
 90
       50
102
RTVSPost2010PropOp50
 70
     1
102
RTVSPost2010Prop51ColorIndex
 90
      256
102
RTVSPost2010Prop51ColorRGB
 90
-16777216
102
RTVSPost2010PropOp51
 70
     0
102
RTVSPost2010Prop52
140
1.0
102
RTVSPost2010PropOp52
 70
     0
102
RTVSPost2010Prop53
 90
        2
102
RTVSPost2010PropOp53
 70
     1
102
RTVSPost2010Prop54
  1
strokes_ogs.tif
102
RTVSPost2010PropOp54
 70
     1
102
RTVSPost2010Prop55
280
     0
102
RTVSPost2010PropOp55
 70
     1
102
RTVSPost2010Prop56
140
1.0
102
RTVSPost2010PropOp56
 70
     1
102
RTVSPost2010Prop57
140
1.0
102
RTVSPost2010PropOp57
 70
     1
102
RTVSPropertyOp0
 70
     1
102
RTVSPropertyOp1
 70
     1
102
RTVSPropertyOp2
 70
     1
102
RTVSPropertyOp3
 70
     1
102
RTVSPropertyOp4
 70
     1
102
RTVSPropertyOp5
 70
     1
102
RTVSPropertyOp6
 70
     1
102
RTVSPropertyOp7
 70
     1
102
RTVSPropertyOp8
 70
     1
102
RTVSPropertyOp9
 70
     1
102
RTVSPropertyOp10
 70
     1
102
RTVSPropertyOp11
 70
     1
102
RTVSPropertyOp12
 70
     1
102
RTVSPropertyOp13
 70
     1
102
RTVSPropertyOp14
 70
     1
102
RTVSPropertyOp15
 70
     1
102
RTVSPropertyOp16
 70
     1
102
RTVSPropertyOp17
 70
     1
102
RTVSPropertyOp18
 70
     1
102
RTVSPropertyOp19
 70
     1
102
RTVSPropertyOp20
 70
     1
102
RTVSPropertyOp21
 70
     1
102
RTVSPropertyOp22
 70
     1
102
RTVSPropertyOp23
 70
     1
102
RTVSPropertyOp24
 70
     1
102
RTVSPropertyOp25
 70
     1
102
RTVSPropertyOp26
 70
     1
102
RTVSPropertyOp27
 70
     1
102
RTVSPropertyOp28
 70
     1
102
RTVSPropertyOp29
 70
     1
102
RTVSPropertyOp30
 70
     1
102
RTVSPropertyOp31
 70
     1
102
RTVSPropertyOp32
 70
     1
102
RTVSPropertyOp33
 70
     1
102
RTVSPropertyOp34
 70
     1
102
RTVSPropertyOp35
 70
     1
102
RTVSPropertyOp36
 70
     1
102
RTVSPropertyOp37
 70
     1
102
RTVSPropertyOp38
 70
     1
102
RTVSPropertyOp39
 70
     1
102
RTVSPropertyOp40
 70
     1
102
RTVSPropertyOp41
 70
     1
102
RTVSPropertyOp42
 70
     1
102
RTVSPropertyOp43
 70
     1
102
RTVSPropertyOp44
 70
     1
102
RTVSPropertyOp45
 70
     1
102
RTVSPropertyOp46
 70
     1
102
RTVSPropertyOp47
 70
     1
102
RTVSPropertyOp48
 70
     1
102
RTVSPropertyOp49
 70
     1
102
RTVSPropertyOp50
 70
     1
102
RTVSPropertyOp51
 70
     0
102
RTVSPropertyOp52
 70
     0
102
RTVSPropertyOp53
 70
     1
102
RTVSPropertyOp54
 70
     1
102
RTVSPropertyOp55
 70
     1
102
RTVSPropertyOp56
 70
     1
102
RTVSPropertyOp57
 70
     1
102
RTVSPropertyOp58
 70
     1
102
RTVSPropertyOp59
 70
     1
102
RTVSPropertyOp60
 70
     1
102
RTVSPropertyOp61
 70
     1
102
RTVSPropertyOp62
 70
     1
  0
XRECORD
  5
D95F
102
{ACAD_REACTORS
330
D95E
102
}
330
D95E
100
AcDbXrecord
280
     1
102
RTVSPost2010Prop28
280
     0
102
RTVSPost2010PropOp28
 70
     1
102
RTVSPost2010Prop29
280
     1
102
RTVSPost2010PropOp29
 70
     1
102
RTVSPost2010Prop30
280
     1
102
RTVSPost2010PropOp30
 70
     1
102
RTVSPost2010Prop31
280
     0
102
RTVSPost2010PropOp31
 70
     1
102
RTVSPost2010Prop32
280
     0
102
RTVSPost2010PropOp32
 70
     1
102
RTVSPost2010Prop33
280
     0
102
RTVSPost2010PropOp33
 70
     1
102
RTVSPost2010Prop34
280
     0
102
RTVSPost2010PropOp34
 70
     1
102
RTVSPost2010Prop35
280
     0
102
RTVSPost2010PropOp35
 70
     1
102
RTVSPost2010Prop36
280
     0
102
RTVSPost2010PropOp36
 70
     1
102
RTVSPost2010Prop37
 90
       50
102
RTVSPost2010PropOp37
 70
     1
102
RTVSPost2010Prop38
140
0.0
102
RTVSPost2010PropOp38
 70
     1
102
RTVSPost2010Prop39
140
1.0
102
RTVSPost2010PropOp39
 70
     1
102
RTVSPost2010Prop40
 90
        0
102
RTVSPost2010PropOp40
 70
     1
102
RTVSPost2010Prop41ColorIndex
 90
       18
102
RTVSPost2010Prop41ColorRGB
 90
        0
102
RTVSPost2010PropOp41
 70
     1
102
RTVSPost2010Prop42
 90
       50
102
RTVSPost2010PropOp42
 70
     1
102
RTVSPost2010Prop43
 90
        3
102
RTVSPost2010PropOp43
 70
     1
102
RTVSPost2010Prop44ColorIndex
 90
        5
102
RTVSPost2010Prop44ColorRGB
 90
      255
102
RTVSPost2010PropOp44
 70
     1
102
RTVSPost2010Prop45
280
     0
102
RTVSPost2010PropOp45
 70
     1
102
RTVSPost2010Prop46
 90
       50
102
RTVSPost2010PropOp46
 70
     1
102
RTVSPost2010Prop47
 90
       50
102
RTVSPost2010PropOp47
 70
     1
102
RTVSPost2010Prop48
 90
       50
102
RTVSPost2010PropOp48
 70
     1
102
RTVSPost2010Prop49
280
     0
102
RTVSPost2010PropOp49
 70
     1
102
RTVSPost2010Prop50
 90
       50
102
RTVSPost2010PropOp50
 70
     1
102
RTVSPost2010Prop51ColorIndex
 90
      256
102
RTVSPost2010Prop51ColorRGB
 90
-16777216
102
RTVSPost2010PropOp51
 70
     0
102
RTVSPost2010Prop52
140
1.0
102
RTVSPost2010PropOp52
 70
     0
102
RTVSPost2010Prop53
 90
        2
102
RTVSPost2010PropOp53
 70
     1
102
RTVSPost2010Prop54
  1
strokes_ogs.tif
102
RTVSPost2010PropOp54
 70
     1
102
RTVSPost2010Prop55
280
     0
102
RTVSPost2010PropOp55
 70
     1
102
RTVSPost2010Prop56
140
1.0
102
RTVSPost2010PropOp56
 70
     1
102
RTVSPost2010Prop57
140
1.0
102
RTVSPost2010PropOp57
 70
     1
102
RTVSPropertyOp0
 70
     1
102
RTVSPropertyOp1
 70
     1
102
RTVSPropertyOp2
 70
     1
102
RTVSPropertyOp3
 70
     1
102
RTVSPropertyOp4
 70
     1
102
RTVSPropertyOp5
 70
     1
102
RTVSPropertyOp6
 70
     1
102
RTVSPropertyOp7
 70
     1
102
RTVSPropertyOp8
 70
     1
102
RTVSPropertyOp9
 70
     1
102
RTVSPropertyOp10
 70
     1
102
RTVSPropertyOp11
 70
     1
102
RTVSPropertyOp12
 70
     1
102
RTVSPropertyOp13
 70
     1
102
RTVSPropertyOp14
 70
     1
102
RTVSPropertyOp15
 70
     1
102
RTVSPropertyOp16
 70
     1
102
RTVSPropertyOp17
 70
     1
102
RTVSPropertyOp18
 70
     1
102
RTVSPropertyOp19
 70
     1
102
RTVSPropertyOp20
 70
     1
102
RTVSPropertyOp21
 70
     1
102
RTVSPropertyOp22
 70
     1
102
RTVSPropertyOp23
 70
     1
102
RTVSPropertyOp24
 70
     1
102
RTVSPropertyOp25
 70
     1
102
RTVSPropertyOp26
 70
     1
102
RTVSPropertyOp27
 70
     1
102
RTVSPropertyOp28
 70
     1
102
RTVSPropertyOp29
 70
     1
102
RTVSPropertyOp30
 70
     1
102
RTVSPropertyOp31
 70
     1
102
RTVSPropertyOp32
 70
     1
102
RTVSPropertyOp33
 70
     1
102
RTVSPropertyOp34
 70
     1
102
RTVSPropertyOp35
 70
     1
102
RTVSPropertyOp36
 70
     1
102
RTVSPropertyOp37
 70
     1
102
RTVSPropertyOp38
 70
     1
102
RTVSPropertyOp39
 70
     1
102
RTVSPropertyOp40
 70
     1
102
RTVSPropertyOp41
 70
     1
102
RTVSPropertyOp42
 70
     1
102
RTVSPropertyOp43
 70
     1
102
RTVSPropertyOp44
 70
     1
102
RTVSPropertyOp45
 70
     1
102
RTVSPropertyOp46
 70
     1
102
RTVSPropertyOp47
 70
     1
102
RTVSPropertyOp48
 70
     1
102
RTVSPropertyOp49
 70
     1
102
RTVSPropertyOp50
 70
     1
102
RTVSPropertyOp51
 70
     0
102
RTVSPropertyOp52
 70
     0
102
RTVSPropertyOp53
 70
     1
102
RTVSPropertyOp54
 70
     1
102
RTVSPropertyOp55
 70
     1
102
RTVSPropertyOp56
 70
     1
102
RTVSPropertyOp57
 70
     1
102
RTVSPropertyOp58
 70
     1
102
RTVSPropertyOp59
 70
     1
102
RTVSPropertyOp60
 70
     1
102
RTVSPropertyOp61
 70
     1
102
RTVSPropertyOp62
 70
     1
  0
XRECORD
  5
D961
102
{ACAD_REACTORS
330
D960
102
}
330
D960
100
AcDbXrecord
280
     1
102
RTVSPost2010Prop28
280
     0
102
RTVSPost2010PropOp28
 70
     1
102
RTVSPost2010Prop29
280
     1
102
RTVSPost2010PropOp29
 70
     1
102
RTVSPost2010Prop30
280
     1
102
RTVSPost2010PropOp30
 70
     1
102
RTVSPost2010Prop31
280
     0
102
RTVSPost2010PropOp31
 70
     1
102
RTVSPost2010Prop32
280
     0
102
RTVSPost2010PropOp32
 70
     1
102
RTVSPost2010Prop33
280
     0
102
RTVSPost2010PropOp33
 70
     1
102
RTVSPost2010Prop34
280
     0
102
RTVSPost2010PropOp34
 70
     1
102
RTVSPost2010Prop35
280
     0
102
RTVSPost2010PropOp35
 70
     1
102
RTVSPost2010Prop36
280
     0
102
RTVSPost2010PropOp36
 70
     1
102
RTVSPost2010Prop37
 90
       50
102
RTVSPost2010PropOp37
 70
     1
102
RTVSPost2010Prop38
140
0.0
102
RTVSPost2010PropOp38
 70
     1
102
RTVSPost2010Prop39
140
1.0
102
RTVSPost2010PropOp39
 70
     1
102
RTVSPost2010Prop40
 90
        0
102
RTVSPost2010PropOp40
 70
     1
102
RTVSPost2010Prop41ColorIndex
 90
       18
102
RTVSPost2010Prop41ColorRGB
 90
        0
102
RTVSPost2010PropOp41
 70
     1
102
RTVSPost2010Prop42
 90
       50
102
RTVSPost2010PropOp42
 70
     1
102
RTVSPost2010Prop43
 90
        3
102
RTVSPost2010PropOp43
 70
     1
102
RTVSPost2010Prop44ColorIndex
 90
        5
102
RTVSPost2010Prop44ColorRGB
 90
      255
102
RTVSPost2010PropOp44
 70
     1
102
RTVSPost2010Prop45
280
     0
102
RTVSPost2010PropOp45
 70
     1
102
RTVSPost2010Prop46
 90
       50
102
RTVSPost2010PropOp46
 70
     1
102
RTVSPost2010Prop47
 90
       50
102
RTVSPost2010PropOp47
 70
     1
102
RTVSPost2010Prop48
 90
       50
102
RTVSPost2010PropOp48
 70
     1
102
RTVSPost2010Prop49
280
     0
102
RTVSPost2010PropOp49
 70
     1
102
RTVSPost2010Prop50
 90
       50
102
RTVSPost2010PropOp50
 70
     1
102
RTVSPost2010Prop51ColorIndex
 90
      256
102
RTVSPost2010Prop51ColorRGB
 90
-16777216
102
RTVSPost2010PropOp51
 70
     0
102
RTVSPost2010Prop52
140
1.0
102
RTVSPost2010PropOp52
 70
     0
102
RTVSPost2010Prop53
 90
        2
102
RTVSPost2010PropOp53
 70
     1
102
RTVSPost2010Prop54
  1
strokes_ogs.tif
102
RTVSPost2010PropOp54
 70
     1
102
RTVSPost2010Prop55
280
     0
102
RTVSPost2010PropOp55
 70
     1
102
RTVSPost2010Prop56
140
1.0
102
RTVSPost2010PropOp56
 70
     1
102
RTVSPost2010Prop57
140
1.0
102
RTVSPost2010PropOp57
 70
     1
102
RTVSPropertyOp0
 70
     1
102
RTVSPropertyOp1
 70
     1
102
RTVSPropertyOp2
 70
     1
102
RTVSPropertyOp3
 70
     1
102
RTVSPropertyOp4
 70
     1
102
RTVSPropertyOp5
 70
     1
102
RTVSPropertyOp6
 70
     1
102
RTVSPropertyOp7
 70
     1
102
RTVSPropertyOp8
 70
     1
102
RTVSPropertyOp9
 70
     1
102
RTVSPropertyOp10
 70
     1
102
RTVSPropertyOp11
 70
     1
102
RTVSPropertyOp12
 70
     1
102
RTVSPropertyOp13
 70
     1
102
RTVSPropertyOp14
 70
     1
102
RTVSPropertyOp15
 70
     1
102
RTVSPropertyOp16
 70
     1
102
RTVSPropertyOp17
 70
     1
102
RTVSPropertyOp18
 70
     1
102
RTVSPropertyOp19
 70
     1
102
RTVSPropertyOp20
 70
     1
102
RTVSPropertyOp21
 70
     1
102
RTVSPropertyOp22
 70
     1
102
RTVSPropertyOp23
 70
     1
102
RTVSPropertyOp24
 70
     1
102
RTVSPropertyOp25
 70
     1
102
RTVSPropertyOp26
 70
     1
102
RTVSPropertyOp27
 70
     1
102
RTVSPropertyOp28
 70
     1
102
RTVSPropertyOp29
 70
     1
102
RTVSPropertyOp30
 70
     1
102
RTVSPropertyOp31
 70
     1
102
RTVSPropertyOp32
 70
     1
102
RTVSPropertyOp33
 70
     1
102
RTVSPropertyOp34
 70
     1
102
RTVSPropertyOp35
 70
     1
102
RTVSPropertyOp36
 70
     1
102
RTVSPropertyOp37
 70
     1
102
RTVSPropertyOp38
 70
     1
102
RTVSPropertyOp39
 70
     1
102
RTVSPropertyOp40
 70
     1
102
RTVSPropertyOp41
 70
     1
102
RTVSPropertyOp42
 70
     1
102
RTVSPropertyOp43
 70
     1
102
RTVSPropertyOp44
 70
     1
102
RTVSPropertyOp45
 70
     1
102
RTVSPropertyOp46
 70
     1
102
RTVSPropertyOp47
 70
     1
102
RTVSPropertyOp48
 70
     1
102
RTVSPropertyOp49
 70
     1
102
RTVSPropertyOp50
 70
     1
102
RTVSPropertyOp51
 70
     0
102
RTVSPropertyOp52
 70
     0
102
RTVSPropertyOp53
 70
     1
102
RTVSPropertyOp54
 70
     1
102
RTVSPropertyOp55
 70
     1
102
RTVSPropertyOp56
 70
     1
102
RTVSPropertyOp57
 70
     1
102
RTVSPropertyOp58
 70
     1
102
RTVSPropertyOp59
 70
     1
102
RTVSPropertyOp60
 70
     1
102
RTVSPropertyOp61
 70
     1
102
RTVSPropertyOp62
 70
     1
  0
XRECORD
  5
D963
102
{ACAD_REACTORS
330
D962
102
}
330
D962
100
AcDbXrecord
280
     1
102
RTVSPost2010Prop28
280
     0
102
RTVSPost2010PropOp28
 70
     1
102
RTVSPost2010Prop29
280
     1
102
RTVSPost2010PropOp29
 70
     1
102
RTVSPost2010Prop30
280
     1
102
RTVSPost2010PropOp30
 70
     1
102
RTVSPost2010Prop31
280
     0
102
RTVSPost2010PropOp31
 70
     1
102
RTVSPost2010Prop32
280
     0
102
RTVSPost2010PropOp32
 70
     1
102
RTVSPost2010Prop33
280
     0
102
RTVSPost2010PropOp33
 70
     1
102
RTVSPost2010Prop34
280
     0
102
RTVSPost2010PropOp34
 70
     1
102
RTVSPost2010Prop35
280
     0
102
RTVSPost2010PropOp35
 70
     1
102
RTVSPost2010Prop36
280
     0
102
RTVSPost2010PropOp36
 70
     1
102
RTVSPost2010Prop37
 90
       50
102
RTVSPost2010PropOp37
 70
     1
102
RTVSPost2010Prop38
140
0.0
102
RTVSPost2010PropOp38
 70
     1
102
RTVSPost2010Prop39
140
1.0
102
RTVSPost2010PropOp39
 70
     1
102
RTVSPost2010Prop40
 90
        0
102
RTVSPost2010PropOp40
 70
     1
102
RTVSPost2010Prop41ColorIndex
 90
       18
102
RTVSPost2010Prop41ColorRGB
 90
        0
102
RTVSPost2010PropOp41
 70
     1
102
RTVSPost2010Prop42
 90
       50
102
RTVSPost2010PropOp42
 70
     1
102
RTVSPost2010Prop43
 90
        3
102
RTVSPost2010PropOp43
 70
     1
102
RTVSPost2010Prop44ColorIndex
 90
        5
102
RTVSPost2010Prop44ColorRGB
 90
      255
102
RTVSPost2010PropOp44
 70
     1
102
RTVSPost2010Prop45
280
     0
102
RTVSPost2010PropOp45
 70
     1
102
RTVSPost2010Prop46
 90
       50
102
RTVSPost2010PropOp46
 70
     1
102
RTVSPost2010Prop47
 90
       50
102
RTVSPost2010PropOp47
 70
     1
102
RTVSPost2010Prop48
 90
       50
102
RTVSPost2010PropOp48
 70
     1
102
RTVSPost2010Prop49
280
     0
102
RTVSPost2010PropOp49
 70
     1
102
RTVSPost2010Prop50
 90
       50
102
RTVSPost2010PropOp50
 70
     1
102
RTVSPost2010Prop51ColorIndex
 90
      256
102
RTVSPost2010Prop51ColorRGB
 90
-16777216
102
RTVSPost2010PropOp51
 70
     0
102
RTVSPost2010Prop52
140
1.0
102
RTVSPost2010PropOp52
 70
     0
102
RTVSPost2010Prop53
 90
        2
102
RTVSPost2010PropOp53
 70
     1
102
RTVSPost2010Prop54
  1
strokes_ogs.tif
102
RTVSPost2010PropOp54
 70
     1
102
RTVSPost2010Prop55
280
     0
102
RTVSPost2010PropOp55
 70
     1
102
RTVSPost2010Prop56
140
1.0
102
RTVSPost2010PropOp56
 70
     1
102
RTVSPost2010Prop57
140
1.0
102
RTVSPost2010PropOp57
 70
     1
102
RTVSPropertyOp0
 70
     1
102
RTVSPropertyOp1
 70
     1
102
RTVSPropertyOp2
 70
     1
102
RTVSPropertyOp3
 70
     1
102
RTVSPropertyOp4
 70
     1
102
RTVSPropertyOp5
 70
     1
102
RTVSPropertyOp6
 70
     1
102
RTVSPropertyOp7
 70
     1
102
RTVSPropertyOp8
 70
     1
102
RTVSPropertyOp9
 70
     1
102
RTVSPropertyOp10
 70
     1
102
RTVSPropertyOp11
 70
     1
102
RTVSPropertyOp12
 70
     1
102
RTVSPropertyOp13
 70
     1
102
RTVSPropertyOp14
 70
     1
102
RTVSPropertyOp15
 70
     1
102
RTVSPropertyOp16
 70
     1
102
RTVSPropertyOp17
 70
     1
102
RTVSPropertyOp18
 70
     1
102
RTVSPropertyOp19
 70
     1
102
RTVSPropertyOp20
 70
     1
102
RTVSPropertyOp21
 70
     1
102
RTVSPropertyOp22
 70
     1
102
RTVSPropertyOp23
 70
     1
102
RTVSPropertyOp24
 70
     1
102
RTVSPropertyOp25
 70
     1
102
RTVSPropertyOp26
 70
     1
102
RTVSPropertyOp27
 70
     1
102
RTVSPropertyOp28
 70
     1
102
RTVSPropertyOp29
 70
     1
102
RTVSPropertyOp30
 70
     1
102
RTVSPropertyOp31
 70
     1
102
RTVSPropertyOp32
 70
     1
102
RTVSPropertyOp33
 70
     1
102
RTVSPropertyOp34
 70
     1
102
RTVSPropertyOp35
 70
     1
102
RTVSPropertyOp36
 70
     1
102
RTVSPropertyOp37
 70
     1
102
RTVSPropertyOp38
 70
     1
102
RTVSPropertyOp39
 70
     1
102
RTVSPropertyOp40
 70
     1
102
RTVSPropertyOp41
 70
     1
102
RTVSPropertyOp42
 70
     1
102
RTVSPropertyOp43
 70
     1
102
RTVSPropertyOp44
 70
     1
102
RTVSPropertyOp45
 70
     1
102
RTVSPropertyOp46
 70
     1
102
RTVSPropertyOp47
 70
     1
102
RTVSPropertyOp48
 70
     1
102
RTVSPropertyOp49
 70
     1
102
RTVSPropertyOp50
 70
     1
102
RTVSPropertyOp51
 70
     0
102
RTVSPropertyOp52
 70
     0
102
RTVSPropertyOp53
 70
     1
102
RTVSPropertyOp54
 70
     1
102
RTVSPropertyOp55
 70
     1
102
RTVSPropertyOp56
 70
     1
102
RTVSPropertyOp57
 70
     1
102
RTVSPropertyOp58
 70
     1
102
RTVSPropertyOp59
 70
     1
102
RTVSPropertyOp60
 70
     1
102
RTVSPropertyOp61
 70
     1
102
RTVSPropertyOp62
 70
     1
  0
XRECORD
  5
D965
102
{ACAD_REACTORS
330
D964
102
}
330
D964
100
AcDbXrecord
280
     1
102
RTVSPost2010Prop28
280
     0
102
RTVSPost2010PropOp28
 70
     1
102
RTVSPost2010Prop29
280
     1
102
RTVSPost2010PropOp29
 70
     1
102
RTVSPost2010Prop30
280
     1
102
RTVSPost2010PropOp30
 70
     1
102
RTVSPost2010Prop31
280
     0
102
RTVSPost2010PropOp31
 70
     1
102
RTVSPost2010Prop32
280
     0
102
RTVSPost2010PropOp32
 70
     1
102
RTVSPost2010Prop33
280
     0
102
RTVSPost2010PropOp33
 70
     1
102
RTVSPost2010Prop34
280
     0
102
RTVSPost2010PropOp34
 70
     1
102
RTVSPost2010Prop35
280
     0
102
RTVSPost2010PropOp35
 70
     1
102
RTVSPost2010Prop36
280
     0
102
RTVSPost2010PropOp36
 70
     1
102
RTVSPost2010Prop37
 90
       50
102
RTVSPost2010PropOp37
 70
     1
102
RTVSPost2010Prop38
140
0.0
102
RTVSPost2010PropOp38
 70
     1
102
RTVSPost2010Prop39
140
1.0
102
RTVSPost2010PropOp39
 70
     1
102
RTVSPost2010Prop40
 90
        0
102
RTVSPost2010PropOp40
 70
     1
102
RTVSPost2010Prop41ColorIndex
 90
       18
102
RTVSPost2010Prop41ColorRGB
 90
        0
102
RTVSPost2010PropOp41
 70
     1
102
RTVSPost2010Prop42
 90
       50
102
RTVSPost2010PropOp42
 70
     1
102
RTVSPost2010Prop43
 90
        3
102
RTVSPost2010PropOp43
 70
     1
102
RTVSPost2010Prop44ColorIndex
 90
        5
102
RTVSPost2010Prop44ColorRGB
 90
      255
102
RTVSPost2010PropOp44
 70
     1
102
RTVSPost2010Prop45
280
     0
102
RTVSPost2010PropOp45
 70
     1
102
RTVSPost2010Prop46
 90
       50
102
RTVSPost2010PropOp46
 70
     1
102
RTVSPost2010Prop47
 90
       50
102
RTVSPost2010PropOp47
 70
     1
102
RTVSPost2010Prop48
 90
       50
102
RTVSPost2010PropOp48
 70
     1
102
RTVSPost2010Prop49
280
     0
102
RTVSPost2010PropOp49
 70
     1
102
RTVSPost2010Prop50
 90
       50
102
RTVSPost2010PropOp50
 70
     1
102
RTVSPost2010Prop51ColorIndex
 90
      256
102
RTVSPost2010Prop51ColorRGB
 90
-16777216
102
RTVSPost2010PropOp51
 70
     0
102
RTVSPost2010Prop52
140
1.0
102
RTVSPost2010PropOp52
 70
     0
102
RTVSPost2010Prop53
 90
        2
102
RTVSPost2010PropOp53
 70
     1
102
RTVSPost2010Prop54
  1
strokes_ogs.tif
102
RTVSPost2010PropOp54
 70
     1
102
RTVSPost2010Prop55
280
     0
102
RTVSPost2010PropOp55
 70
     1
102
RTVSPost2010Prop56
140
1.0
102
RTVSPost2010PropOp56
 70
     1
102
RTVSPost2010Prop57
140
1.0
102
RTVSPost2010PropOp57
 70
     1
102
RTVSPropertyOp0
 70
     1
102
RTVSPropertyOp1
 70
     1
102
RTVSPropertyOp2
 70
     1
102
RTVSPropertyOp3
 70
     1
102
RTVSPropertyOp4
 70
     1
102
RTVSPropertyOp5
 70
     1
102
RTVSPropertyOp6
 70
     1
102
RTVSPropertyOp7
 70
     1
102
RTVSPropertyOp8
 70
     1
102
RTVSPropertyOp9
 70
     1
102
RTVSPropertyOp10
 70
     1
102
RTVSPropertyOp11
 70
     1
102
RTVSPropertyOp12
 70
     1
102
RTVSPropertyOp13
 70
     1
102
RTVSPropertyOp14
 70
     1
102
RTVSPropertyOp15
 70
     1
102
RTVSPropertyOp16
 70
     1
102
RTVSPropertyOp17
 70
     1
102
RTVSPropertyOp18
 70
     1
102
RTVSPropertyOp19
 70
     1
102
RTVSPropertyOp20
 70
     1
102
RTVSPropertyOp21
 70
     1
102
RTVSPropertyOp22
 70
     1
102
RTVSPropertyOp23
 70
     1
102
RTVSPropertyOp24
 70
     1
102
RTVSPropertyOp25
 70
     1
102
RTVSPropertyOp26
 70
     1
102
RTVSPropertyOp27
 70
     1
102
RTVSPropertyOp28
 70
     1
102
RTVSPropertyOp29
 70
     1
102
RTVSPropertyOp30
 70
     1
102
RTVSPropertyOp31
 70
     1
102
RTVSPropertyOp32
 70
     1
102
RTVSPropertyOp33
 70
     1
102
RTVSPropertyOp34
 70
     1
102
RTVSPropertyOp35
 70
     1
102
RTVSPropertyOp36
 70
     1
102
RTVSPropertyOp37
 70
     1
102
RTVSPropertyOp38
 70
     1
102
RTVSPropertyOp39
 70
     1
102
RTVSPropertyOp40
 70
     1
102
RTVSPropertyOp41
 70
     1
102
RTVSPropertyOp42
 70
     1
102
RTVSPropertyOp43
 70
     1
102
RTVSPropertyOp44
 70
     1
102
RTVSPropertyOp45
 70
     1
102
RTVSPropertyOp46
 70
     1
102
RTVSPropertyOp47
 70
     1
102
RTVSPropertyOp48
 70
     1
102
RTVSPropertyOp49
 70
     1
102
RTVSPropertyOp50
 70
     1
102
RTVSPropertyOp51
 70
     0
102
RTVSPropertyOp52
 70
     0
102
RTVSPropertyOp53
 70
     1
102
RTVSPropertyOp54
 70
     1
102
RTVSPropertyOp55
 70
     1
102
RTVSPropertyOp56
 70
     1
102
RTVSPropertyOp57
 70
     1
102
RTVSPropertyOp58
 70
     1
102
RTVSPropertyOp59
 70
     1
102
RTVSPropertyOp60
 70
     1
102
RTVSPropertyOp61
 70
     1
102
RTVSPropertyOp62
 70
     1
  0
XRECORD
  5
D96D
102
{ACAD_REACTORS
330
D96C
102
}
330
D96C
100
AcDbXrecord
280
     1
102
RTVSPost2010Prop28
280
     0
102
RTVSPost2010PropOp28
 70
     1
102
RTVSPost2010Prop29
280
     1
102
RTVSPost2010PropOp29
 70
     1
102
RTVSPost2010Prop30
280
     1
102
RTVSPost2010PropOp30
 70
     1
102
RTVSPost2010Prop31
280
     0
102
RTVSPost2010PropOp31
 70
     1
102
RTVSPost2010Prop32
280
     0
102
RTVSPost2010PropOp32
 70
     1
102
RTVSPost2010Prop33
280
     0
102
RTVSPost2010PropOp33
 70
     1
102
RTVSPost2010Prop34
280
     0
102
RTVSPost2010PropOp34
 70
     1
102
RTVSPost2010Prop35
280
     0
102
RTVSPost2010PropOp35
 70
     1
102
RTVSPost2010Prop36
280
     0
102
RTVSPost2010PropOp36
 70
     1
102
RTVSPost2010Prop37
 90
       50
102
RTVSPost2010PropOp37
 70
     1
102
RTVSPost2010Prop38
140
0.0
102
RTVSPost2010PropOp38
 70
     1
102
RTVSPost2010Prop39
140
1.0
102
RTVSPost2010PropOp39
 70
     1
102
RTVSPost2010Prop40
 90
        0
102
RTVSPost2010PropOp40
 70
     1
102
RTVSPost2010Prop41ColorIndex
 90
       18
102
RTVSPost2010Prop41ColorRGB
 90
        0
102
RTVSPost2010PropOp41
 70
     1
102
RTVSPost2010Prop42
 90
       50
102
RTVSPost2010PropOp42
 70
     1
102
RTVSPost2010Prop43
 90
        3
102
RTVSPost2010PropOp43
 70
     1
102
RTVSPost2010Prop44ColorIndex
 90
        5
102
RTVSPost2010Prop44ColorRGB
 90
      255
102
RTVSPost2010PropOp44
 70
     1
102
RTVSPost2010Prop45
280
     0
102
RTVSPost2010PropOp45
 70
     1
102
RTVSPost2010Prop46
 90
       50
102
RTVSPost2010PropOp46
 70
     1
102
RTVSPost2010Prop47
 90
       50
102
RTVSPost2010PropOp47
 70
     1
102
RTVSPost2010Prop48
 90
       50
102
RTVSPost2010PropOp48
 70
     1
102
RTVSPost2010Prop49
280
     0
102
RTVSPost2010PropOp49
 70
     1
102
RTVSPost2010Prop50
 90
       50
102
RTVSPost2010PropOp50
 70
     1
102
RTVSPost2010Prop51ColorIndex
 90
      256
102
RTVSPost2010Prop51ColorRGB
 90
-16777216
102
RTVSPost2010PropOp51
 70
     0
102
RTVSPost2010Prop52
140
1.0
102
RTVSPost2010PropOp52
 70
     0
102
RTVSPost2010Prop53
 90
        2
102
RTVSPost2010PropOp53
 70
     1
102
RTVSPost2010Prop54
  1
strokes_ogs.tif
102
RTVSPost2010PropOp54
 70
     1
102
RTVSPost2010Prop55
280
     0
102
RTVSPost2010PropOp55
 70
     1
102
RTVSPost2010Prop56
140
1.0
102
RTVSPost2010PropOp56
 70
     1
102
RTVSPost2010Prop57
140
1.0
102
RTVSPost2010PropOp57
 70
     1
102
RTVSPropertyOp0
 70
     1
102
RTVSPropertyOp1
 70
     1
102
RTVSPropertyOp2
 70
     1
102
RTVSPropertyOp3
 70
     1
102
RTVSPropertyOp4
 70
     1
102
RTVSPropertyOp5
 70
     1
102
RTVSPropertyOp6
 70
     1
102
RTVSPropertyOp7
 70
     1
102
RTVSPropertyOp8
 70
     1
102
RTVSPropertyOp9
 70
     1
102
RTVSPropertyOp10
 70
     1
102
RTVSPropertyOp11
 70
     1
102
RTVSPropertyOp12
 70
     1
102
RTVSPropertyOp13
 70
     1
102
RTVSPropertyOp14
 70
     1
102
RTVSPropertyOp15
 70
     1
102
RTVSPropertyOp16
 70
     1
102
RTVSPropertyOp17
 70
     1
102
RTVSPropertyOp18
 70
     1
102
RTVSPropertyOp19
 70
     1
102
RTVSPropertyOp20
 70
     1
102
RTVSPropertyOp21
 70
     1
102
RTVSPropertyOp22
 70
     1
102
RTVSPropertyOp23
 70
     1
102
RTVSPropertyOp24
 70
     1
102
RTVSPropertyOp25
 70
     1
102
RTVSPropertyOp26
 70
     1
102
RTVSPropertyOp27
 70
     1
102
RTVSPropertyOp28
 70
     1
102
RTVSPropertyOp29
 70
     1
102
RTVSPropertyOp30
 70
     1
102
RTVSPropertyOp31
 70
     1
102
RTVSPropertyOp32
 70
     1
102
RTVSPropertyOp33
 70
     1
102
RTVSPropertyOp34
 70
     1
102
RTVSPropertyOp35
 70
     1
102
RTVSPropertyOp36
 70
     1
102
RTVSPropertyOp37
 70
     1
102
RTVSPropertyOp38
 70
     1
102
RTVSPropertyOp39
 70
     1
102
RTVSPropertyOp40
 70
     1
102
RTVSPropertyOp41
 70
     1
102
RTVSPropertyOp42
 70
     1
102
RTVSPropertyOp43
 70
     1
102
RTVSPropertyOp44
 70
     1
102
RTVSPropertyOp45
 70
     1
102
RTVSPropertyOp46
 70
     1
102
RTVSPropertyOp47
 70
     1
102
RTVSPropertyOp48
 70
     1
102
RTVSPropertyOp49
 70
     1
102
RTVSPropertyOp50
 70
     1
102
RTVSPropertyOp51
 70
     0
102
RTVSPropertyOp52
 70
     0
102
RTVSPropertyOp53
 70
     1
102
RTVSPropertyOp54
 70
     1
102
RTVSPropertyOp55
 70
     1
102
RTVSPropertyOp56
 70
     1
102
RTVSPropertyOp57
 70
     1
102
RTVSPropertyOp58
 70
     1
102
RTVSPropertyOp59
 70
     1
102
RTVSPropertyOp60
 70
     1
102
RTVSPropertyOp61
 70
     1
102
RTVSPropertyOp62
 70
     1
  0
XRECORD
  5
D989
102
{ACAD_REACTORS
330
D988
102
}
330
D988
100
AcDbXrecord
280
     1
102
RTVSPost2010Prop28
280
     0
102
RTVSPost2010PropOp28
 70
     0
102
RTVSPost2010Prop29
280
     1
102
RTVSPost2010PropOp29
 70
     0
102
RTVSPost2010Prop30
280
     1
102
RTVSPost2010PropOp30
 70
     0
102
RTVSPost2010Prop31
280
     0
102
RTVSPost2010PropOp31
 70
     0
102
RTVSPost2010Prop32
280
     0
102
RTVSPost2010PropOp32
 70
     0
102
RTVSPost2010Prop33
280
     0
102
RTVSPost2010PropOp33
 70
     0
102
RTVSPost2010Prop34
280
     0
102
RTVSPost2010PropOp34
 70
     0
102
RTVSPost2010Prop35
280
     0
102
RTVSPost2010PropOp35
 70
     0
102
RTVSPost2010Prop36
280
     0
102
RTVSPost2010PropOp36
 70
     0
102
RTVSPost2010Prop37
 90
       50
102
RTVSPost2010PropOp37
 70
     0
102
RTVSPost2010Prop38
140
0.0
102
RTVSPost2010PropOp38
 70
     0
102
RTVSPost2010Prop39
140
1.0
102
RTVSPost2010PropOp39
 70
     0
102
RTVSPost2010Prop40
 90
        0
102
RTVSPost2010PropOp40
 70
     0
102
RTVSPost2010Prop41ColorIndex
 90
       18
102
RTVSPost2010Prop41ColorRGB
 90
        0
102
RTVSPost2010PropOp41
 70
     0
102
RTVSPost2010Prop42
 90
       50
102
RTVSPost2010PropOp42
 70
     0
102
RTVSPost2010Prop43
 90
        3
102
RTVSPost2010PropOp43
 70
     0
102
RTVSPost2010Prop44ColorIndex
 90
        5
102
RTVSPost2010Prop44ColorRGB
 90
      255
102
RTVSPost2010PropOp44
 70
     0
102
RTVSPost2010Prop45
280
     0
102
RTVSPost2010PropOp45
 70
     0
102
RTVSPost2010Prop46
 90
       50
102
RTVSPost2010PropOp46
 70
     0
102
RTVSPost2010Prop47
 90
       50
102
RTVSPost2010PropOp47
 70
     0
102
RTVSPost2010Prop48
 90
       50
102
RTVSPost2010PropOp48
 70
     0
102
RTVSPost2010Prop49
280
     0
102
RTVSPost2010PropOp49
 70
     0
102
RTVSPost2010Prop50
 90
       50
102
RTVSPost2010PropOp50
 70
     0
102
RTVSPost2010Prop51ColorIndex
 90
      256
102
RTVSPost2010Prop51ColorRGB
 90
-16777216
102
RTVSPost2010PropOp51
 70
     0
102
RTVSPost2010Prop52
140
1.0
102
RTVSPost2010PropOp52
 70
     0
102
RTVSPost2010Prop53
 90
        2
102
RTVSPost2010PropOp53
 70
     0
102
RTVSPost2010Prop54
  1
strokes_ogs.tif
102
RTVSPost2010PropOp54
 70
     0
102
RTVSPost2010Prop55
280
     0
102
RTVSPost2010PropOp55
 70
     0
102
RTVSPost2010Prop56
140
1.0
102
RTVSPost2010PropOp56
 70
     0
102
RTVSPost2010Prop57
140
1.0
102
RTVSPost2010PropOp57
 70
     0
102
RTVSPropertyOp0
 70
     0
102
RTVSPropertyOp1
 70
     0
102
RTVSPropertyOp2
 70
     0
102
RTVSPropertyOp3
 70
     0
102
RTVSPropertyOp4
 70
     0
102
RTVSPropertyOp5
 70
     0
102
RTVSPropertyOp6
 70
     0
102
RTVSPropertyOp7
 70
     0
102
RTVSPropertyOp8
 70
     0
102
RTVSPropertyOp9
 70
     0
102
RTVSPropertyOp10
 70
     0
102
RTVSPropertyOp11
 70
     0
102
RTVSPropertyOp12
 70
     0
102
RTVSPropertyOp13
 70
     0
102
RTVSPropertyOp14
 70
     2
102
RTVSPropertyOp15
 70
     0
102
RTVSPropertyOp16
 70
     0
102
RTVSPropertyOp17
 70
     0
102
RTVSPropertyOp18
 70
     0
102
RTVSPropertyOp19
 70
     0
102
RTVSPropertyOp20
 70
     0
102
RTVSPropertyOp21
 70
     0
102
RTVSPropertyOp22
 70
     0
102
RTVSPropertyOp23
 70
     0
102
RTVSPropertyOp24
 70
     0
102
RTVSPropertyOp25
 70
     0
102
RTVSPropertyOp26
 70
     0
102
RTVSPropertyOp27
 70
     0
102
RTVSPropertyOp28
 70
     0
102
RTVSPropertyOp29
 70
     0
102
RTVSPropertyOp30
 70
     0
102
RTVSPropertyOp31
 70
     0
102
RTVSPropertyOp32
 70
     0
102
RTVSPropertyOp33
 70
     0
102
RTVSPropertyOp34
 70
     0
102
RTVSPropertyOp35
 70
     0
102
RTVSPropertyOp36
 70
     0
102
RTVSPropertyOp37
 70
     0
102
RTVSPropertyOp38
 70
     0
102
RTVSPropertyOp39
 70
     0
102
RTVSPropertyOp40
 70
     0
102
RTVSPropertyOp41
 70
     0
102
RTVSPropertyOp42
 70
     0
102
RTVSPropertyOp43
 70
     0
102
RTVSPropertyOp44
 70
     0
102
RTVSPropertyOp45
 70
     0
102
RTVSPropertyOp46
 70
     0
102
RTVSPropertyOp47
 70
     0
102
RTVSPropertyOp48
 70
     0
102
RTVSPropertyOp49
 70
     0
102
RTVSPropertyOp50
 70
     0
102
RTVSPropertyOp51
 70
     0
102
RTVSPropertyOp52
 70
     0
102
RTVSPropertyOp53
 70
     0
102
RTVSPropertyOp54
 70
     0
102
RTVSPropertyOp55
 70
     0
102
RTVSPropertyOp56
 70
     0
102
RTVSPropertyOp57
 70
     0
102
RTVSPropertyOp58
 70
     0
102
RTVSPropertyOp59
 70
     0
102
RTVSPropertyOp60
 70
     0
102
RTVSPropertyOp61
 70
     0
102
RTVSPropertyOp62
 70
     0
  0
XRECORD
  5
D979
102
{ACAD_REACTORS
330
D978
102
}
330
D978
100
AcDbXrecord
280
     1
102
RTVSPost2010Prop28
280
     0
102
RTVSPost2010PropOp28
 70
     1
102
RTVSPost2010Prop29
280
     1
102
RTVSPost2010PropOp29
 70
     1
102
RTVSPost2010Prop30
280
     1
102
RTVSPost2010PropOp30
 70
     1
102
RTVSPost2010Prop31
280
     0
102
RTVSPost2010PropOp31
 70
     1
102
RTVSPost2010Prop32
280
     0
102
RTVSPost2010PropOp32
 70
     1
102
RTVSPost2010Prop33
280
     0
102
RTVSPost2010PropOp33
 70
     1
102
RTVSPost2010Prop34
280
     0
102
RTVSPost2010PropOp34
 70
     1
102
RTVSPost2010Prop35
280
     0
102
RTVSPost2010PropOp35
 70
     1
102
RTVSPost2010Prop36
280
     0
102
RTVSPost2010PropOp36
 70
     1
102
RTVSPost2010Prop37
 90
       50
102
RTVSPost2010PropOp37
 70
     1
102
RTVSPost2010Prop38
140
0.0
102
RTVSPost2010PropOp38
 70
     1
102
RTVSPost2010Prop39
140
1.0
102
RTVSPost2010PropOp39
 70
     1
102
RTVSPost2010Prop40
 90
        0
102
RTVSPost2010PropOp40
 70
     1
102
RTVSPost2010Prop41ColorIndex
 90
       18
102
RTVSPost2010Prop41ColorRGB
 90
        0
102
RTVSPost2010PropOp41
 70
     1
102
RTVSPost2010Prop42
 90
       50
102
RTVSPost2010PropOp42
 70
     1
102
RTVSPost2010Prop43
 90
        3
102
RTVSPost2010PropOp43
 70
     1
102
RTVSPost2010Prop44ColorIndex
 90
        5
102
RTVSPost2010Prop44ColorRGB
 90
      255
102
RTVSPost2010PropOp44
 70
     1
102
RTVSPost2010Prop45
280
     0
102
RTVSPost2010PropOp45
 70
     1
102
RTVSPost2010Prop46
 90
       50
102
RTVSPost2010PropOp46
 70
     1
102
RTVSPost2010Prop47
 90
       50
102
RTVSPost2010PropOp47
 70
     1
102
RTVSPost2010Prop48
 90
       50
102
RTVSPost2010PropOp48
 70
     1
102
RTVSPost2010Prop49
280
     0
102
RTVSPost2010PropOp49
 70
     1
102
RTVSPost2010Prop50
 90
       50
102
RTVSPost2010PropOp50
 70
     1
102
RTVSPost2010Prop51ColorIndex
 90
      256
102
RTVSPost2010Prop51ColorRGB
 90
-16777216
102
RTVSPost2010PropOp51
 70
     0
102
RTVSPost2010Prop52
140
1.0
102
RTVSPost2010PropOp52
 70
     0
102
RTVSPost2010Prop53
 90
        2
102
RTVSPost2010PropOp53
 70
     1
102
RTVSPost2010Prop54
  1
strokes_ogs.tif
102
RTVSPost2010PropOp54
 70
     1
102
RTVSPost2010Prop55
280
     0
102
RTVSPost2010PropOp55
 70
     1
102
RTVSPost2010Prop56
140
1.0
102
RTVSPost2010PropOp56
 70
     1
102
RTVSPost2010Prop57
140
1.0
102
RTVSPost2010PropOp57
 70
     1
102
RTVSPropertyOp0
 70
     1
102
RTVSPropertyOp1
 70
     1
102
RTVSPropertyOp2
 70
     1
102
RTVSPropertyOp3
 70
     1
102
RTVSPropertyOp4
 70
     1
102
RTVSPropertyOp5
 70
     1
102
RTVSPropertyOp6
 70
     1
102
RTVSPropertyOp7
 70
     1
102
RTVSPropertyOp8
 70
     1
102
RTVSPropertyOp9
 70
     1
102
RTVSPropertyOp10
 70
     1
102
RTVSPropertyOp11
 70
     1
102
RTVSPropertyOp12
 70
     1
102
RTVSPropertyOp13
 70
     1
102
RTVSPropertyOp14
 70
     1
102
RTVSPropertyOp15
 70
     1
102
RTVSPropertyOp16
 70
     1
102
RTVSPropertyOp17
 70
     1
102
RTVSPropertyOp18
 70
     1
102
RTVSPropertyOp19
 70
     1
102
RTVSPropertyOp20
 70
     1
102
RTVSPropertyOp21
 70
     1
102
RTVSPropertyOp22
 70
     1
102
RTVSPropertyOp23
 70
     1
102
RTVSPropertyOp24
 70
     1
102
RTVSPropertyOp25
 70
     1
102
RTVSPropertyOp26
 70
     1
102
RTVSPropertyOp27
 70
     1
102
RTVSPropertyOp28
 70
     1
102
RTVSPropertyOp29
 70
     1
102
RTVSPropertyOp30
 70
     1
102
RTVSPropertyOp31
 70
     1
102
RTVSPropertyOp32
 70
     1
102
RTVSPropertyOp33
 70
     1
102
RTVSPropertyOp34
 70
     1
102
RTVSPropertyOp35
 70
     1
102
RTVSPropertyOp36
 70
     1
102
RTVSPropertyOp37
 70
     1
102
RTVSPropertyOp38
 70
     1
102
RTVSPropertyOp39
 70
     1
102
RTVSPropertyOp40
 70
     1
102
RTVSPropertyOp41
 70
     1
102
RTVSPropertyOp42
 70
     1
102
RTVSPropertyOp43
 70
     1
102
RTVSPropertyOp44
 70
     1
102
RTVSPropertyOp45
 70
     1
102
RTVSPropertyOp46
 70
     1
102
RTVSPropertyOp47
 70
     1
102
RTVSPropertyOp48
 70
     1
102
RTVSPropertyOp49
 70
     1
102
RTVSPropertyOp50
 70
     1
102
RTVSPropertyOp51
 70
     0
102
RTVSPropertyOp52
 70
     0
102
RTVSPropertyOp53
 70
     1
102
RTVSPropertyOp54
 70
     1
102
RTVSPropertyOp55
 70
     1
102
RTVSPropertyOp56
 70
     1
102
RTVSPropertyOp57
 70
     1
102
RTVSPropertyOp58
 70
     1
102
RTVSPropertyOp59
 70
     1
102
RTVSPropertyOp60
 70
     1
102
RTVSPropertyOp61
 70
     1
102
RTVSPropertyOp62
 70
     1
  0
XRECORD
  5
D98B
102
{ACAD_REACTORS
330
D98A
102
}
330
D98A
100
AcDbXrecord
280
     1
102
RTVSPost2010Prop28
280
     0
102
RTVSPost2010PropOp28
 70
     0
102
RTVSPost2010Prop29
280
     1
102
RTVSPost2010PropOp29
 70
     0
102
RTVSPost2010Prop30
280
     1
102
RTVSPost2010PropOp30
 70
     0
102
RTVSPost2010Prop31
280
     0
102
RTVSPost2010PropOp31
 70
     0
102
RTVSPost2010Prop32
280
     0
102
RTVSPost2010PropOp32
 70
     0
102
RTVSPost2010Prop33
280
     0
102
RTVSPost2010PropOp33
 70
     0
102
RTVSPost2010Prop34
280
     0
102
RTVSPost2010PropOp34
 70
     0
102
RTVSPost2010Prop35
280
     0
102
RTVSPost2010PropOp35
 70
     0
102
RTVSPost2010Prop36
280
     0
102
RTVSPost2010PropOp36
 70
     0
102
RTVSPost2010Prop37
 90
       50
102
RTVSPost2010PropOp37
 70
     0
102
RTVSPost2010Prop38
140
0.0
102
RTVSPost2010PropOp38
 70
     0
102
RTVSPost2010Prop39
140
1.0
102
RTVSPost2010PropOp39
 70
     0
102
RTVSPost2010Prop40
 90
        0
102
RTVSPost2010PropOp40
 70
     0
102
RTVSPost2010Prop41ColorIndex
 90
       18
102
RTVSPost2010Prop41ColorRGB
 90
        0
102
RTVSPost2010PropOp41
 70
     0
102
RTVSPost2010Prop42
 90
       50
102
RTVSPost2010PropOp42
 70
     0
102
RTVSPost2010Prop43
 90
        3
102
RTVSPost2010PropOp43
 70
     0
102
RTVSPost2010Prop44ColorIndex
 90
        5
102
RTVSPost2010Prop44ColorRGB
 90
      255
102
RTVSPost2010PropOp44
 70
     0
102
RTVSPost2010Prop45
280
     0
102
RTVSPost2010PropOp45
 70
     0
102
RTVSPost2010Prop46
 90
       50
102
RTVSPost2010PropOp46
 70
     0
102
RTVSPost2010Prop47
 90
       50
102
RTVSPost2010PropOp47
 70
     0
102
RTVSPost2010Prop48
 90
       50
102
RTVSPost2010PropOp48
 70
     0
102
RTVSPost2010Prop49
280
     0
102
RTVSPost2010PropOp49
 70
     0
102
RTVSPost2010Prop50
 90
       50
102
RTVSPost2010PropOp50
 70
     0
102
RTVSPost2010Prop51ColorIndex
 90
      256
102
RTVSPost2010Prop51ColorRGB
 90
-16777216
102
RTVSPost2010PropOp51
 70
     0
102
RTVSPost2010Prop52
140
1.0
102
RTVSPost2010PropOp52
 70
     0
102
RTVSPost2010Prop53
 90
        2
102
RTVSPost2010PropOp53
 70
     0
102
RTVSPost2010Prop54
  1
strokes_ogs.tif
102
RTVSPost2010PropOp54
 70
     0
102
RTVSPost2010Prop55
280
     0
102
RTVSPost2010PropOp55
 70
     0
102
RTVSPost2010Prop56
140
1.0
102
RTVSPost2010PropOp56
 70
     0
102
RTVSPost2010Prop57
140
1.0
102
RTVSPost2010PropOp57
 70
     0
102
RTVSPropertyOp0
 70
     0
102
RTVSPropertyOp1
 70
     0
102
RTVSPropertyOp2
 70
     0
102
RTVSPropertyOp3
 70
     0
102
RTVSPropertyOp4
 70
     0
102
RTVSPropertyOp5
 70
     0
102
RTVSPropertyOp6
 70
     0
102
RTVSPropertyOp7
 70
     0
102
RTVSPropertyOp8
 70
     0
102
RTVSPropertyOp9
 70
     0
102
RTVSPropertyOp10
 70
     0
102
RTVSPropertyOp11
 70
     0
102
RTVSPropertyOp12
 70
     0
102
RTVSPropertyOp13
 70
     0
102
RTVSPropertyOp14
 70
     2
102
RTVSPropertyOp15
 70
     0
102
RTVSPropertyOp16
 70
     0
102
RTVSPropertyOp17
 70
     0
102
RTVSPropertyOp18
 70
     0
102
RTVSPropertyOp19
 70
     0
102
RTVSPropertyOp20
 70
     0
102
RTVSPropertyOp21
 70
     0
102
RTVSPropertyOp22
 70
     0
102
RTVSPropertyOp23
 70
     0
102
RTVSPropertyOp24
 70
     0
102
RTVSPropertyOp25
 70
     0
102
RTVSPropertyOp26
 70
     0
102
RTVSPropertyOp27
 70
     0
102
RTVSPropertyOp28
 70
     0
102
RTVSPropertyOp29
 70
     0
102
RTVSPropertyOp30
 70
     0
102
RTVSPropertyOp31
 70
     0
102
RTVSPropertyOp32
 70
     0
102
RTVSPropertyOp33
 70
     0
102
RTVSPropertyOp34
 70
     0
102
RTVSPropertyOp35
 70
     0
102
RTVSPropertyOp36
 70
     0
102
RTVSPropertyOp37
 70
     0
102
RTVSPropertyOp38
 70
     0
102
RTVSPropertyOp39
 70
     0
102
RTVSPropertyOp40
 70
     0
102
RTVSPropertyOp41
 70
     0
102
RTVSPropertyOp42
 70
     0
102
RTVSPropertyOp43
 70
     0
102
RTVSPropertyOp44
 70
     0
102
RTVSPropertyOp45
 70
     0
102
RTVSPropertyOp46
 70
     0
102
RTVSPropertyOp47
 70
     0
102
RTVSPropertyOp48
 70
     0
102
RTVSPropertyOp49
 70
     0
102
RTVSPropertyOp50
 70
     0
102
RTVSPropertyOp51
 70
     0
102
RTVSPropertyOp52
 70
     0
102
RTVSPropertyOp53
 70
     0
102
RTVSPropertyOp54
 70
     0
102
RTVSPropertyOp55
 70
     0
102
RTVSPropertyOp56
 70
     0
102
RTVSPropertyOp57
 70
     0
102
RTVSPropertyOp58
 70
     0
102
RTVSPropertyOp59
 70
     0
102
RTVSPropertyOp60
 70
     0
102
RTVSPropertyOp61
 70
     0
102
RTVSPropertyOp62
 70
     0
  0
XRECORD
  5
D971
102
{ACAD_REACTORS
330
D970
102
}
330
D970
100
AcDbXrecord
280
     1
102
RTVSPost2010Prop28
280
     0
102
RTVSPost2010PropOp28
 70
     1
102
RTVSPost2010Prop29
280
     1
102
RTVSPost2010PropOp29
 70
     1
102
RTVSPost2010Prop30
280
     1
102
RTVSPost2010PropOp30
 70
     1
102
RTVSPost2010Prop31
280
     0
102
RTVSPost2010PropOp31
 70
     1
102
RTVSPost2010Prop32
280
     0
102
RTVSPost2010PropOp32
 70
     1
102
RTVSPost2010Prop33
280
     0
102
RTVSPost2010PropOp33
 70
     1
102
RTVSPost2010Prop34
280
     0
102
RTVSPost2010PropOp34
 70
     1
102
RTVSPost2010Prop35
280
     0
102
RTVSPost2010PropOp35
 70
     1
102
RTVSPost2010Prop36
280
     0
102
RTVSPost2010PropOp36
 70
     1
102
RTVSPost2010Prop37
 90
       50
102
RTVSPost2010PropOp37
 70
     1
102
RTVSPost2010Prop38
140
0.0
102
RTVSPost2010PropOp38
 70
     1
102
RTVSPost2010Prop39
140
1.0
102
RTVSPost2010PropOp39
 70
     1
102
RTVSPost2010Prop40
 90
        0
102
RTVSPost2010PropOp40
 70
     1
102
RTVSPost2010Prop41ColorIndex
 90
       18
102
RTVSPost2010Prop41ColorRGB
 90
        0
102
RTVSPost2010PropOp41
 70
     1
102
RTVSPost2010Prop42
 90
       50
102
RTVSPost2010PropOp42
 70
     1
102
RTVSPost2010Prop43
 90
        3
102
RTVSPost2010PropOp43
 70
     1
102
RTVSPost2010Prop44ColorIndex
 90
        5
102
RTVSPost2010Prop44ColorRGB
 90
      255
102
RTVSPost2010PropOp44
 70
     1
102
RTVSPost2010Prop45
280
     0
102
RTVSPost2010PropOp45
 70
     1
102
RTVSPost2010Prop46
 90
       50
102
RTVSPost2010PropOp46
 70
     1
102
RTVSPost2010Prop47
 90
       50
102
RTVSPost2010PropOp47
 70
     1
102
RTVSPost2010Prop48
 90
       50
102
RTVSPost2010PropOp48
 70
     1
102
RTVSPost2010Prop49
280
     0
102
RTVSPost2010PropOp49
 70
     1
102
RTVSPost2010Prop50
 90
       50
102
RTVSPost2010PropOp50
 70
     1
102
RTVSPost2010Prop51ColorIndex
 90
      256
102
RTVSPost2010Prop51ColorRGB
 90
-16777216
102
RTVSPost2010PropOp51
 70
     0
102
RTVSPost2010Prop52
140
1.0
102
RTVSPost2010PropOp52
 70
     0
102
RTVSPost2010Prop53
 90
        2
102
RTVSPost2010PropOp53
 70
     1
102
RTVSPost2010Prop54
  1
strokes_ogs.tif
102
RTVSPost2010PropOp54
 70
     1
102
RTVSPost2010Prop55
280
     0
102
RTVSPost2010PropOp55
 70
     1
102
RTVSPost2010Prop56
140
1.0
102
RTVSPost2010PropOp56
 70
     1
102
RTVSPost2010Prop57
140
1.0
102
RTVSPost2010PropOp57
 70
     1
102
RTVSPropertyOp0
 70
     1
102
RTVSPropertyOp1
 70
     1
102
RTVSPropertyOp2
 70
     1
102
RTVSPropertyOp3
 70
     1
102
RTVSPropertyOp4
 70
     1
102
RTVSPropertyOp5
 70
     1
102
RTVSPropertyOp6
 70
     1
102
RTVSPropertyOp7
 70
     1
102
RTVSPropertyOp8
 70
     1
102
RTVSPropertyOp9
 70
     1
102
RTVSPropertyOp10
 70
     1
102
RTVSPropertyOp11
 70
     1
102
RTVSPropertyOp12
 70
     1
102
RTVSPropertyOp13
 70
     1
102
RTVSPropertyOp14
 70
     1
102
RTVSPropertyOp15
 70
     1
102
RTVSPropertyOp16
 70
     1
102
RTVSPropertyOp17
 70
     1
102
RTVSPropertyOp18
 70
     1
102
RTVSPropertyOp19
 70
     1
102
RTVSPropertyOp20
 70
     1
102
RTVSPropertyOp21
 70
     1
102
RTVSPropertyOp22
 70
     1
102
RTVSPropertyOp23
 70
     1
102
RTVSPropertyOp24
 70
     1
102
RTVSPropertyOp25
 70
     1
102
RTVSPropertyOp26
 70
     1
102
RTVSPropertyOp27
 70
     1
102
RTVSPropertyOp28
 70
     1
102
RTVSPropertyOp29
 70
     1
102
RTVSPropertyOp30
 70
     1
102
RTVSPropertyOp31
 70
     1
102
RTVSPropertyOp32
 70
     1
102
RTVSPropertyOp33
 70
     1
102
RTVSPropertyOp34
 70
     1
102
RTVSPropertyOp35
 70
     1
102
RTVSPropertyOp36
 70
     1
102
RTVSPropertyOp37
 70
     1
102
RTVSPropertyOp38
 70
     1
102
RTVSPropertyOp39
 70
     1
102
RTVSPropertyOp40
 70
     1
102
RTVSPropertyOp41
 70
     1
102
RTVSPropertyOp42
 70
     1
102
RTVSPropertyOp43
 70
     1
102
RTVSPropertyOp44
 70
     1
102
RTVSPropertyOp45
 70
     1
102
RTVSPropertyOp46
 70
     1
102
RTVSPropertyOp47
 70
     1
102
RTVSPropertyOp48
 70
     1
102
RTVSPropertyOp49
 70
     1
102
RTVSPropertyOp50
 70
     1
102
RTVSPropertyOp51
 70
     0
102
RTVSPropertyOp52
 70
     0
102
RTVSPropertyOp53
 70
     1
102
RTVSPropertyOp54
 70
     1
102
RTVSPropertyOp55
 70
     1
102
RTVSPropertyOp56
 70
     1
102
RTVSPropertyOp57
 70
     1
102
RTVSPropertyOp58
 70
     1
102
RTVSPropertyOp59
 70
     1
102
RTVSPropertyOp60
 70
     1
102
RTVSPropertyOp61
 70
     1
102
RTVSPropertyOp62
 70
     1
  0
XRECORD
  5
D987
102
{ACAD_REACTORS
330
D986
102
}
330
D986
100
AcDbXrecord
280
     1
102
RTVSPost2010Prop28
280
     0
102
RTVSPost2010PropOp28
 70
     1
102
RTVSPost2010Prop29
280
     1
102
RTVSPost2010PropOp29
 70
     1
102
RTVSPost2010Prop30
280
     1
102
RTVSPost2010PropOp30
 70
     1
102
RTVSPost2010Prop31
280
     0
102
RTVSPost2010PropOp31
 70
     1
102
RTVSPost2010Prop32
280
     0
102
RTVSPost2010PropOp32
 70
     1
102
RTVSPost2010Prop33
280
     0
102
RTVSPost2010PropOp33
 70
     1
102
RTVSPost2010Prop34
280
     0
102
RTVSPost2010PropOp34
 70
     1
102
RTVSPost2010Prop35
280
     0
102
RTVSPost2010PropOp35
 70
     1
102
RTVSPost2010Prop36
280
     0
102
RTVSPost2010PropOp36
 70
     1
102
RTVSPost2010Prop37
 90
       50
102
RTVSPost2010PropOp37
 70
     1
102
RTVSPost2010Prop38
140
0.0
102
RTVSPost2010PropOp38
 70
     1
102
RTVSPost2010Prop39
140
1.0
102
RTVSPost2010PropOp39
 70
     1
102
RTVSPost2010Prop40
 90
        0
102
RTVSPost2010PropOp40
 70
     1
102
RTVSPost2010Prop41ColorIndex
 90
       18
102
RTVSPost2010Prop41ColorRGB
 90
        0
102
RTVSPost2010PropOp41
 70
     1
102
RTVSPost2010Prop42
 90
       50
102
RTVSPost2010PropOp42
 70
     1
102
RTVSPost2010Prop43
 90
        3
102
RTVSPost2010PropOp43
 70
     1
102
RTVSPost2010Prop44ColorIndex
 90
        5
102
RTVSPost2010Prop44ColorRGB
 90
      255
102
RTVSPost2010PropOp44
 70
     1
102
RTVSPost2010Prop45
280
     0
102
RTVSPost2010PropOp45
 70
     1
102
RTVSPost2010Prop46
 90
       50
102
RTVSPost2010PropOp46
 70
     1
102
RTVSPost2010Prop47
 90
       50
102
RTVSPost2010PropOp47
 70
     1
102
RTVSPost2010Prop48
 90
       50
102
RTVSPost2010PropOp48
 70
     1
102
RTVSPost2010Prop49
280
     0
102
RTVSPost2010PropOp49
 70
     1
102
RTVSPost2010Prop50
 90
       50
102
RTVSPost2010PropOp50
 70
     1
102
RTVSPost2010Prop51ColorIndex
 90
      256
102
RTVSPost2010Prop51ColorRGB
 90
-16777216
102
RTVSPost2010PropOp51
 70
     0
102
RTVSPost2010Prop52
140
1.0
102
RTVSPost2010PropOp52
 70
     0
102
RTVSPost2010Prop53
 90
        2
102
RTVSPost2010PropOp53
 70
     1
102
RTVSPost2010Prop54
  1
strokes_ogs.tif
102
RTVSPost2010PropOp54
 70
     1
102
RTVSPost2010Prop55
280
     0
102
RTVSPost2010PropOp55
 70
     1
102
RTVSPost2010Prop56
140
1.0
102
RTVSPost2010PropOp56
 70
     1
102
RTVSPost2010Prop57
140
1.0
102
RTVSPost2010PropOp57
 70
     1
102
RTVSPropertyOp0
 70
     1
102
RTVSPropertyOp1
 70
     1
102
RTVSPropertyOp2
 70
     1
102
RTVSPropertyOp3
 70
     1
102
RTVSPropertyOp4
 70
     1
102
RTVSPropertyOp5
 70
     1
102
RTVSPropertyOp6
 70
     1
102
RTVSPropertyOp7
 70
     1
102
RTVSPropertyOp8
 70
     1
102
RTVSPropertyOp9
 70
     1
102
RTVSPropertyOp10
 70
     1
102
RTVSPropertyOp11
 70
     1
102
RTVSPropertyOp12
 70
     1
102
RTVSPropertyOp13
 70
     1
102
RTVSPropertyOp14
 70
     1
102
RTVSPropertyOp15
 70
     1
102
RTVSPropertyOp16
 70
     1
102
RTVSPropertyOp17
 70
     1
102
RTVSPropertyOp18
 70
     1
102
RTVSPropertyOp19
 70
     1
102
RTVSPropertyOp20
 70
     1
102
RTVSPropertyOp21
 70
     1
102
RTVSPropertyOp22
 70
     1
102
RTVSPropertyOp23
 70
     1
102
RTVSPropertyOp24
 70
     1
102
RTVSPropertyOp25
 70
     1
102
RTVSPropertyOp26
 70
     1
102
RTVSPropertyOp27
 70
     1
102
RTVSPropertyOp28
 70
     1
102
RTVSPropertyOp29
 70
     1
102
RTVSPropertyOp30
 70
     1
102
RTVSPropertyOp31
 70
     1
102
RTVSPropertyOp32
 70
     1
102
RTVSPropertyOp33
 70
     1
102
RTVSPropertyOp34
 70
     1
102
RTVSPropertyOp35
 70
     1
102
RTVSPropertyOp36
 70
     1
102
RTVSPropertyOp37
 70
     1
102
RTVSPropertyOp38
 70
     1
102
RTVSPropertyOp39
 70
     1
102
RTVSPropertyOp40
 70
     1
102
RTVSPropertyOp41
 70
     1
102
RTVSPropertyOp42
 70
     1
102
RTVSPropertyOp43
 70
     1
102
RTVSPropertyOp44
 70
     1
102
RTVSPropertyOp45
 70
     1
102
RTVSPropertyOp46
 70
     1
102
RTVSPropertyOp47
 70
     1
102
RTVSPropertyOp48
 70
     1
102
RTVSPropertyOp49
 70
     1
102
RTVSPropertyOp50
 70
     1
102
RTVSPropertyOp51
 70
     0
102
RTVSPropertyOp52
 70
     0
102
RTVSPropertyOp53
 70
     1
102
RTVSPropertyOp54
 70
     1
102
RTVSPropertyOp55
 70
     1
102
RTVSPropertyOp56
 70
     1
102
RTVSPropertyOp57
 70
     1
102
RTVSPropertyOp58
 70
     1
102
RTVSPropertyOp59
 70
     1
102
RTVSPropertyOp60
 70
     1
102
RTVSPropertyOp61
 70
     1
102
RTVSPropertyOp62
 70
     1
  0
XRECORD
  5
D985
102
{ACAD_REACTORS
330
D984
102
}
330
D984
100
AcDbXrecord
280
     1
102
RTVSPost2010Prop28
280
     0
102
RTVSPost2010PropOp28
 70
     1
102
RTVSPost2010Prop29
280
     1
102
RTVSPost2010PropOp29
 70
     1
102
RTVSPost2010Prop30
280
     1
102
RTVSPost2010PropOp30
 70
     1
102
RTVSPost2010Prop31
280
     0
102
RTVSPost2010PropOp31
 70
     1
102
RTVSPost2010Prop32
280
     0
102
RTVSPost2010PropOp32
 70
     1
102
RTVSPost2010Prop33
280
     0
102
RTVSPost2010PropOp33
 70
     1
102
RTVSPost2010Prop34
280
     0
102
RTVSPost2010PropOp34
 70
     1
102
RTVSPost2010Prop35
280
     0
102
RTVSPost2010PropOp35
 70
     1
102
RTVSPost2010Prop36
280
     0
102
RTVSPost2010PropOp36
 70
     1
102
RTVSPost2010Prop37
 90
       50
102
RTVSPost2010PropOp37
 70
     1
102
RTVSPost2010Prop38
140
0.0
102
RTVSPost2010PropOp38
 70
     1
102
RTVSPost2010Prop39
140
1.0
102
RTVSPost2010PropOp39
 70
     1
102
RTVSPost2010Prop40
 90
        0
102
RTVSPost2010PropOp40
 70
     1
102
RTVSPost2010Prop41ColorIndex
 90
       18
102
RTVSPost2010Prop41ColorRGB
 90
        0
102
RTVSPost2010PropOp41
 70
     1
102
RTVSPost2010Prop42
 90
       50
102
RTVSPost2010PropOp42
 70
     1
102
RTVSPost2010Prop43
 90
        3
102
RTVSPost2010PropOp43
 70
     1
102
RTVSPost2010Prop44ColorIndex
 90
        5
102
RTVSPost2010Prop44ColorRGB
 90
      255
102
RTVSPost2010PropOp44
 70
     1
102
RTVSPost2010Prop45
280
     0
102
RTVSPost2010PropOp45
 70
     1
102
RTVSPost2010Prop46
 90
       50
102
RTVSPost2010PropOp46
 70
     1
102
RTVSPost2010Prop47
 90
       50
102
RTVSPost2010PropOp47
 70
     1
102
RTVSPost2010Prop48
 90
       50
102
RTVSPost2010PropOp48
 70
     1
102
RTVSPost2010Prop49
280
     0
102
RTVSPost2010PropOp49
 70
     1
102
RTVSPost2010Prop50
 90
       50
102
RTVSPost2010PropOp50
 70
     1
102
RTVSPost2010Prop51ColorIndex
 90
      256
102
RTVSPost2010Prop51ColorRGB
 90
-16777216
102
RTVSPost2010PropOp51
 70
     0
102
RTVSPost2010Prop52
140
1.0
102
RTVSPost2010PropOp52
 70
     0
102
RTVSPost2010Prop53
 90
        2
102
RTVSPost2010PropOp53
 70
     1
102
RTVSPost2010Prop54
  1
strokes_ogs.tif
102
RTVSPost2010PropOp54
 70
     1
102
RTVSPost2010Prop55
280
     0
102
RTVSPost2010PropOp55
 70
     1
102
RTVSPost2010Prop56
140
1.0
102
RTVSPost2010PropOp56
 70
     1
102
RTVSPost2010Prop57
140
1.0
102
RTVSPost2010PropOp57
 70
     1
102
RTVSPropertyOp0
 70
     1
102
RTVSPropertyOp1
 70
     1
102
RTVSPropertyOp2
 70
     1
102
RTVSPropertyOp3
 70
     1
102
RTVSPropertyOp4
 70
     1
102
RTVSPropertyOp5
 70
     1
102
RTVSPropertyOp6
 70
     1
102
RTVSPropertyOp7
 70
     1
102
RTVSPropertyOp8
 70
     1
102
RTVSPropertyOp9
 70
     1
102
RTVSPropertyOp10
 70
     1
102
RTVSPropertyOp11
 70
     1
102
RTVSPropertyOp12
 70
     1
102
RTVSPropertyOp13
 70
     1
102
RTVSPropertyOp14
 70
     1
102
RTVSPropertyOp15
 70
     1
102
RTVSPropertyOp16
 70
     1
102
RTVSPropertyOp17
 70
     1
102
RTVSPropertyOp18
 70
     1
102
RTVSPropertyOp19
 70
     1
102
RTVSPropertyOp20
 70
     1
102
RTVSPropertyOp21
 70
     1
102
RTVSPropertyOp22
 70
     1
102
RTVSPropertyOp23
 70
     1
102
RTVSPropertyOp24
 70
     1
102
RTVSPropertyOp25
 70
     1
102
RTVSPropertyOp26
 70
     1
102
RTVSPropertyOp27
 70
     1
102
RTVSPropertyOp28
 70
     1
102
RTVSPropertyOp29
 70
     1
102
RTVSPropertyOp30
 70
     1
102
RTVSPropertyOp31
 70
     1
102
RTVSPropertyOp32
 70
     1
102
RTVSPropertyOp33
 70
     1
102
RTVSPropertyOp34
 70
     1
102
RTVSPropertyOp35
 70
     1
102
RTVSPropertyOp36
 70
     1
102
RTVSPropertyOp37
 70
     1
102
RTVSPropertyOp38
 70
     1
102
RTVSPropertyOp39
 70
     1
102
RTVSPropertyOp40
 70
     1
102
RTVSPropertyOp41
 70
     1
102
RTVSPropertyOp42
 70
     1
102
RTVSPropertyOp43
 70
     1
102
RTVSPropertyOp44
 70
     1
102
RTVSPropertyOp45
 70
     1
102
RTVSPropertyOp46
 70
     1
102
RTVSPropertyOp47
 70
     1
102
RTVSPropertyOp48
 70
     1
102
RTVSPropertyOp49
 70
     1
102
RTVSPropertyOp50
 70
     1
102
RTVSPropertyOp51
 70
     0
102
RTVSPropertyOp52
 70
     0
102
RTVSPropertyOp53
 70
     1
102
RTVSPropertyOp54
 70
     1
102
RTVSPropertyOp55
 70
     1
102
RTVSPropertyOp56
 70
     1
102
RTVSPropertyOp57
 70
     1
102
RTVSPropertyOp58
 70
     1
102
RTVSPropertyOp59
 70
     1
102
RTVSPropertyOp60
 70
     1
102
RTVSPropertyOp61
 70
     1
102
RTVSPropertyOp62
 70
     1
  0
XRECORD
  5
D97F
102
{ACAD_REACTORS
330
D97E
102
}
330
D97E
100
AcDbXrecord
280
     1
102
RTVSPost2010Prop28
280
     0
102
RTVSPost2010PropOp28
 70
     1
102
RTVSPost2010Prop29
280
     1
102
RTVSPost2010PropOp29
 70
     1
102
RTVSPost2010Prop30
280
     1
102
RTVSPost2010PropOp30
 70
     1
102
RTVSPost2010Prop31
280
     0
102
RTVSPost2010PropOp31
 70
     1
102
RTVSPost2010Prop32
280
     0
102
RTVSPost2010PropOp32
 70
     1
102
RTVSPost2010Prop33
280
     0
102
RTVSPost2010PropOp33
 70
     1
102
RTVSPost2010Prop34
280
     0
102
RTVSPost2010PropOp34
 70
     1
102
RTVSPost2010Prop35
280
     0
102
RTVSPost2010PropOp35
 70
     1
102
RTVSPost2010Prop36
280
     0
102
RTVSPost2010PropOp36
 70
     1
102
RTVSPost2010Prop37
 90
       50
102
RTVSPost2010PropOp37
 70
     1
102
RTVSPost2010Prop38
140
0.0
102
RTVSPost2010PropOp38
 70
     1
102
RTVSPost2010Prop39
140
1.0
102
RTVSPost2010PropOp39
 70
     1
102
RTVSPost2010Prop40
 90
        0
102
RTVSPost2010PropOp40
 70
     1
102
RTVSPost2010Prop41ColorIndex
 90
       18
102
RTVSPost2010Prop41ColorRGB
 90
        0
102
RTVSPost2010PropOp41
 70
     1
102
RTVSPost2010Prop42
 90
       50
102
RTVSPost2010PropOp42
 70
     1
102
RTVSPost2010Prop43
 90
        3
102
RTVSPost2010PropOp43
 70
     1
102
RTVSPost2010Prop44ColorIndex
 90
        5
102
RTVSPost2010Prop44ColorRGB
 90
      255
102
RTVSPost2010PropOp44
 70
     1
102
RTVSPost2010Prop45
280
     0
102
RTVSPost2010PropOp45
 70
     1
102
RTVSPost2010Prop46
 90
       50
102
RTVSPost2010PropOp46
 70
     1
102
RTVSPost2010Prop47
 90
       50
102
RTVSPost2010PropOp47
 70
     1
102
RTVSPost2010Prop48
 90
       50
102
RTVSPost2010PropOp48
 70
     1
102
RTVSPost2010Prop49
280
     0
102
RTVSPost2010PropOp49
 70
     1
102
RTVSPost2010Prop50
 90
       50
102
RTVSPost2010PropOp50
 70
     1
102
RTVSPost2010Prop51ColorIndex
 90
      256
102
RTVSPost2010Prop51ColorRGB
 90
-16777216
102
RTVSPost2010PropOp51
 70
     0
102
RTVSPost2010Prop52
140
1.0
102
RTVSPost2010PropOp52
 70
     0
102
RTVSPost2010Prop53
 90
        2
102
RTVSPost2010PropOp53
 70
     1
102
RTVSPost2010Prop54
  1
strokes_ogs.tif
102
RTVSPost2010PropOp54
 70
     1
102
RTVSPost2010Prop55
280
     0
102
RTVSPost2010PropOp55
 70
     1
102
RTVSPost2010Prop56
140
1.0
102
RTVSPost2010PropOp56
 70
     1
102
RTVSPost2010Prop57
140
1.0
102
RTVSPost2010PropOp57
 70
     1
102
RTVSPropertyOp0
 70
     1
102
RTVSPropertyOp1
 70
     1
102
RTVSPropertyOp2
 70
     1
102
RTVSPropertyOp3
 70
     1
102
RTVSPropertyOp4
 70
     1
102
RTVSPropertyOp5
 70
     1
102
RTVSPropertyOp6
 70
     1
102
RTVSPropertyOp7
 70
     1
102
RTVSPropertyOp8
 70
     1
102
RTVSPropertyOp9
 70
     1
102
RTVSPropertyOp10
 70
     1
102
RTVSPropertyOp11
 70
     1
102
RTVSPropertyOp12
 70
     1
102
RTVSPropertyOp13
 70
     1
102
RTVSPropertyOp14
 70
     1
102
RTVSPropertyOp15
 70
     1
102
RTVSPropertyOp16
 70
     1
102
RTVSPropertyOp17
 70
     1
102
RTVSPropertyOp18
 70
     1
102
RTVSPropertyOp19
 70
     1
102
RTVSPropertyOp20
 70
     1
102
RTVSPropertyOp21
 70
     1
102
RTVSPropertyOp22
 70
     1
102
RTVSPropertyOp23
 70
     1
102
RTVSPropertyOp24
 70
     1
102
RTVSPropertyOp25
 70
     1
102
RTVSPropertyOp26
 70
     1
102
RTVSPropertyOp27
 70
     1
102
RTVSPropertyOp28
 70
     1
102
RTVSPropertyOp29
 70
     1
102
RTVSPropertyOp30
 70
     1
102
RTVSPropertyOp31
 70
     1
102
RTVSPropertyOp32
 70
     1
102
RTVSPropertyOp33
 70
     1
102
RTVSPropertyOp34
 70
     1
102
RTVSPropertyOp35
 70
     1
102
RTVSPropertyOp36
 70
     1
102
RTVSPropertyOp37
 70
     1
102
RTVSPropertyOp38
 70
     1
102
RTVSPropertyOp39
 70
     1
102
RTVSPropertyOp40
 70
     1
102
RTVSPropertyOp41
 70
     1
102
RTVSPropertyOp42
 70
     1
102
RTVSPropertyOp43
 70
     1
102
RTVSPropertyOp44
 70
     1
102
RTVSPropertyOp45
 70
     1
102
RTVSPropertyOp46
 70
     1
102
RTVSPropertyOp47
 70
     1
102
RTVSPropertyOp48
 70
     1
102
RTVSPropertyOp49
 70
     1
102
RTVSPropertyOp50
 70
     1
102
RTVSPropertyOp51
 70
     0
102
RTVSPropertyOp52
 70
     0
102
RTVSPropertyOp53
 70
     1
102
RTVSPropertyOp54
 70
     1
102
RTVSPropertyOp55
 70
     1
102
RTVSPropertyOp56
 70
     1
102
RTVSPropertyOp57
 70
     1
102
RTVSPropertyOp58
 70
     1
102
RTVSPropertyOp59
 70
     1
102
RTVSPropertyOp60
 70
     1
102
RTVSPropertyOp61
 70
     1
102
RTVSPropertyOp62
 70
     1
  0
XRECORD
  5
D981
102
{ACAD_REACTORS
330
D980
102
}
330
D980
100
AcDbXrecord
280
     1
102
RTVSPost2010Prop28
280
     0
102
RTVSPost2010PropOp28
 70
     1
102
RTVSPost2010Prop29
280
     1
102
RTVSPost2010PropOp29
 70
     1
102
RTVSPost2010Prop30
280
     1
102
RTVSPost2010PropOp30
 70
     1
102
RTVSPost2010Prop31
280
     0
102
RTVSPost2010PropOp31
 70
     1
102
RTVSPost2010Prop32
280
     0
102
RTVSPost2010PropOp32
 70
     1
102
RTVSPost2010Prop33
280
     0
102
RTVSPost2010PropOp33
 70
     1
102
RTVSPost2010Prop34
280
     0
102
RTVSPost2010PropOp34
 70
     1
102
RTVSPost2010Prop35
280
     0
102
RTVSPost2010PropOp35
 70
     1
102
RTVSPost2010Prop36
280
     0
102
RTVSPost2010PropOp36
 70
     1
102
RTVSPost2010Prop37
 90
       50
102
RTVSPost2010PropOp37
 70
     1
102
RTVSPost2010Prop38
140
0.0
102
RTVSPost2010PropOp38
 70
     1
102
RTVSPost2010Prop39
140
1.0
102
RTVSPost2010PropOp39
 70
     1
102
RTVSPost2010Prop40
 90
        0
102
RTVSPost2010PropOp40
 70
     1
102
RTVSPost2010Prop41ColorIndex
 90
       18
102
RTVSPost2010Prop41ColorRGB
 90
        0
102
RTVSPost2010PropOp41
 70
     1
102
RTVSPost2010Prop42
 90
       50
102
RTVSPost2010PropOp42
 70
     1
102
RTVSPost2010Prop43
 90
        3
102
RTVSPost2010PropOp43
 70
     1
102
RTVSPost2010Prop44ColorIndex
 90
        5
102
RTVSPost2010Prop44ColorRGB
 90
      255
102
RTVSPost2010PropOp44
 70
     1
102
RTVSPost2010Prop45
280
     0
102
RTVSPost2010PropOp45
 70
     1
102
RTVSPost2010Prop46
 90
       50
102
RTVSPost2010PropOp46
 70
     1
102
RTVSPost2010Prop47
 90
       50
102
RTVSPost2010PropOp47
 70
     1
102
RTVSPost2010Prop48
 90
       50
102
RTVSPost2010PropOp48
 70
     1
102
RTVSPost2010Prop49
280
     0
102
RTVSPost2010PropOp49
 70
     1
102
RTVSPost2010Prop50
 90
       50
102
RTVSPost2010PropOp50
 70
     1
102
RTVSPost2010Prop51ColorIndex
 90
      256
102
RTVSPost2010Prop51ColorRGB
 90
-16777216
102
RTVSPost2010PropOp51
 70
     0
102
RTVSPost2010Prop52
140
1.0
102
RTVSPost2010PropOp52
 70
     0
102
RTVSPost2010Prop53
 90
        2
102
RTVSPost2010PropOp53
 70
     1
102
RTVSPost2010Prop54
  1
strokes_ogs.tif
102
RTVSPost2010PropOp54
 70
     1
102
RTVSPost2010Prop55
280
     0
102
RTVSPost2010PropOp55
 70
     1
102
RTVSPost2010Prop56
140
1.0
102
RTVSPost2010PropOp56
 70
     1
102
RTVSPost2010Prop57
140
1.0
102
RTVSPost2010PropOp57
 70
     1
102
RTVSPropertyOp0
 70
     1
102
RTVSPropertyOp1
 70
     1
102
RTVSPropertyOp2
 70
     1
102
RTVSPropertyOp3
 70
     1
102
RTVSPropertyOp4
 70
     1
102
RTVSPropertyOp5
 70
     1
102
RTVSPropertyOp6
 70
     1
102
RTVSPropertyOp7
 70
     1
102
RTVSPropertyOp8
 70
     1
102
RTVSPropertyOp9
 70
     1
102
RTVSPropertyOp10
 70
     1
102
RTVSPropertyOp11
 70
     1
102
RTVSPropertyOp12
 70
     1
102
RTVSPropertyOp13
 70
     1
102
RTVSPropertyOp14
 70
     1
102
RTVSPropertyOp15
 70
     1
102
RTVSPropertyOp16
 70
     1
102
RTVSPropertyOp17
 70
     1
102
RTVSPropertyOp18
 70
     1
102
RTVSPropertyOp19
 70
     1
102
RTVSPropertyOp20
 70
     1
102
RTVSPropertyOp21
 70
     1
102
RTVSPropertyOp22
 70
     1
102
RTVSPropertyOp23
 70
     1
102
RTVSPropertyOp24
 70
     1
102
RTVSPropertyOp25
 70
     1
102
RTVSPropertyOp26
 70
     1
102
RTVSPropertyOp27
 70
     1
102
RTVSPropertyOp28
 70
     1
102
RTVSPropertyOp29
 70
     1
102
RTVSPropertyOp30
 70
     1
102
RTVSPropertyOp31
 70
     1
102
RTVSPropertyOp32
 70
     1
102
RTVSPropertyOp33
 70
     1
102
RTVSPropertyOp34
 70
     1
102
RTVSPropertyOp35
 70
     1
102
RTVSPropertyOp36
 70
     1
102
RTVSPropertyOp37
 70
     1
102
RTVSPropertyOp38
 70
     1
102
RTVSPropertyOp39
 70
     1
102
RTVSPropertyOp40
 70
     1
102
RTVSPropertyOp41
 70
     1
102
RTVSPropertyOp42
 70
     1
102
RTVSPropertyOp43
 70
     1
102
RTVSPropertyOp44
 70
     1
102
RTVSPropertyOp45
 70
     1
102
RTVSPropertyOp46
 70
     1
102
RTVSPropertyOp47
 70
     1
102
RTVSPropertyOp48
 70
     1
102
RTVSPropertyOp49
 70
     1
102
RTVSPropertyOp50
 70
     1
102
RTVSPropertyOp51
 70
     0
102
RTVSPropertyOp52
 70
     0
102
RTVSPropertyOp53
 70
     1
102
RTVSPropertyOp54
 70
     1
102
RTVSPropertyOp55
 70
     1
102
RTVSPropertyOp56
 70
     1
102
RTVSPropertyOp57
 70
     1
102
RTVSPropertyOp58
 70
     1
102
RTVSPropertyOp59
 70
     1
102
RTVSPropertyOp60
 70
     1
102
RTVSPropertyOp61
 70
     1
102
RTVSPropertyOp62
 70
     1
  0
XRECORD
  5
D977
102
{ACAD_REACTORS
330
D976
102
}
330
D976
100
AcDbXrecord
280
     1
102
RTVSPost2010Prop28
280
     0
102
RTVSPost2010PropOp28
 70
     1
102
RTVSPost2010Prop29
280
     1
102
RTVSPost2010PropOp29
 70
     1
102
RTVSPost2010Prop30
280
     1
102
RTVSPost2010PropOp30
 70
     1
102
RTVSPost2010Prop31
280
     0
102
RTVSPost2010PropOp31
 70
     1
102
RTVSPost2010Prop32
280
     0
102
RTVSPost2010PropOp32
 70
     1
102
RTVSPost2010Prop33
280
     0
102
RTVSPost2010PropOp33
 70
     1
102
RTVSPost2010Prop34
280
     0
102
RTVSPost2010PropOp34
 70
     1
102
RTVSPost2010Prop35
280
     0
102
RTVSPost2010PropOp35
 70
     1
102
RTVSPost2010Prop36
280
     0
102
RTVSPost2010PropOp36
 70
     1
102
RTVSPost2010Prop37
 90
       50
102
RTVSPost2010PropOp37
 70
     1
102
RTVSPost2010Prop38
140
0.0
102
RTVSPost2010PropOp38
 70
     1
102
RTVSPost2010Prop39
140
1.0
102
RTVSPost2010PropOp39
 70
     1
102
RTVSPost2010Prop40
 90
        0
102
RTVSPost2010PropOp40
 70
     1
102
RTVSPost2010Prop41ColorIndex
 90
       18
102
RTVSPost2010Prop41ColorRGB
 90
        0
102
RTVSPost2010PropOp41
 70
     1
102
RTVSPost2010Prop42
 90
       50
102
RTVSPost2010PropOp42
 70
     1
102
RTVSPost2010Prop43
 90
        3
102
RTVSPost2010PropOp43
 70
     1
102
RTVSPost2010Prop44ColorIndex
 90
        5
102
RTVSPost2010Prop44ColorRGB
 90
      255
102
RTVSPost2010PropOp44
 70
     1
102
RTVSPost2010Prop45
280
     0
102
RTVSPost2010PropOp45
 70
     1
102
RTVSPost2010Prop46
 90
       50
102
RTVSPost2010PropOp46
 70
     1
102
RTVSPost2010Prop47
 90
       50
102
RTVSPost2010PropOp47
 70
     1
102
RTVSPost2010Prop48
 90
       50
102
RTVSPost2010PropOp48
 70
     1
102
RTVSPost2010Prop49
280
     0
102
RTVSPost2010PropOp49
 70
     1
102
RTVSPost2010Prop50
 90
       50
102
RTVSPost2010PropOp50
 70
     1
102
RTVSPost2010Prop51ColorIndex
 90
      256
102
RTVSPost2010Prop51ColorRGB
 90
-16777216
102
RTVSPost2010PropOp51
 70
     0
102
RTVSPost2010Prop52
140
1.0
102
RTVSPost2010PropOp52
 70
     0
102
RTVSPost2010Prop53
 90
        2
102
RTVSPost2010PropOp53
 70
     1
102
RTVSPost2010Prop54
  1
strokes_ogs.tif
102
RTVSPost2010PropOp54
 70
     1
102
RTVSPost2010Prop55
280
     0
102
RTVSPost2010PropOp55
 70
     1
102
RTVSPost2010Prop56
140
1.0
102
RTVSPost2010PropOp56
 70
     1
102
RTVSPost2010Prop57
140
1.0
102
RTVSPost2010PropOp57
 70
     1
102
RTVSPropertyOp0
 70
     1
102
RTVSPropertyOp1
 70
     1
102
RTVSPropertyOp2
 70
     1
102
RTVSPropertyOp3
 70
     1
102
RTVSPropertyOp4
 70
     1
102
RTVSPropertyOp5
 70
     1
102
RTVSPropertyOp6
 70
     1
102
RTVSPropertyOp7
 70
     1
102
RTVSPropertyOp8
 70
     1
102
RTVSPropertyOp9
 70
     1
102
RTVSPropertyOp10
 70
     1
102
RTVSPropertyOp11
 70
     1
102
RTVSPropertyOp12
 70
     1
102
RTVSPropertyOp13
 70
     1
102
RTVSPropertyOp14
 70
     1
102
RTVSPropertyOp15
 70
     1
102
RTVSPropertyOp16
 70
     1
102
RTVSPropertyOp17
 70
     1
102
RTVSPropertyOp18
 70
     1
102
RTVSPropertyOp19
 70
     1
102
RTVSPropertyOp20
 70
     1
102
RTVSPropertyOp21
 70
     1
102
RTVSPropertyOp22
 70
     1
102
RTVSPropertyOp23
 70
     1
102
RTVSPropertyOp24
 70
     1
102
RTVSPropertyOp25
 70
     1
102
RTVSPropertyOp26
 70
     1
102
RTVSPropertyOp27
 70
     1
102
RTVSPropertyOp28
 70
     1
102
RTVSPropertyOp29
 70
     1
102
RTVSPropertyOp30
 70
     1
102
RTVSPropertyOp31
 70
     1
102
RTVSPropertyOp32
 70
     1
102
RTVSPropertyOp33
 70
     1
102
RTVSPropertyOp34
 70
     1
102
RTVSPropertyOp35
 70
     1
102
RTVSPropertyOp36
 70
     1
102
RTVSPropertyOp37
 70
     1
102
RTVSPropertyOp38
 70
     1
102
RTVSPropertyOp39
 70
     1
102
RTVSPropertyOp40
 70
     1
102
RTVSPropertyOp41
 70
     1
102
RTVSPropertyOp42
 70
     1
102
RTVSPropertyOp43
 70
     1
102
RTVSPropertyOp44
 70
     1
102
RTVSPropertyOp45
 70
     1
102
RTVSPropertyOp46
 70
     1
102
RTVSPropertyOp47
 70
     1
102
RTVSPropertyOp48
 70
     1
102
RTVSPropertyOp49
 70
     1
102
RTVSPropertyOp50
 70
     1
102
RTVSPropertyOp51
 70
     0
102
RTVSPropertyOp52
 70
     0
102
RTVSPropertyOp53
 70
     1
102
RTVSPropertyOp54
 70
     1
102
RTVSPropertyOp55
 70
     1
102
RTVSPropertyOp56
 70
     1
102
RTVSPropertyOp57
 70
     1
102
RTVSPropertyOp58
 70
     1
102
RTVSPropertyOp59
 70
     1
102
RTVSPropertyOp60
 70
     1
102
RTVSPropertyOp61
 70
     1
102
RTVSPropertyOp62
 70
     1
  0
XRECORD
  5
D96B
102
{ACAD_REACTORS
330
D96A
102
}
330
D96A
100
AcDbXrecord
280
     1
102
RTVSPost2010Prop28
280
     0
102
RTVSPost2010PropOp28
 70
     1
102
RTVSPost2010Prop29
280
     1
102
RTVSPost2010PropOp29
 70
     1
102
RTVSPost2010Prop30
280
     1
102
RTVSPost2010PropOp30
 70
     1
102
RTVSPost2010Prop31
280
     0
102
RTVSPost2010PropOp31
 70
     1
102
RTVSPost2010Prop32
280
     0
102
RTVSPost2010PropOp32
 70
     1
102
RTVSPost2010Prop33
280
     0
102
RTVSPost2010PropOp33
 70
     1
102
RTVSPost2010Prop34
280
     0
102
RTVSPost2010PropOp34
 70
     1
102
RTVSPost2010Prop35
280
     0
102
RTVSPost2010PropOp35
 70
     1
102
RTVSPost2010Prop36
280
     0
102
RTVSPost2010PropOp36
 70
     1
102
RTVSPost2010Prop37
 90
       50
102
RTVSPost2010PropOp37
 70
     1
102
RTVSPost2010Prop38
140
0.0
102
RTVSPost2010PropOp38
 70
     1
102
RTVSPost2010Prop39
140
1.0
102
RTVSPost2010PropOp39
 70
     1
102
RTVSPost2010Prop40
 90
        0
102
RTVSPost2010PropOp40
 70
     1
102
RTVSPost2010Prop41ColorIndex
 90
       18
102
RTVSPost2010Prop41ColorRGB
 90
        0
102
RTVSPost2010PropOp41
 70
     1
102
RTVSPost2010Prop42
 90
       50
102
RTVSPost2010PropOp42
 70
     1
102
RTVSPost2010Prop43
 90
        3
102
RTVSPost2010PropOp43
 70
     1
102
RTVSPost2010Prop44ColorIndex
 90
        5
102
RTVSPost2010Prop44ColorRGB
 90
      255
102
RTVSPost2010PropOp44
 70
     1
102
RTVSPost2010Prop45
280
     0
102
RTVSPost2010PropOp45
 70
     1
102
RTVSPost2010Prop46
 90
       50
102
RTVSPost2010PropOp46
 70
     1
102
RTVSPost2010Prop47
 90
       50
102
RTVSPost2010PropOp47
 70
     1
102
RTVSPost2010Prop48
 90
       50
102
RTVSPost2010PropOp48
 70
     1
102
RTVSPost2010Prop49
280
     0
102
RTVSPost2010PropOp49
 70
     1
102
RTVSPost2010Prop50
 90
       50
102
RTVSPost2010PropOp50
 70
     1
102
RTVSPost2010Prop51ColorIndex
 90
      256
102
RTVSPost2010Prop51ColorRGB
 90
-16777216
102
RTVSPost2010PropOp51
 70
     0
102
RTVSPost2010Prop52
140
1.0
102
RTVSPost2010PropOp52
 70
     0
102
RTVSPost2010Prop53
 90
        2
102
RTVSPost2010PropOp53
 70
     1
102
RTVSPost2010Prop54
  1
strokes_ogs.tif
102
RTVSPost2010PropOp54
 70
     1
102
RTVSPost2010Prop55
280
     0
102
RTVSPost2010PropOp55
 70
     1
102
RTVSPost2010Prop56
140
1.0
102
RTVSPost2010PropOp56
 70
     1
102
RTVSPost2010Prop57
140
1.0
102
RTVSPost2010PropOp57
 70
     1
102
RTVSPropertyOp0
 70
     1
102
RTVSPropertyOp1
 70
     1
102
RTVSPropertyOp2
 70
     1
102
RTVSPropertyOp3
 70
     1
102
RTVSPropertyOp4
 70
     1
102
RTVSPropertyOp5
 70
     1
102
RTVSPropertyOp6
 70
     1
102
RTVSPropertyOp7
 70
     1
102
RTVSPropertyOp8
 70
     1
102
RTVSPropertyOp9
 70
     1
102
RTVSPropertyOp10
 70
     1
102
RTVSPropertyOp11
 70
     1
102
RTVSPropertyOp12
 70
     1
102
RTVSPropertyOp13
 70
     1
102
RTVSPropertyOp14
 70
     1
102
RTVSPropertyOp15
 70
     1
102
RTVSPropertyOp16
 70
     1
102
RTVSPropertyOp17
 70
     1
102
RTVSPropertyOp18
 70
     1
102
RTVSPropertyOp19
 70
     1
102
RTVSPropertyOp20
 70
     1
102
RTVSPropertyOp21
 70
     1
102
RTVSPropertyOp22
 70
     1
102
RTVSPropertyOp23
 70
     1
102
RTVSPropertyOp24
 70
     1
102
RTVSPropertyOp25
 70
     1
102
RTVSPropertyOp26
 70
     1
102
RTVSPropertyOp27
 70
     1
102
RTVSPropertyOp28
 70
     1
102
RTVSPropertyOp29
 70
     1
102
RTVSPropertyOp30
 70
     1
102
RTVSPropertyOp31
 70
     1
102
RTVSPropertyOp32
 70
     1
102
RTVSPropertyOp33
 70
     1
102
RTVSPropertyOp34
 70
     1
102
RTVSPropertyOp35
 70
     1
102
RTVSPropertyOp36
 70
     1
102
RTVSPropertyOp37
 70
     1
102
RTVSPropertyOp38
 70
     1
102
RTVSPropertyOp39
 70
     1
102
RTVSPropertyOp40
 70
     1
102
RTVSPropertyOp41
 70
     1
102
RTVSPropertyOp42
 70
     1
102
RTVSPropertyOp43
 70
     1
102
RTVSPropertyOp44
 70
     1
102
RTVSPropertyOp45
 70
     1
102
RTVSPropertyOp46
 70
     1
102
RTVSPropertyOp47
 70
     1
102
RTVSPropertyOp48
 70
     1
102
RTVSPropertyOp49
 70
     1
102
RTVSPropertyOp50
 70
     1
102
RTVSPropertyOp51
 70
     0
102
RTVSPropertyOp52
 70
     0
102
RTVSPropertyOp53
 70
     1
102
RTVSPropertyOp54
 70
     1
102
RTVSPropertyOp55
 70
     1
102
RTVSPropertyOp56
 70
     1
102
RTVSPropertyOp57
 70
     1
102
RTVSPropertyOp58
 70
     1
102
RTVSPropertyOp59
 70
     1
102
RTVSPropertyOp60
 70
     1
102
RTVSPropertyOp61
 70
     1
102
RTVSPropertyOp62
 70
     1
  0
XRECORD
  5
D983
102
{ACAD_REACTORS
330
D982
102
}
330
D982
100
AcDbXrecord
280
     1
102
RTVSPost2010Prop28
280
     0
102
RTVSPost2010PropOp28
 70
     1
102
RTVSPost2010Prop29
280
     1
102
RTVSPost2010PropOp29
 70
     1
102
RTVSPost2010Prop30
280
     1
102
RTVSPost2010PropOp30
 70
     1
102
RTVSPost2010Prop31
280
     0
102
RTVSPost2010PropOp31
 70
     1
102
RTVSPost2010Prop32
280
     0
102
RTVSPost2010PropOp32
 70
     1
102
RTVSPost2010Prop33
280
     0
102
RTVSPost2010PropOp33
 70
     1
102
RTVSPost2010Prop34
280
     0
102
RTVSPost2010PropOp34
 70
     1
102
RTVSPost2010Prop35
280
     0
102
RTVSPost2010PropOp35
 70
     1
102
RTVSPost2010Prop36
280
     0
102
RTVSPost2010PropOp36
 70
     1
102
RTVSPost2010Prop37
 90
       50
102
RTVSPost2010PropOp37
 70
     1
102
RTVSPost2010Prop38
140
0.0
102
RTVSPost2010PropOp38
 70
     1
102
RTVSPost2010Prop39
140
1.0
102
RTVSPost2010PropOp39
 70
     1
102
RTVSPost2010Prop40
 90
        0
102
RTVSPost2010PropOp40
 70
     1
102
RTVSPost2010Prop41ColorIndex
 90
       18
102
RTVSPost2010Prop41ColorRGB
 90
        0
102
RTVSPost2010PropOp41
 70
     1
102
RTVSPost2010Prop42
 90
       50
102
RTVSPost2010PropOp42
 70
     1
102
RTVSPost2010Prop43
 90
        3
102
RTVSPost2010PropOp43
 70
     1
102
RTVSPost2010Prop44ColorIndex
 90
        5
102
RTVSPost2010Prop44ColorRGB
 90
      255
102
RTVSPost2010PropOp44
 70
     1
102
RTVSPost2010Prop45
280
     0
102
RTVSPost2010PropOp45
 70
     1
102
RTVSPost2010Prop46
 90
       50
102
RTVSPost2010PropOp46
 70
     1
102
RTVSPost2010Prop47
 90
       50
102
RTVSPost2010PropOp47
 70
     1
102
RTVSPost2010Prop48
 90
       50
102
RTVSPost2010PropOp48
 70
     1
102
RTVSPost2010Prop49
280
     0
102
RTVSPost2010PropOp49
 70
     1
102
RTVSPost2010Prop50
 90
       50
102
RTVSPost2010PropOp50
 70
     1
102
RTVSPost2010Prop51ColorIndex
 90
      256
102
RTVSPost2010Prop51ColorRGB
 90
-16777216
102
RTVSPost2010PropOp51
 70
     0
102
RTVSPost2010Prop52
140
1.0
102
RTVSPost2010PropOp52
 70
     0
102
RTVSPost2010Prop53
 90
        2
102
RTVSPost2010PropOp53
 70
     1
102
RTVSPost2010Prop54
  1
strokes_ogs.tif
102
RTVSPost2010PropOp54
 70
     1
102
RTVSPost2010Prop55
280
     0
102
RTVSPost2010PropOp55
 70
     1
102
RTVSPost2010Prop56
140
1.0
102
RTVSPost2010PropOp56
 70
     1
102
RTVSPost2010Prop57
140
1.0
102
RTVSPost2010PropOp57
 70
     1
102
RTVSPropertyOp0
 70
     1
102
RTVSPropertyOp1
 70
     1
102
RTVSPropertyOp2
 70
     1
102
RTVSPropertyOp3
 70
     1
102
RTVSPropertyOp4
 70
     1
102
RTVSPropertyOp5
 70
     1
102
RTVSPropertyOp6
 70
     1
102
RTVSPropertyOp7
 70
     1
102
RTVSPropertyOp8
 70
     1
102
RTVSPropertyOp9
 70
     1
102
RTVSPropertyOp10
 70
     1
102
RTVSPropertyOp11
 70
     1
102
RTVSPropertyOp12
 70
     1
102
RTVSPropertyOp13
 70
     1
102
RTVSPropertyOp14
 70
     1
102
RTVSPropertyOp15
 70
     1
102
RTVSPropertyOp16
 70
     1
102
RTVSPropertyOp17
 70
     1
102
RTVSPropertyOp18
 70
     1
102
RTVSPropertyOp19
 70
     1
102
RTVSPropertyOp20
 70
     1
102
RTVSPropertyOp21
 70
     1
102
RTVSPropertyOp22
 70
     1
102
RTVSPropertyOp23
 70
     1
102
RTVSPropertyOp24
 70
     1
102
RTVSPropertyOp25
 70
     1
102
RTVSPropertyOp26
 70
     1
102
RTVSPropertyOp27
 70
     1
102
RTVSPropertyOp28
 70
     1
102
RTVSPropertyOp29
 70
     1
102
RTVSPropertyOp30
 70
     1
102
RTVSPropertyOp31
 70
     1
102
RTVSPropertyOp32
 70
     1
102
RTVSPropertyOp33
 70
     1
102
RTVSPropertyOp34
 70
     1
102
RTVSPropertyOp35
 70
     1
102
RTVSPropertyOp36
 70
     1
102
RTVSPropertyOp37
 70
     1
102
RTVSPropertyOp38
 70
     1
102
RTVSPropertyOp39
 70
     1
102
RTVSPropertyOp40
 70
     1
102
RTVSPropertyOp41
 70
     1
102
RTVSPropertyOp42
 70
     1
102
RTVSPropertyOp43
 70
     1
102
RTVSPropertyOp44
 70
     1
102
RTVSPropertyOp45
 70
     1
102
RTVSPropertyOp46
 70
     1
102
RTVSPropertyOp47
 70
     1
102
RTVSPropertyOp48
 70
     1
102
RTVSPropertyOp49
 70
     1
102
RTVSPropertyOp50
 70
     1
102
RTVSPropertyOp51
 70
     0
102
RTVSPropertyOp52
 70
     0
102
RTVSPropertyOp53
 70
     1
102
RTVSPropertyOp54
 70
     1
102
RTVSPropertyOp55
 70
     1
102
RTVSPropertyOp56
 70
     1
102
RTVSPropertyOp57
 70
     1
102
RTVSPropertyOp58
 70
     1
102
RTVSPropertyOp59
 70
     1
102
RTVSPropertyOp60
 70
     1
102
RTVSPropertyOp61
 70
     1
102
RTVSPropertyOp62
 70
     1
  0
ENDSEC
  0
EOF
