  0
SECTION
  2
HEADER
  9
$ACADVER
  1
AC1018
  9
$ACADMAINTVER
 70
   104
  9
$DWGCODEPAGE
  3
ANSI_932
  9
$LASTSAVEDBY
  1
yano27
  9
$INSBASE
 10
0.0
 20
0.0
 30
0.0
  9
$EXTMIN
 10
-0.2718991736492171
 20
-0.1922519409645247
 30
-0.0000000349181948
  9
$EXTMAX
 10
4455.271940665341
 20
3150.192281278524
 30
0.0000000814935746
  9
$LIMMIN
 10
0.0
 20
0.0
  9
$LIMMAX
 10
4455.0
 20
3150.0
  9
$ORTHOMODE
 70
     0
  9
$REGENMODE
 70
     1
  9
$FILLMODE
 70
     1
  9
$QTEXTMODE
 70
     0
  9
$MIRRTEXT
 70
     1
  9
$LTSCALE
 40
15.0
  9
$ATTMODE
 70
     1
  9
$TEXTSIZE
 40
0.2
  9
$TRACEWID
 40
0.05
  9
$TEXTSTYLE
  7
寸法ｽﾀｲﾙ
  9
$CLAYER
  8
03-隠れ線
  9
$CELTYPE
  6
ByLayer
  9
$CECOLOR
 62
   256
  9
$CELTSCALE
 40
4.0
  9
$DISPSILH
 70
     0
  9
$DIMSCALE
 40
15.0
  9
$DIMASZ
 40
2.0
  9
$DIMEXO
 40
1.0
  9
$DIMDLI
 40
6.0
  9
$DIMRND
 40
0.0
  9
$DIMDLE
 40
0.0
  9
$DIMEXE
 40
1.0
  9
$DIMTP
 40
0.0
  9
$DIMTM
 40
0.0
  9
$DIMTXT
 40
3.0
  9
$DIMCEN
 40
1.0
  9
$DIMTSZ
 40
0.0
  9
$DIMTOL
 70
     0
  9
$DIMLIM
 70
     0
  9
$DIMTIH
 70
     0
  9
$DIMTOH
 70
     0
  9
$DIMSE1
 70
     0
  9
$DIMSE2
 70
     0
  9
$DIMTAD
 70
     1
  9
$DIMZIN
 70
     8
  9
$DIMBLK
  1
Open
  9
$DIMASO
 70
     1
  9
$DIMSHO
 70
     1
  9
$DIMPOST
  1

  9
$DIMAPOST
  1

  9
$DIMALT
 70
     0
  9
$DIMALTD
 70
     2
  9
$DIMALTF
 40
25.4
  9
$DIMLFAC
 40
1.0
  9
$DIMTOFL
 70
     1
  9
$DIMTVP
 40
0.0
  9
$DIMTIX
 70
     1
  9
$DIMSOXD
 70
     0
  9
$DIMSAH
 70
     0
  9
$DIMBLK1
  1

  9
$DIMBLK2
  1

  9
$DIMSTYLE
  2
ｽﾀｲﾙ15
  9
$DIMCLRD
 70
     4
  9
$DIMCLRE
 70
     4
  9
$DIMCLRT
 70
     4
  9
$DIMTFAC
 40
1.0
  9
$DIMGAP
 40
0.5
  9
$DIMJUST
 70
     0
  9
$DIMSD1
 70
     0
  9
$DIMSD2
 70
     0
  9
$DIMTOLJ
 70
     1
  9
$DIMTZIN
 70
     0
  9
$DIMALTZ
 70
     0
  9
$DIMALTTZ
 70
     0
  9
$DIMUPT
 70
     0
  9
$DIMDEC
 70
     1
  9
$DIMTDEC
 70
     1
  9
$DIMALTU
 70
     2
  9
$DIMALTTD
 70
     2
  9
$DIMTXSTY
  7
寸法ｽﾀｲﾙ
  9
$DIMAUNIT
 70
     0
  9
$DIMADEC
 70
     0
  9
$DIMALTRND
 40
0.0
  9
$DIMAZIN
 70
     0
  9
$DIMDSEP
 70
    46
  9
$DIMATFIT
 70
     3
  9
$DIMFRAC
 70
     0
  9
$DIMLDRBLK
  1
Open
  9
$DIMLUNIT
 70
     2
  9
$DIMLWD
 70
    13
  9
$DIMLWE
 70
    13
  9
$DIMTMOVE
 70
     2
  9
$LUNITS
 70
     2
  9
$LUPREC
 70
     4
  9
$SKETCHINC
 40
0.1
  9
$FILLETRAD
 40
0.0
  9
$AUNITS
 70
     0
  9
$AUPREC
 70
     0
  9
$MENU
  1
.
  9
$ELEVATION
 40
0.0
  9
$PELEVATION
 40
0.0
  9
$THICKNESS
 40
0.0
  9
$LIMCHECK
 70
     0
  9
$CHAMFERA
 40
0.0
  9
$CHAMFERB
 40
0.0
  9
$CHAMFERC
 40
0.0
  9
$CHAMFERD
 40
0.0
  9
$SKPOLY
 70
     0
  9
$TDCREATE
 40
2456010.735749421
  9
$TDUCREATE
 40
2456010.360749421
  9
$TDUPDATE
 40
2457484.420681979
  9
$TDUUPDATE
 40
2457484.045681979
  9
$TDINDWG
 40
0.2964046528
  9
$TDUSRTIMER
 40
0.2964046528
  9
$USRTIMER
 70
     1
  9
$ANGBASE
 50
0.0
  9
$ANGDIR
 70
     0
  9
$PDMODE
 70
     0
  9
$PDSIZE
 40
0.0
  9
$PLINEWID
 40
0.0
  9
$SPLFRAME
 70
     0
  9
$SPLINETYPE
 70
     6
  9
$SPLINESEGS
 70
     8
  9
$HANDSEED
  5
1D82
  9
$SURFTAB1
 70
     6
  9
$SURFTAB2
 70
     6
  9
$SURFTYPE
 70
     6
  9
$SURFU
 70
     6
  9
$SURFV
 70
     6
  9
$UCSBASE
  2

  9
$UCSNAME
  2

  9
$UCSORG
 10
0.0
 20
0.0
 30
0.0
  9
$UCSXDIR
 10
1.0
 20
0.0
 30
0.0
  9
$UCSYDIR
 10
0.0
 20
1.0
 30
0.0
  9
$UCSORTHOREF
  2

  9
$UCSORTHOVIEW
 70
     0
  9
$UCSORGTOP
 10
0.0
 20
0.0
 30
0.0
  9
$UCSORGBOTTOM
 10
0.0
 20
0.0
 30
0.0
  9
$UCSORGLEFT
 10
0.0
 20
0.0
 30
0.0
  9
$UCSORGRIGHT
 10
0.0
 20
0.0
 30
0.0
  9
$UCSORGFRONT
 10
0.0
 20
0.0
 30
0.0
  9
$UCSORGBACK
 10
0.0
 20
0.0
 30
0.0
  9
$PUCSBASE
  2

  9
$PUCSNAME
  2

  9
$PUCSORG
 10
0.0
 20
0.0
 30
0.0
  9
$PUCSXDIR
 10
1.0
 20
0.0
 30
0.0
  9
$PUCSYDIR
 10
0.0
 20
1.0
 30
0.0
  9
$PUCSORTHOREF
  2

  9
$PUCSORTHOVIEW
 70
     0
  9
$PUCSORGTOP
 10
0.0
 20
0.0
 30
0.0
  9
$PUCSORGBOTTOM
 10
0.0
 20
0.0
 30
0.0
  9
$PUCSORGLEFT
 10
0.0
 20
0.0
 30
0.0
  9
$PUCSORGRIGHT
 10
0.0
 20
0.0
 30
0.0
  9
$PUCSORGFRONT
 10
0.0
 20
0.0
 30
0.0
  9
$PUCSORGBACK
 10
0.0
 20
0.0
 30
0.0
  9
$USERI1
 70
     0
  9
$USERI2
 70
     0
  9
$USERI3
 70
     0
  9
$USERI4
 70
     0
  9
$USERI5
 70
     0
  9
$USERR1
 40
0.0
  9
$USERR2
 40
0.0
  9
$USERR3
 40
0.0
  9
$USERR4
 40
0.0
  9
$USERR5
 40
0.0
  9
$WORLDVIEW
 70
     1
  9
$SHADEDGE
 70
     3
  9
$SHADEDIF
 70
    70
  9
$TILEMODE
 70
     1
  9
$MAXACTVP
 70
    64
  9
$PINSBASE
 10
0.0
 20
0.0
 30
0.0
  9
$PLIMCHECK
 70
     0
  9
$PEXTMIN
 10
1.000000000000000E+20
 20
1.000000000000000E+20
 30
1.000000000000000E+20
  9
$PEXTMAX
 10
-1.000000000000000E+20
 20
-1.000000000000000E+20
 30
-1.000000000000000E+20
  9
$PLIMMIN
 10
0.0
 20
0.0
  9
$PLIMMAX
 10
12.0
 20
9.0
  9
$UNITMODE
 70
     0
  9
$VISRETAIN
 70
     1
  9
$PLINEGEN
 70
     0
  9
$PSLTSCALE
 70
     1
  9
$TREEDEPTH
 70
  3020
  9
$CMLSTYLE
  2
Standard
  9
$CMLJUST
 70
     0
  9
$CMLSCALE
 40
1.0
  9
$PROXYGRAPHICS
 70
     1
  9
$MEASUREMENT
 70
     0
  9
$CELWEIGHT
370
    -1
  9
$ENDCAPS
280
     0
  9
$JOINSTYLE
280
     0
  9
$LWDISPLAY
290
     0
  9
$INSUNITS
 70
     0
  9
$HYPERLINKBASE
  1

  9
$STYLESHEET
  1
monochrome.ctb
  9
$XEDIT
290
     1
  9
$CEPSNTYPE
380
     0
  9
$PSTYLEMODE
290
     1
  9
$FINGERPRINTGUID
  2
{EC9F4DA5-0703-4A39-BF55-D52823871584}
  9
$VERSIONGUID
  2
{0F0CB77D-C835-405F-BE38-94F1305C7323}
  9
$EXTNAMES
290
     1
  9
$PSVPSCALE
 40
0.0
  9
$OLESTARTUP
290
     0
  9
$SORTENTS
280
   127
  9
$INDEXCTL
280
     0
  9
$HIDETEXT
280
     0
  9
$XCLIPFRAME
290
     0
  9
$HALOGAP
280
     0
  9
$OBSCOLOR
 70
   257
  9
$OBSLTYPE
280
     0
  9
$INTERSECTIONDISPLAY
280
     0
  9
$INTERSECTIONCOLOR
 70
   257
  9
$DIMASSOC
280
     1
  9
$PROJECTNAME
  1

  0
ENDSEC
  0
SECTION
  2
CLASSES
  0
CLASS
  1
ACDBDICTIONARYWDFLT
  2
AcDbDictionaryWithDefault
  3
ObjectDBX Classes
 90
        0
 91
        1
280
     0
281
     0
  0
CLASS
  1
DICTIONARYVAR
  2
AcDbDictionaryVar
  3
ObjectDBX Classes
 90
        0
 91
        7
280
     0
281
     0
  0
CLASS
  1
MATERIAL
  2
AcDbMaterial
  3
ObjectDBX Classes
 90
     1153
 91
        3
280
     0
281
     0
  0
CLASS
  1
VISUALSTYLE
  2
AcDbVisualStyle
  3
ObjectDBX Classes
 90
     4095
 91
       24
280
     0
281
     0
  0
CLASS
  1
TABLESTYLE
  2
AcDbTableStyle
  3
ObjectDBX Classes
 90
     4095
 91
        1
280
     0
281
     0
  0
CLASS
  1
SCALE
  2
AcDbScale
  3
ObjectDBX Classes
 90
     1153
 91
       17
280
     0
281
     0
  0
CLASS
  1
MLEADERSTYLE
  2
AcDbMLeaderStyle
  3
ACDB_MLEADERSTYLE_CLASS
 90
     4095
 91
        1
280
     0
281
     0
  0
CLASS
  1
ACDBSECTIONVIEWSTYLE
  2
AcDbSectionViewStyle
  3
ObjectDBX Classes
 90
     1025
 91
        1
280
     0
281
     0
  0
CLASS
  1
ACDBDETAILVIEWSTYLE
  2
AcDbDetailViewStyle
  3
ObjectDBX Classes
 90
     1025
 91
        1
280
     0
281
     0
  0
CLASS
  1
CELLSTYLEMAP
  2
AcDbCellStyleMap
  3
ObjectDBX Classes
 90
     1152
 91
        1
280
     0
281
     0
  0
ENDSEC
  0
SECTION
  2
TABLES
  0
TABLE
  2
VPORT
  5
8
330
0
100
AcDbSymbolTable
 70
     1
  0
VPORT
  5
1CC4
330
8
100
AcDbSymbolTableRecord
100
AcDbViewportTableRecord
  2
*Active
 70
     0
 10
0.0
 20
0.0
 11
1.0
 21
1.0
 12
2371.187672293589
 22
1575.000007334166
 13
0.0
 23
0.0
 14
1.0
 24
1.0
 15
0.0
 25
0.0
 16
0.0
 26
0.0
 36
1.0
 17
0.0
 27
0.0
 37
0.0
 40
3174.931990538818
 41
1.606896551724138
 42
50.0
 43
0.0
 44
0.0
 50
0.0
 51
0.0
 71
     0
 72
   100
 73
     1
 74
     1
 75
     0
 76
     0
 77
     0
 78
     0
281
     0
 65
     1
110
0.0
120
0.0
130
0.0
111
1.0
121
0.0
131
0.0
112
0.0
122
1.0
132
0.0
 79
     0
146
0.0
1001
ACAD_NAV_VCDISPLAY
1070
     3
  0
ENDTAB
  0
TABLE
  2
LTYPE
  5
5
330
0
100
AcDbSymbolTable
 70
    36
  0
LTYPE
  5
13
330
5
100
AcDbSymbolTableRecord
100
AcDbLinetypeTableRecord
  2
ByBlock
 70
     0
  3

 72
    65
 73
     0
 40
0.0
  0
LTYPE
  5
14
330
5
100
AcDbSymbolTableRecord
100
AcDbLinetypeTableRecord
  2
ByLayer
 70
     0
  3

 72
    65
 73
     0
 40
0.0
  0
LTYPE
  5
15
330
5
100
AcDbSymbolTableRecord
100
AcDbLinetypeTableRecord
  2
CONTINUOUS
 70
     0
  3
実線
 72
    65
 73
     0
 40
0.0
  0
LTYPE
  5
22
330
5
100
AcDbSymbolTableRecord
100
AcDbLinetypeTableRecord
  2
DASHED1
 70
     0
  3
--  --  --  --  --  --  --  --  
 72
    65
 73
     2
 40
2.5
 49
1.25
 74
     0
 49
-1.25
 74
     0
  0
LTYPE
  5
23
330
5
100
AcDbSymbolTableRecord
100
AcDbLinetypeTableRecord
  2
DASHED2
 70
     0
  3
----    ----    ----    ----    
 72
    65
 73
     2
 40
5.0
 49
2.5
 74
     0
 49
-2.5
 74
     0
  0
LTYPE
  5
24
330
5
100
AcDbSymbolTableRecord
100
AcDbLinetypeTableRecord
  2
DASHED3
 70
     0
  3
------  ------  ------  ------  
 72
    65
 73
     2
 40
5.0
 49
3.75
 74
     0
 49
-1.25
 74
     0
  0
LTYPE
  5
25
330
5
100
AcDbSymbolTableRecord
100
AcDbLinetypeTableRecord
  2
CENTER1
 70
     0
  3
----- - ----- - ----- - ----- - 
 72
    65
 73
     4
 40
10.0
 49
6.25
 74
     0
 49
-1.25
 74
     0
 49
1.25
 74
     0
 49
-1.25
 74
     0
  0
LTYPE
  5
26
330
5
100
AcDbSymbolTableRecord
100
AcDbLinetypeTableRecord
  2
CENTER2
 70
     0
  3
----------  --  ----------  --  
 72
    65
 73
     4
 40
20.0
 49
12.5
 74
     0
 49
-2.5
 74
     0
 49
2.5
 74
     0
 49
-2.5
 74
     0
  0
LTYPE
  5
27
330
5
100
AcDbSymbolTableRecord
100
AcDbLinetypeTableRecord
  2
PHANTOM1
 70
     0
  3
--- - - --- - - --- - - --- - - 
 72
    65
 73
     6
 40
10.0
 49
3.25
 74
     0
 49
-1.25
 74
     0
 49
1.25
 74
     0
 49
-1.25
 74
     0
 49
1.25
 74
     0
 49
-1.25
 74
     0
  0
LTYPE
  5
28
330
5
100
AcDbSymbolTableRecord
100
AcDbLinetypeTableRecord
  2
PHANTOM2
 70
     0
  3
--------  -  -  --------  -  -  
 72
    65
 73
     6
 40
20.0
 49
10.0
 74
     0
 49
-2.5
 74
     0
 49
1.25
 74
     0
 49
-2.5
 74
     0
 49
1.25
 74
     0
 49
-2.5
 74
     0
  0
LTYPE
  5
29
330
5
100
AcDbSymbolTableRecord
100
AcDbLinetypeTableRecord
  2
DOT
 70
     0
  3
-   -   -   -   -   -   -   -   
 72
    65
 73
     2
 40
2.5
 49
0.625
 74
     0
 49
-1.875
 74
     0
  0
LTYPE
  5
2A
330
5
100
AcDbSymbolTableRecord
100
AcDbLinetypeTableRecord
  2
DUMMY
 70
     0
  3
ダミー
 72
    65
 73
     0
 40
0.0
  0
LTYPE
  5
2B
330
5
100
AcDbSymbolTableRecord
100
AcDbLinetypeTableRecord
  2
RAND1
 70
     0
  3
ランダム線1
 72
    65
 73
     4
 40
10.0
 49
1.0
 74
     0
 49
-2.0
 74
     0
 49
3.0
 74
     0
 49
-4.0
 74
     0
  0
LTYPE
  5
2C
330
5
100
AcDbSymbolTableRecord
100
AcDbLinetypeTableRecord
  2
RAND2
 70
     0
  3
ランダム線2
 72
    65
 73
     4
 40
14.0
 49
2.0
 74
     0
 49
-3.0
 74
     0
 49
4.0
 74
     0
 49
-5.0
 74
     0
  0
LTYPE
  5
2D
330
5
100
AcDbSymbolTableRecord
100
AcDbLinetypeTableRecord
  2
RAND3
 70
     0
  3
ランダム線3
 72
    65
 73
     4
 40
18.0
 49
3.0
 74
     0
 49
-4.0
 74
     0
 49
5.0
 74
     0
 49
-6.0
 74
     0
  0
LTYPE
  5
2E
330
5
100
AcDbSymbolTableRecord
100
AcDbLinetypeTableRecord
  2
RAND4
 70
     0
  3
ランダム線4
 72
    65
 73
     4
 40
22.0
 49
4.0
 74
     0
 49
-5.0
 74
     0
 49
6.0
 74
     0
 49
-7.0
 74
     0
  0
LTYPE
  5
2F
330
5
100
AcDbSymbolTableRecord
100
AcDbLinetypeTableRecord
  2
RAND5
 70
     0
  3
ランダム線5
 72
    65
 73
     4
 40
26.0
 49
5.0
 74
     0
 49
-6.0
 74
     0
 49
7.0
 74
     0
 49
-8.0
 74
     0
  0
LTYPE
  5
30
330
5
100
AcDbSymbolTableRecord
100
AcDbLinetypeTableRecord
  2
LONG1
 70
     0
  3
----------  --  ----------  --  
 72
    65
 73
     4
 40
40.0
 49
32.5
 74
     0
 49
-2.5
 74
     0
 49
2.5
 74
     0
 49
-2.5
 74
     0
  0
LTYPE
  5
31
330
5
100
AcDbSymbolTableRecord
100
AcDbLinetypeTableRecord
  2
LONG2
 70
     0
  3
--------  -  -  --------  -  -  
 72
    65
 73
     6
 40
40.0
 49
30.0
 74
     0
 49
-2.5
 74
     0
 49
1.25
 74
     0
 49
-2.5
 74
     0
 49
1.25
 74
     0
 49
-2.5
 74
     0
  0
LTYPE
  5
32
330
5
100
AcDbSymbolTableRecord
100
AcDbLinetypeTableRecord
  2
LONG3
 70
     0
  3
+++++++++++++++..+++++++++++++++
 72
    65
 73
     2
 40
40.0
 49
37.5
 74
     0
 49
-2.5
 74
     0
  0
LTYPE
  5
33
330
5
100
AcDbSymbolTableRecord
100
AcDbLinetypeTableRecord
  2
LONG4
 70
     0
  3
+++++++++++++++..+++++++++++++++
 72
    65
 73
     2
 40
80.0
 49
75.0
 74
     0
 49
-5.0
 74
     0
  0
LTYPE
  5
34
330
5
100
AcDbSymbolTableRecord
100
AcDbLinetypeTableRecord
  2
LONG5
 70
     0
  3
----------  --  ----------  --  
 72
    65
 73
     4
 40
60.0
 49
37.5
 74
     0
 49
-7.5
 74
     0
 49
7.5
 74
     0
 49
-7.5
 74
     0
  0
LTYPE
  5
35
330
5
100
AcDbSymbolTableRecord
100
AcDbLinetypeTableRecord
  2
DASHED
 70
     0
  3
-------   -------------   ------
 72
    65
 73
     2
 40
7.5
 49
6.0
 74
     0
 49
-1.5
 74
     0
  0
LTYPE
  5
36
330
5
100
AcDbSymbolTableRecord
100
AcDbLinetypeTableRecord
  2
DASHED_SPACED
 70
     0
  3
----        --------        ----
 72
    65
 73
     2
 40
12.0
 49
6.0
 74
     0
 49
-6.0
 74
     0
  0
LTYPE
  5
37
330
5
100
AcDbSymbolTableRecord
100
AcDbLinetypeTableRecord
  2
LONG_DASHED_DOTTED
 70
     0
  3
------------- --- --------------
 72
    65
 73
     4
 40
15.25
 49
12.0
 74
     0
 49
-1.5
 74
     0
 49
0.25
 74
     0
 49
-1.5
 74
     0
  0
LTYPE
  5
38
330
5
100
AcDbSymbolTableRecord
100
AcDbLinetypeTableRecord
  2
LONG_DASHED_DOUBLE-DOTTED
 70
     0
  3
----------- --- --- ------------
 72
    65
 73
     6
 40
17.0
 49
12.0
 74
     0
 49
-1.5
 74
     0
 49
0.25
 74
     0
 49
-1.5
 74
     0
 49
0.25
 74
     0
 49
-1.5
 74
     0
  0
LTYPE
  5
39
330
5
100
AcDbSymbolTableRecord
100
AcDbLinetypeTableRecord
  2
LONG_DASHED_TRIPLICATE-DOTTED
 70
     0
  3
--------- --- --- --- ----------
 72
    65
 73
     8
 40
18.75
 49
12.0
 74
     0
 49
-1.5
 74
     0
 49
0.25
 74
     0
 49
-1.5
 74
     0
 49
0.25
 74
     0
 49
-1.5
 74
     0
 49
0.25
 74
     0
 49
-1.5
 74
     0
  0
LTYPE
  5
3A
330
5
100
AcDbSymbolTableRecord
100
AcDbLinetypeTableRecord
  2
DOTTED
 70
     0
  3
   -       -       -       -    
 72
    65
 73
     2
 40
1.75
 49
0.25
 74
     0
 49
-1.5
 74
     0
  0
LTYPE
  5
3B
330
5
100
AcDbSymbolTableRecord
100
AcDbLinetypeTableRecord
  2
CHAIN
 70
     0
  3
-------------- -- --------------
 72
    65
 73
     4
 40
18.5
 49
12.0
 74
     0
 49
-1.5
 74
     0
 49
3.5
 74
     0
 49
-1.5
 74
     0
  0
LTYPE
  5
3C
330
5
100
AcDbSymbolTableRecord
100
AcDbLinetypeTableRecord
  2
CHAIN_DOUBLE_DASH
 70
     0
  3
------------ -- -- -------------
 72
    65
 73
     6
 40
23.5
 49
12.0
 74
     0
 49
-1.5
 74
     0
 49
3.5
 74
     0
 49
-1.5
 74
     0
 49
3.5
 74
     0
 49
-1.5
 74
     0
  0
LTYPE
  5
3D
330
5
100
AcDbSymbolTableRecord
100
AcDbLinetypeTableRecord
  2
DASHED_DOTTED
 70
     0
  3
-----------     -     ----------
 72
    65
 73
     4
 40
9.25
 49
6.0
 74
     0
 49
-1.5
 74
     0
 49
0.25
 74
     0
 49
-1.5
 74
     0
  0
LTYPE
  5
3E
330
5
100
AcDbSymbolTableRecord
100
AcDbLinetypeTableRecord
  2
DOUBLE-DASHED_DOTTED
 70
     0
  3
------   -----------   -   -----
 72
    65
 73
     6
 40
16.75
 49
6.0
 74
     0
 49
-1.5
 74
     0
 49
6.0
 74
     0
 49
-1.5
 74
     0
 49
0.25
 74
     0
 49
-1.5
 74
     0
  0
LTYPE
  5
3F
330
5
100
AcDbSymbolTableRecord
100
AcDbLinetypeTableRecord
  2
DASHED_DOUBLE-DOTTED
 70
     0
  3
---------    -    -    ---------
 72
    65
 73
     6
 40
11.0
 49
6.0
 74
     0
 49
-1.5
 74
     0
 49
0.25
 74
     0
 49
-1.5
 74
     0
 49
0.25
 74
     0
 49
-1.5
 74
     0
  0
LTYPE
  5
40
330
5
100
AcDbSymbolTableRecord
100
AcDbLinetypeTableRecord
  2
DOUBLE-DASHED_DOUBLE-DOTTED
 70
     0
  3
-----   ---------   -   -   ----
 72
    65
 73
     8
 40
18.5
 49
6.0
 74
     0
 49
-1.5
 74
     0
 49
6.0
 74
     0
 49
-1.5
 74
     0
 49
0.25
 74
     0
 49
-1.5
 74
     0
 49
0.25
 74
     0
 49
-1.5
 74
     0
  0
LTYPE
  5
41
330
5
100
AcDbSymbolTableRecord
100
AcDbLinetypeTableRecord
  2
DASHED_TRIPLICATE-DOTTED
 70
     0
  3
-------    -    -    -    ------
 72
    65
 73
     8
 40
12.75
 49
6.0
 74
     0
 49
-1.5
 74
     0
 49
0.25
 74
     0
 49
-1.5
 74
     0
 49
0.25
 74
     0
 49
-1.5
 74
     0
 49
0.25
 74
     0
 49
-1.5
 74
     0
  0
LTYPE
  5
42
330
5
100
AcDbSymbolTableRecord
100
AcDbLinetypeTableRecord
  2
DOUBLE-DASHED_TRIPLICATE-DOTTED
 70
     0
  3
-----  ---------  -  -  -  -----
 72
    65
 73
    10
 40
20.25
 49
6.0
 74
     0
 49
-1.5
 74
     0
 49
6.0
 74
     0
 49
-1.5
 74
     0
 49
0.25
 74
     0
 49
-1.5
 74
     0
 49
0.25
 74
     0
 49
-1.5
 74
     0
 49
0.25
 74
     0
 49
-1.5
 74
     0
  0
LTYPE
  5
43
330
5
100
AcDbSymbolTableRecord
100
AcDbLinetypeTableRecord
  2
UNDEFINED
 70
     0
  3
--------------------------------
 72
    65
 73
     0
 40
0.0
  0
LTYPE
  5
4F5
330
5
100
AcDbSymbolTableRecord
100
AcDbLinetypeTableRecord
  2
HIDDEN
 70
     0
  3
Hidden __ __ __ __ __ __ __ __ __ __ __ __ __ _
 72
    65
 73
     2
 40
0.375
 49
0.25
 74
     0
 49
-0.125
 74
     0
  0
ENDTAB
  0
TABLE
  2
LAYER
  5
2
102
{ACAD_XDICTIONARY
360
A51
102
}
330
0
100
AcDbSymbolTable
 70
    15
  0
LAYER
  5
10
102
{ACAD_XDICTIONARY
360
1D1C
102
}
330
2
100
AcDbSymbolTableRecord
100
AcDbLayerTableRecord
  2
0
 70
     0
 62
     5
  6
CONTINUOUS
370
    -3
390
F
  0
LAYER
  5
45
102
{ACAD_XDICTIONARY
360
1D1E
102
}
330
2
100
AcDbSymbolTableRecord
100
AcDbLayerTableRecord
  2
01-寸法線
 70
     0
 62
     4
  6
CONTINUOUS
370
    13
390
F
  0
LAYER
  5
46
102
{ACAD_XDICTIONARY
360
1D20
102
}
330
2
100
AcDbSymbolTableRecord
100
AcDbLayerTableRecord
  2
02-外形線
 70
     0
 62
     7
  6
CONTINUOUS
370
    20
390
F
  0
LAYER
  5
426
330
2
100
AcDbSymbolTableRecord
100
AcDbLayerTableRecord
  2
Defpoints
 70
     0
 62
     8
  6
CONTINUOUS
290
     0
370
    -3
390
F
  0
LAYER
  5
4F6
102
{ACAD_XDICTIONARY
360
1D22
102
}
330
2
100
AcDbSymbolTableRecord
100
AcDbLayerTableRecord
  2
03-隠れ線
 70
     0
 62
     7
  6
HIDDEN
370
    20
390
F
  0
LAYER
  5
4F7
102
{ACAD_XDICTIONARY
360
1D24
102
}
330
2
100
AcDbSymbolTableRecord
100
AcDbLayerTableRecord
  2
04-鉄筋線
 70
     0
 62
     1
  6
CONTINUOUS
370
    40
390
F
  0
LAYER
  5
4F8
102
{ACAD_XDICTIONARY
360
1D26
102
}
330
2
100
AcDbSymbolTableRecord
100
AcDbLayerTableRecord
  2
05-鉄筋線
 70
     0
 62
     1
  6
DASHED3
370
    40
390
F
  0
LAYER
  5
4F9
102
{ACAD_XDICTIONARY
360
1D28
102
}
330
2
100
AcDbSymbolTableRecord
100
AcDbLayerTableRecord
  2
06-中心線
 70
     0
 62
     4
  6
CENTER2
370
    13
390
F
  0
LAYER
  5
4FA
102
{ACAD_XDICTIONARY
360
1D2A
102
}
330
2
100
AcDbSymbolTableRecord
100
AcDbLayerTableRecord
  2
07-中心線
 70
     0
 62
     4
  6
PHANTOM2
370
    13
390
F
  0
LAYER
  5
4FB
102
{ACAD_XDICTIONARY
360
1D2C
102
}
330
2
100
AcDbSymbolTableRecord
100
AcDbLayerTableRecord
  2
08-下線
 70
     0
 62
     3
  6
CONTINUOUS
370
    30
390
F
  0
LAYER
  5
4FC
102
{ACAD_XDICTIONARY
360
1D2E
102
}
330
2
100
AcDbSymbolTableRecord
100
AcDbLayerTableRecord
  2
09-下線
 70
     0
 62
     2
  6
CONTINUOUS
370
    50
390
F
  0
LAYER
  5
4FD
102
{ACAD_XDICTIONARY
360
1D30
102
}
330
2
100
AcDbSymbolTableRecord
100
AcDbLayerTableRecord
  2
10-罫線
 70
     0
 62
    30
  6
CONTINUOUS
370
    30
390
F
  0
LAYER
  5
4FE
102
{ACAD_XDICTIONARY
360
1D32
102
}
330
2
100
AcDbSymbolTableRecord
100
AcDbLayerTableRecord
  2
11-外枠線
 70
     0
 62
     6
  6
CONTINUOUS
370
    40
390
F
  0
LAYER
  5
4FF
102
{ACAD_XDICTIONARY
360
1D34
102
}
330
2
100
AcDbSymbolTableRecord
100
AcDbLayerTableRecord
  2
12-構築線
 70
     0
 62
     5
  6
CONTINUOUS
370
     0
390
F
  0
LAYER
  5
500
102
{ACAD_XDICTIONARY
360
1D36
102
}
330
2
100
AcDbSymbolTableRecord
100
AcDbLayerTableRecord
  2
13-Ｒ線
 70
     0
 62
    30
  6
CONTINUOUS
370
     0
390
F
  0
ENDTAB
  0
TABLE
  2
STYLE
  5
3
330
0
100
AcDbSymbolTable
 70
     6
  0
STYLE
  5
11
330
3
100
AcDbSymbolTableRecord
100
AcDbTextStyleTableRecord
  2
STANDARD
 70
     0
 40
0.0
 41
1.0
 50
0.0
 71
     0
 42
0.2
  3
txt
  4
bigfont.shx
  0
STYLE
  5
44
330
3
100
AcDbSymbolTableRecord
100
AcDbTextStyleTableRecord
  2
TATEGAKI
 70
     4
 40
0.0
 41
1.0
 50
0.0
 71
     0
 42
1.0
  3
txt
  4
bigfont.shx
  0
STYLE
  5
4F4
330
3
100
AcDbSymbolTableRecord
100
AcDbTextStyleTableRecord
  2

 70
     1
 40
0.0
 41
1.0
 50
0.0
 71
     0
 42
0.2
  3
ltypeshp.shx
  4

  0
STYLE
  5
980
330
3
100
AcDbSymbolTableRecord
100
AcDbTextStyleTableRecord
  2
ｵﾘｼﾞﾅﾙｽﾀｲﾙ
 70
     0
 40
0.0
 41
0.8
 50
0.0
 71
     0
 42
0.2
  3

  4

1001
ACAD
1000
ＭＳ 明朝
1071
    32785
  0
STYLE
  5
1BF4
330
3
100
AcDbSymbolTableRecord
100
AcDbTextStyleTableRecord
  2
寸法ｽﾀｲﾙ
 70
     0
 40
0.0
 41
0.8
 50
0.0
 71
     0
 42
0.2
  3
NSimSun.ttf
  4

1001
ACAD
1000
NSimSun
1071
       49
  0
ENDTAB
  0
TABLE
  2
VIEW
  5
6
330
0
100
AcDbSymbolTable
 70
     0
  0
ENDTAB
  0
TABLE
  2
UCS
  5
7
330
0
100
AcDbSymbolTable
 70
     0
  0
ENDTAB
  0
TABLE
  2
APPID
  5
9
330
0
100
AcDbSymbolTable
 70
     3
  0
APPID
  5
12
330
9
100
AcDbSymbolTableRecord
100
AcDbRegAppTableRecord
  2
ACAD
 70
     0
  0
APPID
  5
1D46
330
9
100
AcDbSymbolTableRecord
100
AcDbRegAppTableRecord
  2
ACAD_NAV_VCDISPLAY
 70
     0
  0
APPID
  5
1D7F
330
9
100
AcDbSymbolTableRecord
100
AcDbRegAppTableRecord
  2
ACAD_MLEADERVER
 70
     0
  0
ENDTAB
  0
TABLE
  2
DIMSTYLE
  5
A
330
0
100
AcDbSymbolTable
 70
     3
100
AcDbDimStyleTable
 71
     2
340
982
340
41D
  0
DIMSTYLE
105
41D
330
A
100
AcDbSymbolTableRecord
100
AcDbDimStyleTableRecord
  2
Standard
 70
     0
340
11
  0
DIMSTYLE
105
982
102
{ACAD_REACTORS
330
113B
330
11FF
330
120C
330
1219
330
1298
330
12A7
330
12B4
330
12CD
330
12DC
330
12EC
330
1345
330
1352
330
1484
330
1491
330
14C9
330
1788
102
}
330
A
100
AcDbSymbolTableRecord
100
AcDbDimStyleTableRecord
  2
ｽﾀｲﾙ15
 70
     0
 40
15.0
 41
2.0
 42
1.0
 43
6.0
 44
1.0
 73
     0
 74
     0
 77
     1
 78
     8
140
3.0
141
1.0
147
0.5
172
     1
174
     1
176
     4
177
     4
178
     4
271
     1
272
     1
279
     2
340
1BF4
341
991
342
991
371
    13
372
    13
  0
ENDTAB
  0
TABLE
  2
BLOCK_RECORD
  5
1
330
0
100
AcDbSymbolTable
 70
    19
  0
BLOCK_RECORD
  5
1E
330
1
100
AcDbSymbolTableRecord
100
AcDbBlockTableRecord
  2
*Model_Space
340
21
  0
BLOCK_RECORD
  5
1A
330
1
100
AcDbSymbolTableRecord
100
AcDbBlockTableRecord
  2
*Paper_Space
340
1D
  0
BLOCK_RECORD
  5
98A
330
1
100
AcDbSymbolTableRecord
100
AcDbBlockTableRecord
  2
_Closed
340
0
  0
BLOCK_RECORD
  5
991
330
1
100
AcDbSymbolTableRecord
100
AcDbBlockTableRecord
  2
_Open
340
0
102
{BLKREFS
331
10C4
331
10CB
331
10D1
331
10D2
331
10D5
331
10D6
331
10D9
331
10E2
331
10E3
331
10EC
331
10F1
331
1111
331
1115
331
1119
331
13FE
331
140D
331
1413
331
1414
331
141C
331
142B
331
1453
331
1454
331
1457
331
15EF
331
15F6
331
1882
331
1883
331
188A
331
188B
331
18C7
331
18C8
331
18CF
331
18D0
331
18D9
331
19F3
331
19F4
331
1A0F
331
1A10
331
1BAB
331
1BAF
331
1BBD
331
1BC1
331
1BC2
331
1BC6
331
1BF9
331
1BFA
331
1C02
331
1C03
331
1C0B
331
1C0C
331
1C14
331
1C15
331
1C1F
331
1C20
331
1C28
331
1C29
331
1C33
331
1C34
331
1C3F
331
1C40
331
1C4A
331
1C4B
331
1C52
331
1C53
331
1C5B
331
1C5C
331
1C64
331
1C65
331
1C6D
331
1C6E
331
1C79
331
1C7A
331
1C81
331
1C82
331
1C8A
331
1C8B
102
}
  0
BLOCK_RECORD
  5
113C
330
1
100
AcDbSymbolTableRecord
100
AcDbBlockTableRecord
  2
*D2
340
0
  0
BLOCK_RECORD
  5
1200
330
1
100
AcDbSymbolTableRecord
100
AcDbBlockTableRecord
  2
*D3
340
0
  0
BLOCK_RECORD
  5
120D
330
1
100
AcDbSymbolTableRecord
100
AcDbBlockTableRecord
  2
*D4
340
0
  0
BLOCK_RECORD
  5
121A
330
1
100
AcDbSymbolTableRecord
100
AcDbBlockTableRecord
  2
*D5
340
0
  0
BLOCK_RECORD
  5
1299
330
1
100
AcDbSymbolTableRecord
100
AcDbBlockTableRecord
  2
*D6
340
0
  0
BLOCK_RECORD
  5
12A8
330
1
100
AcDbSymbolTableRecord
100
AcDbBlockTableRecord
  2
*D7
340
0
  0
BLOCK_RECORD
  5
12B5
330
1
100
AcDbSymbolTableRecord
100
AcDbBlockTableRecord
  2
*D8
340
0
  0
BLOCK_RECORD
  5
12CE
330
1
100
AcDbSymbolTableRecord
100
AcDbBlockTableRecord
  2
*D9
340
0
  0
BLOCK_RECORD
  5
12DD
330
1
100
AcDbSymbolTableRecord
100
AcDbBlockTableRecord
  2
*D10
340
0
  0
BLOCK_RECORD
  5
12ED
330
1
100
AcDbSymbolTableRecord
100
AcDbBlockTableRecord
  2
*D11
340
0
  0
BLOCK_RECORD
  5
1346
330
1
100
AcDbSymbolTableRecord
100
AcDbBlockTableRecord
  2
*D12
340
0
  0
BLOCK_RECORD
  5
1353
330
1
100
AcDbSymbolTableRecord
100
AcDbBlockTableRecord
  2
*D13
340
0
  0
BLOCK_RECORD
  5
1485
330
1
100
AcDbSymbolTableRecord
100
AcDbBlockTableRecord
  2
*D14
340
0
  0
BLOCK_RECORD
  5
1492
330
1
100
AcDbSymbolTableRecord
100
AcDbBlockTableRecord
  2
*D15
340
0
  0
BLOCK_RECORD
  5
14CA
330
1
100
AcDbSymbolTableRecord
100
AcDbBlockTableRecord
  2
*D16
340
0
  0
BLOCK_RECORD
  5
1789
330
1
100
AcDbSymbolTableRecord
100
AcDbBlockTableRecord
  2
*D17
340
0
  0
ENDTAB
  0
ENDSEC
  0
SECTION
  2
BLOCKS
  0
BLOCK
  5
1F
330
1E
100
AcDbEntity
  8
0
100
AcDbBlockBegin
  2
*Model_Space
 70
     0
 10
0.0
 20
0.0
 30
0.0
  3
*Model_Space
  1

  0
ENDBLK
  5
20
330
1E
100
AcDbEntity
  8
0
100
AcDbBlockEnd
  0
BLOCK
  5
1B
330
1A
100
AcDbEntity
 67
     1
  8
0
100
AcDbBlockBegin
  2
*Paper_Space
 70
     0
 10
0.0
 20
0.0
 30
0.0
  3
*Paper_Space
  1

  0
ENDBLK
  5
1C
330
1A
100
AcDbEntity
 67
     1
  8
0
100
AcDbBlockEnd
  0
BLOCK
  5
98F
330
98A
100
AcDbEntity
  8
0
 62
     3
100
AcDbBlockBegin
  2
_Closed
 70
     0
 10
0.0
 20
0.0
 30
0.0
  3
_Closed
  1

  0
LINE
  5
98B
330
98A
100
AcDbEntity
  8
0
  6
ByBlock
 62
     0
370
    -2
100
AcDbLine
 10
-1.0
 20
0.1666666666666666
 30
0.0
 11
0.0
 21
0.0
 31
0.0
  0
LINE
  5
98C
330
98A
100
AcDbEntity
  8
0
  6
ByBlock
 62
     0
370
    -2
100
AcDbLine
 10
0.0
 20
0.0
 30
0.0
 11
-1.0
 21
-0.1666666666666666
 31
0.0
  0
LINE
  5
98D
330
98A
100
AcDbEntity
  8
0
  6
ByBlock
 62
     0
370
    -2
100
AcDbLine
 10
-1.0
 20
0.1666666666666666
 30
0.0
 11
-1.0
 21
-0.1666666666666666
 31
0.0
  0
LINE
  5
98E
330
98A
100
AcDbEntity
  8
0
  6
ByBlock
 62
     0
370
    -2
100
AcDbLine
 10
0.0
 20
0.0
 30
0.0
 11
-1.0
 21
0.0
 31
0.0
  0
ENDBLK
  5
990
330
98A
100
AcDbEntity
  8
0
 62
     3
100
AcDbBlockEnd
  0
BLOCK
  5
995
330
991
100
AcDbEntity
  8
0
 62
     3
100
AcDbBlockBegin
  2
_Open
 70
     0
 10
0.0
 20
0.0
 30
0.0
  3
_Open
  1

  0
LINE
  5
992
330
991
100
AcDbEntity
  8
0
  6
ByBlock
 62
     0
370
    -2
100
AcDbLine
 10
-1.0
 20
0.1666666666666666
 30
0.0
 11
0.0
 21
0.0
 31
0.0
  0
LINE
  5
993
330
991
100
AcDbEntity
  8
0
  6
ByBlock
 62
     0
370
    -2
100
AcDbLine
 10
-1.0
 20
-0.1666666666666666
 30
0.0
 11
0.0
 21
0.0
 31
0.0
  0
LINE
  5
994
330
991
100
AcDbEntity
  8
0
  6
ByBlock
 62
     0
370
    -2
100
AcDbLine
 10
0.0
 20
0.0
 30
0.0
 11
-1.0
 21
0.0
 31
0.0
  0
ENDBLK
  5
996
330
991
100
AcDbEntity
  8
0
 62
     3
100
AcDbBlockEnd
  0
BLOCK
  5
1146
330
113C
100
AcDbEntity
  8
0
100
AcDbBlockBegin
  2
*D2
 70
     1
 10
0.0
 20
0.0
 30
0.0
  3
*D2
  1

  0
LINE
  5
1BF6
330
113C
100
AcDbEntity
  8
01-寸法線
 62
     4
440
 16777216
 48
4.0
370
    13
100
AcDbLine
 10
1742.5
 20
1535.0
 30
0.0
 11
1592.5
 21
1535.0
 31
0.0
  0
LINE
  5
1BF7
330
113C
100
AcDbEntity
  8
01-寸法線
 62
     4
440
 16777216
 48
4.0
370
    13
100
AcDbLine
 10
1742.5
 20
1730.0
 30
0.0
 11
1592.5
 21
1730.0
 31
0.0
  0
LINE
  5
1BF8
330
113C
100
AcDbEntity
  8
01-寸法線
 62
     4
440
 16777216
 48
4.0
370
    13
100
AcDbLine
 10
1607.5
 20
1565.0
 30
0.0
 11
1607.5
 21
1700.0
 31
0.0
  0
INSERT
  5
1BF9
330
113C
100
AcDbEntity
  8
01-寸法線
 62
     4
440
 16777216
 48
4.0
370
    13
100
AcDbBlockReference
  2
_Open
 10
1607.5
 20
1535.0
 30
0.0
 41
30.0
 42
30.0
 43
30.0
 50
270.0
  0
INSERT
  5
1BFA
330
113C
100
AcDbEntity
  8
01-寸法線
 62
     4
440
 16777216
 48
4.0
370
    13
100
AcDbBlockReference
  2
_Open
 10
1607.5
 20
1730.0
 30
0.0
 41
30.0
 42
30.0
 43
30.0
 50
90.0
  0
MTEXT
  5
1BFB
330
113C
100
AcDbEntity
  8
01-寸法線
 62
     4
440
 16777216
 48
4.0
100
AcDbMText
 10
1577.5
 20
1632.500000000001
 30
0.0
 40
45.0
 41
0.0
 71
     5
 72
     1
  1
\A1;195
  7
寸法ｽﾀｲﾙ
 11
0.0000000000000001
 21
1.0
 31
0.0
 73
     1
 44
1.0
  0
POINT
  5
1BFC
330
113C
100
AcDbEntity
  8
Defpoints
 62
     0
440
 16777216
 48
4.0
100
AcDbPoint
 10
1757.5
 20
1535.0
 30
0.0
  0
POINT
  5
1BFD
330
113C
100
AcDbEntity
  8
Defpoints
 62
     0
440
 16777216
 48
4.0
100
AcDbPoint
 10
1757.5
 20
1730.0
 30
0.0
  0
POINT
  5
1BFE
330
113C
100
AcDbEntity
  8
Defpoints
 62
     0
440
 16777216
 48
4.0
100
AcDbPoint
 10
1607.5
 20
1730.0
 30
0.0
  0
ENDBLK
  5
1147
330
113C
100
AcDbEntity
  8
0
100
AcDbBlockEnd
  0
BLOCK
  5
120A
330
1200
100
AcDbEntity
  8
0
100
AcDbBlockBegin
  2
*D3
 70
     1
 10
0.0
 20
0.0
 30
0.0
  3
*D3
  1

  0
LINE
  5
1BFF
330
1200
100
AcDbEntity
  8
01-寸法線
 62
     4
440
 16777216
 48
4.0
370
    13
100
AcDbLine
 10
1757.5
 20
2015.000000000001
 30
0.0
 11
1757.5
 21
2255.000000000002
 31
0.0
  0
LINE
  5
1C00
330
1200
100
AcDbEntity
  8
01-寸法線
 62
     4
440
 16777216
 48
4.0
370
    13
100
AcDbLine
 10
2757.5
 20
2015.000000000001
 30
0.0
 11
2757.5
 21
2255.000000000002
 31
0.0
  0
LINE
  5
1C01
330
1200
100
AcDbEntity
  8
01-寸法線
 62
     4
440
 16777216
 48
4.0
370
    13
100
AcDbLine
 10
1787.5
 20
2240.000000000001
 30
0.0
 11
2727.5
 21
2240.000000000001
 31
0.0
  0
INSERT
  5
1C02
330
1200
100
AcDbEntity
  8
01-寸法線
 62
     4
440
 16777216
 48
4.0
370
    13
100
AcDbBlockReference
  2
_Open
 10
1757.5
 20
2240.000000000001
 30
0.0
 41
30.0
 42
30.0
 43
30.0
 50
180.0
  0
INSERT
  5
1C03
330
1200
100
AcDbEntity
  8
01-寸法線
 62
     4
440
 16777216
 48
4.0
370
    13
100
AcDbBlockReference
  2
_Open
 10
2757.5
 20
2240.000000000001
 30
0.0
 41
30.0
 42
30.0
 43
30.0
  0
MTEXT
  5
1C04
330
1200
100
AcDbEntity
  8
01-寸法線
 62
     4
440
 16777216
 48
4.0
100
AcDbMText
 10
2257.5
 20
2270.000000000001
 30
0.0
 40
45.0
 41
0.0
 71
     5
 72
     1
  1
\A1;1000
  7
寸法ｽﾀｲﾙ
 73
     1
 44
1.0
  0
POINT
  5
1C05
330
1200
100
AcDbEntity
  8
Defpoints
 62
     0
440
 16777216
 48
4.0
100
AcDbPoint
 10
1757.5
 20
2000.0
 30
0.0
  0
POINT
  5
1C06
330
1200
100
AcDbEntity
  8
Defpoints
 62
     0
440
 16777216
 48
4.0
100
AcDbPoint
 10
2757.5
 20
2000.0
 30
0.0
  0
POINT
  5
1C07
330
1200
100
AcDbEntity
  8
Defpoints
 62
     0
440
 16777216
 48
4.0
100
AcDbPoint
 10
2757.5
 20
2240.000000000001
 30
0.0
  0
ENDBLK
  5
120B
330
1200
100
AcDbEntity
  8
0
100
AcDbBlockEnd
  0
BLOCK
  5
1217
330
120D
100
AcDbEntity
  8
0
100
AcDbBlockBegin
  2
*D4
 70
     1
 10
0.0
 20
0.0
 30
0.0
  3
*D4
  1

  0
LINE
  5
1C08
330
120D
100
AcDbEntity
  8
01-寸法線
 62
     4
440
 16777216
 48
4.0
370
    13
100
AcDbLine
 10
2757.5
 20
2015.000000000001
 30
0.0
 11
2757.5
 21
2255.000000000002
 31
0.0
  0
LINE
  5
1C09
330
120D
100
AcDbEntity
  8
01-寸法線
 62
     4
440
 16777216
 48
4.0
370
    13
100
AcDbLine
 10
3757.5
 20
2015.000000000001
 30
0.0
 11
3757.5
 21
2255.000000000002
 31
0.0
  0
LINE
  5
1C0A
330
120D
100
AcDbEntity
  8
01-寸法線
 62
     4
440
 16777216
 48
4.0
370
    13
100
AcDbLine
 10
2787.5
 20
2240.000000000001
 30
0.0
 11
3727.5
 21
2240.000000000001
 31
0.0
  0
INSERT
  5
1C0B
330
120D
100
AcDbEntity
  8
01-寸法線
 62
     4
440
 16777216
 48
4.0
370
    13
100
AcDbBlockReference
  2
_Open
 10
2757.5
 20
2240.000000000001
 30
0.0
 41
30.0
 42
30.0
 43
30.0
 50
180.0
  0
INSERT
  5
1C0C
330
120D
100
AcDbEntity
  8
01-寸法線
 62
     4
440
 16777216
 48
4.0
370
    13
100
AcDbBlockReference
  2
_Open
 10
3757.5
 20
2240.000000000001
 30
0.0
 41
30.0
 42
30.0
 43
30.0
  0
MTEXT
  5
1C0D
330
120D
100
AcDbEntity
  8
01-寸法線
 62
     4
440
 16777216
 48
4.0
100
AcDbMText
 10
3257.5
 20
2270.000000000001
 30
0.0
 40
45.0
 41
0.0
 71
     5
 72
     1
  1
\A1;1000
  7
寸法ｽﾀｲﾙ
 73
     1
 44
1.0
  0
POINT
  5
1C0E
330
120D
100
AcDbEntity
  8
Defpoints
 62
     0
440
 16777216
 48
4.0
100
AcDbPoint
 10
2757.5
 20
2000.0
 30
0.0
  0
POINT
  5
1C0F
330
120D
100
AcDbEntity
  8
Defpoints
 62
     0
440
 16777216
 48
4.0
100
AcDbPoint
 10
3757.5
 20
2000.0
 30
0.0
  0
POINT
  5
1C10
330
120D
100
AcDbEntity
  8
Defpoints
 62
     0
440
 16777216
 48
4.0
100
AcDbPoint
 10
3757.5
 20
2240.000000000001
 30
0.0
  0
ENDBLK
  5
1218
330
120D
100
AcDbEntity
  8
0
100
AcDbBlockEnd
  0
BLOCK
  5
1224
330
121A
100
AcDbEntity
  8
0
100
AcDbBlockBegin
  2
*D5
 70
     1
 10
0.0
 20
0.0
 30
0.0
  3
*D5
  1

  0
LINE
  5
1C11
330
121A
100
AcDbEntity
  8
01-寸法線
 62
     4
440
 16777216
 48
4.0
370
    13
100
AcDbLine
 10
1757.5
 20
2255.000000000002
 30
0.0
 11
1757.5
 21
2345.000000000001
 31
0.0
  0
LINE
  5
1C12
330
121A
100
AcDbEntity
  8
01-寸法線
 62
     4
440
 16777216
 48
4.0
370
    13
100
AcDbLine
 10
3757.5
 20
2255.000000000002
 30
0.0
 11
3757.5
 21
2345.000000000001
 31
0.0
  0
LINE
  5
1C13
330
121A
100
AcDbEntity
  8
01-寸法線
 62
     4
440
 16777216
 48
4.0
370
    13
100
AcDbLine
 10
1787.5
 20
2330.000000000001
 30
0.0
 11
3727.5
 21
2330.000000000001
 31
0.0
  0
INSERT
  5
1C14
330
121A
100
AcDbEntity
  8
01-寸法線
 62
     4
440
 16777216
 48
4.0
370
    13
100
AcDbBlockReference
  2
_Open
 10
1757.5
 20
2330.000000000001
 30
0.0
 41
30.0
 42
30.0
 43
30.0
 50
180.0
  0
INSERT
  5
1C15
330
121A
100
AcDbEntity
  8
01-寸法線
 62
     4
440
 16777216
 48
4.0
370
    13
100
AcDbBlockReference
  2
_Open
 10
3757.5
 20
2330.000000000001
 30
0.0
 41
30.0
 42
30.0
 43
30.0
  0
MTEXT
  5
1C16
330
121A
100
AcDbEntity
  8
01-寸法線
 62
     4
440
 16777216
 48
4.0
100
AcDbMText
 10
2757.5
 20
2360.000000000002
 30
0.0
 40
45.0
 41
0.0
 71
     5
 72
     1
  1
\A1;2000
  7
寸法ｽﾀｲﾙ
 73
     1
 44
1.0
  0
POINT
  5
1C17
330
121A
100
AcDbEntity
  8
Defpoints
 62
     0
440
 16777216
 48
4.0
100
AcDbPoint
 10
1757.5
 20
2240.000000000001
 30
0.0
  0
POINT
  5
1C18
330
121A
100
AcDbEntity
  8
Defpoints
 62
     0
440
 16777216
 48
4.0
100
AcDbPoint
 10
3757.5
 20
2240.000000000001
 30
0.0
  0
POINT
  5
1C19
330
121A
100
AcDbEntity
  8
Defpoints
 62
     0
440
 16777216
 48
4.0
100
AcDbPoint
 10
3757.5
 20
2330.000000000001
 30
0.0
  0
ENDBLK
  5
1225
330
121A
100
AcDbEntity
  8
0
100
AcDbBlockEnd
  0
BLOCK
  5
12A5
330
1299
100
AcDbEntity
  8
0
100
AcDbBlockBegin
  2
*D6
 70
     1
 10
0.0
 20
0.0
 30
0.0
  3
*D6
  1

  0
LINE
  5
1C1A
330
1299
100
AcDbEntity
  8
01-寸法線
 62
     4
440
 16777216
 48
4.0
370
    13
100
AcDbLine
 10
697.5
 20
1620.0
 30
0.0
 11
697.5
 21
1770.0
 31
0.0
  0
LINE
  5
1C1B
330
1299
100
AcDbEntity
  8
01-寸法線
 62
     4
440
 16777216
 48
4.0
370
    13
100
AcDbLine
 10
767.5000000000001
 20
1620.0
 30
0.0
 11
767.5000000000001
 21
1770.0
 31
0.0
  0
LINE
  5
1C1C
330
1299
100
AcDbEntity
  8
01-寸法線
 62
     4
440
 16777216
 48
4.0
370
    13
100
AcDbLine
 10
667.4999999999999
 20
1755.0
 30
0.0
 11
637.5
 21
1755.0
 31
0.0
  0
LINE
  5
1C1D
330
1299
100
AcDbEntity
  8
01-寸法線
 62
     4
440
 16777216
 48
4.0
370
    13
100
AcDbLine
 10
797.5000000000001
 20
1755.0
 30
0.0
 11
827.5000000000002
 21
1755.0
 31
0.0
  0
LINE
  5
1C1E
330
1299
100
AcDbEntity
  8
01-寸法線
 62
     4
440
 16777216
 48
4.0
370
    13
100
AcDbLine
 10
697.5
 20
1755.0
 30
0.0
 11
767.5000000000001
 21
1755.0
 31
0.0
  0
INSERT
  5
1C1F
330
1299
100
AcDbEntity
  8
01-寸法線
 62
     4
440
 16777216
 48
4.0
370
    13
100
AcDbBlockReference
  2
_Open
 10
697.5
 20
1755.0
 30
0.0
 41
30.0
 42
30.0
 43
30.0
  0
INSERT
  5
1C20
330
1299
100
AcDbEntity
  8
01-寸法線
 62
     4
440
 16777216
 48
4.0
370
    13
100
AcDbBlockReference
  2
_Open
 10
767.5000000000001
 20
1755.0
 30
0.0
 41
30.0
 42
30.0
 43
30.0
 50
180.0
  0
MTEXT
  5
1C21
330
1299
100
AcDbEntity
  8
01-寸法線
 62
     4
440
 16777216
 48
4.0
100
AcDbMText
 10
732.5
 20
1785.000000000001
 30
0.0
 40
45.0
 41
0.0
 71
     5
 72
     1
  1
\A1;70
  7
寸法ｽﾀｲﾙ
 73
     1
 44
1.0
  0
POINT
  5
1C22
330
1299
100
AcDbEntity
  8
Defpoints
 62
     0
440
 16777216
 48
4.0
100
AcDbPoint
 10
697.5
 20
1605.000000000001
 30
0.0
  0
POINT
  5
1C23
330
1299
100
AcDbEntity
  8
Defpoints
 62
     0
440
 16777216
 48
4.0
100
AcDbPoint
 10
767.5000000000001
 20
1605.000000000001
 30
0.0
  0
POINT
  5
1C24
330
1299
100
AcDbEntity
  8
Defpoints
 62
     0
440
 16777216
 48
4.0
100
AcDbPoint
 10
767.5000000000001
 20
1755.0
 30
0.0
  0
ENDBLK
  5
12A6
330
1299
100
AcDbEntity
  8
0
100
AcDbBlockEnd
  0
BLOCK
  5
12B2
330
12A8
100
AcDbEntity
  8
0
100
AcDbBlockBegin
  2
*D7
 70
     1
 10
0.0
 20
0.0
 30
0.0
  3
*D7
  1

  0
LINE
  5
1C25
330
12A8
100
AcDbEntity
  8
01-寸法線
 62
     4
440
 16777216
 48
4.0
370
    13
100
AcDbLine
 10
767.5000000000001
 20
1620.0
 30
0.0
 11
767.5000000000001
 21
1770.0
 31
0.0
  0
LINE
  5
1C26
330
12A8
100
AcDbEntity
  8
01-寸法線
 62
     4
440
 16777216
 48
4.0
370
    13
100
AcDbLine
 10
1047.5
 20
1620.0
 30
0.0
 11
1047.5
 21
1770.0
 31
0.0
  0
LINE
  5
1C27
330
12A8
100
AcDbEntity
  8
01-寸法線
 62
     4
440
 16777216
 48
4.0
370
    13
100
AcDbLine
 10
797.5000000000001
 20
1755.0
 30
0.0
 11
1017.5
 21
1755.0
 31
0.0
  0
INSERT
  5
1C28
330
12A8
100
AcDbEntity
  8
01-寸法線
 62
     4
440
 16777216
 48
4.0
370
    13
100
AcDbBlockReference
  2
_Open
 10
767.5000000000001
 20
1755.0
 30
0.0
 41
30.0
 42
30.0
 43
30.0
 50
180.0
  0
INSERT
  5
1C29
330
12A8
100
AcDbEntity
  8
01-寸法線
 62
     4
440
 16777216
 48
4.0
370
    13
100
AcDbBlockReference
  2
_Open
 10
1047.5
 20
1755.0
 30
0.0
 41
30.0
 42
30.0
 43
30.0
  0
MTEXT
  5
1C2A
330
12A8
100
AcDbEntity
  8
01-寸法線
 62
     4
440
 16777216
 48
4.0
100
AcDbMText
 10
907.5000000000001
 20
1785.000000000001
 30
0.0
 40
45.0
 41
0.0
 71
     5
 72
     1
  1
\A1;280
  7
寸法ｽﾀｲﾙ
 73
     1
 44
1.0
  0
POINT
  5
1C2B
330
12A8
100
AcDbEntity
  8
Defpoints
 62
     0
440
 16777216
 48
4.0
100
AcDbPoint
 10
767.5000000000001
 20
1605.000000000001
 30
0.0
  0
POINT
  5
1C2C
330
12A8
100
AcDbEntity
  8
Defpoints
 62
     0
440
 16777216
 48
4.0
100
AcDbPoint
 10
1047.5
 20
1605.000000000001
 30
0.0
  0
POINT
  5
1C2D
330
12A8
100
AcDbEntity
  8
Defpoints
 62
     0
440
 16777216
 48
4.0
100
AcDbPoint
 10
1047.5
 20
1755.0
 30
0.0
  0
ENDBLK
  5
12B3
330
12A8
100
AcDbEntity
  8
0
100
AcDbBlockEnd
  0
BLOCK
  5
12C1
330
12B5
100
AcDbEntity
  8
0
100
AcDbBlockBegin
  2
*D8
 70
     1
 10
0.0
 20
0.0
 30
0.0
  3
*D8
  1

  0
LINE
  5
1C2E
330
12B5
100
AcDbEntity
  8
01-寸法線
 62
     4
440
 16777216
 48
4.0
370
    13
100
AcDbLine
 10
1047.5
 20
1620.0
 30
0.0
 11
1047.5
 21
1770.0
 31
0.0
  0
LINE
  5
1C2F
330
12B5
100
AcDbEntity
  8
01-寸法線
 62
     4
440
 16777216
 48
4.0
370
    13
100
AcDbLine
 10
1117.5
 20
1620.0
 30
0.0
 11
1117.5
 21
1770.0
 31
0.0
  0
LINE
  5
1C30
330
12B5
100
AcDbEntity
  8
01-寸法線
 62
     4
440
 16777216
 48
4.0
370
    13
100
AcDbLine
 10
1017.5
 20
1755.0
 30
0.0
 11
987.5
 21
1755.0
 31
0.0
  0
LINE
  5
1C31
330
12B5
100
AcDbEntity
  8
01-寸法線
 62
     4
440
 16777216
 48
4.0
370
    13
100
AcDbLine
 10
1147.5
 20
1755.0
 30
0.0
 11
1177.5
 21
1755.0
 31
0.0
  0
LINE
  5
1C32
330
12B5
100
AcDbEntity
  8
01-寸法線
 62
     4
440
 16777216
 48
4.0
370
    13
100
AcDbLine
 10
1047.5
 20
1755.0
 30
0.0
 11
1117.5
 21
1755.0
 31
0.0
  0
INSERT
  5
1C33
330
12B5
100
AcDbEntity
  8
01-寸法線
 62
     4
440
 16777216
 48
4.0
370
    13
100
AcDbBlockReference
  2
_Open
 10
1047.5
 20
1755.0
 30
0.0
 41
30.0
 42
30.0
 43
30.0
  0
INSERT
  5
1C34
330
12B5
100
AcDbEntity
  8
01-寸法線
 62
     4
440
 16777216
 48
4.0
370
    13
100
AcDbBlockReference
  2
_Open
 10
1117.5
 20
1755.0
 30
0.0
 41
30.0
 42
30.0
 43
30.0
 50
180.0
  0
MTEXT
  5
1C35
330
12B5
100
AcDbEntity
  8
01-寸法線
 62
     4
440
 16777216
 48
4.0
100
AcDbMText
 10
1082.5
 20
1785.000000000001
 30
0.0
 40
45.0
 41
0.0
 71
     5
 72
     1
  1
\A1;70
  7
寸法ｽﾀｲﾙ
 73
     1
 44
1.0
  0
POINT
  5
1C36
330
12B5
100
AcDbEntity
  8
Defpoints
 62
     0
440
 16777216
 48
4.0
100
AcDbPoint
 10
1047.5
 20
1605.000000000001
 30
0.0
  0
POINT
  5
1C37
330
12B5
100
AcDbEntity
  8
Defpoints
 62
     0
440
 16777216
 48
4.0
100
AcDbPoint
 10
1117.5
 20
1605.000000000001
 30
0.0
  0
POINT
  5
1C38
330
12B5
100
AcDbEntity
  8
Defpoints
 62
     0
440
 16777216
 48
4.0
100
AcDbPoint
 10
1117.5
 20
1755.0
 30
0.0
  0
ENDBLK
  5
12C2
330
12B5
100
AcDbEntity
  8
0
100
AcDbBlockEnd
  0
BLOCK
  5
12DA
330
12CE
100
AcDbEntity
  8
0
100
AcDbBlockBegin
  2
*D9
 70
     1
 10
0.0
 20
0.0
 30
0.0
  3
*D9
  1

  0
LINE
  5
1C39
330
12CE
100
AcDbEntity
  8
01-寸法線
 62
     4
440
 16777216
 48
4.0
370
    13
100
AcDbLine
 10
697.5
 20
1520.0
 30
0.0
 11
697.5
 21
1370.0
 31
0.0
  0
LINE
  5
1C3A
330
12CE
100
AcDbEntity
  8
01-寸法線
 62
     4
440
 16777216
 48
4.0
370
    13
100
AcDbLine
 10
727.5000000000004
 20
1520.0
 30
0.0
 11
727.5000000000004
 21
1370.0
 31
0.0
  0
LINE
  5
1C3B
330
12CE
100
AcDbEntity
  8
01-寸法線
 62
     4
440
 16777216
 48
4.0
370
    13
100
AcDbLine
 10
667.4999999999999
 20
1385.0
 30
0.0
 11
637.5
 21
1385.0
 31
0.0
  0
LINE
  5
1C3C
330
12CE
100
AcDbEntity
  8
01-寸法線
 62
     4
440
 16777216
 48
4.0
370
    13
100
AcDbLine
 10
757.5000000000004
 20
1385.0
 30
0.0
 11
787.5000000000004
 21
1385.0
 31
0.0
  0
MTEXT
  5
1C3D
330
12CE
100
AcDbEntity
  8
01-寸法線
 62
     4
440
 16777216
 48
4.0
100
AcDbMText
 10
667.4999999999999
 20
1415.0
 30
0.0
 40
45.0
 41
0.0
 71
     5
 72
     1
  1
\A1;30
  7
寸法ｽﾀｲﾙ
 73
     1
 44
1.0
  0
LINE
  5
1C3E
330
12CE
100
AcDbEntity
  8
01-寸法線
 62
     4
440
 16777216
 48
4.0
370
    13
100
AcDbLine
 10
697.5
 20
1385.0
 30
0.0
 11
727.5000000000004
 21
1385.0
 31
0.0
  0
INSERT
  5
1C3F
330
12CE
100
AcDbEntity
  8
01-寸法線
 62
     4
440
 16777216
 48
4.0
370
    13
100
AcDbBlockReference
  2
_Open
 10
697.5
 20
1385.0
 30
0.0
 41
30.0
 42
30.0
 43
30.0
  0
INSERT
  5
1C40
330
12CE
100
AcDbEntity
  8
01-寸法線
 62
     4
440
 16777216
 48
4.0
370
    13
100
AcDbBlockReference
  2
_Open
 10
727.5000000000004
 20
1385.0
 30
0.0
 41
30.0
 42
30.0
 43
30.0
 50
180.0
  0
POINT
  5
1C41
330
12CE
100
AcDbEntity
  8
Defpoints
 62
     0
440
 16777216
 48
4.0
100
AcDbPoint
 10
697.5
 20
1535.0
 30
0.0
  0
POINT
  5
1C42
330
12CE
100
AcDbEntity
  8
Defpoints
 62
     0
440
 16777216
 48
4.0
100
AcDbPoint
 10
727.5000000000004
 20
1535.0
 30
0.0
  0
POINT
  5
1C43
330
12CE
100
AcDbEntity
  8
Defpoints
 62
     0
440
 16777216
 48
4.0
100
AcDbPoint
 10
727.5000000000004
 20
1385.0
 30
0.0
  0
ENDBLK
  5
12DB
330
12CE
100
AcDbEntity
  8
0
100
AcDbBlockEnd
  0
BLOCK
  5
12E9
330
12DD
100
AcDbEntity
  8
0
100
AcDbBlockBegin
  2
*D10
 70
     1
 10
0.0
 20
0.0
 30
0.0
  3
*D10
  1

  0
LINE
  5
1C44
330
12DD
100
AcDbEntity
  8
01-寸法線
 62
     4
440
 16777216
 48
4.0
370
    13
100
AcDbLine
 10
1087.499999999999
 20
1520.0
 30
0.0
 11
1087.499999999999
 21
1370.0
 31
0.0
  0
LINE
  5
1C45
330
12DD
100
AcDbEntity
  8
01-寸法線
 62
     4
440
 16777216
 48
4.0
370
    13
100
AcDbLine
 10
1117.5
 20
1520.0
 30
0.0
 11
1117.5
 21
1370.0
 31
0.0
  0
LINE
  5
1C46
330
12DD
100
AcDbEntity
  8
01-寸法線
 62
     4
440
 16777216
 48
4.0
370
    13
100
AcDbLine
 10
1057.499999999999
 20
1385.0
 30
0.0
 11
1027.499999999999
 21
1385.0
 31
0.0
  0
LINE
  5
1C47
330
12DD
100
AcDbEntity
  8
01-寸法線
 62
     4
440
 16777216
 48
4.0
370
    13
100
AcDbLine
 10
1147.5
 20
1385.0
 30
0.0
 11
1177.5
 21
1385.0
 31
0.0
  0
MTEXT
  5
1C48
330
12DD
100
AcDbEntity
  8
01-寸法線
 62
     4
440
 16777216
 48
4.0
100
AcDbMText
 10
1147.5
 20
1415.0
 30
0.0
 40
45.0
 41
0.0
 71
     5
 72
     1
  1
\A1;30
  7
寸法ｽﾀｲﾙ
 73
     1
 44
1.0
  0
LINE
  5
1C49
330
12DD
100
AcDbEntity
  8
01-寸法線
 62
     4
440
 16777216
 48
4.0
370
    13
100
AcDbLine
 10
1087.499999999999
 20
1385.0
 30
0.0
 11
1117.5
 21
1385.0
 31
0.0
  0
INSERT
  5
1C4A
330
12DD
100
AcDbEntity
  8
01-寸法線
 62
     4
440
 16777216
 48
4.0
370
    13
100
AcDbBlockReference
  2
_Open
 10
1087.499999999999
 20
1385.0
 30
0.0
 41
30.0
 42
30.0
 43
30.0
  0
INSERT
  5
1C4B
330
12DD
100
AcDbEntity
  8
01-寸法線
 62
     4
440
 16777216
 48
4.0
370
    13
100
AcDbBlockReference
  2
_Open
 10
1117.5
 20
1385.0
 30
0.0
 41
30.0
 42
30.0
 43
30.0
 50
180.0
  0
POINT
  5
1C4C
330
12DD
100
AcDbEntity
  8
Defpoints
 62
     0
440
 16777216
 48
4.0
100
AcDbPoint
 10
1087.499999999999
 20
1535.0
 30
0.0
  0
POINT
  5
1C4D
330
12DD
100
AcDbEntity
  8
Defpoints
 62
     0
440
 16777216
 48
4.0
100
AcDbPoint
 10
1117.5
 20
1535.0
 30
0.0
  0
POINT
  5
1C4E
330
12DD
100
AcDbEntity
  8
Defpoints
 62
     0
440
 16777216
 48
4.0
100
AcDbPoint
 10
1117.5
 20
1385.0
 30
0.0
  0
ENDBLK
  5
12EA
330
12DD
100
AcDbEntity
  8
0
100
AcDbBlockEnd
  0
BLOCK
  5
12F7
330
12ED
100
AcDbEntity
  8
0
100
AcDbBlockBegin
  2
*D11
 70
     1
 10
0.0
 20
0.0
 30
0.0
  3
*D11
  1

  0
LINE
  5
1C4F
330
12ED
100
AcDbEntity
  8
01-寸法線
 62
     4
440
 16777216
 48
4.0
370
    13
100
AcDbLine
 10
697.5
 20
1370.0
 30
0.0
 11
697.5
 21
1280.0
 31
0.0
  0
LINE
  5
1C50
330
12ED
100
AcDbEntity
  8
01-寸法線
 62
     4
440
 16777216
 48
4.0
370
    13
100
AcDbLine
 10
1117.5
 20
1370.0
 30
0.0
 11
1117.5
 21
1280.0
 31
0.0
  0
LINE
  5
1C51
330
12ED
100
AcDbEntity
  8
01-寸法線
 62
     4
440
 16777216
 48
4.0
370
    13
100
AcDbLine
 10
727.5
 20
1295.0
 30
0.0
 11
1087.5
 21
1295.0
 31
0.0
  0
INSERT
  5
1C52
330
12ED
100
AcDbEntity
  8
01-寸法線
 62
     4
440
 16777216
 48
4.0
370
    13
100
AcDbBlockReference
  2
_Open
 10
697.5
 20
1295.0
 30
0.0
 41
30.0
 42
30.0
 43
30.0
 50
180.0
  0
INSERT
  5
1C53
330
12ED
100
AcDbEntity
  8
01-寸法線
 62
     4
440
 16777216
 48
4.0
370
    13
100
AcDbBlockReference
  2
_Open
 10
1117.5
 20
1295.0
 30
0.0
 41
30.0
 42
30.0
 43
30.0
  0
MTEXT
  5
1C54
330
12ED
100
AcDbEntity
  8
01-寸法線
 62
     4
440
 16777216
 48
4.0
100
AcDbMText
 10
907.5000000000001
 20
1325.0
 30
0.0
 40
45.0
 41
0.0
 71
     5
 72
     1
  1
\A1;420
  7
寸法ｽﾀｲﾙ
 73
     1
 44
1.0
  0
POINT
  5
1C55
330
12ED
100
AcDbEntity
  8
Defpoints
 62
     0
440
 16777216
 48
4.0
100
AcDbPoint
 10
697.5
 20
1385.0
 30
0.0
  0
POINT
  5
1C56
330
12ED
100
AcDbEntity
  8
Defpoints
 62
     0
440
 16777216
 48
4.0
100
AcDbPoint
 10
1117.5
 20
1385.0
 30
0.0
  0
POINT
  5
1C57
330
12ED
100
AcDbEntity
  8
Defpoints
 62
     0
440
 16777216
 48
4.0
100
AcDbPoint
 10
1117.5
 20
1295.0
 30
0.0
  0
ENDBLK
  5
12F8
330
12ED
100
AcDbEntity
  8
0
100
AcDbBlockEnd
  0
BLOCK
  5
1350
330
1346
100
AcDbEntity
  8
0
100
AcDbBlockBegin
  2
*D12
 70
     1
 10
0.0
 20
0.0
 30
0.0
  3
*D12
  1

  0
LINE
  5
1C58
330
1346
100
AcDbEntity
  8
01-寸法線
 62
     4
440
 16777216
 48
4.0
370
    13
100
AcDbLine
 10
752.5000000000001
 20
1605.000000000001
 30
0.0
 11
482.5000000000001
 21
1605.000000000001
 31
0.0
  0
LINE
  5
1C59
330
1346
100
AcDbEntity
  8
01-寸法線
 62
     4
440
 16777216
 48
4.0
370
    13
100
AcDbLine
 10
632.5000000000001
 20
1905.000000000001
 30
0.0
 11
482.5000000000001
 21
1905.000000000001
 31
0.0
  0
LINE
  5
1C5A
330
1346
100
AcDbEntity
  8
01-寸法線
 62
     4
440
 16777216
 48
4.0
370
    13
100
AcDbLine
 10
497.5
 20
1635.000000000001
 30
0.0
 11
497.5000000000001
 21
1875.000000000001
 31
0.0
  0
INSERT
  5
1C5B
330
1346
100
AcDbEntity
  8
01-寸法線
 62
     4
440
 16777216
 48
4.0
370
    13
100
AcDbBlockReference
  2
_Open
 10
497.5
 20
1605.000000000001
 30
0.0
 41
30.0
 42
30.0
 43
30.0
 50
270.0
  0
INSERT
  5
1C5C
330
1346
100
AcDbEntity
  8
01-寸法線
 62
     4
440
 16777216
 48
4.0
370
    13
100
AcDbBlockReference
  2
_Open
 10
497.5000000000001
 20
1905.000000000001
 30
0.0
 41
30.0
 42
30.0
 43
30.0
 50
90.0
  0
MTEXT
  5
1C5D
330
1346
100
AcDbEntity
  8
01-寸法線
 62
     4
440
 16777216
 48
4.0
100
AcDbMText
 10
467.4999999999998
 20
1755.0
 30
0.0
 40
45.0
 41
0.0
 71
     5
 72
     1
  1
\A1;300
  7
寸法ｽﾀｲﾙ
 11
0.0000000000000001
 21
1.0
 31
0.0
 73
     1
 44
1.0
  0
POINT
  5
1C5E
330
1346
100
AcDbEntity
  8
Defpoints
 62
     0
440
 16777216
 48
4.0
100
AcDbPoint
 10
767.5000000000001
 20
1605.000000000001
 30
0.0
  0
POINT
  5
1C5F
330
1346
100
AcDbEntity
  8
Defpoints
 62
     0
440
 16777216
 48
4.0
100
AcDbPoint
 10
647.5000000000001
 20
1905.000000000001
 30
0.0
  0
POINT
  5
1C60
330
1346
100
AcDbEntity
  8
Defpoints
 62
     0
440
 16777216
 48
4.0
100
AcDbPoint
 10
497.5000000000001
 20
1905.000000000001
 30
0.0
  0
ENDBLK
  5
1351
330
1346
100
AcDbEntity
  8
0
100
AcDbBlockEnd
  0
BLOCK
  5
135D
330
1353
100
AcDbEntity
  8
0
100
AcDbBlockBegin
  2
*D13
 70
     1
 10
0.0
 20
0.0
 30
0.0
  3
*D13
  1

  0
LINE
  5
1C61
330
1353
100
AcDbEntity
  8
01-寸法線
 62
     4
440
 16777216
 48
4.0
370
    13
100
AcDbLine
 10
632.5000000000001
 20
1905.000000000001
 30
0.0
 11
482.5000000000001
 21
1905.000000000001
 31
0.0
  0
LINE
  5
1C62
330
1353
100
AcDbEntity
  8
01-寸法線
 62
     4
440
 16777216
 48
4.0
370
    13
100
AcDbLine
 10
632.5000000000001
 20
2000.0
 30
0.0
 11
482.5000000000001
 21
2000.000000000001
 31
0.0
  0
LINE
  5
1C63
330
1353
100
AcDbEntity
  8
01-寸法線
 62
     4
440
 16777216
 48
4.0
370
    13
100
AcDbLine
 10
497.5000000000001
 20
1935.000000000001
 30
0.0
 11
497.5000000000001
 21
1970.0
 31
0.0
  0
INSERT
  5
1C64
330
1353
100
AcDbEntity
  8
01-寸法線
 62
     4
440
 16777216
 48
4.0
370
    13
100
AcDbBlockReference
  2
_Open
 10
497.5
 20
1905.000000000001
 30
0.0
 41
30.0
 42
30.0
 43
30.0
 50
270.0
  0
INSERT
  5
1C65
330
1353
100
AcDbEntity
  8
01-寸法線
 62
     4
440
 16777216
 48
4.0
370
    13
100
AcDbBlockReference
  2
_Open
 10
497.5000000000001
 20
2000.000000000001
 30
0.0
 41
30.0
 42
30.0
 43
30.0
 50
90.0
  0
MTEXT
  5
1C66
330
1353
100
AcDbEntity
  8
01-寸法線
 62
     4
440
 16777216
 48
4.0
100
AcDbMText
 10
467.4999999999998
 20
1952.500000000001
 30
0.0
 40
45.0
 41
0.0
 71
     5
 72
     1
  1
\A1;95
  7
寸法ｽﾀｲﾙ
 11
0.0000000000000001
 21
1.0
 31
0.0
 73
     1
 44
1.0
  0
POINT
  5
1C67
330
1353
100
AcDbEntity
  8
Defpoints
 62
     0
440
 16777216
 48
4.0
100
AcDbPoint
 10
647.5000000000001
 20
1905.000000000001
 30
0.0
  0
POINT
  5
1C68
330
1353
100
AcDbEntity
  8
Defpoints
 62
     0
440
 16777216
 48
4.0
100
AcDbPoint
 10
647.5000000000001
 20
2000.0
 30
0.0
  0
POINT
  5
1C69
330
1353
100
AcDbEntity
  8
Defpoints
 62
     0
440
 16777216
 48
4.0
100
AcDbPoint
 10
497.5000000000001
 20
2000.000000000001
 30
0.0
  0
ENDBLK
  5
135E
330
1353
100
AcDbEntity
  8
0
100
AcDbBlockEnd
  0
BLOCK
  5
148F
330
1485
100
AcDbEntity
  8
0
100
AcDbBlockBegin
  2
*D14
 70
     1
 10
0.0
 20
0.0
 30
0.0
  3
*D14
  1

  0
LINE
  5
1C6A
330
1485
100
AcDbEntity
  8
01-寸法線
 62
     4
440
 16777216
 48
4.0
370
    13
100
AcDbLine
 10
647.5000000000001
 20
2165.0
 30
0.0
 11
647.5000000000001
 21
2255.000000000002
 31
0.0
  0
LINE
  5
1C6B
330
1485
100
AcDbEntity
  8
01-寸法線
 62
     4
440
 16777216
 48
4.0
370
    13
100
AcDbLine
 10
1167.5
 20
2165.0
 30
0.0
 11
1167.5
 21
2255.000000000002
 31
0.0
  0
LINE
  5
1C6C
330
1485
100
AcDbEntity
  8
01-寸法線
 62
     4
440
 16777216
 48
4.0
370
    13
100
AcDbLine
 10
677.5000000000001
 20
2240.000000000001
 30
0.0
 11
1137.5
 21
2240.000000000001
 31
0.0
  0
INSERT
  5
1C6D
330
1485
100
AcDbEntity
  8
01-寸法線
 62
     4
440
 16777216
 48
4.0
370
    13
100
AcDbBlockReference
  2
_Open
 10
647.5000000000001
 20
2240.000000000001
 30
0.0
 41
30.0
 42
30.0
 43
30.0
 50
180.0
  0
INSERT
  5
1C6E
330
1485
100
AcDbEntity
  8
01-寸法線
 62
     4
440
 16777216
 48
4.0
370
    13
100
AcDbBlockReference
  2
_Open
 10
1167.5
 20
2240.000000000001
 30
0.0
 41
30.0
 42
30.0
 43
30.0
  0
MTEXT
  5
1C6F
330
1485
100
AcDbEntity
  8
01-寸法線
 62
     4
440
 16777216
 48
4.0
100
AcDbMText
 10
907.5000000000001
 20
2270.000000000001
 30
0.0
 40
45.0
 41
0.0
 71
     5
 72
     1
  1
\A1;520
  7
寸法ｽﾀｲﾙ
 73
     1
 44
1.0
  0
POINT
  5
1C70
330
1485
100
AcDbEntity
  8
Defpoints
 62
     0
440
 16777216
 48
4.0
100
AcDbPoint
 10
647.5000000000001
 20
2150.0
 30
0.0
  0
POINT
  5
1C71
330
1485
100
AcDbEntity
  8
Defpoints
 62
     0
440
 16777216
 48
4.0
100
AcDbPoint
 10
1167.5
 20
2150.0
 30
0.0
  0
POINT
  5
1C72
330
1485
100
AcDbEntity
  8
Defpoints
 62
     0
440
 16777216
 48
4.0
100
AcDbPoint
 10
1167.5
 20
2240.000000000001
 30
0.0
  0
ENDBLK
  5
1490
330
1485
100
AcDbEntity
  8
0
100
AcDbBlockEnd
  0
BLOCK
  5
149E
330
1492
100
AcDbEntity
  8
0
100
AcDbBlockBegin
  2
*D15
 70
     1
 10
0.0
 20
0.0
 30
0.0
  3
*D15
  1

  0
LINE
  5
1C73
330
1492
100
AcDbEntity
  8
01-寸法線
 62
     4
440
 16777216
 48
4.0
370
    13
100
AcDbLine
 10
1167.5
 20
2165.0
 30
0.0
 11
1167.5
 21
2255.000000000002
 31
0.0
  0
LINE
  5
1C74
330
1492
100
AcDbEntity
  8
01-寸法線
 62
     4
440
 16777216
 48
4.0
370
    13
100
AcDbLine
 10
1202.5
 20
1965.0
 30
0.0
 11
1202.5
 21
2255.000000000002
 31
0.0
  0
LINE
  5
1C75
330
1492
100
AcDbEntity
  8
01-寸法線
 62
     4
440
 16777216
 48
4.0
370
    13
100
AcDbLine
 10
1137.5
 20
2240.000000000001
 30
0.0
 11
1107.5
 21
2240.000000000001
 31
0.0
  0
LINE
  5
1C76
330
1492
100
AcDbEntity
  8
01-寸法線
 62
     4
440
 16777216
 48
4.0
370
    13
100
AcDbLine
 10
1232.5
 20
2240.000000000001
 30
0.0
 11
1262.5
 21
2240.000000000001
 31
0.0
  0
MTEXT
  5
1C77
330
1492
100
AcDbEntity
  8
01-寸法線
 62
     4
440
 16777216
 48
4.0
100
AcDbMText
 10
1232.5
 20
2270.000000000001
 30
0.0
 40
45.0
 41
0.0
 71
     5
 72
     1
  1
\A1;35
  7
寸法ｽﾀｲﾙ
 73
     1
 44
1.0
  0
LINE
  5
1C78
330
1492
100
AcDbEntity
  8
01-寸法線
 62
     4
440
 16777216
 48
4.0
370
    13
100
AcDbLine
 10
1167.5
 20
2240.000000000001
 30
0.0
 11
1202.5
 21
2240.000000000001
 31
0.0
  0
INSERT
  5
1C79
330
1492
100
AcDbEntity
  8
01-寸法線
 62
     4
440
 16777216
 48
4.0
370
    13
100
AcDbBlockReference
  2
_Open
 10
1167.5
 20
2240.000000000001
 30
0.0
 41
30.0
 42
30.0
 43
30.0
  0
INSERT
  5
1C7A
330
1492
100
AcDbEntity
  8
01-寸法線
 62
     4
440
 16777216
 48
4.0
370
    13
100
AcDbBlockReference
  2
_Open
 10
1202.5
 20
2240.000000000001
 30
0.0
 41
30.0
 42
30.0
 43
30.0
 50
180.0
  0
POINT
  5
1C7B
330
1492
100
AcDbEntity
  8
Defpoints
 62
     0
440
 16777216
 48
4.0
100
AcDbPoint
 10
1167.5
 20
2150.0
 30
0.0
  0
POINT
  5
1C7C
330
1492
100
AcDbEntity
  8
Defpoints
 62
     0
440
 16777216
 48
4.0
100
AcDbPoint
 10
1202.5
 20
1950.0
 30
0.0
  0
POINT
  5
1C7D
330
1492
100
AcDbEntity
  8
Defpoints
 62
     0
440
 16777216
 48
4.0
100
AcDbPoint
 10
1202.5
 20
2240.000000000001
 30
0.0
  0
ENDBLK
  5
149F
330
1492
100
AcDbEntity
  8
0
100
AcDbBlockEnd
  0
BLOCK
  5
14D4
330
14CA
100
AcDbEntity
  8
0
100
AcDbBlockBegin
  2
*D16
 70
     1
 10
0.0
 20
0.0
 30
0.0
  3
*D16
  1

  0
LINE
  5
1C7E
330
14CA
100
AcDbEntity
  8
01-寸法線
 62
     4
440
 16777216
 48
4.0
370
    13
100
AcDbLine
 10
632.5000000000001
 20
1860.000000000001
 30
0.0
 11
392.5000000000001
 21
1860.000000000001
 31
0.0
  0
LINE
  5
1C7F
330
14CA
100
AcDbEntity
  8
01-寸法線
 62
     4
440
 16777216
 48
4.0
370
    13
100
AcDbLine
 10
482.5000000000001
 20
2000.0
 30
0.0
 11
392.5000000000001
 21
2000.0
 31
0.0
  0
LINE
  5
1C80
330
14CA
100
AcDbEntity
  8
01-寸法線
 62
     4
440
 16777216
 48
4.0
370
    13
100
AcDbLine
 10
407.5000000000001
 20
1890.000000000001
 30
0.0
 11
407.5000000000001
 21
1970.0
 31
0.0
  0
INSERT
  5
1C81
330
14CA
100
AcDbEntity
  8
01-寸法線
 62
     4
440
 16777216
 48
4.0
370
    13
100
AcDbBlockReference
  2
_Open
 10
407.5000000000001
 20
1860.000000000001
 30
0.0
 41
30.0
 42
30.0
 43
30.0
 50
270.0
  0
INSERT
  5
1C82
330
14CA
100
AcDbEntity
  8
01-寸法線
 62
     4
440
 16777216
 48
4.0
370
    13
100
AcDbBlockReference
  2
_Open
 10
407.5000000000001
 20
2000.0
 30
0.0
 41
30.0
 42
30.0
 43
30.0
 50
90.0
  0
MTEXT
  5
1C83
330
14CA
100
AcDbEntity
  8
01-寸法線
 62
     4
440
 16777216
 48
4.0
100
AcDbMText
 10
377.4999999999998
 20
1930.000000000001
 30
0.0
 40
45.0
 41
0.0
 71
     5
 72
     1
  1
\A1;140
  7
寸法ｽﾀｲﾙ
 11
0.0000000000000001
 21
1.0
 31
0.0
 73
     1
 44
1.0
  0
POINT
  5
1C84
330
14CA
100
AcDbEntity
  8
Defpoints
 62
     0
440
 16777216
 48
4.0
100
AcDbPoint
 10
647.5000000000001
 20
1860.000000000001
 30
0.0
  0
POINT
  5
1C85
330
14CA
100
AcDbEntity
  8
Defpoints
 62
     0
440
 16777216
 48
4.0
100
AcDbPoint
 10
497.5000000000001
 20
2000.0
 30
0.0
  0
POINT
  5
1C86
330
14CA
100
AcDbEntity
  8
Defpoints
 62
     0
440
 16777216
 48
4.0
100
AcDbPoint
 10
407.5000000000001
 20
2000.0
 30
0.0
  0
ENDBLK
  5
14D5
330
14CA
100
AcDbEntity
  8
0
100
AcDbBlockEnd
  0
BLOCK
  5
1793
330
1789
100
AcDbEntity
  8
0
 48
4.0
100
AcDbBlockBegin
  2
*D17
 70
     1
 10
0.0
 20
0.0
 30
0.0
  3
*D17
  1

  0
LINE
  5
1C87
330
1789
100
AcDbEntity
  8
01-寸法線
 62
     4
440
 16777216
 48
4.0
370
    13
100
AcDbLine
 10
647.5000000000001
 20
2255.000000000002
 30
0.0
 11
647.5000000000001
 21
2345.000000000001
 31
0.0
  0
LINE
  5
1C88
330
1789
100
AcDbEntity
  8
01-寸法線
 62
     4
440
 16777216
 48
4.0
370
    13
100
AcDbLine
 10
1202.5
 20
2255.000000000002
 30
0.0
 11
1202.5
 21
2345.000000000001
 31
0.0
  0
LINE
  5
1C89
330
1789
100
AcDbEntity
  8
01-寸法線
 62
     4
440
 16777216
 48
4.0
370
    13
100
AcDbLine
 10
677.5000000000001
 20
2330.000000000001
 30
0.0
 11
1172.5
 21
2330.000000000001
 31
0.0
  0
INSERT
  5
1C8A
330
1789
100
AcDbEntity
  8
01-寸法線
 62
     4
440
 16777216
 48
4.0
370
    13
100
AcDbBlockReference
  2
_Open
 10
647.5000000000001
 20
2330.000000000001
 30
0.0
 41
30.0
 42
30.0
 43
30.0
 50
180.0
  0
INSERT
  5
1C8B
330
1789
100
AcDbEntity
  8
01-寸法線
 62
     4
440
 16777216
 48
4.0
370
    13
100
AcDbBlockReference
  2
_Open
 10
1202.5
 20
2330.000000000001
 30
0.0
 41
30.0
 42
30.0
 43
30.0
  0
MTEXT
  5
1C8C
330
1789
100
AcDbEntity
  8
01-寸法線
 62
     4
440
 16777216
 48
4.0
100
AcDbMText
 10
925.0
 20
2360.000000000002
 30
0.0
 40
45.0
 41
0.0
 71
     5
 72
     1
  1
\A1;555
  7
寸法ｽﾀｲﾙ
 73
     1
 44
1.0
  0
POINT
  5
1C8D
330
1789
100
AcDbEntity
  8
Defpoints
 62
     0
440
 16777216
 48
4.0
100
AcDbPoint
 10
647.5000000000001
 20
2240.000000000001
 30
0.0
  0
POINT
  5
1C8E
330
1789
100
AcDbEntity
  8
Defpoints
 62
     0
440
 16777216
 48
4.0
100
AcDbPoint
 10
1202.5
 20
2240.000000000001
 30
0.0
  0
POINT
  5
1C8F
330
1789
100
AcDbEntity
  8
Defpoints
 62
     0
440
 16777216
 48
4.0
100
AcDbPoint
 10
1202.5
 20
2330.000000000001
 30
0.0
  0
ENDBLK
  5
1794
330
1789
100
AcDbEntity
  8
0
 48
4.0
100
AcDbBlockEnd
  0
ENDSEC
  0
SECTION
  2
ENTITIES
  0
LINE
  5
4B
330
1E
100
AcDbEntity
  8
Defpoints
100
AcDbLine
 10
0.0
 20
3150.0
 30
0.0
 11
0.0
 21
0.0
 31
0.0
  0
LINE
  5
4D
330
1E
100
AcDbEntity
  8
Defpoints
100
AcDbLine
 10
0.0
 20
3150.0
 30
0.0
 11
4455.0
 21
3150.0
 31
0.0
  0
LINE
  5
4E
330
1E
100
AcDbEntity
  8
Defpoints
100
AcDbLine
 10
0.0
 20
0.0
 30
0.0
 11
4455.0
 21
0.0
 31
0.0
  0
LINE
  5
52
330
1E
100
AcDbEntity
  8
11-外枠線
100
AcDbLine
 10
4192.5
 20
150.0
 30
0.0
 11
262.5
 21
149.9999999999996
 31
0.0
  0
LINE
  5
53
330
1E
100
AcDbEntity
  8
11-外枠線
100
AcDbLine
 10
262.5
 20
149.9999999999996
 30
0.0
 11
262.5
 21
2850.0
 31
0.0
  0
LINE
  5
54
330
1E
100
AcDbEntity
  8
11-外枠線
100
AcDbLine
 10
4192.5
 20
2850.0
 30
0.0
 11
262.5
 21
2850.0
 31
0.0
  0
LINE
  5
D3
330
1E
100
AcDbEntity
  8
02-外形線
100
AcDbLine
 10
647.5000000000002
 20
2000.0
 30
0.0
 11
697.5
 21
2000.0
 31
0.0
  0
LINE
  5
D4
330
1E
100
AcDbEntity
  8
02-外形線
100
AcDbLine
 10
697.5
 20
2000.0
 30
0.0
 11
702.4999999999997
 21
1905.000000000001
 31
0.0
  0
LINE
  5
D5
330
1E
100
AcDbEntity
  8
02-外形線
100
AcDbLine
 10
702.4999999999997
 20
1905.000000000001
 30
0.0
 11
757.5
 21
1905.000000000001
 31
0.0
  0
LINE
  5
D6
330
1E
100
AcDbEntity
  8
02-外形線
100
AcDbLine
 10
1167.5
 20
2000.0
 30
0.0
 11
1117.5
 21
2000.0
 31
0.0
  0
LINE
  5
D7
330
1E
100
AcDbEntity
  8
02-外形線
100
AcDbLine
 10
1117.5
 20
2000.0
 30
0.0
 11
1112.5
 21
1905.000000000001
 31
0.0
  0
LINE
  5
D8
330
1E
100
AcDbEntity
  8
02-外形線
100
AcDbLine
 10
1112.5
 20
1905.000000000001
 30
0.0
 11
1057.5
 21
1905.000000000001
 31
0.0
  0
LINE
  5
D9
330
1E
100
AcDbEntity
  8
02-外形線
100
AcDbLine
 10
647.5000000000002
 20
2000.0
 30
0.0
 11
647.5000000000002
 21
1860.000000000001
 31
0.0
  0
LINE
  5
DB
330
1E
100
AcDbEntity
  8
02-外形線
100
AcDbLine
 10
647.5000000000002
 20
1860.000000000001
 30
0.0
 11
697.5
 21
1773.397459621556
 31
0.0
  0
LINE
  5
DC
330
1E
100
AcDbEntity
  8
02-外形線
100
AcDbLine
 10
1202.5
 20
1900.621778264912
 30
0.0
 11
1117.5
 21
1753.397459621556
 31
0.0
  0
LINE
  5
DD
330
1E
100
AcDbEntity
  8
02-外形線
100
AcDbLine
 10
697.5
 20
1565.000000000001
 30
0.0
 11
727.5
 21
1535.000000000001
 31
0.0
  0
LINE
  5
DE
330
1E
100
AcDbEntity
  8
02-外形線
100
AcDbLine
 10
1117.5
 20
1565.000000000001
 30
0.0
 11
1087.5
 21
1535.000000000001
 31
0.0
  0
LINE
  5
DF
330
1E
100
AcDbEntity
  8
02-外形線
100
AcDbLine
 10
727.5
 20
1535.000000000001
 30
0.0
 11
1087.5
 21
1535.000000000001
 31
0.0
  0
LINE
  5
E0
330
1E
100
AcDbEntity
  8
02-外形線
100
AcDbLine
 10
697.5
 20
1773.397459621556
 30
0.0
 11
697.5
 21
1565.000000000001
 31
0.0
  0
LINE
  5
E2
330
1E
100
AcDbEntity
  8
02-外形線
100
AcDbLine
 10
717.4999999999998
 20
1545.0
 30
0.0
 11
1097.5
 21
1545.0
 31
0.0
  0
LINE
  5
E3
330
1E
100
AcDbEntity
  8
02-外形線
100
AcDbLine
 10
3757.5
 20
2000.0
 30
0.0
 11
3757.5
 21
1545.0
 31
0.0
  0
LINE
  5
E4
330
1E
100
AcDbEntity
  8
02-外形線
100
AcDbLine
 10
3747.5
 20
1535.000000000001
 30
0.0
 11
1767.5
 21
1535.000000000001
 31
0.0
  0
LINE
  5
E5
330
1E
100
AcDbEntity
  8
02-外形線
100
AcDbLine
 10
1757.5
 20
1545.0
 30
0.0
 11
1757.5
 21
2000.0
 31
0.0
  0
LINE
  5
E6
330
1E
100
AcDbEntity
  8
03-隠れ線
 48
4.0
100
AcDbLine
 10
1757.5
 20
1860.000000000001
 30
0.0
 11
3757.5
 21
1860.000000000001
 31
0.0
  0
LINE
  5
E8
330
1E
100
AcDbEntity
  8
03-隠れ線
 48
4.0
100
AcDbLine
 10
1757.5
 20
1905.000000000001
 30
0.0
 11
3757.5
 21
1905.000000000001
 31
0.0
  0
LINE
  5
E9
330
1E
100
AcDbEntity
  8
03-隠れ線
 48
4.0
100
AcDbLine
 10
1757.5
 20
1580.000000000001
 30
0.0
 11
1767.5
 21
1584.0
 31
0.0
  0
LINE
  5
EA
330
1E
100
AcDbEntity
  8
03-隠れ線
 48
4.0
100
AcDbLine
 10
1767.5
 20
1584.0
 30
0.0
 11
1767.5
 21
1905.000000000001
 31
0.0
  0
LINE
  5
EB
330
1E
100
AcDbEntity
  8
03-隠れ線
 48
4.0
100
AcDbLine
 10
3747.5
 20
1905.000000000001
 30
0.0
 11
3747.5
 21
1584.0
 31
0.0
  0
LINE
  5
EC
330
1E
100
AcDbEntity
  8
03-隠れ線
 48
4.0
100
AcDbLine
 10
3747.5
 20
1584.0
 30
0.0
 11
3757.5
 21
1580.000000000001
 31
0.0
  0
LINE
  5
ED
330
1E
100
AcDbEntity
  8
03-隠れ線
 48
4.0
100
AcDbLine
 10
1767.5
 20
1605.000000000001
 30
0.0
 11
3747.5
 21
1605.000000000001
 31
0.0
  0
LINE
  5
EE
330
1E
100
AcDbEntity
  8
02-外形線
100
AcDbLine
 10
1757.5
 20
1565.000000000001
 30
0.0
 11
3757.5
 21
1565.000000000001
 31
0.0
  0
LINE
  5
EF
330
1E
100
AcDbEntity
  8
01-寸法線
 62
     4
100
AcDbLine
 10
1027.5
 20
1605.000000000001
 30
0.0
 11
1047.5
 21
1605.000000000001
 31
0.0
  0
LINE
  5
F0
330
1E
100
AcDbEntity
  8
01-寸法線
 62
     4
100
AcDbLine
 10
1048.166296604652
 20
1624.988898139583
 30
0.0
 11
1047.5
 21
1605.000000000001
 31
0.0
  0
LINE
  5
F1
330
1E
100
AcDbEntity
  8
02-外形線
100
AcDbLine
 10
765.8888580503876
 20
1653.334258488368
 30
0.0
 11
757.5
 21
1905.000000000001
 31
0.0
  0
ARC
  5
F2
330
1E
100
AcDbEntity
  8
02-外形線
100
AcDbCircle
 10
815.8611033993455
 20
1655.000000000001
 30
0.0
 40
50.0
100
AcDbArc
 50
181.9091524329964
 51
270.0
  0
LINE
  5
F3
330
1E
100
AcDbEntity
  8
02-外形線
100
AcDbLine
 10
1049.111141949612
 20
1653.334258488368
 30
0.0
 11
1057.5
 21
1905.000000000001
 31
0.0
  0
LINE
  5
F4
330
1E
100
AcDbEntity
  8
02-外形線
100
AcDbLine
 10
999.1388966006544
 20
1605.000000000001
 30
0.0
 11
815.8611033993455
 21
1605.000000000001
 31
0.0
  0
ARC
  5
F5
330
1E
100
AcDbEntity
  8
02-外形線
100
AcDbCircle
 10
999.1388966006544
 20
1655.000000000001
 30
0.0
 40
50.0
100
AcDbArc
 50
270.0
 51
358.0908475670036
  0
LINE
  5
F6
330
1E
100
AcDbEntity
  8
02-外形線
100
AcDbLine
 10
740.9027353759088
 20
1652.501387732552
 30
0.0
 11
732.4861149669938
 21
1905.000000000001
 31
0.0
  0
ARC
  5
F7
330
1E
100
AcDbEntity
  8
02-外形線
100
AcDbCircle
 10
815.8611033993455
 20
1655.0
 30
0.0
 40
75.0
100
AcDbArc
 50
181.9091524329964
 51
270.0
  0
LINE
  5
F8
330
1E
100
AcDbEntity
  8
02-外形線
100
AcDbLine
 10
1074.097264624091
 20
1652.501387732552
 30
0.0
 11
1082.513885033006
 21
1905.000000000001
 31
0.0
  0
LINE
  5
F9
330
1E
100
AcDbEntity
  8
02-外形線
100
AcDbLine
 10
999.1388966006544
 20
1580.000000000001
 30
0.0
 11
815.8611033993455
 21
1580.000000000001
 31
0.0
  0
ARC
  5
FA
330
1E
100
AcDbEntity
  8
02-外形線
100
AcDbCircle
 10
999.1388966006544
 20
1655.0
 30
0.0
 40
75.0
100
AcDbArc
 50
270.0
 51
358.0908475670036
  0
LINE
  5
135
330
1E
100
AcDbEntity
  8
01-寸法線
 62
     4
100
AcDbLine
 10
787.5
 20
1605.000000000001
 30
0.0
 11
767.5000000000001
 21
1605.000000000001
 31
0.0
  0
LINE
  5
136
330
1E
100
AcDbEntity
  8
01-寸法線
 62
     4
100
AcDbLine
 10
766.8337033953474
 20
1624.988898139583
 30
0.0
 11
767.5000000000001
 21
1605.000000000001
 31
0.0
  0
LINE
  5
13D
330
1E
100
AcDbEntity
  8
02-外形線
100
AcDbLine
 10
1757.5
 20
2000.0
 30
0.0
 11
3757.5
 21
2000.0
 31
0.0
  0
LINE
  5
1B5
330
1E
100
AcDbEntity
  8
03-隠れ線
 48
4.0
100
AcDbLine
 10
1099.0
 20
1743.25
 30
0.0
 11
1117.5
 21
1743.25
 31
0.0
  0
LINE
  5
1B6
330
1E
100
AcDbEntity
  8
03-隠れ線
 48
4.0
100
AcDbLine
 10
1099.0
 20
1716.75
 30
0.0
 11
1117.5
 21
1716.75
 31
0.0
  0
LINE
  5
1B7
330
1E
100
AcDbEntity
  8
03-隠れ線
 48
4.0
100
AcDbLine
 10
1075.0
 20
1743.25
 30
0.0
 11
1075.0
 21
1716.75
 31
0.0
  0
LINE
  5
1B9
330
1E
100
AcDbEntity
  8
03-隠れ線
 48
4.0
100
AcDbLine
 10
1079.0
 20
1711.75
 30
0.0
 11
1086.0
 21
1711.75
 31
0.0
  0
LINE
  5
1BA
330
1E
100
AcDbEntity
  8
03-隠れ線
 48
4.0
100
AcDbLine
 10
1075.0
 20
1743.25
 30
0.0
 11
1079.0
 21
1748.25
 31
0.0
  0
LINE
  5
1BB
330
1E
100
AcDbEntity
  8
03-隠れ線
 48
4.0
100
AcDbLine
 10
1075.0
 20
1716.75
 30
0.0
 11
1079.0
 21
1711.75
 31
0.0
  0
LINE
  5
1BC
330
1E
100
AcDbEntity
  8
03-隠れ線
 48
4.0
100
AcDbLine
 10
1086.0
 20
1748.25
 30
0.0
 11
1099.0
 21
1743.25
 31
0.0
  0
LINE
  5
1BD
330
1E
100
AcDbEntity
  8
03-隠れ線
 48
4.0
100
AcDbLine
 10
1086.0
 20
1711.75
 30
0.0
 11
1099.0
 21
1716.75
 31
0.0
  0
LINE
  5
1BE
330
1E
100
AcDbEntity
  8
06-中心線
 48
4.0
100
AcDbLine
 10
1045.0
 20
1730.0
 30
0.0
 11
1147.5
 21
1730.0
 31
0.0
  0
LINE
  5
1BF
330
1E
100
AcDbEntity
  8
03-隠れ線
 48
4.0
100
AcDbLine
 10
715.9999999999997
 20
1716.750000000001
 30
0.0
 11
697.5
 21
1716.750000000001
 31
0.0
  0
LINE
  5
1C0
330
1E
100
AcDbEntity
  8
03-隠れ線
 48
4.0
100
AcDbLine
 10
715.9999999999997
 20
1743.250000000001
 30
0.0
 11
697.5
 21
1743.250000000001
 31
0.0
  0
LINE
  5
1C1
330
1E
100
AcDbEntity
  8
03-隠れ線
 48
4.0
100
AcDbLine
 10
739.9999999999996
 20
1716.750000000001
 30
0.0
 11
739.9999999999996
 21
1743.250000000001
 31
0.0
  0
LINE
  5
1C2
330
1E
100
AcDbEntity
  8
03-隠れ線
 48
4.0
100
AcDbLine
 10
736.0
 20
1711.750000000001
 30
0.0
 11
728.9999999999995
 21
1711.750000000001
 31
0.0
  0
LINE
  5
1C4
330
1E
100
AcDbEntity
  8
03-隠れ線
 48
4.0
100
AcDbLine
 10
739.9999999999996
 20
1716.750000000001
 30
0.0
 11
736.0
 21
1711.750000000001
 31
0.0
  0
LINE
  5
1C5
330
1E
100
AcDbEntity
  8
03-隠れ線
 48
4.0
100
AcDbLine
 10
739.9999999999996
 20
1743.250000000001
 30
0.0
 11
736.0
 21
1748.250000000001
 31
0.0
  0
LINE
  5
1C6
330
1E
100
AcDbEntity
  8
03-隠れ線
 48
4.0
100
AcDbLine
 10
728.9999999999995
 20
1711.750000000001
 30
0.0
 11
715.9999999999997
 21
1716.750000000001
 31
0.0
  0
LINE
  5
1C7
330
1E
100
AcDbEntity
  8
03-隠れ線
 48
4.0
100
AcDbLine
 10
728.9999999999995
 20
1748.250000000001
 30
0.0
 11
715.9999999999997
 21
1743.250000000001
 31
0.0
  0
LINE
  5
1C8
330
1E
100
AcDbEntity
  8
06-中心線
 48
4.0
100
AcDbLine
 10
769.9999999999996
 20
1730.0
 30
0.0
 11
667.4999999999998
 21
1730.0
 31
0.0
  0
CIRCLE
  5
1C9
330
1E
100
AcDbEntity
  8
02-外形線
100
AcDbCircle
 10
2757.500000000001
 20
1730.0
 30
0.0
 40
13.25
  0
CIRCLE
  5
1CA
330
1E
100
AcDbEntity
  8
03-隠れ線
 48
4.0
100
AcDbCircle
 10
2757.500000000001
 20
1730.0
 30
0.0
 40
18.25
  0
LINE
  5
1CB
330
1E
100
AcDbEntity
  8
01-寸法線
 48
41.0
100
AcDbLine
 10
2707.500000000001
 20
1730.0
 30
0.0
 11
2807.500000000001
 21
1730.0
 31
0.0
  0
LINE
  5
1CC
330
1E
100
AcDbEntity
  8
01-寸法線
 48
41.0
100
AcDbLine
 10
2757.500000000001
 20
1780.0
 30
0.0
 11
2757.500000000001
 21
1679.999999999999
 31
0.0
  0
LINE
  5
1CD
330
1E
100
AcDbEntity
  8
01-寸法線
100
AcDbLine
 10
2760.92935234761
 20
1742.79851719833
 30
0.0
 11
2763.544024630039
 21
1772.684358141083
 31
0.0
  0
LINE
  5
1CE
330
1E
100
AcDbEntity
  8
01-寸法線
100
AcDbLine
 10
2760.92935234761
 20
1742.79851719833
 30
0.0
 11
2773.607900199829
 21
1769.987750809429
 31
0.0
  0
LINE
  5
1CF
330
1E
100
AcDbEntity
  8
01-寸法線
100
AcDbLine
 10
2760.92935234761
 20
1742.79851719833
 30
0.0
 11
2863.339931010298
 21
2125.000000000001
 31
0.0
  0
LINE
  5
1E4
330
1E
100
AcDbEntity
  8
01-寸法線
  6
Continuous
 62
     4
100
AcDbLine
 10
1117.5
 20
1755.0
 30
0.0
 11
1192.5
 21
1755.0
 31
0.0
  0
LINE
  5
1EA
330
1E
100
AcDbEntity
  8
01-寸法線
  6
Continuous
 62
     4
100
AcDbLine
 10
1117.5
 20
1770.0
 30
0.0
 11
1117.5
 21
1620.0
 31
0.0
  0
LINE
  5
298
330
1E
100
AcDbEntity
  8
02-外形線
100
AcDbLine
 10
1757.5
 20
1545.0
 30
0.0
 11
1767.5
 21
1535.0
 31
0.0
  0
LINE
  5
29E
330
1E
100
AcDbEntity
  8
02-外形線
100
AcDbLine
 10
3757.5
 20
1545.0
 30
0.0
 11
3747.500000000002
 21
1535.0
 31
0.0
  0
LINE
  5
3B2
330
1E
100
AcDbEntity
  8
11-外枠線
100
AcDbLine
 10
4192.5
 20
2850.0
 30
0.0
 11
4192.5
 21
150.0
 31
0.0
  0
LINE
  5
406
330
1E
100
AcDbEntity
  8
01-寸法線
 62
     4
100
AcDbLine
 10
746.6597241501635
 20
1855.000000000001
 30
0.0
 11
798.6212483772294
 21
1945.0
 31
0.0
  0
LINE
  5
409
330
1E
100
AcDbEntity
  8
01-寸法線
 62
     4
100
AcDbLine
 10
746.6597241501635
 20
1855.000000000001
 30
0.0
 11
756.9203284499336
 21
1883.190778623578
 31
0.0
  0
LINE
  5
40A
330
1E
100
AcDbEntity
  8
01-寸法線
 62
     4
100
AcDbLine
 10
746.6597241501635
 20
1855.000000000001
 30
0.0
 11
765.9433524407595
 21
1877.981333293569
 31
0.0
  0
LINE
  5
10BC
330
1E
100
AcDbEntity
  8
02-外形線
100
AcDbLine
 10
1291.5
 20
550.0
 30
0.0
 11
1267.5
 21
490.0
 31
0.0
  0
LINE
  5
10BD
330
1E
100
AcDbEntity
  8
01-寸法線
100
AcDbLine
 10
1278.702983379879
 20
518.007458449697
 30
0.0
 11
1423.024389982169
 21
662.3288650519871
 31
0.0
  0
LINE
  5
10BE
330
1E
100
AcDbEntity
  8
01-寸法線
100
AcDbLine
 10
1252.5
 20
449.3780681986181
 30
0.0
 11
1434.83746609338
 21
631.7155342919991
 31
0.0
  0
LINE
  5
10BF
330
1E
100
AcDbEntity
  8
01-寸法線
100
AcDbLine
 10
1246.5
 20
400.9516613274185
 30
0.0
 11
1443.252375159403
 21
597.7040364868212
 31
0.0
  0
LINE
  5
10C0
330
1E
100
AcDbEntity
  8
01-寸法線
100
AcDbLine
 10
1336.5
 20
448.5252544562181
 30
0.0
 11
1447.337611788411
 21
559.362866244629
 31
0.0
  0
LINE
  5
10C1
330
1E
100
AcDbEntity
  8
01-寸法線
 62
     4
370
    13
100
AcDbLine
 10
1066.5
 20
550.0
 30
0.0
 11
1066.5
 21
520.0
 31
0.0
  0
LINE
  5
10C2
330
1E
100
AcDbEntity
  8
01-寸法線
 62
     4
370
    13
100
AcDbLine
 10
1066.5
 20
520.0
 30
0.0
 11
1066.5
 21
580.0
 31
0.0
  0
MTEXT
  5
10C3
330
1E
100
AcDbEntity
  8
01-寸法線
 62
     4
100
AcDbMText
 10
1036.5
 20
550.0000000000006
 30
0.0
 40
45.0
 41
0.0
 71
     5
 72
     1
  1
10
  7
寸法ｽﾀｲﾙ
 11
0.0000000000000001
 21
1.0
 31
0.0
 73
     1
 44
1.0
  0
INSERT
  5
10C4
330
1E
100
AcDbEntity
  8
01-寸法線
 62
     4
370
    13
100
AcDbBlockReference
  2
_Open
 10
1066.5
 20
520.0
 30
0.0
 41
30.0
 42
30.0
 43
30.0
 50
270.0
  0
LINE
  5
10C5
330
1E
100
AcDbEntity
  8
01-寸法線
 62
     4
370
    13
100
AcDbLine
 10
991.5
 20
520.0
 30
0.0
 11
991.5
 21
579.9999999999995
 31
0.0
  0
MTEXT
  5
10C6
330
1E
100
AcDbEntity
  8
01-寸法線
 62
     4
100
AcDbMText
 10
961.5
 20
550.0
 30
0.0
 40
45.0
 41
0.0
 71
     5
 72
     1
  1
20
  7
寸法ｽﾀｲﾙ
 11
0.0000000000000001
 21
1.0
 31
0.0
 73
     1
 44
1.0
  0
CIRCLE
  5
10C7
330
1E
100
AcDbEntity
  8
01-寸法線
100
AcDbCircle
 10
1177.5
 20
550.0
 30
0.0
 40
270.0
  0
LINE
  5
10C8
330
1E
100
AcDbEntity
  8
02-外形線
100
AcDbLine
 10
1141.5
 20
520.0
 30
0.0
 11
1141.5
 21
282.410762548267
 31
0.0
  0
LINE
  5
10C9
330
1E
100
AcDbEntity
  8
01-寸法線
100
AcDbLine
 10
1212.70633778497
 20
282.3051853700158
 30
0.0
 11
1445.194814629931
 21
514.7936622149759
 31
0.0
  0
LINE
  5
10CA
330
1E
100
AcDbEntity
  8
01-寸法線
100
AcDbLine
 10
1168.137133755316
 20
280.1623882115346
 30
0.0
 11
1227.974745543782
 21
340.0
 31
0.0
  0
INSERT
  5
10CB
330
1E
100
AcDbEntity
  8
01-寸法線
 62
     4
370
    13
100
AcDbBlockReference
  2
_Open
 10
1291.5
 20
415.0
 30
0.0
 41
30.0
 42
30.0
 43
30.0
 50
180.0
  0
MTEXT
  5
10CC
330
1E
100
AcDbEntity
  8
01-寸法線
 62
     4
100
AcDbMText
 10
1321.5
 20
445.0000000000001
 30
0.0
 40
45.0
 41
0.0
 71
     5
 72
     1
  1
4
  7
寸法ｽﾀｲﾙ
 73
     1
 44
1.0
  0
LINE
  5
10CD
330
1E
100
AcDbEntity
  8
01-寸法線
100
AcDbLine
 10
1268.694649296852
 20
295.8670900106986
 30
0.0
 11
1431.632909989247
 21
458.8053507030926
 31
0.0
  0
LINE
  5
10CE
330
1E
100
AcDbEntity
  8
01-寸法線
 62
     4
370
    13
100
AcDbLine
 10
1291.5
 20
535.0
 30
0.0
 11
1291.5
 21
400.0
 31
0.0
  0
LINE
  5
10CF
330
1E
100
AcDbEntity
  8
01-寸法線
100
AcDbLine
 10
1141.5
 20
380.8044750698182
 30
0.0
 11
1192.5
 21
431.8044750698182
 31
0.0
  0
LINE
  5
10D0
330
1E
100
AcDbEntity
  8
01-寸法線
 62
     4
370
    13
100
AcDbLine
 10
1177.5
 20
505.0
 30
0.0
 11
1177.5
 21
400.0
 31
0.0
  0
INSERT
  5
10D1
330
1E
100
AcDbEntity
  8
01-寸法線
 62
     4
370
    13
100
AcDbBlockReference
  2
_Open
 10
1141.5
 20
415.0
 30
0.0
 41
30.0
 42
30.0
 43
30.0
  0
INSERT
  5
10D2
330
1E
100
AcDbEntity
  8
01-寸法線
 62
     4
370
    13
100
AcDbBlockReference
  2
_Open
 10
1177.5
 20
415.0
 30
0.0
 41
30.0
 42
30.0
 43
30.0
 50
180.0
  0
LINE
  5
10D3
330
1E
100
AcDbEntity
  8
01-寸法線
 62
     4
370
    13
100
AcDbLine
 10
1177.5
 20
505.0
 30
0.0
 11
1177.5
 21
400.0
 31
0.0
  0
LINE
  5
10D4
330
1E
100
AcDbEntity
  8
01-寸法線
 62
     4
370
    13
100
AcDbLine
 10
1267.5
 20
475.0
 30
0.0
 11
1267.5
 21
400.0
 31
0.0
  0
INSERT
  5
10D5
330
1E
100
AcDbEntity
  8
01-寸法線
 62
     4
370
    13
100
AcDbBlockReference
  2
_Open
 10
1177.5
 20
415.0
 30
0.0
 41
30.0
 42
30.0
 43
30.0
 50
180.0
  0
INSERT
  5
10D6
330
1E
100
AcDbEntity
  8
01-寸法線
 62
     4
370
    13
100
AcDbBlockReference
  2
_Open
 10
1267.5
 20
415.0
 30
0.0
 41
30.0
 42
30.0
 43
30.0
  0
MTEXT
  5
10D7
330
1E
100
AcDbEntity
  8
01-寸法線
 62
     4
100
AcDbMText
 10
1222.5
 20
445.0000000000001
 30
0.0
 40
45.0
 41
0.0
 71
     5
 72
     1
  1
15
  7
寸法ｽﾀｲﾙ
 73
     1
 44
1.0
  0
LINE
  5
10D8
330
1E
100
AcDbEntity
  8
01-寸法線
 62
     4
370
    13
100
AcDbLine
 10
1267.5
 20
475.0
 30
0.0
 11
1267.5
 21
400.0
 31
0.0
  0
INSERT
  5
10D9
330
1E
100
AcDbEntity
  8
01-寸法線
 62
     4
370
    13
100
AcDbBlockReference
  2
_Open
 10
1267.5
 20
415.0
 30
0.0
 41
30.0
 42
30.0
 43
30.0
  0
LINE
  5
10DA
330
1E
100
AcDbEntity
  8
01-寸法線
100
AcDbLine
 10
1246.5
 20
358.5252544562181
 30
0.0
 11
1306.5
 21
418.5252544562181
 31
0.0
  0
MTEXT
  5
10DB
330
1E
100
AcDbEntity
  8
01-寸法線
 62
     4
100
AcDbMText
 10
1111.5
 20
445.0000000000001
 30
0.0
 40
45.0
 41
0.0
 71
     5
 72
     1
  1
6
  7
寸法ｽﾀｲﾙ
 73
     1
 44
1.0
  0
LINE
  5
10DC
330
1E
100
AcDbEntity
  8
01-寸法線
 62
     4
370
    13
100
AcDbLine
 10
1111.5
 20
415.0
 30
0.0
 11
1081.5
 21
415.0
 31
0.0
  0
LINE
  5
10DD
330
1E
100
AcDbEntity
  8
01-寸法線
 62
     4
370
    13
100
AcDbLine
 10
1291.5
 20
400.0
 30
0.0
 11
1291.5
 21
325.0
 31
0.0
  0
LINE
  5
10DE
330
1E
100
AcDbEntity
  8
01-寸法線
100
AcDbLine
 10
1141.5
 20
338.3780681986181
 30
0.0
 11
1186.5
 21
383.3780681986182
 31
0.0
  0
MTEXT
  5
10DF
330
1E
100
AcDbEntity
  8
01-寸法線
 62
     4
100
AcDbMText
 10
1216.5
 20
370.0000000000001
 30
0.0
 40
45.0
 41
0.0
 71
     5
 72
     1
  1
25
  7
寸法ｽﾀｲﾙ
 73
     1
 44
1.0
  0
LINE
  5
10E0
330
1E
100
AcDbEntity
  8
01-寸法線
 62
     4
370
    13
100
AcDbLine
 10
1171.5
 20
340.0
 30
0.0
 11
1261.5
 21
340.0
 31
0.0
  0
LINE
  5
10E1
330
1E
100
AcDbEntity
  8
01-寸法線
100
AcDbLine
 10
1141.5
 20
295.9516613274182
 30
0.0
 11
1186.5
 21
340.9516613274182
 31
0.0
  0
INSERT
  5
10E2
330
1E
100
AcDbEntity
  8
01-寸法線
 62
     4
370
    13
100
AcDbBlockReference
  2
_Open
 10
1141.5
 20
340.0
 30
0.0
 41
30.0
 42
30.0
 43
30.0
 50
180.0
  0
INSERT
  5
10E3
330
1E
100
AcDbEntity
  8
01-寸法線
 62
     4
370
    13
100
AcDbBlockReference
  2
_Open
 10
1291.5
 20
340.0
 30
0.0
 41
30.0
 42
30.0
 43
30.0
  0
LINE
  5
10E4
330
1E
100
AcDbEntity
  8
01-寸法線
 62
     4
370
    13
100
AcDbLine
 10
1207.5
 20
415.0
 30
0.0
 11
1237.5
 21
415.0
 31
0.0
  0
LINE
  5
10E5
330
1E
100
AcDbEntity
  8
01-寸法線
 62
     4
370
    13
100
AcDbLine
 10
1207.5
 20
415.0
 30
0.0
 11
1237.5
 21
415.0
 31
0.0
  0
LINE
  5
10E6
330
1E
100
AcDbEntity
  8
01-寸法線
 62
     4
370
    13
100
AcDbLine
 10
1237.5
 20
415.0
 30
0.0
 11
1207.5
 21
415.0
 31
0.0
  0
LINE
  5
10E7
330
1E
100
AcDbEntity
  8
01-寸法線
100
AcDbLine
 10
1203.121931801382
 20
400.0
 30
0.0
 11
1218.121931801382
 21
415.0
 31
0.0
  0
LINE
  5
10E8
330
1E
100
AcDbEntity
  8
01-寸法線
 62
     4
370
    13
100
AcDbLine
 10
1141.5
 20
415.0
 30
0.0
 11
1177.5
 21
415.0
 31
0.0
  0
LINE
  5
10E9
330
1E
100
AcDbEntity
  8
01-寸法線
 62
     4
370
    13
100
AcDbLine
 10
1267.5
 20
415.0
 30
0.0
 11
1291.5
 21
415.0
 31
0.0
  0
LINE
  5
10EA
330
1E
100
AcDbEntity
  8
01-寸法線
 62
     4
370
    13
100
AcDbLine
 10
1252.5
 20
490.0
 30
0.0
 11
1051.5
 21
490.0
 31
0.0
  0
LINE
  5
10EB
330
1E
100
AcDbEntity
  8
01-寸法線
 62
     4
370
    13
100
AcDbLine
 10
1066.5
 20
490.0
 30
0.0
 11
1066.5
 21
460.0
 31
0.0
  0
INSERT
  5
10EC
330
1E
100
AcDbEntity
  8
01-寸法線
 62
     4
370
    13
100
AcDbBlockReference
  2
_Open
 10
1066.5
 20
490.0
 30
0.0
 41
30.0
 42
30.0
 43
30.0
 50
90.0
  0
MTEXT
  5
10ED
330
1E
100
AcDbEntity
  8
01-寸法線
 62
     4
100
AcDbMText
 10
1036.5
 20
460.0000000000001
 30
0.0
 40
45.0
 41
0.0
 71
     5
 72
     1
  1
5
  7
寸法ｽﾀｲﾙ
 11
0.0000000000000001
 21
1.0
 31
0.0
 73
     1
 44
1.0
  0
LINE
  5
10EE
330
1E
100
AcDbEntity
  8
01-寸法線
 62
     4
370
    13
100
AcDbLine
 10
1066.5
 20
460.0
 30
0.0
 11
1066.5
 21
430.0
 31
0.0
  0
LINE
  5
10EF
330
1E
100
AcDbEntity
  8
01-寸法線
 62
     4
370
    13
100
AcDbLine
 10
1126.5
 20
520.0
 30
0.0
 11
1051.5
 21
520.0
 31
0.0
  0
LINE
  5
10F0
330
1E
100
AcDbEntity
  8
01-寸法線
 62
     4
370
    13
100
AcDbLine
 10
1126.5
 20
520.0
 30
0.0
 11
1051.5
 21
520.0
 31
0.0
  0
INSERT
  5
10F1
330
1E
100
AcDbEntity
  8
01-寸法線
 62
     4
370
    13
100
AcDbBlockReference
  2
_Open
 10
991.5
 20
490.0
 30
0.0
 41
30.0
 42
30.0
 43
30.0
 50
270.0
  0
LINE
  5
10F2
330
1E
100
AcDbEntity
  8
01-寸法線
 62
     4
370
    13
100
AcDbLine
 10
1051.5
 20
490.0
 30
0.0
 11
976.5
 21
490.0
 31
0.0
  0
LINE
  5
10F3
330
1E
100
AcDbEntity
  8
01-寸法線
 62
     4
370
    13
100
AcDbLine
 10
1066.5
 20
490.0
 30
0.0
 11
1066.5
 21
520.0
 31
0.0
  0
LINE
  5
10F4
330
1E
100
AcDbEntity
  8
01-寸法線
100
AcDbLine
 10
1235.695524930182
 20
475.0
 30
0.0
 11
1254.896643697637
 21
494.2011187674547
 31
0.0
  0
LINE
  5
10F5
330
1E
100
AcDbEntity
  8
01-寸法線
100
AcDbLine
 10
1141.5
 20
465.6572888121909
 30
0.0
 11
1191.257033390857
 21
515.4143222030479
 31
0.0
  0
LINE
  5
10F6
330
1E
100
AcDbEntity
  8
01-寸法線
100
AcDbLine
 10
1141.5
 20
423.2308819409909
 30
0.0
 11
1223.076838544257
 21
504.8077204852474
 31
0.0
  0
LINE
  5
10F7
330
1E
100
AcDbEntity
  8
02-外形線
100
AcDbLine
 10
1177.5
 20
520.0
 30
0.0
 11
1267.5
 21
490.0
 31
0.0
  0
LINE
  5
10F8
330
1E
100
AcDbEntity
  8
02-外形線
100
AcDbLine
 10
1141.5
 20
520.0
 30
0.0
 11
1177.5
 21
520.0
 31
0.0
  0
LINE
  5
10F9
330
1E
100
AcDbEntity
  8
01-寸法線
100
AcDbLine
 10
1141.5
 20
508.0836956833909
 30
0.0
 11
1153.416304316609
 21
520.0
 31
0.0
  0
LINE
  5
10FA
330
1E
100
AcDbEntity
  8
01-寸法線
 62
     4
370
    13
100
AcDbLine
 10
1321.5
 20
415.0
 30
0.0
 11
1351.5
 21
415.0
 31
0.0
  0
TEXT
  5
10FB
330
1E
100
AcDbEntity
  8
08-下線
100
AcDbText
 10
647.0030445380536
 20
761.7571428571428
 30
0.0
 40
45.0
  1
%%U目地部詳細図
 41
0.8
  7
ｵﾘｼﾞﾅﾙｽﾀｲﾙ
 72
     2
 11
962.9801873951965
 21
752.5
 31
0.0
100
AcDbText
 73
     1
  0
LINE
  5
10FC
330
1E
100
AcDbEntity
  8
02-外形線
100
AcDbLine
 10
1141.5
 20
580.0
 30
0.0
 11
1141.5
 21
817.5892374517333
 31
0.0
  0
LINE
  5
10FD
330
1E
100
AcDbEntity
  8
01-寸法線
100
AcDbLine
 10
1141.5
 20
762.6421369105364
 30
0.0
 11
1198.072933967659
 21
819.2150708781955
 31
0.0
  0
LINE
  5
10FE
330
1E
100
AcDbEntity
  8
01-寸法線
100
AcDbLine
 10
1141.5
 20
720.2157300393364
 30
0.0
 11
1235.074331166083
 21
813.790061205419
 31
0.0
  0
LINE
  5
10FF
330
1E
100
AcDbEntity
  8
01-寸法線
100
AcDbLine
 10
1208.710676831836
 20
745.0
 30
0.0
 11
1268.067694899945
 21
804.357018068109
 31
0.0
  0
LINE
  5
1100
330
1E
100
AcDbEntity
  8
01-寸法線
100
AcDbLine
 10
1251.137083703036
 20
745.0
 30
0.0
 11
1297.837216680863
 21
791.7001329778267
 31
0.0
  0
LINE
  5
1101
330
1E
100
AcDbEntity
  8
01-寸法線
100
AcDbLine
 10
1293.563490574236
 20
745.0
 30
0.0
 11
1324.826437047635
 21
776.2629464733991
 31
0.0
  0
LINE
  5
1102
330
1E
100
AcDbEntity
  8
01-寸法線
100
AcDbLine
 10
1306.5577136594
 20
715.5678162139911
 30
0.0
 11
1349.289030721738
 21
758.2991332763286
 31
0.0
  0
LINE
  5
1103
330
1E
100
AcDbEntity
  8
02-外形線
100
AcDbLine
 10
1291.5
 20
550.0
 30
0.0
 11
1447.5
 21
550.0
 31
0.0
  0
LINE
  5
1104
330
1E
100
AcDbEntity
  8
01-寸法線
100
AcDbLine
 10
1384.5
 20
550.0
 30
0.0
 11
1306.5577136594
 21
685.0
 31
0.0
  0
LINE
  5
1105
330
1E
100
AcDbEntity
  8
01-寸法線
100
AcDbLine
 10
1284.862605159717
 20
566.5934871007075
 30
0.0
 11
1408.330620733949
 21
690.0615026749401
 31
0.0
  0
LINE
  5
1106
330
1E
100
AcDbEntity
  8
01-寸法線
100
AcDbLine
 10
1231.374456474914
 20
597.958152158305
 30
0.0
 11
1371.35406446604
 21
737.9377601494306
 31
0.0
  0
LINE
  5
1107
330
1E
100
AcDbEntity
  8
01-寸法線
100
AcDbLine
 10
1272.740774625088
 20
596.8980634372792
 30
0.0
 11
1391.053893249149
 21
715.21118206134
 31
0.0
  0
LINE
  5
1108
330
1E
100
AcDbEntity
  8
01-寸法線
100
AcDbLine
 10
1141.5
 20
635.3629162969637
 30
0.0
 11
1191.137083703036
 21
685.0
 31
0.0
  0
LINE
  5
1109
330
1E
100
AcDbEntity
  8
01-寸法線
100
AcDbLine
 10
1141.5
 20
592.9365094257637
 30
0.0
 11
1233.563490574236
 21
685.0
 31
0.0
  0
LINE
  5
110A
330
1E
100
AcDbEntity
  8
01-寸法線
100
AcDbLine
 10
1170.989897445409
 20
580.0
 30
0.0
 11
1275.989897445409
 21
685.0
 31
0.0
  0
LINE
  5
110B
330
1E
100
AcDbEntity
  8
01-寸法線
 62
     4
370
    13
100
AcDbLine
 10
1066.5
 20
640.0
 30
0.0
 11
1066.5
 21
670.0
 31
0.0
  0
LINE
  5
110C
330
1E
100
AcDbEntity
  8
01-寸法線
100
AcDbLine
 10
1141.5
 20
640.0
 30
0.0
 11
1096.5
 21
685.0
 31
0.0
  0
LINE
  5
110D
330
1E
100
AcDbEntity
  8
01-寸法線
100
AcDbLine
 10
1141.5
 20
640.0
 30
0.0
 11
1127.734165527575
 21
659.6596490629358
 31
0.0
  0
LINE
  5
110E
330
1E
100
AcDbEntity
  8
01-寸法線
100
AcDbLine
 10
1141.5
 20
640.0
 30
0.0
 11
1121.840350937064
 21
653.7658344724254
 31
0.0
  0
LINE
  5
110F
330
1E
100
AcDbEntity
  8
01-寸法線
 62
     4
370
    13
100
AcDbLine
 10
1252.5
 20
610.0
 30
0.0
 11
1051.5
 21
610.0
 31
0.0
  0
LINE
  5
1110
330
1E
100
AcDbEntity
  8
01-寸法線
 62
     4
370
    13
100
AcDbLine
 10
1066.5
 20
580.0
 30
0.0
 11
1066.5
 21
610.0
 31
0.0
  0
INSERT
  5
1111
330
1E
100
AcDbEntity
  8
01-寸法線
 62
     4
370
    13
100
AcDbBlockReference
  2
_Open
 10
991.5
 20
609.9999999999995
 30
0.0
 41
30.0
 42
30.0
 43
30.0
 50
90.0
  0
LINE
  5
1112
330
1E
100
AcDbEntity
  8
01-寸法線
 62
     4
370
    13
100
AcDbLine
 10
1126.5
 20
580.0
 30
0.0
 11
1051.5
 21
580.0
 31
0.0
  0
LINE
  5
1113
330
1E
100
AcDbEntity
  8
01-寸法線
 62
     4
370
    13
100
AcDbLine
 10
1126.5
 20
580.0
 30
0.0
 11
1051.5
 21
580.0
 31
0.0
  0
LINE
  5
1114
330
1E
100
AcDbEntity
  8
01-寸法線
 62
     4
370
    13
100
AcDbLine
 10
1066.5
 20
550.0
 30
0.0
 11
1066.5
 21
580.0
 31
0.0
  0
INSERT
  5
1115
330
1E
100
AcDbEntity
  8
01-寸法線
 62
     4
370
    13
100
AcDbBlockReference
  2
_Open
 10
1066.5
 20
580.0
 30
0.0
 41
30.0
 42
30.0
 43
30.0
 50
90.0
  0
MTEXT
  5
1116
330
1E
100
AcDbEntity
  8
01-寸法線
 62
     4
100
AcDbMText
 10
1036.5
 20
640.0000000000001
 30
0.0
 40
45.0
 41
0.0
 71
     5
 72
     1
  1
5
  7
寸法ｽﾀｲﾙ
 11
0.0000000000000001
 21
1.0
 31
0.0
 73
     1
 44
1.0
  0
LINE
  5
1117
330
1E
100
AcDbEntity
  8
01-寸法線
 62
     4
370
    13
100
AcDbLine
 10
1051.5
 20
609.9999999999995
 30
0.0
 11
976.5
 21
609.9999999999995
 31
0.0
  0
LINE
  5
1118
330
1E
100
AcDbEntity
  8
01-寸法線
 62
     4
370
    13
100
AcDbLine
 10
1066.5
 20
610.0
 30
0.0
 11
1066.5
 21
640.0
 31
0.0
  0
INSERT
  5
1119
330
1E
100
AcDbEntity
  8
01-寸法線
 62
     4
370
    13
100
AcDbBlockReference
  2
_Open
 10
1066.5
 20
610.0
 30
0.0
 41
30.0
 42
30.0
 43
30.0
 50
270.0
  0
LINE
  5
111A
330
1E
100
AcDbEntity
  8
02-外形線
100
AcDbLine
 10
1177.5
 20
580.0
 30
0.0
 11
1267.5
 21
610.0
 31
0.0
  0
LINE
  5
111B
330
1E
100
AcDbEntity
  8
02-外形線
100
AcDbLine
 10
1267.5
 20
610.0
 30
0.0
 11
1291.5
 21
550.0
 31
0.0
  0
LINE
  5
111C
330
1E
100
AcDbEntity
  8
02-外形線
100
AcDbLine
 10
1141.5
 20
580.0
 30
0.0
 11
1177.5
 21
580.0
 31
0.0
  0
TEXT
  5
111D
330
1E
100
AcDbEntity
  8
08-下線
100
AcDbText
 10
995.6885714285714
 20
695.0
 30
0.0
 40
40.0
  1
内面
 41
0.8
  7
ｵﾘｼﾞﾅﾙｽﾀｲﾙ
 72
     1
 11
1042.5
 21
715.0
 31
0.0
100
AcDbText
 73
     2
  0
LINE
  5
111E
330
1E
100
AcDbEntity
  8
01-寸法線
100
AcDbLine
 10
988.4999999999999
 20
685.0
 30
0.0
 11
1096.5
 21
685.0
 31
0.0
  0
TEXT
  5
111F
330
1E
100
AcDbEntity
  8
08-下線
100
AcDbText
 10
1164.282857142857
 20
695.0
 30
0.0
 40
40.0
  1
接合面
 41
0.8
  7
ｵﾘｼﾞﾅﾙｽﾀｲﾙ
 72
     1
 11
1234.5
 21
715.0
 31
0.0
100
AcDbText
 73
     2
  0
LINE
  5
1120
330
1E
100
AcDbEntity
  8
01-寸法線
100
AcDbLine
 10
1159.5
 20
685.0
 30
0.0
 11
1306.5577136594
 21
685.0
 31
0.0
  0
LINE
  5
1121
330
1E
100
AcDbEntity
  8
01-寸法線
100
AcDbLine
 10
1159.5
 20
685.0
 30
0.0
 11
1306.5577136594
 21
685.0
 31
0.0
  0
LINE
  5
1122
330
1E
100
AcDbEntity
  8
01-寸法線
100
AcDbLine
 10
1141.5
 20
677.7893231681637
 30
0.0
 11
1159.5
 21
695.7893231681637
 31
0.0
  0
LINE
  5
1123
330
1E
100
AcDbEntity
  8
01-寸法線
100
AcDbLine
 10
1384.5
 20
550.0
 30
0.0
 11
1376.291516560184
 21
572.5526228988619
 31
0.0
  0
LINE
  5
1124
330
1E
100
AcDbEntity
  8
01-寸法線
100
AcDbLine
 10
1384.5
 20
550.0
 30
0.0
 11
1369.073097367523
 21
568.3850666348558
 31
0.0
  0
LINE
  5
1125
330
1E
100
AcDbEntity
  8
01-寸法線
100
AcDbLine
 10
1141.5
 20
805.0685437817364
 30
0.0
 11
1155.536662010221
 21
819.1052057919577
 31
0.0
  0
TEXT
  5
1127
330
1E
100
AcDbEntity
  8
09-下線
100
AcDbText
 10
1494.015
 20
2668.514285714286
 30
0.0
 40
90.0
  1
%%U落ちふた式Ｕ形側溝本体(防草タイプ)
 41
0.7
  7
ｵﾘｼﾞﾅﾙｽﾀｲﾙ
 72
     1
 11
2277.375
 21
2650.0
 31
0.0
100
AcDbText
 73
     1
  0
TEXT
  5
1128
330
1E
100
AcDbEntity
  8
08-下線
100
AcDbText
 10
819.6942857142849
 20
2479.314285714286
 30
0.0
 40
55.0
  1
%%U３種 ３００Ａ
 41
0.8
  7
ｵﾘｼﾞﾅﾙｽﾀｲﾙ
 11
819.6942857142849
 21
2468.0
 31
0.0
100
AcDbText
 73
     1
  0
TEXT
  5
1129
330
1E
100
AcDbEntity
  8
08-下線
100
AcDbText
 10
1396.7
 20
2479.314285714286
 30
0.0
 40
55.0
  1
ｌ＝２０００
 41
0.5999999999999999
  7
ｵﾘｼﾞﾅﾙｽﾀｲﾙ
 11
1396.7
 21
2468.0
 31
0.0
100
AcDbText
 73
     1
  0
TEXT
  5
112A
330
1E
100
AcDbEntity
  8
08-下線
100
AcDbText
 10
3202.375
 20
2659.257142857143
 30
0.0
 40
45.0
  1
Ｓ＝１／１５，単位 ｍｍ
 41
0.8
  7
ｵﾘｼﾞﾅﾙｽﾀｲﾙ
 11
3202.375
 21
2650.0
 31
0.0
100
AcDbText
 73
     1
  0
DIMENSION
  5
113B
330
1E
100
AcDbEntity
  8
01-寸法線
100
AcDbDimension
  2
*D2
 10
1607.5
 20
1730.0
 30
0.0
 11
1577.5
 21
1632.500000000001
 31
0.0
 70
    32
 71
     5
 42
195.0000000000002
  3
ｽﾀｲﾙ15
100
AcDbAlignedDimension
 13
1757.5
 23
1535.0
 33
0.0
 14
1757.5
 24
1730.0
 34
0.0
 50
90.0
100
AcDbRotatedDimension
  0
DIMENSION
  5
11FF
330
1E
100
AcDbEntity
  8
01-寸法線
100
AcDbDimension
  2
*D3
 10
2757.5
 20
2240.000000000001
 30
0.0
 11
2257.5
 21
2270.000000000001
 31
0.0
 70
    32
 71
     5
 42
999.9999999999998
  3
ｽﾀｲﾙ15
100
AcDbAlignedDimension
 13
1757.5
 23
2000.0
 33
0.0
 14
2757.5
 24
2000.0
 34
0.0
100
AcDbRotatedDimension
  0
DIMENSION
  5
120C
330
1E
100
AcDbEntity
  8
01-寸法線
100
AcDbDimension
  2
*D4
 10
3757.5
 20
2240.000000000001
 30
0.0
 11
3257.5
 21
2270.000000000001
 31
0.0
 70
    32
 71
     5
 42
1000.0
  3
ｽﾀｲﾙ15
100
AcDbAlignedDimension
 13
2757.5
 23
2000.0
 33
0.0
 14
3757.5
 24
2000.0
 34
0.0
100
AcDbRotatedDimension
  0
DIMENSION
  5
1219
330
1E
100
AcDbEntity
  8
01-寸法線
100
AcDbDimension
  2
*D5
 10
3757.5
 20
2330.000000000001
 30
0.0
 11
2757.5
 21
2360.000000000002
 31
0.0
 70
    32
 71
     5
 42
2000.0
  3
ｽﾀｲﾙ15
100
AcDbAlignedDimension
 13
1757.5
 23
2240.000000000001
 33
0.0
 14
3757.5
 24
2240.000000000001
 34
0.0
100
AcDbRotatedDimension
  0
LINE
  5
126F
330
1E
100
AcDbEntity
  8
01-寸法線
 62
     4
100
AcDbLine
 10
2863.339931010298
 20
2125.000000000003
 30
0.0
 11
3148.339931010298
 21
2125.000000000003
 31
0.0
  0
TEXT
  5
1270
330
1E
100
AcDbEntity
  8
08-下線
100
AcDbText
 10
2874.182788153155
 20
2137.500000000003
 30
0.0
 40
45.0
  1
吊キャップ
 41
0.8
  7
ｵﾘｼﾞﾅﾙｽﾀｲﾙ
 72
     1
 11
3005.839931010298
 21
2160.000000000003
 31
0.0
100
AcDbText
 73
     2
  0
LINE
  5
1274
330
1E
100
AcDbEntity
  8
01-寸法線
 62
     4
100
AcDbLine
 10
3752.500000000001
 20
1540.0
 30
0.0
 11
3907.500000000001
 21
1384.999999999999
 31
0.0
  0
TEXT
  5
1275
330
1E
100
AcDbEntity
  8
01-寸法線
 62
     4
100
AcDbText
 10
3919.415571428573
 20
1394.257142857142
 30
0.0
 40
45.0
  1
10c
 41
0.8599999999999999
  7
ｵﾘｼﾞﾅﾙｽﾀｲﾙ
 72
     1
 11
3961.875000000001
 21
1384.999999999999
 31
0.0
100
AcDbText
 73
     1
  0
LINE
  5
1276
330
1E
100
AcDbEntity
  8
01-寸法線
 62
     4
100
AcDbLine
 10
3907.500000000001
 20
1384.999999999999
 30
0.0
 11
4016.250000000001
 21
1384.999999999999
 31
0.0
  0
LINE
  5
1277
330
1E
100
AcDbEntity
  8
01-寸法線
 62
     4
100
AcDbLine
 10
3752.500000000001
 20
1540.0
 30
0.0
 11
3777.07456132867
 21
1522.792706909468
 31
0.0
  0
LINE
  5
1278
330
1E
100
AcDbEntity
  8
01-寸法線
 62
     4
100
AcDbLine
 10
3752.500000000001
 20
1540.0
 30
0.0
 11
3769.707293090532
 21
1515.42543867133
 31
0.0
  0
LINE
  5
127C
330
1E
100
AcDbEntity
  8
01-寸法線
 62
     4
100
AcDbLine
 10
1762.5
 20
1540.0
 30
0.0
 11
1607.5
 21
1385.0
 31
0.0
  0
TEXT
  5
127D
330
1E
100
AcDbEntity
  8
01-寸法線
 62
     4
100
AcDbText
 10
1510.665571428571
 20
1394.257142857143
 30
0.0
 40
45.0
  1
10c
 41
0.8599999999999999
  7
ｵﾘｼﾞﾅﾙｽﾀｲﾙ
 72
     1
 11
1553.125
 21
1385.0
 31
0.0
100
AcDbText
 73
     1
  0
LINE
  5
127E
330
1E
100
AcDbEntity
  8
01-寸法線
 62
     4
100
AcDbLine
 10
1498.75
 20
1385.0
 30
0.0
 11
1607.5
 21
1385.0
 31
0.0
  0
LINE
  5
127F
330
1E
100
AcDbEntity
  8
01-寸法線
 62
     4
100
AcDbLine
 10
1762.5
 20
1540.0
 30
0.0
 11
1737.925438671331
 21
1522.792706909469
 31
0.0
  0
LINE
  5
1280
330
1E
100
AcDbEntity
  8
01-寸法線
 62
     4
100
AcDbLine
 10
1762.5
 20
1540.0
 30
0.0
 11
1745.292706909469
 21
1515.42543867133
 31
0.0
  0
DIMENSION
  5
1298
330
1E
100
AcDbEntity
  8
01-寸法線
100
AcDbDimension
  2
*D6
 10
767.5000000000001
 20
1755.0
 30
0.0
 11
732.5
 21
1785.000000000001
 31
0.0
 70
    32
 71
     5
 42
70.00000000000011
  3
ｽﾀｲﾙ15
100
AcDbAlignedDimension
 13
697.5
 23
1605.000000000001
 33
0.0
 14
767.5000000000001
 24
1605.000000000001
 34
0.0
100
AcDbRotatedDimension
  0
DIMENSION
  5
12A7
330
1E
100
AcDbEntity
  8
01-寸法線
100
AcDbDimension
  2
*D7
 10
1047.5
 20
1755.0
 30
0.0
 11
907.5000000000001
 21
1785.000000000001
 31
0.0
 70
    32
 71
     5
 42
279.9999999999999
  3
ｽﾀｲﾙ15
100
AcDbAlignedDimension
 13
767.5000000000001
 23
1605.000000000001
 33
0.0
 14
1047.5
 24
1605.000000000001
 34
0.0
100
AcDbRotatedDimension
  0
DIMENSION
  5
12B4
330
1E
100
AcDbEntity
  8
01-寸法線
100
AcDbDimension
  2
*D8
 10
1117.5
 20
1755.0
 30
0.0
 11
1082.5
 21
1785.000000000001
 31
0.0
 70
    32
 71
     5
 42
70.0
  3
ｽﾀｲﾙ15
100
AcDbAlignedDimension
 13
1047.5
 23
1605.000000000001
 33
0.0
 14
1117.5
 24
1605.000000000001
 34
0.0
100
AcDbRotatedDimension
  0
DIMENSION
  5
12CD
330
1E
100
AcDbEntity
  8
01-寸法線
100
AcDbDimension
  2
*D9
 10
727.5000000000004
 20
1385.0
 30
0.0
 11
667.4999999999999
 21
1415.0
 31
0.0
 70
   160
 71
     5
 42
30.00000000000046
  3
ｽﾀｲﾙ15
100
AcDbAlignedDimension
 13
697.5
 23
1535.0
 33
0.0
 14
727.5000000000004
 24
1535.0
 34
0.0
100
AcDbRotatedDimension
  0
DIMENSION
  5
12DC
330
1E
100
AcDbEntity
  8
01-寸法線
100
AcDbDimension
  2
*D10
 10
1117.5
 20
1385.0
 30
0.0
 11
1147.5
 21
1415.0
 31
0.0
 70
   160
 71
     5
 42
30.00000000000046
  3
ｽﾀｲﾙ15
100
AcDbAlignedDimension
 13
1087.499999999999
 23
1535.0
 33
0.0
 14
1117.5
 24
1535.0
 34
0.0
100
AcDbRotatedDimension
  0
DIMENSION
  5
12EC
330
1E
100
AcDbEntity
  8
01-寸法線
100
AcDbDimension
  2
*D11
 10
1117.5
 20
1295.0
 30
0.0
 11
907.5000000000001
 21
1325.0
 31
0.0
 70
    32
 71
     5
 42
420.0
  3
ｽﾀｲﾙ15
100
AcDbAlignedDimension
 13
697.5
 23
1385.0
 33
0.0
 14
1117.5
 24
1385.0
 34
0.0
100
AcDbRotatedDimension
  0
LINE
  5
132D
330
1E
100
AcDbEntity
  8
01-寸法線
 62
     4
100
AcDbLine
 10
777.3571532833529
 20
1622.718868708062
 30
0.0
 11
876.35210264947
 21
1721.713818074179
 31
0.0
  0
TEXT
  5
132E
330
1E
100
AcDbEntity
  8
01-寸法線
 62
     4
100
AcDbText
 10
808.2900445026318
 20
1666.743336904737
 30
0.0
 40
45.0
  1
50r
 50
45.0
 41
0.8
  7
ｵﾘｼﾞﾅﾙｽﾀｲﾙ
 72
     1
 11
842.7645305431097
 21
1688.126245967818
 31
0.0
100
AcDbText
 73
     1
  0
LINE
  5
132F
330
1E
100
AcDbEntity
  8
01-寸法線
 62
     4
100
AcDbLine
 10
777.3571532833529
 20
1622.718868708062
 30
0.0
 11
794.5644463738845
 21
1647.293430036731
 31
0.0
  0
LINE
  5
1330
330
1E
100
AcDbEntity
  8
01-寸法線
 62
     4
100
AcDbLine
 10
777.3571532833529
 20
1622.718868708062
 30
0.0
 11
801.9317146120229
 21
1639.926161798593
 31
0.0
  0
TEXT
  5
1331
330
1E
100
AcDbEntity
  8
08-下線
100
AcDbText
 10
809.6269626629439
 20
1957.500000000001
 30
0.0
 40
45.0
  1
目地部
 41
0.8
  7
ｵﾘｼﾞﾅﾙｽﾀｲﾙ
 72
     1
 11
888.6212483772297
 21
1980.000000000001
 31
0.0
100
AcDbText
 73
     2
  0
LINE
  5
1332
330
1E
100
AcDbEntity
  8
01-寸法線
 62
     4
100
AcDbLine
 10
798.6212483772296
 20
1945.0
 30
0.0
 11
978.6212483772297
 21
1945.0
 31
0.0
  0
DIMENSION
  5
1345
330
1E
100
AcDbEntity
  8
01-寸法線
100
AcDbDimension
  2
*D12
 10
497.5000000000001
 20
1905.000000000001
 30
0.0
 11
467.4999999999998
 21
1755.0
 31
0.0
 70
    32
 71
     5
 42
300.0
  3
ｽﾀｲﾙ15
100
AcDbAlignedDimension
 13
767.5000000000001
 23
1605.000000000001
 33
0.0
 14
647.5000000000001
 24
1905.000000000001
 34
0.0
 50
90.0
100
AcDbRotatedDimension
  0
DIMENSION
  5
1352
330
1E
100
AcDbEntity
  8
01-寸法線
100
AcDbDimension
  2
*D13
 10
497.5000000000001
 20
2000.000000000001
 30
0.0
 11
467.4999999999998
 21
1952.500000000001
 31
0.0
 70
    32
 71
     5
 42
94.99999999999976
  3
ｽﾀｲﾙ15
100
AcDbAlignedDimension
 13
647.5000000000001
 23
1905.000000000001
 33
0.0
 14
647.5000000000001
 24
2000.0
 34
0.0
 50
90.0
100
AcDbRotatedDimension
  0
LINE
  5
1363
330
1E
100
AcDbEntity
  8
01-寸法線
 62
     4
100
AcDbLine
 10
727.5
 20
1535.0
 30
0.0
 11
632.0405834791554
 21
1630.459416520844
 31
0.0
  0
LINE
  5
1364
330
1E
100
AcDbEntity
  8
01-寸法線
 62
     4
100
AcDbLine
 10
727.5
 20
1535.0
 30
0.0
 11
592.4999984999995
 21
1535.0
 31
0.0
  0
ARC
  5
1365
330
1E
100
AcDbEntity
  8
01-寸法線
 62
     4
100
AcDbCircle
 10
727.5
 20
1535.0
 30
0.0
 40
120.0000015
100
AcDbArc
 50
135.0
 51
180.0
  0
TEXT
  5
1366
330
1E
100
AcDbEntity
  8
01-寸法線
 62
     4
100
AcDbText
 10
598.5425529224207
 20
1560.440448202992
 30
0.0
 40
45.0
  1
45ﾟ
 50
67.49999999998469
 41
0.8
  7
ｵﾘｼﾞﾅﾙｽﾀｲﾙ
 72
     1
 11
622.2099399348626
 21
1593.388494878909
 31
0.0
100
AcDbText
 73
     1
  0
LINE
  5
1367
330
1E
100
AcDbEntity
  8
01-寸法線
 62
     4
100
AcDbLine
 10
607.4999984999995
 20
1534.999999999999
 30
0.0
 11
615.264569853075
 21
1563.977774788672
 31
0.0
  0
LINE
  5
1368
330
1E
100
AcDbEntity
  8
01-寸法線
 62
     4
100
AcDbLine
 10
607.4999984999995
 20
1534.999999999999
 30
0.0
 11
604.8853262175698
 21
1564.885840942752
 31
0.0
  0
LINE
  5
1369
330
1E
100
AcDbEntity
  8
01-寸法線
 62
     4
100
AcDbLine
 10
642.6471851969536
 20
1619.852814803046
 30
0.0
 11
619.6658519033844
 21
1600.56918651245
 31
0.0
  0
LINE
  5
136A
330
1E
100
AcDbEntity
  8
01-寸法線
 62
     4
100
AcDbLine
 10
642.6471851969536
 20
1619.852814803046
 30
0.0
 11
627.6471851969536
 21
1593.872052689513
 31
0.0
  0
LINE
  5
136E
330
1E
100
AcDbEntity
  8
01-寸法線
 62
     4
100
AcDbLine
 10
697.5
 20
1773.397459621556
 30
0.0
 11
592.4999985000003
 21
1773.397459621556
 31
0.0
  0
TEXT
  5
136F
330
1E
100
AcDbEntity
  8
01-寸法線
 62
     4
100
AcDbText
 10
600.1506908578797
 20
1800.900206802069
 30
0.0
 40
45.0
  1
60ﾟ
 50
60.00000000000272
 41
0.8
  7
ｵﾘｼﾞﾅﾙｽﾀｲﾙ
 72
     1
 11
627.9161831671972
 21
1830.477164464688
 31
0.0
100
AcDbText
 73
     1
  0
ARC
  5
1370
330
1E
100
AcDbEntity
  8
01-寸法線
 62
     4
100
AcDbCircle
 10
697.5
 20
1773.397459621556
 30
0.0
 40
90.00000150000003
100
AcDbArc
 50
119.9999999999973
 51
180.0
  0
LINE
  5
1371
330
1E
100
AcDbEntity
  8
01-寸法線
 62
     4
100
AcDbLine
 10
607.4999985000004
 20
1773.397459621557
 30
0.0
 11
604.8853262175698
 21
1803.283300564309
 31
0.0
  0
LINE
  5
1372
330
1E
100
AcDbEntity
  8
01-寸法線
 62
     4
100
AcDbLine
 10
607.4999985000004
 20
1773.397459621557
 30
0.0
 11
615.264569853076
 21
1802.375234410229
 31
0.0
  0
LINE
  5
1373
330
1E
100
AcDbEntity
  8
01-寸法線
 62
     4
100
AcDbLine
 10
652.4999992499997
 20
1851.339747261194
 30
0.0
 11
631.2867958144034
 21
1830.126543825598
 31
0.0
  0
LINE
  5
1374
330
1E
100
AcDbEntity
  8
01-寸法線
 62
     4
100
AcDbLine
 10
652.4999992499997
 20
1851.339747261194
 30
0.0
 11
625.3107656389011
 21
1838.661199408973
 31
0.0
  0
LINE
  5
137B
330
1E
100
AcDbEntity
  8
01-寸法線
 62
     4
100
AcDbLine
 10
1117.5
 20
1520.0
 30
0.0
 11
1117.5
 21
1624.774440630013
 31
0.0
  0
LINE
  5
137C
330
1E
100
AcDbEntity
  8
01-寸法線
 62
     4
100
AcDbLine
 10
1117.5
 20
1535.0
 30
0.0
 11
1117.5
 21
1670.0000015
 31
0.0
  0
ARC
  5
137D
330
1E
100
AcDbEntity
  8
01-寸法線
 62
     4
100
AcDbCircle
 10
1117.5
 20
1535.0
 30
0.0
 40
120.0000015
100
AcDbArc
 50
0.0
 51
90.0
  0
TEXT
  5
137E
330
1E
100
AcDbEntity
  8
01-寸法線
 62
     4
100
AcDbText
 10
1188.490126285708
 20
1641.293593866604
 30
0.0
 40
45.0
  1
90ﾟ
 50
315.0
 41
0.8
  7
ｵﾘｼﾞﾅﾙｽﾀｲﾙ
 72
     1
 11
1209.87303534879
 21
1606.819107826126
 31
0.0
100
AcDbText
 73
     1
  0
LINE
  5
137F
330
1E
100
AcDbEntity
  8
01-寸法線
 62
     4
100
AcDbLine
 10
1117.5
 20
1535.0
 30
0.0
 11
1252.5000015
 21
1535.0
 31
0.0
  0
LINE
  5
1380
330
1E
100
AcDbEntity
  8
01-寸法線
 62
     4
100
AcDbLine
 10
1237.5000015
 20
1535.0
 30
0.0
 11
1229.735430146925
 21
1563.977774788672
 31
0.0
  0
LINE
  5
1381
330
1E
100
AcDbEntity
  8
01-寸法線
 62
     4
100
AcDbLine
 10
1237.5000015
 20
1535.0
 30
0.0
 11
1240.11467378243
 21
1564.885840942752
 31
0.0
  0
LINE
  5
1382
330
1E
100
AcDbEntity
  8
01-寸法線
 62
     4
100
AcDbLine
 10
1117.5
 20
1655.0000015
 30
0.0
 11
1146.477774788673
 21
1647.235430146925
 31
0.0
  0
LINE
  5
1383
330
1E
100
AcDbEntity
  8
01-寸法線
 62
     4
100
AcDbLine
 10
1117.5
 20
1655.0000015
 30
0.0
 11
1147.385840942753
 21
1657.614673782429
 31
0.0
  0
LINE
  5
13F8
330
1E
100
AcDbEntity
  8
01-寸法線
 62
     4
370
    13
100
AcDbLine
 10
1117.5
 20
2015.000000000001
 30
0.0
 11
1117.5
 21
2165.0
 31
0.0
  0
LINE
  5
13F9
330
1E
100
AcDbEntity
  8
01-寸法線
 62
     4
370
    13
100
AcDbLine
 10
1167.5
 20
2015.000000000001
 30
0.0
 11
1167.5
 21
2165.0
 31
0.0
  0
LINE
  5
13FA
330
1E
100
AcDbEntity
  8
01-寸法線
 62
     4
370
    13
100
AcDbLine
 10
1087.5
 20
2150.0
 30
0.0
 11
1057.5
 21
2150.0
 31
0.0
  0
LINE
  5
13FB
330
1E
100
AcDbEntity
  8
01-寸法線
 62
     4
370
    13
100
AcDbLine
 10
1197.5
 20
2150.0
 30
0.0
 11
1227.5
 21
2150.0
 31
0.0
  0
LINE
  5
13FC
330
1E
100
AcDbEntity
  8
01-寸法線
 62
     4
370
    13
100
AcDbLine
 10
1117.5
 20
2150.0
 30
0.0
 11
1167.5
 21
2150.0
 31
0.0
  0
INSERT
  5
13FE
330
1E
100
AcDbEntity
  8
01-寸法線
 62
     4
370
    13
100
AcDbBlockReference
  2
_Open
 10
1167.5
 20
2150.0
 30
0.0
 41
30.0
 42
30.0
 43
30.0
 50
180.0
  0
MTEXT
  5
13FF
330
1E
100
AcDbEntity
  8
01-寸法線
 62
     4
100
AcDbMText
 10
1142.5
 20
2180.000000000001
 30
0.0
 40
45.0
 41
0.0
 71
     5
 72
     1
  1
\A1;50
  7
寸法ｽﾀｲﾙ
 73
     1
 44
1.0
  0
LINE
  5
1400
330
1E
100
AcDbEntity
  8
01-寸法線
 62
     4
370
    13
100
AcDbLine
 10
1112.5
 20
1920.0
 30
0.0
 11
1112.5
 21
2165.0
 31
0.0
  0
LINE
  5
1401
330
1E
100
AcDbEntity
  8
01-寸法線
 62
     4
370
    13
100
AcDbLine
 10
1117.5
 20
2015.000000000001
 30
0.0
 11
1117.5
 21
2165.0
 31
0.0
  0
LINE
  5
1402
330
1E
100
AcDbEntity
  8
01-寸法線
 62
     4
370
    13
100
AcDbLine
 10
1082.5
 20
2150.0
 30
0.0
 11
1052.5
 21
2150.0
 31
0.0
  0
LINE
  5
1403
330
1E
100
AcDbEntity
  8
01-寸法線
 62
     4
370
    13
100
AcDbLine
 10
1147.5
 20
2150.0
 30
0.0
 11
1177.5
 21
2150.0
 31
0.0
  0
LINE
  5
1404
330
1E
100
AcDbEntity
  8
01-寸法線
 62
     4
370
    13
100
AcDbLine
 10
1112.5
 20
2150.0
 30
0.0
 11
1117.5
 21
2150.0
 31
0.0
  0
MTEXT
  5
1407
330
1E
100
AcDbEntity
  8
01-寸法線
 62
     4
100
AcDbMText
 10
1115.0
 20
2120.0
 30
0.0
 40
45.0
 41
0.0
 71
     5
 72
     1
  1
\A1;5
  7
寸法ｽﾀｲﾙ
 73
     1
 44
1.0
  0
LINE
  5
1408
330
1E
100
AcDbEntity
  8
01-寸法線
 62
     4
370
    13
100
AcDbLine
 10
1057.5
 20
1920.0
 30
0.0
 11
1057.5
 21
2165.0
 31
0.0
  0
LINE
  5
1409
330
1E
100
AcDbEntity
  8
01-寸法線
 62
     4
370
    13
100
AcDbLine
 10
1112.5
 20
1920.0
 30
0.0
 11
1112.5
 21
2165.0
 31
0.0
  0
LINE
  5
140A
330
1E
100
AcDbEntity
  8
01-寸法線
 62
     4
370
    13
100
AcDbLine
 10
1027.5
 20
2150.0
 30
0.0
 11
997.4999999999999
 21
2150.0
 31
0.0
  0
LINE
  5
140B
330
1E
100
AcDbEntity
  8
01-寸法線
 62
     4
370
    13
100
AcDbLine
 10
1142.5
 20
2150.0
 30
0.0
 11
1172.5
 21
2150.0
 31
0.0
  0
LINE
  5
140C
330
1E
100
AcDbEntity
  8
01-寸法線
 62
     4
370
    13
100
AcDbLine
 10
1057.5
 20
2150.0
 30
0.0
 11
1112.5
 21
2150.0
 31
0.0
  0
INSERT
  5
140D
330
1E
100
AcDbEntity
  8
01-寸法線
 62
     4
370
    13
100
AcDbBlockReference
  2
_Open
 10
1057.5
 20
2150.0
 30
0.0
 41
30.0
 42
30.0
 43
30.0
  0
MTEXT
  5
140F
330
1E
100
AcDbEntity
  8
01-寸法線
 62
     4
100
AcDbMText
 10
1085.0
 20
2180.000000000001
 30
0.0
 40
45.0
 41
0.0
 71
     5
 72
     1
  1
\A1;55
  7
寸法ｽﾀｲﾙ
 73
     1
 44
1.0
  0
LINE
  5
1410
330
1E
100
AcDbEntity
  8
01-寸法線
 62
     4
370
    13
100
AcDbLine
 10
757.5
 20
1920.0
 30
0.0
 11
757.5
 21
2165.0
 31
0.0
  0
LINE
  5
1411
330
1E
100
AcDbEntity
  8
01-寸法線
 62
     4
370
    13
100
AcDbLine
 10
1057.5
 20
1920.0
 30
0.0
 11
1057.5
 21
2165.0
 31
0.0
  0
LINE
  5
1412
330
1E
100
AcDbEntity
  8
01-寸法線
 62
     4
370
    13
100
AcDbLine
 10
787.5
 20
2150.0
 30
0.0
 11
1027.5
 21
2150.0
 31
0.0
  0
INSERT
  5
1413
330
1E
100
AcDbEntity
  8
01-寸法線
 62
     4
370
    13
100
AcDbBlockReference
  2
_Open
 10
757.5
 20
2150.0
 30
0.0
 41
30.0
 42
30.0
 43
30.0
 50
180.0
  0
INSERT
  5
1414
330
1E
100
AcDbEntity
  8
01-寸法線
 62
     4
370
    13
100
AcDbBlockReference
  2
_Open
 10
1057.5
 20
2150.0
 30
0.0
 41
30.0
 42
30.0
 43
30.0
  0
MTEXT
  5
1415
330
1E
100
AcDbEntity
  8
01-寸法線
 62
     4
100
AcDbMText
 10
907.5000000000001
 20
2180.000000000001
 30
0.0
 40
45.0
 41
0.0
 71
     5
 72
     1
  1
\A1;300
  7
寸法ｽﾀｲﾙ
 73
     1
 44
1.0
  0
LINE
  5
1416
330
1E
100
AcDbEntity
  8
01-寸法線
 62
     4
370
    13
100
AcDbLine
 10
702.4999999999997
 20
1920.0
 30
0.0
 11
702.4999999999997
 21
2165.0
 31
0.0
  0
LINE
  5
1417
330
1E
100
AcDbEntity
  8
01-寸法線
 62
     4
370
    13
100
AcDbLine
 10
757.5
 20
1920.0
 30
0.0
 11
757.5
 21
2165.0
 31
0.0
  0
LINE
  5
1418
330
1E
100
AcDbEntity
  8
01-寸法線
 62
     4
370
    13
100
AcDbLine
 10
672.4999999999997
 20
2150.0
 30
0.0
 11
642.4999999999998
 21
2150.0
 31
0.0
  0
LINE
  5
1419
330
1E
100
AcDbEntity
  8
01-寸法線
 62
     4
370
    13
100
AcDbLine
 10
787.5
 20
2150.0
 30
0.0
 11
817.5
 21
2150.0
 31
0.0
  0
LINE
  5
141A
330
1E
100
AcDbEntity
  8
01-寸法線
 62
     4
370
    13
100
AcDbLine
 10
702.4999999999997
 20
2150.0
 30
0.0
 11
757.5
 21
2150.0
 31
0.0
  0
INSERT
  5
141C
330
1E
100
AcDbEntity
  8
01-寸法線
 62
     4
370
    13
100
AcDbBlockReference
  2
_Open
 10
757.5
 20
2150.0
 30
0.0
 41
30.0
 42
30.0
 43
30.0
 50
180.0
  0
MTEXT
  5
141D
330
1E
100
AcDbEntity
  8
01-寸法線
 62
     4
100
AcDbMText
 10
730.0
 20
2180.000000000001
 30
0.0
 40
45.0
 41
0.0
 71
     5
 72
     1
  1
\A1;55
  7
寸法ｽﾀｲﾙ
 73
     1
 44
1.0
  0
LINE
  5
141E
330
1E
100
AcDbEntity
  8
01-寸法線
 62
     4
370
    13
100
AcDbLine
 10
697.5
 20
2015.000000000001
 30
0.0
 11
697.5
 21
2165.0
 31
0.0
  0
LINE
  5
141F
330
1E
100
AcDbEntity
  8
01-寸法線
 62
     4
370
    13
100
AcDbLine
 10
702.4999999999997
 20
1920.0
 30
0.0
 11
702.4999999999997
 21
2165.0
 31
0.0
  0
LINE
  5
1420
330
1E
100
AcDbEntity
  8
01-寸法線
 62
     4
370
    13
100
AcDbLine
 10
667.4999999999999
 20
2150.0
 30
0.0
 11
637.5
 21
2150.0
 31
0.0
  0
LINE
  5
1421
330
1E
100
AcDbEntity
  8
01-寸法線
 62
     4
370
    13
100
AcDbLine
 10
732.4999999999997
 20
2150.0
 30
0.0
 11
762.4999999999999
 21
2150.0
 31
0.0
  0
LINE
  5
1422
330
1E
100
AcDbEntity
  8
01-寸法線
 62
     4
370
    13
100
AcDbLine
 10
697.5
 20
2150.0
 30
0.0
 11
702.4999999999997
 21
2150.0
 31
0.0
  0
MTEXT
  5
1425
330
1E
100
AcDbEntity
  8
01-寸法線
 62
     4
100
AcDbMText
 10
700.0
 20
2120.0
 30
0.0
 40
45.0
 41
0.0
 71
     5
 72
     1
  1
\A1;5
  7
寸法ｽﾀｲﾙ
 73
     1
 44
1.0
  0
LINE
  5
1426
330
1E
100
AcDbEntity
  8
01-寸法線
 62
     4
370
    13
100
AcDbLine
 10
647.5000000000002
 20
2015.000000000001
 30
0.0
 11
647.5000000000002
 21
2165.0
 31
0.0
  0
LINE
  5
1427
330
1E
100
AcDbEntity
  8
01-寸法線
 62
     4
370
    13
100
AcDbLine
 10
697.5
 20
2015.000000000001
 30
0.0
 11
697.5
 21
2165.0
 31
0.0
  0
LINE
  5
1428
330
1E
100
AcDbEntity
  8
01-寸法線
 62
     4
370
    13
100
AcDbLine
 10
617.5000000000002
 20
2150.0
 30
0.0
 11
587.5000000000002
 21
2150.0
 31
0.0
  0
LINE
  5
1429
330
1E
100
AcDbEntity
  8
01-寸法線
 62
     4
370
    13
100
AcDbLine
 10
727.5
 20
2150.0
 30
0.0
 11
757.5
 21
2150.0
 31
0.0
  0
LINE
  5
142A
330
1E
100
AcDbEntity
  8
01-寸法線
 62
     4
370
    13
100
AcDbLine
 10
647.5000000000002
 20
2150.0
 30
0.0
 11
697.5
 21
2150.0
 31
0.0
  0
INSERT
  5
142B
330
1E
100
AcDbEntity
  8
01-寸法線
 62
     4
370
    13
100
AcDbBlockReference
  2
_Open
 10
647.5000000000002
 20
2150.0
 30
0.0
 41
30.0
 42
30.0
 43
30.0
  0
MTEXT
  5
142D
330
1E
100
AcDbEntity
  8
01-寸法線
 62
     4
100
AcDbMText
 10
672.5
 20
2180.000000000001
 30
0.0
 40
45.0
 41
0.0
 71
     5
 72
     1
  1
\A1;50
  7
寸法ｽﾀｲﾙ
 73
     1
 44
1.0
  0
LINE
  5
143F
330
1E
100
AcDbEntity
  8
01-寸法線
100
AcDbLine
 10
697.5
 20
2150.0
 30
0.0
 11
702.5
 21
2150.0
 31
0.0
  0
CIRCLE
  5
1440
330
1E
100
AcDbEntity
  8
01-寸法線
100
AcDbCircle
 10
697.5
 20
2150.0
 30
0.0
 40
1.5
  0
HATCH
  5
1441
330
1E
100
AcDbEntity
  8
01-寸法線
100
AcDbHatch
 10
0.0
 20
0.0
 30
0.0
210
0.0
220
0.0
230
1.0
  2
SOLID
 70
     1
 71
     0
 91
        1
 92
        7
 72
     1
 73
     1
 93
        2
 10
699.0
 20
2150.0
 42
1.0
 10
696.0
 20
2150.0
 42
1.0
 97
        0
 75
     0
 76
     1
 47
0.056586623337664
 98
        1
 10
697.319318777796
 20
2149.910451710812
450
        0
451
        0
460
0.0
461
0.0
452
        0
462
0.0
453
        0
470

  0
HATCH
  5
1442
330
1E
100
AcDbEntity
  8
01-寸法線
100
AcDbHatch
 10
0.0
 20
0.0
 30
0.0
210
0.0
220
0.0
230
1.0
  2
SOLID
 70
     1
 71
     0
 91
        1
 92
        7
 72
     1
 73
     1
 93
        2
 10
704.0
 20
2150.0
 42
1.0
 10
701.0
 20
2150.0
 42
1.0
 97
        0
 75
     0
 76
     1
 47
0.056586623337664
 98
        1
 10
702.3193187777961
 20
2149.910451710812
450
        0
451
        0
460
0.0
461
0.0
452
        0
462
0.0
453
        0
470

  0
CIRCLE
  5
1443
330
1E
100
AcDbEntity
  8
01-寸法線
100
AcDbCircle
 10
702.5
 20
2150.0
 30
0.0
 40
1.5
  0
LINE
  5
1444
330
1E
100
AcDbEntity
  8
01-寸法線
100
AcDbLine
 10
1112.5
 20
2150.0
 30
0.0
 11
1117.5
 21
2150.0
 31
0.0
  0
CIRCLE
  5
1445
330
1E
100
AcDbEntity
  8
01-寸法線
100
AcDbCircle
 10
1112.5
 20
2150.0
 30
0.0
 40
1.5
  0
HATCH
  5
1446
330
1E
100
AcDbEntity
  8
01-寸法線
100
AcDbHatch
 10
0.0
 20
0.0
 30
0.0
210
0.0
220
0.0
230
1.0
  2
SOLID
 70
     1
 71
     0
 91
        1
 92
        7
 72
     1
 73
     1
 93
        2
 10
1114.0
 20
2150.0
 42
1.0
 10
1111.0
 20
2150.0
 42
1.0
 97
        0
 75
     0
 76
     1
 47
0.056586623337664
 98
        1
 10
1112.319318777796
 20
2149.910451710812
450
        0
451
        0
460
0.0
461
0.0
452
        0
462
0.0
453
        0
470

  0
HATCH
  5
1447
330
1E
100
AcDbEntity
  8
01-寸法線
100
AcDbHatch
 10
0.0
 20
0.0
 30
0.0
210
0.0
220
0.0
230
1.0
  2
SOLID
 70
     1
 71
     0
 91
        1
 92
        7
 72
     1
 73
     1
 93
        2
 10
1119.0
 20
2150.0
 42
1.0
 10
1116.0
 20
2150.0
 42
1.0
 97
        0
 75
     0
 76
     1
 47
0.056586623337664
 98
        1
 10
1117.319318777796
 20
2149.910451710812
450
        0
451
        0
460
0.0
461
0.0
452
        0
462
0.0
453
        0
470

  0
CIRCLE
  5
1448
330
1E
100
AcDbEntity
  8
01-寸法線
100
AcDbCircle
 10
1117.5
 20
2150.0
 30
0.0
 40
1.5
  0
LINE
  5
144B
330
1E
100
AcDbEntity
  8
Defpoints
100
AcDbLine
 10
4455.0
 20
0.0
 30
0.0
 11
4455.0
 21
3150.0
 31
0.0
  0
LINE
  5
144E
330
1E
100
AcDbEntity
  8
01-寸法線
 62
     4
370
    13
100
AcDbLine
 10
682.5
 20
1535.0
 30
0.0
 11
482.5
 21
1535.000000000001
 31
0.0
  0
LINE
  5
144F
330
1E
100
AcDbEntity
  8
01-寸法線
 62
     4
370
    13
100
AcDbLine
 10
752.5000000000001
 20
1605.000000000001
 30
0.0
 11
482.5
 21
1605.000000000001
 31
0.0
  0
LINE
  5
1451
330
1E
100
AcDbEntity
  8
01-寸法線
 62
     4
370
    13
100
AcDbLine
 10
497.5
 20
1635.000000000001
 30
0.0
 11
497.5
 21
1665.000000000001
 31
0.0
  0
LINE
  5
1452
330
1E
100
AcDbEntity
  8
01-寸法線
 62
     4
370
    13
100
AcDbLine
 10
497.5
 20
1535.000000000001
 30
0.0
 11
497.5
 21
1605.000000000001
 31
0.0
  0
INSERT
  5
1453
330
1E
100
AcDbEntity
  8
01-寸法線
 62
     4
370
    13
100
AcDbBlockReference
  2
_Open
 10
497.5
 20
1535.000000000001
 30
0.0
 41
30.0
 42
30.0
 43
30.0
 50
270.0
  0
INSERT
  5
1454
330
1E
100
AcDbEntity
  8
01-寸法線
 62
     4
370
    13
100
AcDbBlockReference
  2
_Open
 10
497.5
 20
1605.000000000001
 30
0.0
 41
30.0
 42
30.0
 43
30.0
 50
270.0
  0
MTEXT
  5
1455
330
1E
100
AcDbEntity
  8
01-寸法線
 62
     4
100
AcDbMText
 10
467.4999999999998
 20
1570.000000000001
 30
0.0
 40
45.0
 41
0.0
 71
     5
 72
     1
  1
\A1;70
  7
寸法ｽﾀｲﾙ
 11
0.0000000000000001
 21
1.0
 31
0.0
 73
     1
 44
1.0
  0
INSERT
  5
1457
330
1E
100
AcDbEntity
  8
01-寸法線
 62
     4
370
    13
100
AcDbBlockReference
  2
_Open
 10
497.5
 20
1605.000000000001
 30
0.0
 41
30.0
 42
30.0
 43
30.0
 50
90.0
  0
LINE
  5
1472
330
1E
100
AcDbEntity
  8
02-外形線
100
AcDbLine
 10
1197.5
 20
1950.0
 30
0.0
 11
1202.5
 21
1950.0
 31
0.0
  0
LINE
  5
1473
330
1E
100
AcDbEntity
  8
02-外形線
100
AcDbLine
 10
1202.5
 20
1950.0
 30
0.0
 11
1202.5
 21
1900.621778264911
 31
0.0
  0
DIMENSION
  5
1484
330
1E
100
AcDbEntity
  8
01-寸法線
100
AcDbDimension
  2
*D14
 10
1167.5
 20
2240.000000000001
 30
0.0
 11
907.5000000000001
 21
2270.000000000001
 31
0.0
 70
    32
 71
     5
 42
519.9999999999999
  3
ｽﾀｲﾙ15
100
AcDbAlignedDimension
 13
647.5000000000001
 23
2150.0
 33
0.0
 14
1167.5
 24
2150.0
 34
0.0
100
AcDbRotatedDimension
  0
DIMENSION
  5
1491
330
1E
100
AcDbEntity
  8
01-寸法線
100
AcDbDimension
  2
*D15
 10
1202.5
 20
2240.000000000001
 30
0.0
 11
1232.5
 21
2270.000000000001
 31
0.0
 70
   160
 71
     5
 42
35.0
  3
ｽﾀｲﾙ15
100
AcDbAlignedDimension
 13
1167.5
 23
2150.0
 33
0.0
 14
1202.5
 24
1950.0
 34
0.0
100
AcDbRotatedDimension
  0
DIMENSION
  5
14C9
330
1E
100
AcDbEntity
  8
01-寸法線
100
AcDbDimension
  2
*D16
 10
407.5000000000001
 20
2000.0
 30
0.0
 11
377.4999999999998
 21
1930.000000000001
 31
0.0
 70
    32
 71
     5
 42
139.9999999999995
  3
ｽﾀｲﾙ15
100
AcDbAlignedDimension
 13
647.5000000000001
 23
1860.000000000001
 33
0.0
 14
497.5000000000001
 24
2000.0
 34
0.0
 50
90.0
100
AcDbRotatedDimension
  0
LINE
  5
14DB
330
1E
100
AcDbEntity
  8
02-外形線
 48
4.0
100
AcDbLine
 10
1757.5
 20
1950.0
 30
0.0
 11
3757.5
 21
1950.0
 31
0.0
  0
LINE
  5
15C7
330
1E
100
AcDbEntity
  8
02-外形線
 48
4.0
100
AcDbLine
 10
1117.5
 20
1753.397459621556
 30
0.0
 11
1117.5
 21
1565.000000000001
 31
0.0
  0
LINE
  5
15E9
330
1E
100
AcDbEntity
  8
01-寸法線
 62
     4
 48
4.0
370
    13
100
AcDbLine
 10
1217.5
 20
1950.0
 30
0.0
 11
1367.5
 21
1950.0
 31
0.0
  0
LINE
  5
15EA
330
1E
100
AcDbEntity
  8
01-寸法線
 62
     4
 48
4.0
370
    13
100
AcDbLine
 10
1182.5
 20
2000.0
 30
0.0
 11
1367.5
 21
2000.0
 31
0.0
  0
LINE
  5
15EB
330
1E
100
AcDbEntity
  8
01-寸法線
 62
     4
 48
4.0
370
    13
100
AcDbLine
 10
1352.5
 20
1920.0
 30
0.0
 11
1352.5
 21
1890.0
 31
0.0
  0
LINE
  5
15EC
330
1E
100
AcDbEntity
  8
01-寸法線
 62
     4
 48
4.0
370
    13
100
AcDbLine
 10
1352.5
 20
2030.000000000001
 30
0.0
 11
1352.5
 21
2060.0
 31
0.0
  0
LINE
  5
15ED
330
1E
100
AcDbEntity
  8
01-寸法線
 62
     4
 48
4.0
370
    13
100
AcDbLine
 10
1352.5
 20
1950.0
 30
0.0
 11
1352.5
 21
2000.0
 31
0.0
  0
INSERT
  5
15EF
330
1E
100
AcDbEntity
  8
01-寸法線
 62
     4
 48
4.0
370
    13
100
AcDbBlockReference
  2
_Open
 10
1352.5
 20
2000.0
 30
0.0
 41
30.0
 42
30.0
 43
30.0
 50
270.0
  0
MTEXT
  5
15F0
330
1E
100
AcDbEntity
  8
01-寸法線
 62
     4
 48
4.0
100
AcDbMText
 10
1322.5
 20
1975.000000000001
 30
0.0
 40
45.0
 41
0.0
 71
     5
 72
     1
  1
\A1;50
  7
寸法ｽﾀｲﾙ
 11
0.0000000000000001
 21
1.0
 31
0.0
 73
     1
 44
1.0
  0
LINE
  5
15F1
330
1E
100
AcDbEntity
  8
01-寸法線
 62
     4
 48
4.0
370
    13
100
AcDbLine
 10
1217.5
 20
1900.621778264912
 30
0.0
 11
1367.5
 21
1900.621778264912
 31
0.0
  0
LINE
  5
15F2
330
1E
100
AcDbEntity
  8
01-寸法線
 62
     4
 48
4.0
370
    13
100
AcDbLine
 10
1217.5
 20
1950.0
 30
0.0
 11
1367.5
 21
1950.0
 31
0.0
  0
LINE
  5
15F3
330
1E
100
AcDbEntity
  8
01-寸法線
 62
     4
 48
4.0
370
    13
100
AcDbLine
 10
1352.5
 20
1870.621778264911
 30
0.0
 11
1352.5
 21
1780.621778264912
 31
0.0
  0
LINE
  5
15F4
330
1E
100
AcDbEntity
  8
01-寸法線
 62
     4
 48
4.0
370
    13
100
AcDbLine
 10
1352.5
 20
1980.0
 30
0.0
 11
1352.5
 21
2010.000000000001
 31
0.0
  0
LINE
  5
15F5
330
1E
100
AcDbEntity
  8
01-寸法線
 62
     4
 48
4.0
370
    13
100
AcDbLine
 10
1352.5
 20
1900.621778264912
 30
0.0
 11
1352.5
 21
1950.0
 31
0.0
  0
INSERT
  5
15F6
330
1E
100
AcDbEntity
  8
01-寸法線
 62
     4
 48
4.0
370
    13
100
AcDbBlockReference
  2
_Open
 10
1352.5
 20
1900.621778264912
 30
0.0
 41
30.0
 42
30.0
 43
30.0
 50
90.0
  0
MTEXT
  5
15F8
330
1E
100
AcDbEntity
  8
01-寸法線
 62
     4
 48
4.0
100
AcDbMText
 10
1322.5
 20
1840.621778264912
 30
0.0
 40
45.0
 41
0.0
 71
     5
 72
     1
  1
\A1;49.4
  7
寸法ｽﾀｲﾙ
 11
0.0000000000000001
 21
1.0
 31
0.0
 73
     1
 44
1.0
  0
CIRCLE
  5
1612
330
1E
100
AcDbEntity
  8
01-寸法線
100
AcDbCircle
 10
1352.5
 20
1950.0
 30
0.0
 40
1.5
  0
HATCH
  5
1613
330
1E
100
AcDbEntity
  8
01-寸法線
100
AcDbHatch
 10
0.0
 20
0.0
 30
0.0
210
0.0
220
0.0
230
1.0
  2
SOLID
 70
     1
 71
     0
 91
        1
 92
        7
 72
     1
 73
     1
 93
        2
 10
1354.0
 20
1950.0
 42
1.0
 10
1351.0
 20
1950.0
 42
1.0
 97
        0
 75
     0
 76
     1
 47
0.056586623337664
 98
        1
 10
1352.319318777796
 20
1949.910451710812
450
        0
451
        0
460
0.0
461
0.0
452
        0
462
0.0
453
        0
470

  0
LINE
  5
1616
330
1E
100
AcDbEntity
  8
02-外形線
 48
4.0
100
AcDbLine
 10
1757.5
 20
1900.621778264911
 30
0.0
 11
3757.5
 21
1900.621778264911
 31
0.0
  0
LINE
  5
1622
330
1E
100
AcDbEntity
  8
02-外形線
 48
4.0
100
AcDbLine
 10
1757.5
 20
1753.397459621556
 30
0.0
 11
3757.5
 21
1753.397459621556
 31
0.0
  0
LINE
  5
16EC
330
1E
100
AcDbEntity
  8
01-寸法線
 62
     4
100
AcDbLine
 10
1292.196551146029
 20
2150.0
 30
0.0
 11
1632.196551146028
 21
2150.000000000002
 31
0.0
  0
TEXT
  5
16ED
330
1E
100
AcDbEntity
  8
08-下線
100
AcDbText
 10
1304.207979717457
 20
2162.500000000001
 30
0.0
 40
45.0
  1
防草用切欠部
 41
0.8
  7
ｵﾘｼﾞﾅﾙｽﾀｲﾙ
 72
     1
 11
1462.196551146028
 21
2185.000000000001
 31
0.0
100
AcDbText
 73
     2
  0
LINE
  5
16EE
330
1E
100
AcDbEntity
  8
01-寸法線
100
AcDbLine
 10
1182.5
 20
1960.0
 30
0.0
 11
1292.196551146029
 21
2150.0
 31
0.0
  0
LINE
  5
16EF
330
1E
100
AcDbEntity
  8
01-寸法線
 62
     4
100
AcDbLine
 10
1182.5
 20
1960.0
 30
0.0
 11
1201.783628290596
 21
1982.981333293569
 31
0.0
  0
LINE
  5
16F0
330
1E
100
AcDbEntity
  8
01-寸法線
 62
     4
100
AcDbLine
 10
1182.5
 20
1960.0
 30
0.0
 11
1192.76060429977
 21
1988.190778623577
 31
0.0
  0
DIMENSION
  5
1788
330
1E
100
AcDbEntity
  8
01-寸法線
 48
4.0
100
AcDbDimension
  2
*D17
 10
1202.5
 20
2330.000000000001
 30
0.0
 11
925.0
 21
2360.000000000002
 31
0.0
 70
    32
 71
     5
 42
554.9999999999998
  3
ｽﾀｲﾙ15
100
AcDbAlignedDimension
 13
647.5000000000001
 23
2240.000000000001
 33
0.0
 14
1202.5
 24
2240.000000000001
 34
0.0
100
AcDbRotatedDimension
  0
LINE
  5
17A0
330
1E
100
AcDbEntity
  8
03-隠れ線
 48
4.0
100
AcDbLine
 10
1757.5
 20
1773.397459621556
 30
0.0
 11
3757.5
 21
1773.397459621556
 31
0.0
  0
LINE
  5
17F2
330
1E
100
AcDbEntity
  8
02-外形線
100
AcDbLine
 10
2477.5
 20
506.2435565298224
 30
0.0
 11
2351.677002028886
 21
288.311731283217
 31
0.0
  0
LINE
  5
17F5
330
1E
100
AcDbEntity
  8
02-外形線
100
AcDbLine
 10
2182.985824201619
 20
379.5747260485902
 30
0.0
 11
2187.5
 21
515.0000000000004
 31
0.0
  0
LINE
  5
180F
330
1E
100
AcDbEntity
  8
02-外形線
100
AcDbLine
 10
2307.5
 20
705.0
 30
0.0
 11
2297.5
 21
515.0000000000004
 31
0.0
  0
LINE
  5
1810
330
1E
100
AcDbEntity
  8
02-外形線
100
AcDbLine
 10
2297.5
 20
515.0000000000004
 30
0.0
 11
2187.5
 21
515.0000000000004
 31
0.0
  0
LINE
  5
1821
330
1E
100
AcDbEntity
  8
02-外形線
100
AcDbLine
 10
2477.5
 20
605.0
 30
0.0
 11
2477.5
 21
506.2435565298215
 31
0.0
  0
LINE
  5
187E
330
1E
100
AcDbEntity
  8
01-寸法線
 48
4.0
370
    13
100
AcDbLine
 10
2467.5
 20
620.0
 30
0.0
 11
2467.5
 21
819.9999999999997
 31
0.0
  0
LINE
  5
187F
330
1E
100
AcDbEntity
  8
01-寸法線
 48
4.0
370
    13
100
AcDbLine
 10
2437.5
 20
804.9999999999997
 30
0.0
 11
2407.5
 21
804.9999999999997
 31
0.0
  0
LINE
  5
1880
330
1E
100
AcDbEntity
  8
01-寸法線
 48
4.0
370
    13
100
AcDbLine
 10
2507.5
 20
804.9999999999997
 30
0.0
 11
2537.5
 21
804.9999999999997
 31
0.0
  0
LINE
  5
1881
330
1E
100
AcDbEntity
  8
01-寸法線
 48
4.0
370
    13
100
AcDbLine
 10
2467.5
 20
804.9999999999997
 30
0.0
 11
2477.5
 21
804.9999999999997
 31
0.0
  0
INSERT
  5
1882
330
1E
100
AcDbEntity
  8
01-寸法線
 48
4.0
370
    13
100
AcDbBlockReference
  2
_Open
 10
2467.5
 20
804.9999999999997
 30
0.0
 41
30.0
 42
30.0
 43
30.0
  0
INSERT
  5
1883
330
1E
100
AcDbEntity
  8
01-寸法線
 48
4.0
370
    13
100
AcDbBlockReference
  2
_Open
 10
2477.5
 20
804.9999999999997
 30
0.0
 41
30.0
 42
30.0
 43
30.0
 50
180.0
  0
MTEXT
  5
1884
330
1E
100
AcDbEntity
  8
01-寸法線
 48
4.0
100
AcDbMText
 10
2507.5
 20
834.9999999999999
 30
0.0
 40
45.0
 41
0.0
 71
     5
 72
     1
  1
5
  7
寸法ｽﾀｲﾙ
 73
     1
 44
1.0
  0
LINE
  5
1885
330
1E
100
AcDbEntity
  8
01-寸法線
 48
4.0
370
    13
100
AcDbLine
 10
2407.5
 20
719.9999999999997
 30
0.0
 11
2407.5
 21
894.9999999999997
 31
0.0
  0
LINE
  5
1886
330
1E
100
AcDbEntity
  8
01-寸法線
 48
4.0
370
    13
100
AcDbLine
 10
2477.5
 20
620.0
 30
0.0
 11
2477.499999999999
 21
894.9999999999997
 31
0.0
  0
LINE
  5
1889
330
1E
100
AcDbEntity
  8
01-寸法線
 48
4.0
370
    13
100
AcDbLine
 10
2407.5
 20
879.9999999999995
 30
0.0
 11
2477.5
 21
879.9999999999995
 31
0.0
  0
INSERT
  5
188A
330
1E
100
AcDbEntity
  8
01-寸法線
 48
4.0
370
    13
100
AcDbBlockReference
  2
_Open
 10
2407.5
 20
879.9999999999995
 30
0.0
 41
30.0
 42
30.0
 43
30.0
 50
180.0
  0
INSERT
  5
188B
330
1E
100
AcDbEntity
  8
01-寸法線
 48
4.0
370
    13
100
AcDbBlockReference
  2
_Open
 10
2477.5
 20
879.9999999999995
 30
0.0
 41
30.0
 42
30.0
 43
30.0
  0
MTEXT
  5
188C
330
1E
100
AcDbEntity
  8
01-寸法線
 62
     4
 48
4.0
100
AcDbMText
 10
2442.5
 20
909.9999999999996
 30
0.0
 40
45.0
 41
0.0
 71
     5
 72
     1
  1
35
  7
寸法ｽﾀｲﾙ
 73
     1
 44
1.0
  0
LINE
  5
18C4
330
1E
100
AcDbEntity
  8
01-寸法線
 62
     4
 48
4.0
370
    13
100
AcDbLine
 10
2492.5
 20
605.0
 30
0.0
 11
2592.5
 21
605.0
 31
0.0
  0
LINE
  5
18C5
330
1E
100
AcDbEntity
  8
01-寸法線
 48
4.0
370
    13
100
AcDbLine
 10
2422.5
 20
705.0
 30
0.0
 11
2592.5
 21
705.0
 31
0.0
  0
LINE
  5
18C6
330
1E
100
AcDbEntity
  8
01-寸法線
 48
4.0
370
    13
100
AcDbLine
 10
2577.5
 20
635.0
 30
0.0
 11
2577.5
 21
675.0
 31
0.0
  0
INSERT
  5
18C7
330
1E
100
AcDbEntity
  8
01-寸法線
 48
4.0
370
    13
100
AcDbBlockReference
  2
_Open
 10
2577.5
 20
605.0
 30
0.0
 41
30.0
 42
30.0
 43
30.0
 50
270.0
  0
INSERT
  5
18C8
330
1E
100
AcDbEntity
  8
01-寸法線
 48
4.0
370
    13
100
AcDbBlockReference
  2
_Open
 10
2577.5
 20
705.0
 30
0.0
 41
30.0
 42
30.0
 43
30.0
 50
90.0
  0
MTEXT
  5
18C9
330
1E
100
AcDbEntity
  8
01-寸法線
 48
4.0
100
AcDbMText
 10
2547.499999999999
 20
655.0000000000004
 30
0.0
 40
45.0
 41
0.0
 71
     5
 72
     1
  1
50
  7
寸法ｽﾀｲﾙ
 11
0.0000000000000001
 21
1.0
 31
0.0
 73
     1
 44
1.0
  0
LINE
  5
18CA
330
1E
100
AcDbEntity
  8
01-寸法線
 48
4.0
370
    13
100
AcDbLine
 10
2492.5
 20
506.2435565298224
 30
0.0
 11
2592.499999999999
 21
506.2435565298223
 31
0.0
  0
LINE
  5
18CB
330
1E
100
AcDbEntity
  8
01-寸法線
 48
4.0
370
    13
100
AcDbLine
 10
2492.5
 20
605.0
 30
0.0
 11
2592.499999999999
 21
604.9999999999998
 31
0.0
  0
LINE
  5
18CD
330
1E
100
AcDbEntity
  8
01-寸法線
 48
4.0
370
    13
100
AcDbLine
 10
2577.5
 20
635.0
 30
0.0
 11
2577.5
 21
665.0
 31
0.0
  0
LINE
  5
18CE
330
1E
100
AcDbEntity
  8
01-寸法線
 48
4.0
370
    13
100
AcDbLine
 10
2577.5
 20
506.2435565298224
 30
0.0
 11
2577.5
 21
605.0
 31
0.0
  0
INSERT
  5
18CF
330
1E
100
AcDbEntity
  8
01-寸法線
 48
4.0
370
    13
100
AcDbBlockReference
  2
_Open
 10
2577.5
 20
506.2435565298224
 30
0.0
 41
30.0
 42
30.0
 43
30.0
 50
270.0
  0
INSERT
  5
18D0
330
1E
100
AcDbEntity
  8
01-寸法線
 48
4.0
370
    13
100
AcDbBlockReference
  2
_Open
 10
2577.5
 20
605.0
 30
0.0
 41
30.0
 42
30.0
 43
30.0
 50
270.0
  0
MTEXT
  5
18D1
330
1E
100
AcDbEntity
  8
01-寸法線
 48
4.0
100
AcDbMText
 10
2607.5
 20
555.6217782649116
 30
0.0
 40
45.0
 41
0.0
 71
     5
 72
     1
  1
49.4
  7
寸法ｽﾀｲﾙ
 11
0.0000000000000001
 21
1.0
 31
0.0
 73
     1
 44
1.0
  0
INSERT
  5
18D9
330
1E
100
AcDbEntity
  8
01-寸法線
 48
4.0
370
    13
100
AcDbBlockReference
  2
_Open
 10
2577.5
 20
605.0
 30
0.0
 41
30.0
 42
30.0
 43
30.0
 50
90.0
  0
LINE
  5
19A4
330
1E
100
AcDbEntity
  8
02-外形線
 48
4.0
100
AcDbLine
 10
1172.92543867133
 20
1932.792706909469
 30
0.0
 11
1197.5
 21
1950.0
 31
0.0
  0
LINE
  5
19BE
330
1E
100
AcDbEntity
  8
02-外形線
100
AcDbLine
 10
2467.5
 20
605.0
 30
0.0
 11
2477.5
 21
605.0
 31
0.0
  0
LINE
  5
19F0
330
1E
100
AcDbEntity
  8
01-寸法線
 62
     4
 48
4.0
370
    13
100
AcDbLine
 10
2406.063596678326
 20
561.9817672736721
 30
0.0
 11
2260.424708263417
 21
460.0043197490698
 31
0.0
  0
LINE
  5
19F1
330
1E
100
AcDbEntity
  8
01-寸法線
 62
     4
 48
4.0
370
    13
100
AcDbLine
 10
2477.5
 20
491.2435565298211
 30
0.0
 11
2477.5
 21
347.0020753820971
 31
0.0
  0
ARC
  5
19F2
330
1E
100
AcDbEntity
  8
01-寸法線
 62
     4
 48
4.0
370
    13
100
AcDbCircle
 10
2477.5
 20
612.0020753820969
 30
0.0
 40
249.9999999999998
100
AcDbArc
 50
221.8796255350304
 51
263.1203744649697
  0
INSERT
  5
19F3
330
1E
100
AcDbEntity
  8
01-寸法線
 62
     4
 48
4.0
370
    13
100
AcDbBlockReference
  2
_Open
 10
2272.711988927752
 20
468.6079662943355
 30
0.0
 41
30.0
 42
30.0
 43
30.0
 50
128.4398127675151
  0
INSERT
  5
19F4
330
1E
100
AcDbEntity
  8
01-寸法線
 62
     4
 48
4.0
370
    13
100
AcDbBlockReference
  2
_Open
 10
2477.5
 20
362.0020753820969
 30
0.0
 41
30.0
 42
30.0
 43
30.0
 50
356.5601872324849
  0
MTEXT
  5
19F5
330
1E
100
AcDbEntity
  8
01-寸法線
 62
     4
 48
4.0
100
AcDbMText
 10
2399.139751326605
 20
406.3464914161063
 30
0.0
 40
45.0
 41
0.0
 71
     5
 72
     1
  1
55{\fNSimSun|b0|i0|c128|p49;\U+00B0}
  7
寸法ｽﾀｲﾙ
 11
0.8910065241883678
 21
-0.453990499739547
 31
0.0
 73
     1
 44
1.0
  0
LINE
  5
1A0A
330
1E
100
AcDbEntity
  8
01-寸法線
 62
     4
 48
4.0
370
    13
100
AcDbLine
 10
2292.5
 20
705.0
 30
0.0
 11
2202.5
 21
705.0
 31
0.0
  0
LINE
  5
1A0B
330
1E
100
AcDbEntity
  8
01-寸法線
 62
     4
 48
4.0
370
    13
100
AcDbLine
 10
2403.350877342661
 20
570.5854138189376
 30
0.0
 11
2202.5
 21
570.5854138189378
 31
0.0
  0
LINE
  5
1A0E
330
1E
100
AcDbEntity
  8
01-寸法線
 62
     4
 48
4.0
370
    13
100
AcDbLine
 10
2217.5
 20
705.0
 30
0.0
 11
2217.5
 21
570.5854138189378
 31
0.0
  0
INSERT
  5
1A0F
330
1E
100
AcDbEntity
  8
01-寸法線
 62
     4
 48
4.0
370
    13
100
AcDbBlockReference
  2
_Open
 10
2217.5
 20
705.0
 30
0.0
 41
30.0
 42
30.0
 43
30.0
 50
90.0
  0
INSERT
  5
1A10
330
1E
100
AcDbEntity
  8
01-寸法線
 62
     4
 48
4.0
370
    13
100
AcDbBlockReference
  2
_Open
 10
2217.5
 20
570.5854138189376
 30
0.0
 41
30.0
 42
30.0
 43
30.0
 50
270.0
  0
MTEXT
  5
1A11
330
1E
100
AcDbEntity
  8
01-寸法線
 62
     4
 48
4.0
100
AcDbMText
 10
2187.5
 20
637.7927069094694
 30
0.0
 40
45.0
 41
0.0
 71
     5
 72
     1
  1
67.2
  7
寸法ｽﾀｲﾙ
 11
0.0000000000000001
 21
1.0
 31
0.0
 73
     1
 44
1.0
  0
CIRCLE
  5
1A67
330
1E
100
AcDbEntity
  8
01-寸法線
 48
4.0
100
AcDbCircle
 10
2427.5
 20
630.0
 30
0.0
 40
350.0
  0
TEXT
  5
1A76
330
1E
100
AcDbEntity
  8
08-下線
100
AcDbText
 10
1706.919707880776
 20
921.7571428571426
 30
0.0
 40
45.0
  1
%%U防草用切欠部詳細図
 41
0.8
  7
ｵﾘｼﾞﾅﾙｽﾀｲﾙ
 72
     2
 11
2180.885422166491
 21
912.4999999999998
 31
0.0
100
AcDbText
 73
     1
  0
TEXT
  5
1AA2
330
1E
100
AcDbEntity
  8
08-下線
100
AcDbText
 10
3118.18
 20
662.5
 30
0.0
 40
45.0
  1
製品ボリューム
 41
0.8
  7
ｵﾘｼﾞﾅﾙｽﾀｲﾙ
 72
     1
 11
3302.5
 21
685.0
 31
0.0
100
AcDbText
 73
     2
  0
TEXT
  5
1AA3
330
1E
100
AcDbEntity
  8
08-下線
100
AcDbText
 10
3118.18
 20
552.5
 30
0.0
 40
45.0
  1
参　考　質　量
 41
0.8
  7
ｵﾘｼﾞﾅﾙｽﾀｲﾙ
 72
     1
 11
3302.5
 21
575.0
 31
0.0
100
AcDbText
 73
     2
  0
LINE
  5
1AA9
330
1E
100
AcDbEntity
  8
10-罫線
 48
4.0
100
AcDbLine
 10
3077.500000000001
 20
750.0
 30
0.0
 11
3077.500000000001
 21
510.0
 31
0.0
  0
TEXT
  5
1AAD
330
1E
100
AcDbEntity
  8
08-下線
100
AcDbText
 10
3545.842857142857
 20
662.4999999999984
 30
0.0
 40
45.0
  1
0.183
 41
0.8
  7
ｵﾘｼﾞﾅﾙｽﾀｲﾙ
 72
     2
 11
3677.5
 21
684.9999999999984
 31
0.0
100
AcDbText
 73
     2
  0
TEXT
  5
1AB2
330
1E
100
AcDbEntity
  8
08-下線
100
AcDbText
 10
3598.505714285714
 20
552.5
 30
0.0
 40
45.0
  1
438
 41
0.8
  7
ｵﾘｼﾞﾅﾙｽﾀｲﾙ
 72
     2
 11
3677.5
 21
575.0
 31
0.0
100
AcDbText
 73
     2
  0
TEXT
  5
1AB9
330
1E
100
AcDbEntity
  8
08-下線
100
AcDbText
 10
3707.5
 20
552.5
 30
0.0
 40
45.0
  1
kg
 41
0.8
  7
ｵﾘｼﾞﾅﾙｽﾀｲﾙ
 11
3707.5
 21
575.0
 31
0.0
100
AcDbText
 73
     2
  0
TEXT
  5
1ABA
330
1E
100
AcDbEntity
  8
08-下線
100
AcDbText
 10
3707.5
 20
662.4999999999984
 30
0.0
 40
45.0
  1
m
 41
0.8
  7
ｵﾘｼﾞﾅﾙｽﾀｲﾙ
 11
3707.5
 21
684.9999999999984
 31
0.0
100
AcDbText
 73
     2
  0
TEXT
  5
1ABC
330
1E
100
AcDbEntity
  8
08-下線
100
AcDbText
 10
3733.831428571429
 20
687.4999999999984
 30
0.0
 40
20.0
  1
3
 41
0.8
  7
ｵﾘｼﾞﾅﾙｽﾀｲﾙ
 11
3733.831428571429
 21
707.4999999999984
 31
0.0
100
AcDbText
 73
     3
  0
LINE
  5
1AC2
330
1E
100
AcDbEntity
  8
10-罫線
 48
4.0
100
AcDbLine
 10
3077.500000000001
 20
750.0
 30
0.0
 11
3807.5
 21
750.0
 31
0.0
  0
LINE
  5
1AC3
330
1E
100
AcDbEntity
  8
10-罫線
 48
4.0
100
AcDbLine
 10
3077.500000000001
 20
510.0
 30
0.0
 11
3807.5
 21
510.0
 31
0.0
  0
LINE
  5
1AD7
330
1E
100
AcDbEntity
  8
10-罫線
 48
4.0
100
AcDbLine
 10
3807.5
 20
750.0
 30
0.0
 11
3807.5
 21
510.0
 31
0.0
  0
LINE
  5
1AE8
330
1E
100
AcDbEntity
  8
02-外形線
 48
4.0
100
AcDbLine
 10
2307.5
 20
705.0
 30
0.0
 11
2407.5
 21
705.0
 31
0.0
  0
INSERT
  5
1BAB
330
1E
100
AcDbEntity
  8
01-寸法線
 62
     4
 48
4.0
370
    13
100
AcDbBlockReference
  2
_Open
 10
2447.579964735195
 20
598.5871662132494
 30
0.0
 41
30.00000000000002
 42
30.00000000000002
 43
30.00000000000002
 50
305.1098729784324
  0
LINE
  5
1BAC
330
1E
100
AcDbEntity
  8
01-寸法線
 62
     4
 48
4.0
370
    13
100
AcDbLine
 10
2430.325578021895
 20
623.1286848938016
 30
0.0
 11
2413.071191308594
 21
647.6702035743535
 31
0.0
  0
MTEXT
  5
1BAD
330
1E
100
AcDbEntity
  8
01-寸法線
 62
     4
 48
4.0
100
AcDbMText
 10
2446.239903345797
 20
652.6538309473778
 30
0.0
 40
45.0
 41
0.0
 71
     5
 72
     1
  1
3
  7
寸法ｽﾀｲﾙ
 11
0.5735764363510461
 21
-0.8191520442889917
 31
0.0
 73
     1
 44
1.0
  0
MTEXT
  5
1BAE
330
1E
100
AcDbEntity
  8
01-寸法線
 62
     4
 48
4.0
100
AcDbMText
 10
2374.9
 20
520.5854138189375
 30
0.0
 40
45.0
 41
0.0
 71
     5
 72
     1
  1
1.7
  7
寸法ｽﾀｲﾙ
 73
     1
 44
1.0
  0
INSERT
  5
1BAF
330
1E
100
AcDbEntity
  8
01-寸法線
 62
     4
 48
4.0
370
    13
100
AcDbBlockReference
  2
_Open
 10
2414.9
 20
490.5854138189375
 30
0.0
 41
30.0
 42
30.0
 43
30.0
  0
LINE
  5
1BB0
330
1E
100
AcDbEntity
  8
01-寸法線
 62
     4
 48
4.0
370
    13
100
AcDbLine
 10
2384.9
 20
490.5854138189375
 30
0.0
 11
2334.9
 21
490.5854138189375
 31
0.0
  0
LINE
  5
1BB1
330
1E
100
AcDbEntity
  8
01-寸法線
 62
     4
 48
4.0
370
    13
100
AcDbLine
 10
2418.35087734266
 20
555.5854138189374
 30
0.0
 11
2418.35087734266
 21
475.5854138189374
 31
0.0
  0
LINE
  5
1BB2
330
1E
100
AcDbEntity
  8
01-寸法線
 62
     4
 48
4.0
370
    13
100
AcDbLine
 10
2414.9
 20
560.4937175550478
 30
0.0
 11
2414.9
 21
475.5854138189374
 31
0.0
  0
MTEXT
  5
1BB3
330
1E
100
AcDbEntity
  8
01-寸法線
 62
     4
 48
4.0
100
AcDbMText
 10
2442.92543867133
 20
460.5854138189374
 30
0.0
 40
45.0
 41
0.0
 71
     5
 72
     1
  1
24.6
  7
寸法ｽﾀｲﾙ
 73
     1
 44
1.0
  0
LINE
  5
1BB4
330
1E
100
AcDbEntity
  8
01-寸法線
 62
     4
 48
4.0
370
    13
100
AcDbLine
 10
2418.35087734266
 20
490.5854138189375
 30
0.0
 11
2467.5
 21
490.5854138189375
 31
0.0
  0
LINE
  5
1BB5
330
1E
100
AcDbEntity
  8
02-外形線
 48
4.0
100
AcDbLine
 10
2418.35087734266
 20
570.5854138189375
 30
0.0
 11
2467.5
 21
605.0
 31
0.0
  0
LINE
  5
1BB6
330
1E
100
AcDbEntity
  8
02-外形線
 48
4.0
100
AcDbLine
 10
2407.5
 20
705.0
 30
0.0
 11
2414.9
 21
575.4937175550479
 31
0.0
  0
LINE
  5
1BB7
330
1E
100
AcDbEntity
  8
01-寸法線
 62
     4
 48
4.0
370
    13
100
AcDbLine
 10
2427.170759340277
 20
584.120910911698
 30
0.0
 11
2459.892784247679
 21
607.1267598627651
 31
0.0
  0
LINE
  5
1BB8
330
1E
100
AcDbEntity
  8
02-外形線
 48
4.0
100
AcDbLine
 10
2414.9
 20
575.4937175550479
 30
0.0
 11
2418.35087734266
 21
570.5854138189375
 31
0.0
  0
LINE
  5
1BB9
330
1E
100
AcDbEntity
  8
01-寸法線
 62
     4
 48
4.0
370
    13
100
AcDbLine
 10
2476.103646545266
 20
592.712719335665
 30
0.0
 11
2602.290462542495
 21
412.4992695920849
 31
0.0
  0
MTEXT
  5
1BBA
330
1E
100
AcDbEntity
  8
01-寸法線
 62
     4
 48
4.0
100
AcDbMText
 10
2551.904961578027
 20
432.1538184945589
 30
0.0
 40
45.0
 41
0.0
 71
     5
 72
     1
  1
30
  7
寸法ｽﾀｲﾙ
 11
0.819152044288992
 21
0.5735764363510462
 31
0.0
 73
     1
 44
1.0
  0
LINE
  5
1BBB
330
1E
100
AcDbEntity
  8
01-寸法線
 62
     4
 48
4.0
370
    13
100
AcDbLine
 10
2426.954523887927
 20
558.2981331546025
 30
0.0
 11
2553.141339885155
 21
378.0846834110231
 31
0.0
  0
LINE
  5
1BBC
330
1E
100
AcDbEntity
  8
01-寸法線
 48
4.0
100
AcDbLine
 10
2544.537693339889
 20
390.371964075358
 30
0.0
 11
2593.686815997228
 21
424.7865502564199
 31
0.0
  0
INSERT
  5
1BBD
330
1E
100
AcDbEntity
  8
01-寸法線
 62
     4
 48
4.0
370
    13
100
AcDbBlockReference
  2
_Open
 10
2544.537693339889
 20
390.371964075358
 30
0.0
 41
29.99999999999994
 42
29.99999999999994
 43
29.99999999999994
 50
34.99999999999929
  0
LINE
  5
1BBE
330
1E
100
AcDbEntity
  8
01-寸法線
 62
     4
 48
4.0
370
    13
100
AcDbLine
 10
2528.154652454108
 20
378.9004353483371
 30
0.0
 11
2503.580091125439
 21
361.693142257806
 31
0.0
  0
LINE
  5
1BBF
330
1E
100
AcDbEntity
  8
01-寸法線
 62
     4
 48
4.0
370
    13
100
AcDbLine
 10
2519.963132011219
 20
373.164670984827
 30
0.0
 11
2495.388570682548
 21
355.957377894296
 31
0.0
  0
LINE
  5
1BC0
330
1E
100
AcDbEntity
  8
01-寸法線
 62
     4
 48
4.0
370
    13
100
AcDbLine
 10
2618.261377325898
 20
441.9938433469511
 30
0.0
 11
2642.835938654568
 21
459.2011364374822
 31
0.0
  0
INSERT
  5
1BC1
330
1E
100
AcDbEntity
  8
01-寸法線
 62
     4
 48
4.0
370
    13
100
AcDbBlockReference
  2
_Open
 10
2593.686815997228
 20
424.7865502564199
 30
0.0
 41
29.99999999999994
 42
29.99999999999994
 43
29.99999999999994
 50
214.9999999999993
  0
INSERT
  5
1BC2
330
1E
100
AcDbEntity
  8
01-寸法線
 62
     4
 48
4.0
370
    13
100
AcDbBlockReference
  2
_Open
 10
2451.030842077856
 20
593.6788624771393
 30
0.0
 41
30.00000000000002
 42
30.00000000000002
 43
30.00000000000002
 50
125.1098729784324
  0
LINE
  5
1BC3
330
1E
100
AcDbEntity
  8
01-寸法線
 62
     4
 48
4.0
370
    13
100
AcDbLine
 10
2468.285228791156
 20
569.1373437965872
 30
0.0
 11
2485.539615504456
 21
544.5958251160353
 31
0.0
  0
LINE
  5
1BC4
330
1E
100
AcDbEntity
  8
01-寸法線
 62
     4
 48
4.0
370
    13
100
AcDbLine
 10
2467.5
 20
590.0
 30
0.0
 11
2467.5
 21
475.5854138189374
 31
0.0
  0
LINE
  5
1BC5
330
1E
100
AcDbEntity
  8
01-寸法線
 62
     4
 48
4.0
370
    13
100
AcDbLine
 10
2497.5
 20
490.5854138189375
 30
0.0
 11
2527.5
 21
490.5854138189375
 31
0.0
  0
INSERT
  5
1BC6
330
1E
100
AcDbEntity
  8
01-寸法線
 62
     4
 48
4.0
370
    13
100
AcDbBlockReference
  2
_Open
 10
2467.5
 20
490.5854138189375
 30
0.0
 41
30.0
 42
30.0
 43
30.0
 50
180.0
  0
LINE
  5
1BC7
330
1E
100
AcDbEntity
  8
01-寸法線
 62
     4
 48
4.0
370
    13
100
AcDbLine
 10
2414.9
 20
490.5854138189375
 30
0.0
 11
2418.35087734266
 21
490.5854138189375
 31
0.0
  0
CIRCLE
  5
1BC8
330
1E
100
AcDbEntity
  8
01-寸法線
100
AcDbCircle
 10
2418.35087734266
 20
490.5854138189377
 30
0.0
 40
1.5
  0
HATCH
  5
1BC9
330
1E
100
AcDbEntity
  8
01-寸法線
100
AcDbHatch
 10
0.0
 20
0.0
 30
0.0
210
0.0
220
0.0
230
1.0
  2
SOLID
 70
     1
 71
     0
 91
        1
 92
        7
 72
     1
 73
     1
 93
        2
 10
2419.850877342661
 20
490.5854138189377
 42
1.0
 10
2416.85087734266
 20
490.5854138189377
 42
1.0
 97
        0
 75
     0
 76
     1
 47
0.056586623337664
 98
        1
 10
2418.170196120457
 20
490.4958655297495
450
        0
451
        0
460
0.0
461
0.0
452
        0
462
0.0
453
        0
470

  0
LINE
  5
1BD4
330
1E
100
AcDbEntity
  8
02-外形線
 48
4.0
100
AcDbLine
 10
1171.2
 20
1935.246858777524
 30
0.0
 11
1172.92543867133
 21
1932.792706909469
 31
0.0
  0
LINE
  5
1BD5
330
1E
100
AcDbEntity
  8
02-外形線
 48
4.0
100
AcDbLine
 10
1167.5
 20
2000.0
 30
0.0
 11
1171.2
 21
1935.246858777524
 31
0.0
  0
LINE
  5
1BDC
330
1E
100
AcDbEntity
  8
03-隠れ線
 48
4.0
100
AcDbLine
 10
1757.5
 20
1935.246858777524
 30
0.0
 11
3757.5
 21
1935.246858777524
 31
0.0
  0
LINE
  5
1BDD
330
1E
100
AcDbEntity
  8
03-隠れ線
 48
4.0
100
AcDbLine
 10
3757.5
 20
1932.792706909469
 30
0.0
 11
1757.5
 21
1932.792706909469
 31
0.0
  0
ENDSEC
  0
SECTION
  2
OBJECTS
  0
DICTIONARY
  5
C
330
0
100
AcDbDictionary
281
     1
  3
ACAD_CIP_PREVIOUS_PRODUCT_INFO
350
1D1B
  3
ACAD_COLOR
350
1CF8
  3
ACAD_DETAILVIEWSTYLE
350
1D11
  3
ACAD_GROUP
350
D
  3
ACAD_LAYOUT
350
19
  3
ACAD_MATERIAL
350
1CC6
  3
ACAD_MLEADERSTYLE
350
1D0D
  3
ACAD_MLINESTYLE
350
16
  3
ACAD_PLOTSETTINGS
350
18
  3
ACAD_PLOTSTYLENAME
350
E
  3
ACAD_SCALELIST
350
1CFB
  3
ACAD_SECTIONVIEWSTYLE
350
1D0F
  3
ACAD_TABLESTYLE
350
1CF9
  3
ACAD_VISUALSTYLE
350
1CDF
  3
ACDB_RECOMPOSE_DATA
350
1D49
  3
AcDbVariableDictionary
350
420
  0
DICTIONARY
  5
A51
330
2
100
AcDbDictionary
280
     1
281
     1
  3
ACAD_LAYERFILTERS
360
162F
  3
ACAD_LAYERSTATES
360
A52
  0
DICTIONARY
  5
1D1C
330
10
100
AcDbDictionary
280
     1
281
     1
  3
ADSK_XREC_LAYER_RECONCILED
360
1D1D
  0
DICTIONARY
  5
1D1E
330
45
100
AcDbDictionary
280
     1
281
     1
  3
ADSK_XREC_LAYER_RECONCILED
360
1D1F
  0
DICTIONARY
  5
1D20
330
46
100
AcDbDictionary
280
     1
281
     1
  3
ADSK_XREC_LAYER_RECONCILED
360
1D21
  0
DICTIONARY
  5
1D22
330
4F6
100
AcDbDictionary
280
     1
281
     1
  3
ADSK_XREC_LAYER_RECONCILED
360
1D23
  0
DICTIONARY
  5
1D24
330
4F7
100
AcDbDictionary
280
     1
281
     1
  3
ADSK_XREC_LAYER_RECONCILED
360
1D25
  0
DICTIONARY
  5
1D26
330
4F8
100
AcDbDictionary
280
     1
281
     1
  3
ADSK_XREC_LAYER_RECONCILED
360
1D27
  0
DICTIONARY
  5
1D28
330
4F9
100
AcDbDictionary
280
     1
281
     1
  3
ADSK_XREC_LAYER_RECONCILED
360
1D29
  0
DICTIONARY
  5
1D2A
330
4FA
100
AcDbDictionary
280
     1
281
     1
  3
ADSK_XREC_LAYER_RECONCILED
360
1D2B
  0
DICTIONARY
  5
1D2C
330
4FB
100
AcDbDictionary
280
     1
281
     1
  3
ADSK_XREC_LAYER_RECONCILED
360
1D2D
  0
DICTIONARY
  5
1D2E
330
4FC
100
AcDbDictionary
280
     1
281
     1
  3
ADSK_XREC_LAYER_RECONCILED
360
1D2F
  0
DICTIONARY
  5
1D30
330
4FD
100
AcDbDictionary
280
     1
281
     1
  3
ADSK_XREC_LAYER_RECONCILED
360
1D31
  0
DICTIONARY
  5
1D32
330
4FE
100
AcDbDictionary
280
     1
281
     1
  3
ADSK_XREC_LAYER_RECONCILED
360
1D33
  0
DICTIONARY
  5
1D34
330
4FF
100
AcDbDictionary
280
     1
281
     1
  3
ADSK_XREC_LAYER_RECONCILED
360
1D35
  0
DICTIONARY
  5
1D36
330
500
100
AcDbDictionary
280
     1
281
     1
  3
ADSK_XREC_LAYER_RECONCILED
360
1D37
  0
XRECORD
  5
1D1B
102
{ACAD_REACTORS
330
C
102
}
330
C
100
AcDbXrecord
280
     1
300
ACDLT
300
2013
300
ACDLT_F_S
  0
DICTIONARY
  5
1CF8
102
{ACAD_REACTORS
330
C
102
}
330
C
100
AcDbDictionary
281
     1
  0
DICTIONARY
  5
1D11
102
{ACAD_REACTORS
330
C
102
}
330
C
100
AcDbDictionary
281
     1
  3
Imperial24
350
1D12
  0
DICTIONARY
  5
D
102
{ACAD_REACTORS
330
C
102
}
330
C
100
AcDbDictionary
281
     1
  0
DICTIONARY
  5
19
102
{ACAD_REACTORS
330
C
102
}
330
C
100
AcDbDictionary
281
     1
  3
Model
350
21
  3
ﾚｲｱｳﾄ1
350
1D
  0
DICTIONARY
  5
1CC6
102
{ACAD_REACTORS
330
C
102
}
330
C
100
AcDbDictionary
281
     1
  3
ByBlock
350
1CCF
  3
ByLayer
350
1CC7
  3
Global
350
1CD7
  0
DICTIONARY
  5
1D0D
102
{ACAD_REACTORS
330
C
102
}
330
C
100
AcDbDictionary
281
     1
  3
Standard
350
1D0E
  0
DICTIONARY
  5
16
102
{ACAD_REACTORS
330
C
102
}
330
C
100
AcDbDictionary
281
     1
  3
Standard
350
17
  0
DICTIONARY
  5
18
102
{ACAD_REACTORS
330
C
102
}
330
C
100
AcDbDictionary
281
     1
  0
ACDBDICTIONARYWDFLT
  5
E
102
{ACAD_REACTORS
330
C
102
}
330
C
100
AcDbDictionary
281
     1
  3
Normal
350
F
100
AcDbDictionaryWithDefault
340
F
  0
DICTIONARY
  5
1CFB
102
{ACAD_REACTORS
330
C
102
}
330
C
100
AcDbDictionary
281
     1
  3
A0
350
1CFC
  3
A1
350
1CFD
  3
A2
350
1CFE
  3
A3
350
1CFF
  3
A4
350
1D00
  3
A5
350
1D01
  3
A6
350
1D02
  3
A7
350
1D03
  3
A8
350
1D04
  3
A9
350
1D05
  3
B0
350
1D06
  3
B1
350
1D07
  3
B2
350
1D08
  3
B3
350
1D09
  3
B4
350
1D0A
  3
B5
350
1D0B
  3
B6
350
1D0C
  0
DICTIONARY
  5
1D0F
102
{ACAD_REACTORS
330
C
102
}
330
C
100
AcDbDictionary
281
     1
  3
Imperial24
350
1D10
  0
DICTIONARY
  5
1CF9
102
{ACAD_REACTORS
330
C
102
}
330
C
100
AcDbDictionary
281
     1
  3
Standard
350
1CFA
  0
DICTIONARY
  5
1CDF
102
{ACAD_REACTORS
330
C
102
}
330
C
100
AcDbDictionary
281
     1
  3
2dWireframe
350
1CE5
  3
Basic
350
1CE4
  3
Brighten
350
1CEB
  3
ColorChange
350
1CEF
  3
Conceptual
350
1CE8
  3
Dim
350
1CEA
  3
EdgeColorOff
350
1CF7
  3
Facepattern
350
1CEE
  3
Flat
350
1CE0
  3
FlatWithEdges
350
1CE1
  3
Gouraud
350
1CE2
  3
GouraudWithEdges
350
1CE3
  3
Hidden
350
1CE7
  3
JitterOff
350
1CF5
  3
Linepattern
350
1CED
  3
OverhangOff
350
1CF6
  3
Realistic
350
1CE9
  3
Shaded
350
1CF4
  3
Shaded with edges
350
1CF3
  3
Shades of Gray
350
1CF0
  3
Sketchy
350
1CF1
  3
Thicken
350
1CEC
  3
Wireframe
350
1CE6
  3
X-Ray
350
1CF2
  0
XRECORD
  5
1D49
102
{ACAD_REACTORS
330
C
102
}
330
C
100
AcDbXrecord
280
     1
 90
        1
330
1CFA
  0
DICTIONARY
  5
420
102
{ACAD_REACTORS
330
C
102
}
330
C
100
AcDbDictionary
281
     1
  3
CANNOSCALE
350
1D44
  3
CMLEADERSTYLE
350
1D41
  3
CTABLESTYLE
350
1D40
  3
CVIEWDETAILSTYLE
350
1D42
  3
CVIEWSECTIONSTYLE
350
1D43
  3
DIMASSOC
350
421
  3
XCLIPFRAME
350
1D45
  0
DICTIONARY
  5
162F
102
{ACAD_REACTORS
330
A51
102
}
330
A51
100
AcDbDictionary
280
     1
281
     1
  0
DICTIONARY
  5
A52
102
{ACAD_REACTORS
330
A51
102
}
330
A51
100
AcDbDictionary
281
     1
  0
XRECORD
  5
1D1D
102
{ACAD_REACTORS
330
1D1C
102
}
330
1D1C
100
AcDbXrecord
280
     1
290
     1
  0
XRECORD
  5
1D1F
102
{ACAD_REACTORS
330
1D1E
102
}
330
1D1E
100
AcDbXrecord
280
     1
290
     1
  0
XRECORD
  5
1D21
102
{ACAD_REACTORS
330
1D20
102
}
330
1D20
100
AcDbXrecord
280
     1
290
     1
  0
XRECORD
  5
1D23
102
{ACAD_REACTORS
330
1D22
102
}
330
1D22
100
AcDbXrecord
280
     1
290
     1
  0
XRECORD
  5
1D25
102
{ACAD_REACTORS
330
1D24
102
}
330
1D24
100
AcDbXrecord
280
     1
290
     1
  0
XRECORD
  5
1D27
102
{ACAD_REACTORS
330
1D26
102
}
330
1D26
100
AcDbXrecord
280
     1
290
     1
  0
XRECORD
  5
1D29
102
{ACAD_REACTORS
330
1D28
102
}
330
1D28
100
AcDbXrecord
280
     1
290
     1
  0
XRECORD
  5
1D2B
102
{ACAD_REACTORS
330
1D2A
102
}
330
1D2A
100
AcDbXrecord
280
     1
290
     1
  0
XRECORD
  5
1D2D
102
{ACAD_REACTORS
330
1D2C
102
}
330
1D2C
100
AcDbXrecord
280
     1
290
     1
  0
XRECORD
  5
1D2F
102
{ACAD_REACTORS
330
1D2E
102
}
330
1D2E
100
AcDbXrecord
280
     1
290
     1
  0
XRECORD
  5
1D31
102
{ACAD_REACTORS
330
1D30
102
}
330
1D30
100
AcDbXrecord
280
     1
290
     1
  0
XRECORD
  5
1D33
102
{ACAD_REACTORS
330
1D32
102
}
330
1D32
100
AcDbXrecord
280
     1
290
     1
  0
XRECORD
  5
1D35
102
{ACAD_REACTORS
330
1D34
102
}
330
1D34
100
AcDbXrecord
280
     1
290
     1
  0
XRECORD
  5
1D37
102
{ACAD_REACTORS
330
1D36
102
}
330
1D36
100
AcDbXrecord
280
     1
290
     1
  0
ACDBDETAILVIEWSTYLE
  5
1D12
102
{ACAD_REACTORS
330
1D11
102
}
330
1D11
100
AcDbModelDocViewStyle
 70
     0
  3
Imperial24
290
     0
100
AcDbDetailViewStyle
 70
     0
 71
     0
 90
        3
 71
     1
340
11
 62
   256
 40
0.24
340
0
 62
   256
 40
0.24
300

 40
0.36
280
     3
 71
     2
340
15
 90
       25
 62
   256
 71
     3
340
11
 62
   256
 40
0.24
 90
        1
 40
0.75
 90
        1
300
%<\AcVar ViewType \f "%tc1">% %<\AcVar ViewDetailId>%\PSCALE %<\AcVar ViewScale \f "%sn">%
 71
     4
340
15
 90
       25
 62
   256
340
15
 90
       25
 62
   256
280
     0
  0
LAYOUT
  5
21
102
{ACAD_REACTORS
330
19
102
}
330
19
100
AcDbPlotSettings
  1

  2
RICOH SEIZOU
  4
A4
  6

 40
5.873749732971191
 41
5.873747825622558
 42
5.873748779296875
 43
5.873748779296875
 44
209.9733276367187
 45
296.9259948730469
 46
-5.889999999999999
 47
-5.919999999999999
 48
0.0
 49
0.0
140
0.0
141
0.0
142
1.0
143
15.0
 70
 11940
 72
     1
 73
     1
 74
     1
  7
monochrome.ctb
 75
     0
147
0.0666666666666667
 76
     0
 77
     2
 78
   300
148
0.1359454380999523
149
0.0961230370394333
100
AcDbLayout
  1
Model
 70
     1
 71
     0
 10
0.0
 20
0.0
 11
12.0
 21
9.0
 12
0.0
 22
0.0
 32
0.0
 14
0.0
 24
0.0
 34
0.0
 15
0.0
 25
0.0
 35
0.0
146
0.0
 13
0.0
 23
0.0
 33
0.0
 16
1.0
 26
0.0
 36
0.0
 17
0.0
 27
1.0
 37
0.0
 76
     0
330
1E
331
1CC4
  0
LAYOUT
  5
1D
102
{ACAD_REACTORS
330
19
102
}
330
19
100
AcDbPlotSettings
  1

  2
\\DBSERVER1\Canon SEIZOU
  4

  6

 40
0.0
 41
0.0
 42
0.0
 43
0.0
 44
0.0
 45
0.0
 46
0.0
 47
0.0
 48
0.0
 49
0.0
140
0.0
141
0.0
142
1.0
143
1.0
 70
   688
 72
     0
 73
     0
 74
     5
  7
monochrome.ctb
 75
    16
147
1.0
 76
     0
 77
     2
 78
   300
148
0.0
149
0.0
100
AcDbLayout
  1
ﾚｲｱｳﾄ1
 70
     1
 71
     1
 10
0.0
 20
0.0
 11
12.0
 21
9.0
 12
0.0
 22
0.0
 32
0.0
 14
1.000000000000000E+20
 24
1.000000000000000E+20
 34
1.000000000000000E+20
 15
-1.000000000000000E+20
 25
-1.000000000000000E+20
 35
-1.000000000000000E+20
146
0.0
 13
0.0
 23
0.0
 33
0.0
 16
1.0
 26
0.0
 36
0.0
 17
0.0
 27
1.0
 37
0.0
 76
     0
330
1A
  0
MATERIAL
  5
1CCF
102
{ACAD_XDICTIONARY
360
1CD0
102
}
102
{ACAD_REACTORS
330
1CC6
102
}
330
1CC6
100
AcDbMaterial
  1
ByBlock
 72
     0
 43
0.0208333333333333
 43
0.0
 43
0.0
 43
0.0
 43
0.0
 43
0.0208333333333333
 43
0.0
 43
0.0
 43
0.0
 43
0.0
 43
1.0
 43
0.0
 43
0.0
 43
0.0
 43
0.0
 43
1.0
 77
     0
 47
0.0208333333333333
 47
0.0
 47
0.0
 47
0.0
 47
0.0
 47
0.0208333333333333
 47
0.0
 47
0.0
 47
0.0
 47
0.0
 47
1.0
 47
0.0
 47
0.0
 47
0.0
 47
0.0
 47
1.0
171
     0
 49
0.0208333333333333
 49
0.0
 49
0.0
 49
0.0
 49
0.0
 49
0.0208333333333333
 49
0.0
 49
0.0
 49
0.0
 49
0.0
 49
1.0
 49
0.0
 49
0.0
 49
0.0
 49
0.0
 49
1.0
175
     0
142
0.0208333333333333
142
0.0
142
0.0
142
0.0
142
0.0
142
0.0208333333333333
142
0.0
142
0.0
142
0.0
142
0.0
142
1.0
142
0.0
142
0.0
142
0.0
142
0.0
142
1.0
179
     0
144
0.0208333333333333
144
0.0
144
0.0
144
0.0
144
0.0
144
0.0208333333333333
144
0.0
144
0.0
144
0.0
144
0.0
144
1.0
144
0.0
144
0.0
144
0.0
144
0.0
144
1.0
147
0.0208333333333333
147
0.0
147
0.0
147
0.0
147
0.0
147
0.0208333333333333
147
0.0
147
0.0
147
0.0
147
0.0
147
1.0
147
0.0
147
0.0
147
0.0
147
0.0
147
1.0
  0
MATERIAL
  5
1CC7
102
{ACAD_XDICTIONARY
360
1CC8
102
}
102
{ACAD_REACTORS
330
1CC6
102
}
330
1CC6
100
AcDbMaterial
  1
ByLayer
 72
     0
 43
0.0208333333333333
 43
0.0
 43
0.0
 43
0.0
 43
0.0
 43
0.0208333333333333
 43
0.0
 43
0.0
 43
0.0
 43
0.0
 43
1.0
 43
0.0
 43
0.0
 43
0.0
 43
0.0
 43
1.0
 77
     0
 47
0.0208333333333333
 47
0.0
 47
0.0
 47
0.0
 47
0.0
 47
0.0208333333333333
 47
0.0
 47
0.0
 47
0.0
 47
0.0
 47
1.0
 47
0.0
 47
0.0
 47
0.0
 47
0.0
 47
1.0
171
     0
 49
0.0208333333333333
 49
0.0
 49
0.0
 49
0.0
 49
0.0
 49
0.0208333333333333
 49
0.0
 49
0.0
 49
0.0
 49
0.0
 49
1.0
 49
0.0
 49
0.0
 49
0.0
 49
0.0
 49
1.0
175
     0
142
0.0208333333333333
142
0.0
142
0.0
142
0.0
142
0.0
142
0.0208333333333333
142
0.0
142
0.0
142
0.0
142
0.0
142
1.0
142
0.0
142
0.0
142
0.0
142
0.0
142
1.0
179
     0
144
0.0208333333333333
144
0.0
144
0.0
144
0.0
144
0.0
144
0.0208333333333333
144
0.0
144
0.0
144
0.0
144
0.0
144
1.0
144
0.0
144
0.0
144
0.0
144
0.0
144
1.0
147
0.0208333333333333
147
0.0
147
0.0
147
0.0
147
0.0
147
0.0208333333333333
147
0.0
147
0.0
147
0.0
147
0.0
147
1.0
147
0.0
147
0.0
147
0.0
147
0.0
147
1.0
  0
MATERIAL
  5
1CD7
102
{ACAD_XDICTIONARY
360
1CD8
102
}
102
{ACAD_REACTORS
330
1CC6
102
}
330
1CC6
100
AcDbMaterial
  1
Global
 72
     0
 43
0.0208333333333333
 43
0.0
 43
0.0
 43
0.0
 43
0.0
 43
0.0208333333333333
 43
0.0
 43
0.0
 43
0.0
 43
0.0
 43
1.0
 43
0.0
 43
0.0
 43
0.0
 43
0.0
 43
1.0
 77
     0
 47
0.0208333333333333
 47
0.0
 47
0.0
 47
0.0
 47
0.0
 47
0.0208333333333333
 47
0.0
 47
0.0
 47
0.0
 47
0.0
 47
1.0
 47
0.0
 47
0.0
 47
0.0
 47
0.0
 47
1.0
171
     0
 49
0.0208333333333333
 49
0.0
 49
0.0
 49
0.0
 49
0.0
 49
0.0208333333333333
 49
0.0
 49
0.0
 49
0.0
 49
0.0
 49
1.0
 49
0.0
 49
0.0
 49
0.0
 49
0.0
 49
1.0
175
     0
142
0.0208333333333333
142
0.0
142
0.0
142
0.0
142
0.0
142
0.0208333333333333
142
0.0
142
0.0
142
0.0
142
0.0
142
1.0
142
0.0
142
0.0
142
0.0
142
0.0
142
1.0
179
     0
144
0.0208333333333333
144
0.0
144
0.0
144
0.0
144
0.0
144
0.0208333333333333
144
0.0
144
0.0
144
0.0
144
0.0
144
1.0
144
0.0
144
0.0
144
0.0
144
0.0
144
1.0
147
0.0208333333333333
147
0.0
147
0.0
147
0.0
147
0.0
147
0.0208333333333333
147
0.0
147
0.0
147
0.0
147
0.0
147
1.0
147
0.0
147
0.0
147
0.0
147
0.0
147
1.0
  0
MLEADERSTYLE
  5
1D0E
102
{ACAD_XDICTIONARY
360
1D80
102
}
102
{ACAD_REACTORS
330
1D0D
102
}
330
1D0D
100
AcDbMLeaderStyle
170
     2
171
     1
172
     0
 90
        2
 40
0.0
 41
0.0
173
     1
 91
-1056964608
340
13
 92
       -2
290
     1
 42
0.09
291
     1
 43
0.36
  3
Standard
 44
0.18
300

342
11
174
     1
178
     6
175
     1
176
     0
 93
-1056964608
 45
0.18
292
     0
297
     0
 46
0.18
 94
-1056964608
 47
1.0
 49
1.0
140
1.0
293
     1
141
0.0
294
     1
177
     0
142
1.0
295
     0
296
     0
143
0.125
1001
ACAD_MLEADERVER
1070
     2
  0
MLINESTYLE
  5
17
102
{ACAD_REACTORS
330
16
102
}
330
16
100
AcDbMlineStyle
  2
STANDARD
 70
     0
  3

 62
   256
 51
90.0
 52
90.0
 71
     2
 49
0.5
 62
   256
  6
BYLAYER
 49
-0.5
 62
   256
  6
BYLAYER
  0
ACDBPLACEHOLDER
  5
F
102
{ACAD_REACTORS
330
E
102
}
330
E
  0
SCALE
  5
1CFC
102
{ACAD_REACTORS
330
1CFB
102
}
330
1CFB
100
AcDbScale
 70
     0
300
1:1
140
1.0
141
1.0
290
     1
  0
SCALE
  5
1CFD
102
{ACAD_REACTORS
330
1CFB
102
}
330
1CFB
100
AcDbScale
 70
     0
300
1/128" = 1'-0"
140
0.0078125
141
12.0
290
     0
  0
SCALE
  5
1CFE
102
{ACAD_REACTORS
330
1CFB
102
}
330
1CFB
100
AcDbScale
 70
     0
300
1/64" = 1'-0"
140
0.015625
141
12.0
290
     0
  0
SCALE
  5
1CFF
102
{ACAD_REACTORS
330
1CFB
102
}
330
1CFB
100
AcDbScale
 70
     0
300
1/32" = 1'-0"
140
0.03125
141
12.0
290
     0
  0
SCALE
  5
1D00
102
{ACAD_REACTORS
330
1CFB
102
}
330
1CFB
100
AcDbScale
 70
     0
300
1/16" = 1'-0"
140
0.0625
141
12.0
290
     0
  0
SCALE
  5
1D01
102
{ACAD_REACTORS
330
1CFB
102
}
330
1CFB
100
AcDbScale
 70
     0
300
3/32" = 1'-0"
140
0.09375
141
12.0
290
     0
  0
SCALE
  5
1D02
102
{ACAD_REACTORS
330
1CFB
102
}
330
1CFB
100
AcDbScale
 70
     0
300
1/8" = 1'-0"
140
0.125
141
12.0
290
     0
  0
SCALE
  5
1D03
102
{ACAD_REACTORS
330
1CFB
102
}
330
1CFB
100
AcDbScale
 70
     0
300
3/16" = 1'-0"
140
0.1875
141
12.0
290
     0
  0
SCALE
  5
1D04
102
{ACAD_REACTORS
330
1CFB
102
}
330
1CFB
100
AcDbScale
 70
     0
300
1/4" = 1'-0"
140
0.25
141
12.0
290
     0
  0
SCALE
  5
1D05
102
{ACAD_REACTORS
330
1CFB
102
}
330
1CFB
100
AcDbScale
 70
     0
300
3/8" = 1'-0"
140
0.375
141
12.0
290
     0
  0
SCALE
  5
1D06
102
{ACAD_REACTORS
330
1CFB
102
}
330
1CFB
100
AcDbScale
 70
     0
300
1/2" = 1'-0"
140
0.5
141
12.0
290
     0
  0
SCALE
  5
1D07
102
{ACAD_REACTORS
330
1CFB
102
}
330
1CFB
100
AcDbScale
 70
     0
300
3/4" = 1'-0"
140
0.75
141
12.0
290
     0
  0
SCALE
  5
1D08
102
{ACAD_REACTORS
330
1CFB
102
}
330
1CFB
100
AcDbScale
 70
     0
300
1" = 1'-0"
140
1.0
141
12.0
290
     0
  0
SCALE
  5
1D09
102
{ACAD_REACTORS
330
1CFB
102
}
330
1CFB
100
AcDbScale
 70
     0
300
1-1/2" = 1'-0"
140
1.5
141
12.0
290
     0
  0
SCALE
  5
1D0A
102
{ACAD_REACTORS
330
1CFB
102
}
330
1CFB
100
AcDbScale
 70
     0
300
3" = 1'-0"
140
3.0
141
12.0
290
     0
  0
SCALE
  5
1D0B
102
{ACAD_REACTORS
330
1CFB
102
}
330
1CFB
100
AcDbScale
 70
     0
300
6" = 1'-0"
140
6.0
141
12.0
290
     0
  0
SCALE
  5
1D0C
102
{ACAD_REACTORS
330
1CFB
102
}
330
1CFB
100
AcDbScale
 70
     0
300
1'-0" = 1'-0"
140
12.0
141
12.0
290
     0
  0
ACDBSECTIONVIEWSTYLE
  5
1D10
102
{ACAD_REACTORS
330
1D0F
102
}
330
1D0F
100
AcDbModelDocViewStyle
 70
     0
  3
Imperial24
290
     0
100
AcDbSectionViewStyle
 70
     0
 71
     0
 90
       78
 71
     1
340
11
 62
   256
 40
0.24
340
0
340
0
 62
   256
 40
0.24
300
I, O, Q, S, X, Z
 40
0.48
 90
        3
 40
0.18
 90
        1
 71
     2
340
28
 90
       25
 62
   256
340
15
 90
       50
 62
   256
 40
0.24
 40
0.0
 40
0.24
 71
     3
340
11
 62
   256
 40
0.24
 90
        1
 40
0.75
 90
        1
300
%<\AcVar ViewType \f "%tc1">% %<\AcVar ViewSectionStartId>%-%<\AcVar ViewSectionEndId>%\PSCALE %<\AcVar ViewScale \f "%sn">%
 71
     4
 62
   256
 62
   257
300
ANSI31
 40
1.0
 90
        0
290
     0
290
     0
 90
        6
 40
0.0
 40
1.570796326794896
 40
0.2617993877991494
 40
1.308996938995747
 40
-0.2617993877991494
 40
1.832595714594046
  0
TABLESTYLE
  5
1CFA
102
{ACAD_XDICTIONARY
360
1D47
102
}
102
{ACAD_REACTORS
330
1CF9
102
}
330
1CF9
100
AcDbTableStyle
  3
Standard
 70
     0
 71
     0
 40
0.06
 41
0.06
280
     0
281
     0
  7
STANDARD
140
0.18
170
     2
 62
     0
 63
     7
283
     0
274
    -2
284
     1
 64
     0
275
    -2
285
     1
 65
     0
276
    -2
286
     1
 66
     0
277
    -2
287
     1
 67
     0
278
    -2
288
     1
 68
     0
279
    -2
289
     1
 69
     0
  7
STANDARD
140
0.25
170
     5
 62
     0
 63
     7
283
     0
274
    -2
284
     1
 64
     0
275
    -2
285
     1
 65
     0
276
    -2
286
     1
 66
     0
277
    -2
287
     1
 67
     0
278
    -2
288
     1
 68
     0
279
    -2
289
     1
 69
     0
  7
STANDARD
140
0.18
170
     5
 62
     0
 63
     7
283
     0
274
    -2
284
     1
 64
     0
275
    -2
285
     1
 65
     0
276
    -2
286
     1
 66
     0
277
    -2
287
     1
 67
     0
278
    -2
288
     1
 68
     0
279
    -2
289
     1
 69
     0
  0
VISUALSTYLE
  5
1CE5
102
{ACAD_XDICTIONARY
360
1D58
102
}
102
{ACAD_REACTORS
330
1CDF
102
}
330
1CDF
100
AcDbVisualStyle
  2
2dWireframe
 70
     4
 71
     0
 72
     2
 73
     0
 90
        0
 40
-0.6
 41
-30.0
 62
     5
 63
     7
421
 16777215
 74
     1
 91
        4
 64
     7
 65
   257
 75
     1
175
     1
 42
1.0
 92
        0
 66
   257
 43
1.0
 76
     1
 77
     6
 78
     2
 67
     7
 79
     5
170
     0
171
     0
290
     0
174
     0
 93
        1
 44
0.0
173
     0
291
     0
 45
0.0
1001
ACAD
1000
AcDbSavedByObjectVersion
1070
     0
  0
VISUALSTYLE
  5
1CE4
102
{ACAD_XDICTIONARY
360
1D56
102
}
102
{ACAD_REACTORS
330
1CDF
102
}
330
1CDF
100
AcDbVisualStyle
  2
Basic
 70
     7
 71
     1
 72
     0
 73
     1
 90
        0
 40
-0.6
 41
-30.0
 62
     5
 63
     7
421
 16777215
 74
     0
 91
        4
 64
     7
 65
   257
 75
     1
175
     1
 42
1.0
 92
        8
 66
     7
 43
1.0
 76
     1
 77
     6
 78
     2
 67
     7
 79
     5
170
     0
171
     0
290
     0
174
     0
 93
        1
 44
0.0
173
     0
291
     1
 45
0.0
1001
ACAD
1000
AcDbSavedByObjectVersion
1070
     0
  0
VISUALSTYLE
  5
1CEB
102
{ACAD_XDICTIONARY
360
1D64
102
}
102
{ACAD_REACTORS
330
1CDF
102
}
330
1CDF
100
AcDbVisualStyle
  2
Brighten
 70
    12
 71
     2
 72
     2
 73
     0
 90
        0
 40
-0.6
 41
-30.0
 62
     5
 63
     7
421
 16777215
 74
     1
 91
        4
 64
     7
 65
   257
 75
     1
175
     1
 42
1.0
 92
        8
 66
     7
 43
1.0
 76
     1
 77
     6
 78
     2
 67
     7
 79
     5
170
     0
171
     0
290
     0
174
     0
 93
        1
 44
50.0
173
     0
291
     1
 45
0.0
1001
ACAD
1000
AcDbSavedByObjectVersion
1070
     0
  0
VISUALSTYLE
  5
1CEF
102
{ACAD_XDICTIONARY
360
1D6C
102
}
102
{ACAD_REACTORS
330
1CDF
102
}
330
1CDF
100
AcDbVisualStyle
  2
ColorChange
 70
    16
 71
     2
 72
     2
 73
     3
 90
        0
 40
-0.6
 41
-30.0
 62
     5
 63
     8
421
  8421504
 74
     1
 91
        4
 64
     7
 65
   257
 75
     1
175
     1
 42
1.0
 92
        8
 66
     8
424
  8421504
 43
1.0
 76
     1
 77
     6
 78
     2
 67
     7
 79
     5
170
     0
171
     0
290
     0
174
     0
 93
        1
 44
0.0
173
     0
291
     1
 45
0.0
1001
ACAD
1000
AcDbSavedByObjectVersion
1070
     0
  0
VISUALSTYLE
  5
1CE8
102
{ACAD_XDICTIONARY
360
1D5E
102
}
102
{ACAD_REACTORS
330
1CDF
102
}
330
1CDF
100
AcDbVisualStyle
  2
Conceptual
 70
     9
 71
     3
 72
     2
 73
     0
 90
        0
 40
-0.6
 41
-30.0
 62
     5
 63
     7
421
 16777215
 74
     2
 91
        2
 64
     7
 65
   257
 75
     1
175
     1
 42
179.0
 92
        8
 66
     7
 43
1.0
 76
     1
 77
     6
 78
     2
 67
     7
 79
     3
170
     0
171
     0
290
     0
174
     0
 93
        1
 44
0.0
173
     0
291
     0
 45
0.0
1001
ACAD
1000
AcDbSavedByObjectVersion
1070
     0
  0
VISUALSTYLE
  5
1CEA
102
{ACAD_XDICTIONARY
360
1D62
102
}
102
{ACAD_REACTORS
330
1CDF
102
}
330
1CDF
100
AcDbVisualStyle
  2
Dim
 70
    11
 71
     2
 72
     2
 73
     0
 90
        0
 40
-0.6
 41
-30.0
 62
     5
 63
     7
421
 16777215
 74
     1
 91
        4
 64
     7
 65
   257
 75
     1
175
     1
 42
1.0
 92
        8
 66
     7
 43
1.0
 76
     1
 77
     6
 78
     2
 67
     7
 79
     5
170
     0
171
     0
290
     0
174
     0
 93
        1
 44
-50.0
173
     0
291
     1
 45
0.0
1001
ACAD
1000
AcDbSavedByObjectVersion
1070
     0
  0
VISUALSTYLE
  5
1CF7
102
{ACAD_XDICTIONARY
360
1D7C
102
}
102
{ACAD_REACTORS
330
1CDF
102
}
330
1CDF
100
AcDbVisualStyle
  2
EdgeColorOff
 70
    22
 71
     2
 72
     2
 73
     0
 90
        0
 40
-0.6
 41
-30.0
 62
     5
 63
     7
421
 16777215
 74
     1
 91
        4
 64
     7
 65
   257
 75
     1
175
     1
 42
1.0
 92
        8
 66
     7
 43
1.0
 76
     1
 77
     6
 78
     2
 67
     7
 79
     5
170
     0
171
     0
290
     0
174
     0
 93
        1
 44
0.0
173
     0
291
     1
 45
0.0
1001
ACAD
1000
AcDbSavedByObjectVersion
1070
     0
  0
VISUALSTYLE
  5
1CEE
102
{ACAD_XDICTIONARY
360
1D6A
102
}
102
{ACAD_REACTORS
330
1CDF
102
}
330
1CDF
100
AcDbVisualStyle
  2
Facepattern
 70
    15
 71
     2
 72
     2
 73
     0
 90
        0
 40
-0.6
 41
-30.0
 62
     5
 63
     7
421
 16777215
 74
     1
 91
        4
 64
     7
 65
   257
 75
     1
175
     1
 42
1.0
 92
        8
 66
     7
 43
1.0
 76
     1
 77
     6
 78
     2
 67
     7
 79
     5
170
     0
171
     0
290
     0
174
     0
 93
        1
 44
0.0
173
     0
291
     1
 45
0.0
1001
ACAD
1000
AcDbSavedByObjectVersion
1070
     0
  0
VISUALSTYLE
  5
1CE0
102
{ACAD_XDICTIONARY
360
1D4E
102
}
102
{ACAD_REACTORS
330
1CDF
102
}
330
1CDF
100
AcDbVisualStyle
  2
Flat
 70
     0
 71
     2
 72
     1
 73
     1
 90
        2
 40
-0.6
 41
30.0
 62
     5
 63
     7
421
 16777215
 74
     0
 91
        0
 64
     7
 65
   257
 75
     1
175
     1
 42
1.0
 92
        8
 66
     7
 43
1.0
 76
     1
 77
     6
 78
     2
 67
     7
 79
     5
170
     0
171
     0
290
     0
174
     0
 93
       13
 44
0.0
173
     0
291
     1
 45
0.0
1001
ACAD
1000
AcDbSavedByObjectVersion
1070
     0
  0
VISUALSTYLE
  5
1CE1
102
{ACAD_XDICTIONARY
360
1D50
102
}
102
{ACAD_REACTORS
330
1CDF
102
}
330
1CDF
100
AcDbVisualStyle
  2
FlatWithEdges
 70
     1
 71
     2
 72
     1
 73
     1
 90
        2
 40
-0.6
 41
30.0
 62
     5
 63
     7
421
 16777215
 74
     1
 91
        0
 64
     7
 65
   257
 75
     1
175
     1
 42
1.0
 92
        0
 66
   257
 43
1.0
 76
     1
 77
     6
 78
     2
 67
     7
 79
     5
170
     0
171
     0
290
     0
174
     0
 93
       13
 44
0.0
173
     0
291
     1
 45
0.0
1001
ACAD
1000
AcDbSavedByObjectVersion
1070
     0
  0
VISUALSTYLE
  5
1CE2
102
{ACAD_XDICTIONARY
360
1D52
102
}
102
{ACAD_REACTORS
330
1CDF
102
}
330
1CDF
100
AcDbVisualStyle
  2
Gouraud
 70
     2
 71
     2
 72
     2
 73
     1
 90
        2
 40
-0.6
 41
30.0
 62
     5
 63
     7
421
 16777215
 74
     0
 91
        0
 64
     7
 65
   257
 75
     1
175
     1
 42
1.0
 92
        0
 66
     7
 43
1.0
 76
     1
 77
     6
 78
     2
 67
     7
 79
     5
170
     0
171
     0
290
     0
174
     0
 93
       13
 44
0.0
173
     0
291
     1
 45
0.0
1001
ACAD
1000
AcDbSavedByObjectVersion
1070
     0
  0
VISUALSTYLE
  5
1CE3
102
{ACAD_XDICTIONARY
360
1D54
102
}
102
{ACAD_REACTORS
330
1CDF
102
}
330
1CDF
100
AcDbVisualStyle
  2
GouraudWithEdges
 70
     3
 71
     2
 72
     2
 73
     1
 90
        2
 40
-0.6
 41
30.0
 62
     5
 63
     7
421
 16777215
 74
     1
 91
        0
 64
     7
 65
   257
 75
     1
175
     1
 42
1.0
 92
        0
 66
   257
 43
1.0
 76
     1
 77
     6
 78
     2
 67
     7
 79
     5
170
     0
171
     0
290
     0
174
     0
 93
       13
 44
0.0
173
     0
291
     1
 45
0.0
1001
ACAD
1000
AcDbSavedByObjectVersion
1070
     0
  0
VISUALSTYLE
  5
1CE7
102
{ACAD_XDICTIONARY
360
1D5C
102
}
102
{ACAD_REACTORS
330
1CDF
102
}
330
1CDF
100
AcDbVisualStyle
  2
Hidden
 70
     6
 71
     1
 72
     2
 73
     2
 90
        0
 40
-0.6
 41
-30.0
 62
     5
 63
     7
421
 16777215
 74
     2
 91
        2
 64
     7
 65
   257
 75
     2
175
     1
 42
40.0
 92
        0
 66
   257
 43
1.0
 76
     1
 77
     6
 78
     2
 67
     7
 79
     3
170
     0
171
     0
290
     0
174
     0
 93
        1
 44
0.0
173
     0
291
     0
 45
0.0
1001
ACAD
1000
AcDbSavedByObjectVersion
1070
     0
  0
VISUALSTYLE
  5
1CF5
102
{ACAD_XDICTIONARY
360
1D78
102
}
102
{ACAD_REACTORS
330
1CDF
102
}
330
1CDF
100
AcDbVisualStyle
  2
JitterOff
 70
    20
 71
     2
 72
     2
 73
     0
 90
        0
 40
-0.6
 41
-30.0
 62
     5
 63
     7
421
 16777215
 74
     1
 91
        4
 64
     7
 65
   257
 75
     1
175
     1
 42
1.0
 92
       10
 66
     7
 43
1.0
 76
     1
 77
     6
 78
     2
 67
     7
 79
     5
170
     0
171
     0
290
     0
174
     0
 93
        1
 44
0.0
173
     0
291
     1
 45
0.0
1001
ACAD
1000
AcDbSavedByObjectVersion
1070
     0
  0
VISUALSTYLE
  5
1CED
102
{ACAD_XDICTIONARY
360
1D68
102
}
102
{ACAD_REACTORS
330
1CDF
102
}
330
1CDF
100
AcDbVisualStyle
  2
Linepattern
 70
    14
 71
     2
 72
     2
 73
     0
 90
        0
 40
-0.6
 41
-30.0
 62
     5
 63
     7
421
 16777215
 74
     1
 91
        4
 64
     7
 65
   257
 75
     7
175
     7
 42
1.0
 92
        8
 66
     7
 43
1.0
 76
     1
 77
     6
 78
     2
 67
     7
 79
     5
170
     0
171
     0
290
     0
174
     0
 93
        1
 44
0.0
173
     0
291
     1
 45
0.0
1001
ACAD
1000
AcDbSavedByObjectVersion
1070
     0
  0
VISUALSTYLE
  5
1CF6
102
{ACAD_XDICTIONARY
360
1D7A
102
}
102
{ACAD_REACTORS
330
1CDF
102
}
330
1CDF
100
AcDbVisualStyle
  2
OverhangOff
 70
    21
 71
     2
 72
     2
 73
     0
 90
        0
 40
-0.6
 41
-30.0
 62
     5
 63
     7
421
 16777215
 74
     1
 91
        4
 64
     7
 65
   257
 75
     1
175
     1
 42
1.0
 92
        9
 66
     7
 43
1.0
 76
     1
 77
     6
 78
     2
 67
     7
 79
     5
170
     0
171
     0
290
     0
174
     0
 93
        1
 44
0.0
173
     0
291
     1
 45
0.0
1001
ACAD
1000
AcDbSavedByObjectVersion
1070
     0
  0
VISUALSTYLE
  5
1CE9
102
{ACAD_XDICTIONARY
360
1D60
102
}
102
{ACAD_REACTORS
330
1CDF
102
}
330
1CDF
100
AcDbVisualStyle
  2
Realistic
 70
     8
 71
     2
 72
     3
 73
     0
 90
        2
 40
-0.6
 41
30.0
 62
     5
 63
     7
421
 16777215
 74
     0
 91
        0
 64
     7
 65
   257
 75
     1
175
     1
 42
1.0
 92
        8
 66
   257
 43
1.0
 76
     1
 77
     6
 78
     2
 67
     7
 79
     3
170
     0
171
     0
290
     0
174
     0
 93
       13
 44
0.0
173
     0
291
     0
 45
0.0
1001
ACAD
1000
AcDbSavedByObjectVersion
1070
     0
  0
VISUALSTYLE
  5
1CF4
102
{ACAD_XDICTIONARY
360
1D76
102
}
102
{ACAD_REACTORS
330
1CDF
102
}
330
1CDF
100
AcDbVisualStyle
  2
Shaded
 70
    27
 71
     2
 72
     2
 73
     1
 90
        2
 40
-0.6
 41
30.0
 62
     5
 63
     7
421
 16777215
 74
     0
 91
        4
 64
     7
 65
   257
 75
     1
175
     1
 42
1.0
 92
        8
 66
   257
 43
1.0
 76
     1
 77
     6
 78
     2
 67
     8
425
  7895160
 79
     3
170
     0
171
     0
290
     0
174
     0
 93
        5
 44
0.0
173
     0
291
     0
 45
0.0
1001
ACAD
1000
AcDbSavedByObjectVersion
1070
     0
  0
VISUALSTYLE
  5
1CF3
102
{ACAD_XDICTIONARY
360
1D74
102
}
102
{ACAD_REACTORS
330
1CDF
102
}
330
1CDF
100
AcDbVisualStyle
  2
Shaded with edges
 70
    26
 71
     2
 72
     2
 73
     1
 90
        2
 40
-0.6
 41
30.0
 62
     5
 63
     7
421
 16777215
 74
     1
 91
       10
 64
     7
 65
   257
 75
     2
175
     1
 42
1.0
 92
        8
 66
   257
 43
1.0
 76
     1
 77
     6
 78
     2
 67
     7
 79
     3
170
     0
171
     0
290
     0
174
     0
 93
        5
 44
0.0
173
     0
291
     0
 45
0.0
1001
ACAD
1000
AcDbSavedByObjectVersion
1070
     0
  0
VISUALSTYLE
  5
1CF0
102
{ACAD_XDICTIONARY
360
1D6E
102
}
102
{ACAD_REACTORS
330
1CDF
102
}
330
1CDF
100
AcDbVisualStyle
  2
Shades of Gray
 70
    23
 71
     2
 72
     2
 73
     3
 90
        0
 40
-0.6
 41
-30.0
 62
     5
 63
     7
421
 16777215
 74
     2
 91
        2
 64
     7
 65
     7
 75
     1
175
     1
 42
40.0
 92
        8
 66
     7
 43
1.0
 76
     1
 77
     6
 78
     2
 67
     7
 79
     3
170
     0
171
     0
290
     0
174
     0
 93
        1
 44
0.0
173
     0
291
     0
 45
0.0
1001
ACAD
1000
AcDbSavedByObjectVersion
1070
     0
  0
VISUALSTYLE
  5
1CF1
102
{ACAD_XDICTIONARY
360
1D70
102
}
102
{ACAD_REACTORS
330
1CDF
102
}
330
1CDF
100
AcDbVisualStyle
  2
Sketchy
 70
    24
 71
     1
 72
     2
 73
     2
 90
        0
 40
-0.6
 41
-30.0
 62
     5
 63
     7
421
 16777215
 74
     2
 91
        2
 64
     7
 65
     7
 75
     1
175
     1
 42
40.0
 92
       11
 66
     7
 43
1.0
 76
     1
 77
     6
 78
     2
 67
     7
 79
     6
170
     0
171
     0
290
     0
174
     0
 93
        1
 44
0.0
173
     0
291
     0
 45
0.0
1001
ACAD
1000
AcDbSavedByObjectVersion
1070
     0
  0
VISUALSTYLE
  5
1CEC
102
{ACAD_XDICTIONARY
360
1D66
102
}
102
{ACAD_REACTORS
330
1CDF
102
}
330
1CDF
100
AcDbVisualStyle
  2
Thicken
 70
    13
 71
     2
 72
     2
 73
     0
 90
        0
 40
-0.6
 41
-30.0
 62
     5
 63
     7
421
 16777215
 74
     1
 91
        4
 64
     7
 65
   257
 75
     1
175
     1
 42
1.0
 92
       12
 66
     7
 43
1.0
 76
     1
 77
     6
 78
     2
 67
     7
 79
     5
170
     0
171
     0
290
     0
174
     0
 93
        1
 44
0.0
173
     0
291
     1
 45
0.0
1001
ACAD
1000
AcDbSavedByObjectVersion
1070
     0
  0
VISUALSTYLE
  5
1CE6
102
{ACAD_XDICTIONARY
360
1D5A
102
}
102
{ACAD_REACTORS
330
1CDF
102
}
330
1CDF
100
AcDbVisualStyle
  2
Wireframe
 70
     5
 71
     0
 72
     2
 73
     0
 90
        0
 40
-0.6
 41
-30.0
 62
     5
 63
     7
421
 16777215
 74
     1
 91
        4
 64
     7
 65
   257
 75
     1
175
     1
 42
1.0
 92
        0
 66
   257
 43
1.0
 76
     1
 77
     6
 78
     2
 67
     7
 79
     3
170
     0
171
     0
290
     0
174
     0
 93
        1
 44
0.0
173
     0
291
     0
 45
0.0
1001
ACAD
1000
AcDbSavedByObjectVersion
1070
     0
  0
VISUALSTYLE
  5
1CF2
102
{ACAD_XDICTIONARY
360
1D72
102
}
102
{ACAD_REACTORS
330
1CDF
102
}
330
1CDF
100
AcDbVisualStyle
  2
X-Ray
 70
    25
 71
     2
 72
     2
 73
     1
 90
        1
 40
0.5
 41
-30.0
 62
     5
 63
     7
421
 16777215
 74
     1
 91
        0
 64
     7
 65
   257
 75
     1
175
     1
 42
1.0
 92
        8
 66
     7
 43
1.0
 76
     1
 77
     6
 78
     2
 67
     7
 79
     3
170
     0
171
     0
290
     0
174
     0
 93
       13
 44
0.0
173
     0
291
     0
 45
0.0
1001
ACAD
1000
AcDbSavedByObjectVersion
1070
     0
  0
DICTIONARYVAR
  5
1D44
102
{ACAD_REACTORS
330
420
102
}
330
420
100
DictionaryVariables
280
     0
  1
1:1
  0
DICTIONARYVAR
  5
1D41
102
{ACAD_REACTORS
330
420
102
}
330
420
100
DictionaryVariables
280
     0
  1
STANDARD
  0
DICTIONARYVAR
  5
1D40
102
{ACAD_REACTORS
330
420
102
}
330
420
100
DictionaryVariables
280
     0
  1
STANDARD
  0
DICTIONARYVAR
  5
1D42
102
{ACAD_REACTORS
330
420
102
}
330
420
100
DictionaryVariables
280
     0
  1
Imperial24
  0
DICTIONARYVAR
  5
1D43
102
{ACAD_REACTORS
330
420
102
}
330
420
100
DictionaryVariables
280
     0
  1
Imperial24
  0
DICTIONARYVAR
  5
421
102
{ACAD_REACTORS
330
420
102
}
330
420
100
DictionaryVariables
280
     0
  1
1
  0
DICTIONARYVAR
  5
1D45
102
{ACAD_REACTORS
330
420
102
}
330
420
100
DictionaryVariables
280
     0
  1
2
  0
DICTIONARY
  5
1CD0
330
1CCF
100
AcDbDictionary
280
     1
281
     1
  3
ACAD_XREC_ROUNDTRIP
360
1D4C
  3
BUMPTILE
360
1CD2
  3
DIFFUSETILE
360
1CD1
  3
OPACITYTILE
360
1CD5
  3
REFLECTIONTILE
360
1CD4
  3
REFRACTIONTILE
360
1CD6
  3
SPECULARTILE
360
1CD3
  0
DICTIONARY
  5
1CC8
330
1CC7
100
AcDbDictionary
280
     1
281
     1
  3
ACAD_XREC_ROUNDTRIP
360
1D4B
  3
BUMPTILE
360
1CCA
  3
DIFFUSETILE
360
1CC9
  3
OPACITYTILE
360
1CCD
  3
REFLECTIONTILE
360
1CCC
  3
REFRACTIONTILE
360
1CCE
  3
SPECULARTILE
360
1CCB
  0
DICTIONARY
  5
1CD8
330
1CD7
100
AcDbDictionary
280
     1
281
     1
  3
ACAD_XREC_ROUNDTRIP
360
1D4D
  3
BUMPTILE
360
1CDA
  3
DIFFUSETILE
360
1CD9
  3
OPACITYTILE
360
1CDD
  3
REFLECTIONTILE
360
1CDC
  3
REFRACTIONTILE
360
1CDE
  3
SPECULARTILE
360
1CDB
  0
DICTIONARY
  5
1D80
330
1D0E
100
AcDbDictionary
280
     1
281
     1
  3
ACAD_XREC_ROUNDTRIP
360
1D81
  0
DICTIONARY
  5
1D47
330
1CFA
100
AcDbDictionary
280
     1
281
     1
  3
ACAD_ROUNDTRIP_2008_TABLESTYLE_CELLSTYLEMAP
360
1D48
  3
ACAD_XREC_ROUNDTRIP
360
1D7E
  0
DICTIONARY
  5
1D58
330
1CE5
100
AcDbDictionary
280
     1
281
     1
  3
ACAD_XREC_ROUNDTRIP
360
1D59
  0
DICTIONARY
  5
1D56
330
1CE4
100
AcDbDictionary
280
     1
281
     1
  3
ACAD_XREC_ROUNDTRIP
360
1D57
  0
DICTIONARY
  5
1D64
330
1CEB
100
AcDbDictionary
280
     1
281
     1
  3
ACAD_XREC_ROUNDTRIP
360
1D65
  0
DICTIONARY
  5
1D6C
330
1CEF
100
AcDbDictionary
280
     1
281
     1
  3
ACAD_XREC_ROUNDTRIP
360
1D6D
  0
DICTIONARY
  5
1D5E
330
1CE8
100
AcDbDictionary
280
     1
281
     1
  3
ACAD_XREC_ROUNDTRIP
360
1D5F
  0
DICTIONARY
  5
1D62
330
1CEA
100
AcDbDictionary
280
     1
281
     1
  3
ACAD_XREC_ROUNDTRIP
360
1D63
  0
DICTIONARY
  5
1D7C
330
1CF7
100
AcDbDictionary
280
     1
281
     1
  3
ACAD_XREC_ROUNDTRIP
360
1D7D
  0
DICTIONARY
  5
1D6A
330
1CEE
100
AcDbDictionary
280
     1
281
     1
  3
ACAD_XREC_ROUNDTRIP
360
1D6B
  0
DICTIONARY
  5
1D4E
330
1CE0
100
AcDbDictionary
280
     1
281
     1
  3
ACAD_XREC_ROUNDTRIP
360
1D4F
  0
DICTIONARY
  5
1D50
330
1CE1
100
AcDbDictionary
280
     1
281
     1
  3
ACAD_XREC_ROUNDTRIP
360
1D51
  0
DICTIONARY
  5
1D52
330
1CE2
100
AcDbDictionary
280
     1
281
     1
  3
ACAD_XREC_ROUNDTRIP
360
1D53
  0
DICTIONARY
  5
1D54
330
1CE3
100
AcDbDictionary
280
     1
281
     1
  3
ACAD_XREC_ROUNDTRIP
360
1D55
  0
DICTIONARY
  5
1D5C
330
1CE7
100
AcDbDictionary
280
     1
281
     1
  3
ACAD_XREC_ROUNDTRIP
360
1D5D
  0
DICTIONARY
  5
1D78
330
1CF5
100
AcDbDictionary
280
     1
281
     1
  3
ACAD_XREC_ROUNDTRIP
360
1D79
  0
DICTIONARY
  5
1D68
330
1CED
100
AcDbDictionary
280
     1
281
     1
  3
ACAD_XREC_ROUNDTRIP
360
1D69
  0
DICTIONARY
  5
1D7A
330
1CF6
100
AcDbDictionary
280
     1
281
     1
  3
ACAD_XREC_ROUNDTRIP
360
1D7B
  0
DICTIONARY
  5
1D60
330
1CE9
100
AcDbDictionary
280
     1
281
     1
  3
ACAD_XREC_ROUNDTRIP
360
1D61
  0
DICTIONARY
  5
1D76
330
1CF4
100
AcDbDictionary
280
     1
281
     1
  3
ACAD_XREC_ROUNDTRIP
360
1D77
  0
DICTIONARY
  5
1D74
330
1CF3
100
AcDbDictionary
280
     1
281
     1
  3
ACAD_XREC_ROUNDTRIP
360
1D75
  0
DICTIONARY
  5
1D6E
330
1CF0
100
AcDbDictionary
280
     1
281
     1
  3
ACAD_XREC_ROUNDTRIP
360
1D6F
  0
DICTIONARY
  5
1D70
330
1CF1
100
AcDbDictionary
280
     1
281
     1
  3
ACAD_XREC_ROUNDTRIP
360
1D71
  0
DICTIONARY
  5
1D66
330
1CEC
100
AcDbDictionary
280
     1
281
     1
  3
ACAD_XREC_ROUNDTRIP
360
1D67
  0
DICTIONARY
  5
1D5A
330
1CE6
100
AcDbDictionary
280
     1
281
     1
  3
ACAD_XREC_ROUNDTRIP
360
1D5B
  0
DICTIONARY
  5
1D72
330
1CF2
100
AcDbDictionary
280
     1
281
     1
  3
ACAD_XREC_ROUNDTRIP
360
1D73
  0
XRECORD
  5
1D4C
102
{ACAD_REACTORS
330
1CD0
102
}
330
1CD0
100
AcDbXrecord
280
     1
102
MATERIAL
148
0.0
149
0.0
149
0.0
 93
        0
 94
      127
282
     0
 72
     0
 77
     0
171
     0
175
     0
179
     0
273
     0
  0
XRECORD
  5
1CD2
102
{ACAD_REACTORS
330
1CD0
102
}
330
1CD0
100
AcDbXrecord
280
     1
270
     1
271
     1
  0
XRECORD
  5
1CD1
102
{ACAD_REACTORS
330
1CD0
102
}
330
1CD0
100
AcDbXrecord
280
     1
270
     1
271
     1
  0
XRECORD
  5
1CD5
102
{ACAD_REACTORS
330
1CD0
102
}
330
1CD0
100
AcDbXrecord
280
     1
270
     1
271
     1
  0
XRECORD
  5
1CD4
102
{ACAD_REACTORS
330
1CD0
102
}
330
1CD0
100
AcDbXrecord
280
     1
270
     1
271
     1
  0
XRECORD
  5
1CD6
102
{ACAD_REACTORS
330
1CD0
102
}
330
1CD0
100
AcDbXrecord
280
     1
270
     1
271
     1
  0
XRECORD
  5
1CD3
102
{ACAD_REACTORS
330
1CD0
102
}
330
1CD0
100
AcDbXrecord
280
     1
270
     1
271
     1
  0
XRECORD
  5
1D4B
102
{ACAD_REACTORS
330
1CC8
102
}
330
1CC8
100
AcDbXrecord
280
     1
102
MATERIAL
148
0.0
149
0.0
149
0.0
 93
        0
 94
      127
282
     0
 72
     0
 77
     0
171
     0
175
     0
179
     0
273
     0
  0
XRECORD
  5
1CCA
102
{ACAD_REACTORS
330
1CC8
102
}
330
1CC8
100
AcDbXrecord
280
     1
270
     1
271
     1
  0
XRECORD
  5
1CC9
102
{ACAD_REACTORS
330
1CC8
102
}
330
1CC8
100
AcDbXrecord
280
     1
270
     1
271
     1
  0
XRECORD
  5
1CCD
102
{ACAD_REACTORS
330
1CC8
102
}
330
1CC8
100
AcDbXrecord
280
     1
270
     1
271
     1
  0
XRECORD
  5
1CCC
102
{ACAD_REACTORS
330
1CC8
102
}
330
1CC8
100
AcDbXrecord
280
     1
270
     1
271
     1
  0
XRECORD
  5
1CCE
102
{ACAD_REACTORS
330
1CC8
102
}
330
1CC8
100
AcDbXrecord
280
     1
270
     1
271
     1
  0
XRECORD
  5
1CCB
102
{ACAD_REACTORS
330
1CC8
102
}
330
1CC8
100
AcDbXrecord
280
     1
270
     1
271
     1
  0
XRECORD
  5
1D4D
102
{ACAD_REACTORS
330
1CD8
102
}
330
1CD8
100
AcDbXrecord
280
     1
102
MATERIAL
148
0.0
149
0.0
149
0.0
 93
        0
 94
      127
282
     0
 72
     0
 77
     0
171
     0
175
     0
179
     0
273
     0
  0
XRECORD
  5
1CDA
102
{ACAD_REACTORS
330
1CD8
102
}
330
1CD8
100
AcDbXrecord
280
     1
270
     1
271
     1
  0
XRECORD
  5
1CD9
102
{ACAD_REACTORS
330
1CD8
102
}
330
1CD8
100
AcDbXrecord
280
     1
270
     1
271
     1
  0
XRECORD
  5
1CDD
102
{ACAD_REACTORS
330
1CD8
102
}
330
1CD8
100
AcDbXrecord
280
     1
270
     1
271
     1
  0
XRECORD
  5
1CDC
102
{ACAD_REACTORS
330
1CD8
102
}
330
1CD8
100
AcDbXrecord
280
     1
270
     1
271
     1
  0
XRECORD
  5
1CDE
102
{ACAD_REACTORS
330
1CD8
102
}
330
1CD8
100
AcDbXrecord
280
     1
270
     1
271
     1
  0
XRECORD
  5
1CDB
102
{ACAD_REACTORS
330
1CD8
102
}
330
1CD8
100
AcDbXrecord
280
     1
270
     1
271
     1
  0
XRECORD
  5
1D81
102
{ACAD_REACTORS
330
1D80
102
}
330
1D80
100
AcDbXrecord
280
     1
102
ACAD_ROUNDTRIP_2012_MLEADER_STYLE
298
     1
  0
CELLSTYLEMAP
  5
1D48
102
{ACAD_REACTORS
330
1D47
102
}
330
1D47
100
AcDbCellStyleMap
 90
        3
300
CELLSTYLE
  1
TABLEFORMAT_BEGIN
 90
        5
170
     1
 91
        0
 92
    32768
 62
   257
 93
        1
300
CONTENTFORMAT
  1
CONTENTFORMAT_BEGIN
 90
        0
 91
        0
 92
      512
 93
        0
300

 40
0.0
140
1.0
 94
        5
 62
     0
340
11
144
0.25
309
CONTENTFORMAT_END
171
     0
 94
        0
309
TABLEFORMAT_END
  1
CELLSTYLE_BEGIN
 90
        1
 91
        1
300
_TITLE
309
CELLSTYLE_END
300
CELLSTYLE
  1
TABLEFORMAT_BEGIN
 90
        5
170
     1
 91
        0
 92
        0
 62
   257
 93
        1
300
CONTENTFORMAT
  1
CONTENTFORMAT_BEGIN
 90
        0
 91
        0
 92
      512
 93
        0
300

 40
0.0
140
1.0
 94
        5
 62
     0
340
11
144
0.18
309
CONTENTFORMAT_END
171
     0
 94
        0
309
TABLEFORMAT_END
  1
CELLSTYLE_BEGIN
 90
        2
 91
        1
300
_HEADER
309
CELLSTYLE_END
300
CELLSTYLE
  1
TABLEFORMAT_BEGIN
 90
        5
170
     1
 91
        0
 92
        0
 62
   257
 93
        1
300
CONTENTFORMAT
  1
CONTENTFORMAT_BEGIN
 90
        0
 91
        0
 92
      512
 93
        0
300

 40
0.0
140
1.0
 94
        2
 62
     0
340
11
144
0.18
309
CONTENTFORMAT_END
171
     0
 94
        0
309
TABLEFORMAT_END
  1
CELLSTYLE_BEGIN
 90
        3
 91
        2
300
_DATA
309
CELLSTYLE_END
  0
XRECORD
  5
1D7E
102
{ACAD_REACTORS
330
1D47
102
}
330
1D47
100
AcDbXrecord
280
     1
102
ACAD_ROUNDTRIP_PRE2007_TABLESTYLE
 90
      512
 91
        0
  1

 92
      512
 93
        0
  2

 94
      512
 95
        0
  3

  0
XRECORD
  5
1D59
102
{ACAD_REACTORS
330
1D58
102
}
330
1D58
100
AcDbXrecord
280
     1
102
RTVSPost2010Prop28
280
     1
102
RTVSPost2010PropOp28
 70
     1
102
RTVSPost2010Prop29
280
     1
102
RTVSPost2010PropOp29
 70
     1
102
RTVSPost2010Prop30
280
     0
102
RTVSPost2010PropOp30
 70
     1
102
RTVSPost2010Prop31
280
     0
102
RTVSPost2010PropOp31
 70
     1
102
RTVSPost2010Prop32
280
     0
102
RTVSPost2010PropOp32
 70
     1
102
RTVSPost2010Prop33
280
     0
102
RTVSPost2010PropOp33
 70
     1
102
RTVSPost2010Prop34
280
     0
102
RTVSPost2010PropOp34
 70
     1
102
RTVSPost2010Prop35
280
     0
102
RTVSPost2010PropOp35
 70
     1
102
RTVSPost2010Prop36
280
     0
102
RTVSPost2010PropOp36
 70
     1
102
RTVSPost2010Prop37
 90
       50
102
RTVSPost2010PropOp37
 70
     1
102
RTVSPost2010Prop38
140
0.0
102
RTVSPost2010PropOp38
 70
     1
102
RTVSPost2010Prop39
140
1.0
102
RTVSPost2010PropOp39
 70
     1
102
RTVSPost2010Prop40
 90
        0
102
RTVSPost2010PropOp40
 70
     1
102
RTVSPost2010Prop41ColorIndex
 90
       18
102
RTVSPost2010Prop41ColorRGB
 90
        0
102
RTVSPost2010PropOp41
 70
     1
102
RTVSPost2010Prop42
 90
       50
102
RTVSPost2010PropOp42
 70
     1
102
RTVSPost2010Prop43
 90
        3
102
RTVSPost2010PropOp43
 70
     1
102
RTVSPost2010Prop44ColorIndex
 90
        5
102
RTVSPost2010Prop44ColorRGB
 90
      255
102
RTVSPost2010PropOp44
 70
     1
102
RTVSPost2010Prop45
280
     0
102
RTVSPost2010PropOp45
 70
     1
102
RTVSPost2010Prop46
 90
       50
102
RTVSPost2010PropOp46
 70
     1
102
RTVSPost2010Prop47
 90
       50
102
RTVSPost2010PropOp47
 70
     1
102
RTVSPost2010Prop48
 90
       50
102
RTVSPost2010PropOp48
 70
     1
102
RTVSPost2010Prop49
280
     0
102
RTVSPost2010PropOp49
 70
     1
102
RTVSPost2010Prop50
 90
       50
102
RTVSPost2010PropOp50
 70
     1
102
RTVSPost2010Prop51ColorIndex
 90
      256
102
RTVSPost2010Prop51ColorRGB
 90
-16777216
102
RTVSPost2010PropOp51
 70
     0
102
RTVSPost2010Prop52
140
1.0
102
RTVSPost2010PropOp52
 70
     0
102
RTVSPost2010Prop53
 90
        2
102
RTVSPost2010PropOp53
 70
     1
102
RTVSPost2010Prop54
  1
strokes_ogs.tif
102
RTVSPost2010PropOp54
 70
     1
102
RTVSPost2010Prop55
280
     0
102
RTVSPost2010PropOp55
 70
     1
102
RTVSPost2010Prop56
140
1.0
102
RTVSPost2010PropOp56
 70
     1
102
RTVSPost2010Prop57
140
1.0
102
RTVSPost2010PropOp57
 70
     1
102
RTVSPropertyOp0
 70
     1
102
RTVSPropertyOp1
 70
     1
102
RTVSPropertyOp2
 70
     1
102
RTVSPropertyOp3
 70
     1
102
RTVSPropertyOp4
 70
     1
102
RTVSPropertyOp5
 70
     1
102
RTVSPropertyOp6
 70
     1
102
RTVSPropertyOp7
 70
     1
102
RTVSPropertyOp8
 70
     1
102
RTVSPropertyOp9
 70
     1
102
RTVSPropertyOp10
 70
     1
102
RTVSPropertyOp11
 70
     1
102
RTVSPropertyOp12
 70
     1
102
RTVSPropertyOp13
 70
     1
102
RTVSPropertyOp14
 70
     1
102
RTVSPropertyOp15
 70
     1
102
RTVSPropertyOp16
 70
     1
102
RTVSPropertyOp17
 70
     1
102
RTVSPropertyOp18
 70
     1
102
RTVSPropertyOp19
 70
     1
102
RTVSPropertyOp20
 70
     1
102
RTVSPropertyOp21
 70
     1
102
RTVSPropertyOp22
 70
     1
102
RTVSPropertyOp23
 70
     1
102
RTVSPropertyOp24
 70
     1
102
RTVSPropertyOp25
 70
     1
102
RTVSPropertyOp26
 70
     1
102
RTVSPropertyOp27
 70
     1
102
RTVSPropertyOp28
 70
     1
102
RTVSPropertyOp29
 70
     1
102
RTVSPropertyOp30
 70
     1
102
RTVSPropertyOp31
 70
     1
102
RTVSPropertyOp32
 70
     1
102
RTVSPropertyOp33
 70
     1
102
RTVSPropertyOp34
 70
     1
102
RTVSPropertyOp35
 70
     1
102
RTVSPropertyOp36
 70
     1
102
RTVSPropertyOp37
 70
     1
102
RTVSPropertyOp38
 70
     1
102
RTVSPropertyOp39
 70
     1
102
RTVSPropertyOp40
 70
     1
102
RTVSPropertyOp41
 70
     1
102
RTVSPropertyOp42
 70
     1
102
RTVSPropertyOp43
 70
     1
102
RTVSPropertyOp44
 70
     1
102
RTVSPropertyOp45
 70
     1
102
RTVSPropertyOp46
 70
     1
102
RTVSPropertyOp47
 70
     1
102
RTVSPropertyOp48
 70
     1
102
RTVSPropertyOp49
 70
     1
102
RTVSPropertyOp50
 70
     1
102
RTVSPropertyOp51
 70
     0
102
RTVSPropertyOp52
 70
     0
102
RTVSPropertyOp53
 70
     1
102
RTVSPropertyOp54
 70
     1
102
RTVSPropertyOp55
 70
     1
102
RTVSPropertyOp56
 70
     1
102
RTVSPropertyOp57
 70
     1
102
RTVSPropertyOp58
 70
     1
102
RTVSPropertyOp59
 70
     1
102
RTVSPropertyOp60
 70
     1
102
RTVSPropertyOp61
 70
     1
102
RTVSPropertyOp62
 70
     1
  0
XRECORD
  5
1D57
102
{ACAD_REACTORS
330
1D56
102
}
330
1D56
100
AcDbXrecord
280
     1
102
RTVSPost2010Prop28
280
     0
102
RTVSPost2010PropOp28
 70
     1
102
RTVSPost2010Prop29
280
     1
102
RTVSPost2010PropOp29
 70
     1
102
RTVSPost2010Prop30
280
     1
102
RTVSPost2010PropOp30
 70
     1
102
RTVSPost2010Prop31
280
     0
102
RTVSPost2010PropOp31
 70
     1
102
RTVSPost2010Prop32
280
     0
102
RTVSPost2010PropOp32
 70
     1
102
RTVSPost2010Prop33
280
     0
102
RTVSPost2010PropOp33
 70
     1
102
RTVSPost2010Prop34
280
     0
102
RTVSPost2010PropOp34
 70
     1
102
RTVSPost2010Prop35
280
     0
102
RTVSPost2010PropOp35
 70
     1
102
RTVSPost2010Prop36
280
     0
102
RTVSPost2010PropOp36
 70
     1
102
RTVSPost2010Prop37
 90
       50
102
RTVSPost2010PropOp37
 70
     1
102
RTVSPost2010Prop38
140
0.0
102
RTVSPost2010PropOp38
 70
     1
102
RTVSPost2010Prop39
140
1.0
102
RTVSPost2010PropOp39
 70
     1
102
RTVSPost2010Prop40
 90
        0
102
RTVSPost2010PropOp40
 70
     1
102
RTVSPost2010Prop41ColorIndex
 90
       18
102
RTVSPost2010Prop41ColorRGB
 90
        0
102
RTVSPost2010PropOp41
 70
     1
102
RTVSPost2010Prop42
 90
       50
102
RTVSPost2010PropOp42
 70
     1
102
RTVSPost2010Prop43
 90
        3
102
RTVSPost2010PropOp43
 70
     1
102
RTVSPost2010Prop44ColorIndex
 90
        5
102
RTVSPost2010Prop44ColorRGB
 90
      255
102
RTVSPost2010PropOp44
 70
     1
102
RTVSPost2010Prop45
280
     0
102
RTVSPost2010PropOp45
 70
     1
102
RTVSPost2010Prop46
 90
       50
102
RTVSPost2010PropOp46
 70
     1
102
RTVSPost2010Prop47
 90
       50
102
RTVSPost2010PropOp47
 70
     1
102
RTVSPost2010Prop48
 90
       50
102
RTVSPost2010PropOp48
 70
     1
102
RTVSPost2010Prop49
280
     0
102
RTVSPost2010PropOp49
 70
     1
102
RTVSPost2010Prop50
 90
       50
102
RTVSPost2010PropOp50
 70
     1
102
RTVSPost2010Prop51ColorIndex
 90
      256
102
RTVSPost2010Prop51ColorRGB
 90
-16777216
102
RTVSPost2010PropOp51
 70
     0
102
RTVSPost2010Prop52
140
1.0
102
RTVSPost2010PropOp52
 70
     0
102
RTVSPost2010Prop53
 90
        2
102
RTVSPost2010PropOp53
 70
     1
102
RTVSPost2010Prop54
  1
strokes_ogs.tif
102
RTVSPost2010PropOp54
 70
     1
102
RTVSPost2010Prop55
280
     0
102
RTVSPost2010PropOp55
 70
     1
102
RTVSPost2010Prop56
140
1.0
102
RTVSPost2010PropOp56
 70
     1
102
RTVSPost2010Prop57
140
1.0
102
RTVSPost2010PropOp57
 70
     1
102
RTVSPropertyOp0
 70
     1
102
RTVSPropertyOp1
 70
     1
102
RTVSPropertyOp2
 70
     1
102
RTVSPropertyOp3
 70
     1
102
RTVSPropertyOp4
 70
     1
102
RTVSPropertyOp5
 70
     1
102
RTVSPropertyOp6
 70
     1
102
RTVSPropertyOp7
 70
     1
102
RTVSPropertyOp8
 70
     1
102
RTVSPropertyOp9
 70
     1
102
RTVSPropertyOp10
 70
     1
102
RTVSPropertyOp11
 70
     1
102
RTVSPropertyOp12
 70
     1
102
RTVSPropertyOp13
 70
     1
102
RTVSPropertyOp14
 70
     1
102
RTVSPropertyOp15
 70
     1
102
RTVSPropertyOp16
 70
     1
102
RTVSPropertyOp17
 70
     1
102
RTVSPropertyOp18
 70
     1
102
RTVSPropertyOp19
 70
     1
102
RTVSPropertyOp20
 70
     1
102
RTVSPropertyOp21
 70
     1
102
RTVSPropertyOp22
 70
     1
102
RTVSPropertyOp23
 70
     1
102
RTVSPropertyOp24
 70
     1
102
RTVSPropertyOp25
 70
     1
102
RTVSPropertyOp26
 70
     1
102
RTVSPropertyOp27
 70
     1
102
RTVSPropertyOp28
 70
     1
102
RTVSPropertyOp29
 70
     1
102
RTVSPropertyOp30
 70
     1
102
RTVSPropertyOp31
 70
     1
102
RTVSPropertyOp32
 70
     1
102
RTVSPropertyOp33
 70
     1
102
RTVSPropertyOp34
 70
     1
102
RTVSPropertyOp35
 70
     1
102
RTVSPropertyOp36
 70
     1
102
RTVSPropertyOp37
 70
     1
102
RTVSPropertyOp38
 70
     1
102
RTVSPropertyOp39
 70
     1
102
RTVSPropertyOp40
 70
     1
102
RTVSPropertyOp41
 70
     1
102
RTVSPropertyOp42
 70
     1
102
RTVSPropertyOp43
 70
     1
102
RTVSPropertyOp44
 70
     1
102
RTVSPropertyOp45
 70
     1
102
RTVSPropertyOp46
 70
     1
102
RTVSPropertyOp47
 70
     1
102
RTVSPropertyOp48
 70
     1
102
RTVSPropertyOp49
 70
     1
102
RTVSPropertyOp50
 70
     1
102
RTVSPropertyOp51
 70
     0
102
RTVSPropertyOp52
 70
     0
102
RTVSPropertyOp53
 70
     1
102
RTVSPropertyOp54
 70
     1
102
RTVSPropertyOp55
 70
     1
102
RTVSPropertyOp56
 70
     1
102
RTVSPropertyOp57
 70
     1
102
RTVSPropertyOp58
 70
     1
102
RTVSPropertyOp59
 70
     1
102
RTVSPropertyOp60
 70
     1
102
RTVSPropertyOp61
 70
     1
102
RTVSPropertyOp62
 70
     1
  0
XRECORD
  5
1D65
102
{ACAD_REACTORS
330
1D64
102
}
330
1D64
100
AcDbXrecord
280
     1
102
RTVSPost2010Prop28
280
     0
102
RTVSPost2010PropOp28
 70
     1
102
RTVSPost2010Prop29
280
     1
102
RTVSPost2010PropOp29
 70
     1
102
RTVSPost2010Prop30
280
     1
102
RTVSPost2010PropOp30
 70
     1
102
RTVSPost2010Prop31
280
     0
102
RTVSPost2010PropOp31
 70
     1
102
RTVSPost2010Prop32
280
     0
102
RTVSPost2010PropOp32
 70
     1
102
RTVSPost2010Prop33
280
     0
102
RTVSPost2010PropOp33
 70
     1
102
RTVSPost2010Prop34
280
     0
102
RTVSPost2010PropOp34
 70
     1
102
RTVSPost2010Prop35
280
     0
102
RTVSPost2010PropOp35
 70
     1
102
RTVSPost2010Prop36
280
     0
102
RTVSPost2010PropOp36
 70
     1
102
RTVSPost2010Prop37
 90
       50
102
RTVSPost2010PropOp37
 70
     1
102
RTVSPost2010Prop38
140
0.0
102
RTVSPost2010PropOp38
 70
     1
102
RTVSPost2010Prop39
140
1.0
102
RTVSPost2010PropOp39
 70
     1
102
RTVSPost2010Prop40
 90
        0
102
RTVSPost2010PropOp40
 70
     1
102
RTVSPost2010Prop41ColorIndex
 90
       18
102
RTVSPost2010Prop41ColorRGB
 90
        0
102
RTVSPost2010PropOp41
 70
     1
102
RTVSPost2010Prop42
 90
       50
102
RTVSPost2010PropOp42
 70
     1
102
RTVSPost2010Prop43
 90
        3
102
RTVSPost2010PropOp43
 70
     1
102
RTVSPost2010Prop44ColorIndex
 90
        5
102
RTVSPost2010Prop44ColorRGB
 90
      255
102
RTVSPost2010PropOp44
 70
     1
102
RTVSPost2010Prop45
280
     0
102
RTVSPost2010PropOp45
 70
     1
102
RTVSPost2010Prop46
 90
       50
102
RTVSPost2010PropOp46
 70
     1
102
RTVSPost2010Prop47
 90
       50
102
RTVSPost2010PropOp47
 70
     1
102
RTVSPost2010Prop48
 90
       50
102
RTVSPost2010PropOp48
 70
     1
102
RTVSPost2010Prop49
280
     0
102
RTVSPost2010PropOp49
 70
     1
102
RTVSPost2010Prop50
 90
       50
102
RTVSPost2010PropOp50
 70
     1
102
RTVSPost2010Prop51ColorIndex
 90
      256
102
RTVSPost2010Prop51ColorRGB
 90
-16777216
102
RTVSPost2010PropOp51
 70
     0
102
RTVSPost2010Prop52
140
1.0
102
RTVSPost2010PropOp52
 70
     0
102
RTVSPost2010Prop53
 90
        2
102
RTVSPost2010PropOp53
 70
     1
102
RTVSPost2010Prop54
  1
strokes_ogs.tif
102
RTVSPost2010PropOp54
 70
     1
102
RTVSPost2010Prop55
280
     0
102
RTVSPost2010PropOp55
 70
     1
102
RTVSPost2010Prop56
140
1.0
102
RTVSPost2010PropOp56
 70
     1
102
RTVSPost2010Prop57
140
1.0
102
RTVSPost2010PropOp57
 70
     1
102
RTVSPropertyOp0
 70
     1
102
RTVSPropertyOp1
 70
     1
102
RTVSPropertyOp2
 70
     1
102
RTVSPropertyOp3
 70
     1
102
RTVSPropertyOp4
 70
     1
102
RTVSPropertyOp5
 70
     1
102
RTVSPropertyOp6
 70
     1
102
RTVSPropertyOp7
 70
     1
102
RTVSPropertyOp8
 70
     1
102
RTVSPropertyOp9
 70
     1
102
RTVSPropertyOp10
 70
     1
102
RTVSPropertyOp11
 70
     1
102
RTVSPropertyOp12
 70
     1
102
RTVSPropertyOp13
 70
     1
102
RTVSPropertyOp14
 70
     1
102
RTVSPropertyOp15
 70
     1
102
RTVSPropertyOp16
 70
     1
102
RTVSPropertyOp17
 70
     1
102
RTVSPropertyOp18
 70
     1
102
RTVSPropertyOp19
 70
     1
102
RTVSPropertyOp20
 70
     1
102
RTVSPropertyOp21
 70
     1
102
RTVSPropertyOp22
 70
     1
102
RTVSPropertyOp23
 70
     1
102
RTVSPropertyOp24
 70
     1
102
RTVSPropertyOp25
 70
     1
102
RTVSPropertyOp26
 70
     1
102
RTVSPropertyOp27
 70
     1
102
RTVSPropertyOp28
 70
     1
102
RTVSPropertyOp29
 70
     1
102
RTVSPropertyOp30
 70
     1
102
RTVSPropertyOp31
 70
     1
102
RTVSPropertyOp32
 70
     1
102
RTVSPropertyOp33
 70
     1
102
RTVSPropertyOp34
 70
     1
102
RTVSPropertyOp35
 70
     1
102
RTVSPropertyOp36
 70
     1
102
RTVSPropertyOp37
 70
     1
102
RTVSPropertyOp38
 70
     1
102
RTVSPropertyOp39
 70
     1
102
RTVSPropertyOp40
 70
     1
102
RTVSPropertyOp41
 70
     1
102
RTVSPropertyOp42
 70
     1
102
RTVSPropertyOp43
 70
     1
102
RTVSPropertyOp44
 70
     1
102
RTVSPropertyOp45
 70
     1
102
RTVSPropertyOp46
 70
     1
102
RTVSPropertyOp47
 70
     1
102
RTVSPropertyOp48
 70
     1
102
RTVSPropertyOp49
 70
     1
102
RTVSPropertyOp50
 70
     1
102
RTVSPropertyOp51
 70
     0
102
RTVSPropertyOp52
 70
     0
102
RTVSPropertyOp53
 70
     1
102
RTVSPropertyOp54
 70
     1
102
RTVSPropertyOp55
 70
     1
102
RTVSPropertyOp56
 70
     1
102
RTVSPropertyOp57
 70
     1
102
RTVSPropertyOp58
 70
     1
102
RTVSPropertyOp59
 70
     1
102
RTVSPropertyOp60
 70
     1
102
RTVSPropertyOp61
 70
     1
102
RTVSPropertyOp62
 70
     1
  0
XRECORD
  5
1D6D
102
{ACAD_REACTORS
330
1D6C
102
}
330
1D6C
100
AcDbXrecord
280
     1
102
RTVSPost2010Prop28
280
     0
102
RTVSPost2010PropOp28
 70
     1
102
RTVSPost2010Prop29
280
     1
102
RTVSPost2010PropOp29
 70
     1
102
RTVSPost2010Prop30
280
     1
102
RTVSPost2010PropOp30
 70
     1
102
RTVSPost2010Prop31
280
     0
102
RTVSPost2010PropOp31
 70
     1
102
RTVSPost2010Prop32
280
     0
102
RTVSPost2010PropOp32
 70
     1
102
RTVSPost2010Prop33
280
     0
102
RTVSPost2010PropOp33
 70
     1
102
RTVSPost2010Prop34
280
     0
102
RTVSPost2010PropOp34
 70
     1
102
RTVSPost2010Prop35
280
     0
102
RTVSPost2010PropOp35
 70
     1
102
RTVSPost2010Prop36
280
     0
102
RTVSPost2010PropOp36
 70
     1
102
RTVSPost2010Prop37
 90
       50
102
RTVSPost2010PropOp37
 70
     1
102
RTVSPost2010Prop38
140
0.0
102
RTVSPost2010PropOp38
 70
     1
102
RTVSPost2010Prop39
140
1.0
102
RTVSPost2010PropOp39
 70
     1
102
RTVSPost2010Prop40
 90
        0
102
RTVSPost2010PropOp40
 70
     1
102
RTVSPost2010Prop41ColorIndex
 90
       18
102
RTVSPost2010Prop41ColorRGB
 90
        0
102
RTVSPost2010PropOp41
 70
     1
102
RTVSPost2010Prop42
 90
       50
102
RTVSPost2010PropOp42
 70
     1
102
RTVSPost2010Prop43
 90
        3
102
RTVSPost2010PropOp43
 70
     1
102
RTVSPost2010Prop44ColorIndex
 90
        5
102
RTVSPost2010Prop44ColorRGB
 90
      255
102
RTVSPost2010PropOp44
 70
     1
102
RTVSPost2010Prop45
280
     0
102
RTVSPost2010PropOp45
 70
     1
102
RTVSPost2010Prop46
 90
       50
102
RTVSPost2010PropOp46
 70
     1
102
RTVSPost2010Prop47
 90
       50
102
RTVSPost2010PropOp47
 70
     1
102
RTVSPost2010Prop48
 90
       50
102
RTVSPost2010PropOp48
 70
     1
102
RTVSPost2010Prop49
280
     0
102
RTVSPost2010PropOp49
 70
     1
102
RTVSPost2010Prop50
 90
       50
102
RTVSPost2010PropOp50
 70
     1
102
RTVSPost2010Prop51ColorIndex
 90
      256
102
RTVSPost2010Prop51ColorRGB
 90
-16777216
102
RTVSPost2010PropOp51
 70
     0
102
RTVSPost2010Prop52
140
1.0
102
RTVSPost2010PropOp52
 70
     0
102
RTVSPost2010Prop53
 90
        2
102
RTVSPost2010PropOp53
 70
     1
102
RTVSPost2010Prop54
  1
strokes_ogs.tif
102
RTVSPost2010PropOp54
 70
     1
102
RTVSPost2010Prop55
280
     0
102
RTVSPost2010PropOp55
 70
     1
102
RTVSPost2010Prop56
140
1.0
102
RTVSPost2010PropOp56
 70
     1
102
RTVSPost2010Prop57
140
1.0
102
RTVSPost2010PropOp57
 70
     1
102
RTVSPropertyOp0
 70
     1
102
RTVSPropertyOp1
 70
     1
102
RTVSPropertyOp2
 70
     1
102
RTVSPropertyOp3
 70
     1
102
RTVSPropertyOp4
 70
     1
102
RTVSPropertyOp5
 70
     1
102
RTVSPropertyOp6
 70
     1
102
RTVSPropertyOp7
 70
     1
102
RTVSPropertyOp8
 70
     1
102
RTVSPropertyOp9
 70
     1
102
RTVSPropertyOp10
 70
     1
102
RTVSPropertyOp11
 70
     1
102
RTVSPropertyOp12
 70
     1
102
RTVSPropertyOp13
 70
     1
102
RTVSPropertyOp14
 70
     1
102
RTVSPropertyOp15
 70
     1
102
RTVSPropertyOp16
 70
     1
102
RTVSPropertyOp17
 70
     1
102
RTVSPropertyOp18
 70
     1
102
RTVSPropertyOp19
 70
     1
102
RTVSPropertyOp20
 70
     1
102
RTVSPropertyOp21
 70
     1
102
RTVSPropertyOp22
 70
     1
102
RTVSPropertyOp23
 70
     1
102
RTVSPropertyOp24
 70
     1
102
RTVSPropertyOp25
 70
     1
102
RTVSPropertyOp26
 70
     1
102
RTVSPropertyOp27
 70
     1
102
RTVSPropertyOp28
 70
     1
102
RTVSPropertyOp29
 70
     1
102
RTVSPropertyOp30
 70
     1
102
RTVSPropertyOp31
 70
     1
102
RTVSPropertyOp32
 70
     1
102
RTVSPropertyOp33
 70
     1
102
RTVSPropertyOp34
 70
     1
102
RTVSPropertyOp35
 70
     1
102
RTVSPropertyOp36
 70
     1
102
RTVSPropertyOp37
 70
     1
102
RTVSPropertyOp38
 70
     1
102
RTVSPropertyOp39
 70
     1
102
RTVSPropertyOp40
 70
     1
102
RTVSPropertyOp41
 70
     1
102
RTVSPropertyOp42
 70
     1
102
RTVSPropertyOp43
 70
     1
102
RTVSPropertyOp44
 70
     1
102
RTVSPropertyOp45
 70
     1
102
RTVSPropertyOp46
 70
     1
102
RTVSPropertyOp47
 70
     1
102
RTVSPropertyOp48
 70
     1
102
RTVSPropertyOp49
 70
     1
102
RTVSPropertyOp50
 70
     1
102
RTVSPropertyOp51
 70
     0
102
RTVSPropertyOp52
 70
     0
102
RTVSPropertyOp53
 70
     1
102
RTVSPropertyOp54
 70
     1
102
RTVSPropertyOp55
 70
     1
102
RTVSPropertyOp56
 70
     1
102
RTVSPropertyOp57
 70
     1
102
RTVSPropertyOp58
 70
     1
102
RTVSPropertyOp59
 70
     1
102
RTVSPropertyOp60
 70
     1
102
RTVSPropertyOp61
 70
     1
102
RTVSPropertyOp62
 70
     1
  0
XRECORD
  5
1D5F
102
{ACAD_REACTORS
330
1D5E
102
}
330
1D5E
100
AcDbXrecord
280
     1
102
RTVSPost2010Prop28
280
     0
102
RTVSPost2010PropOp28
 70
     1
102
RTVSPost2010Prop29
280
     1
102
RTVSPost2010PropOp29
 70
     1
102
RTVSPost2010Prop30
280
     1
102
RTVSPost2010PropOp30
 70
     1
102
RTVSPost2010Prop31
280
     0
102
RTVSPost2010PropOp31
 70
     1
102
RTVSPost2010Prop32
280
     0
102
RTVSPost2010PropOp32
 70
     1
102
RTVSPost2010Prop33
280
     0
102
RTVSPost2010PropOp33
 70
     1
102
RTVSPost2010Prop34
280
     0
102
RTVSPost2010PropOp34
 70
     1
102
RTVSPost2010Prop35
280
     0
102
RTVSPost2010PropOp35
 70
     1
102
RTVSPost2010Prop36
280
     0
102
RTVSPost2010PropOp36
 70
     1
102
RTVSPost2010Prop37
 90
       50
102
RTVSPost2010PropOp37
 70
     1
102
RTVSPost2010Prop38
140
0.0
102
RTVSPost2010PropOp38
 70
     1
102
RTVSPost2010Prop39
140
1.0
102
RTVSPost2010PropOp39
 70
     1
102
RTVSPost2010Prop40
 90
        0
102
RTVSPost2010PropOp40
 70
     1
102
RTVSPost2010Prop41ColorIndex
 90
       18
102
RTVSPost2010Prop41ColorRGB
 90
        0
102
RTVSPost2010PropOp41
 70
     1
102
RTVSPost2010Prop42
 90
       50
102
RTVSPost2010PropOp42
 70
     1
102
RTVSPost2010Prop43
 90
        3
102
RTVSPost2010PropOp43
 70
     1
102
RTVSPost2010Prop44ColorIndex
 90
        5
102
RTVSPost2010Prop44ColorRGB
 90
      255
102
RTVSPost2010PropOp44
 70
     1
102
RTVSPost2010Prop45
280
     0
102
RTVSPost2010PropOp45
 70
     1
102
RTVSPost2010Prop46
 90
       50
102
RTVSPost2010PropOp46
 70
     1
102
RTVSPost2010Prop47
 90
       50
102
RTVSPost2010PropOp47
 70
     1
102
RTVSPost2010Prop48
 90
       50
102
RTVSPost2010PropOp48
 70
     1
102
RTVSPost2010Prop49
280
     0
102
RTVSPost2010PropOp49
 70
     1
102
RTVSPost2010Prop50
 90
       50
102
RTVSPost2010PropOp50
 70
     1
102
RTVSPost2010Prop51ColorIndex
 90
      256
102
RTVSPost2010Prop51ColorRGB
 90
-16777216
102
RTVSPost2010PropOp51
 70
     0
102
RTVSPost2010Prop52
140
1.0
102
RTVSPost2010PropOp52
 70
     0
102
RTVSPost2010Prop53
 90
        2
102
RTVSPost2010PropOp53
 70
     1
102
RTVSPost2010Prop54
  1
strokes_ogs.tif
102
RTVSPost2010PropOp54
 70
     1
102
RTVSPost2010Prop55
280
     0
102
RTVSPost2010PropOp55
 70
     1
102
RTVSPost2010Prop56
140
1.0
102
RTVSPost2010PropOp56
 70
     1
102
RTVSPost2010Prop57
140
1.0
102
RTVSPost2010PropOp57
 70
     1
102
RTVSPropertyOp0
 70
     1
102
RTVSPropertyOp1
 70
     1
102
RTVSPropertyOp2
 70
     1
102
RTVSPropertyOp3
 70
     1
102
RTVSPropertyOp4
 70
     1
102
RTVSPropertyOp5
 70
     1
102
RTVSPropertyOp6
 70
     1
102
RTVSPropertyOp7
 70
     1
102
RTVSPropertyOp8
 70
     1
102
RTVSPropertyOp9
 70
     1
102
RTVSPropertyOp10
 70
     1
102
RTVSPropertyOp11
 70
     1
102
RTVSPropertyOp12
 70
     1
102
RTVSPropertyOp13
 70
     1
102
RTVSPropertyOp14
 70
     1
102
RTVSPropertyOp15
 70
     1
102
RTVSPropertyOp16
 70
     1
102
RTVSPropertyOp17
 70
     1
102
RTVSPropertyOp18
 70
     1
102
RTVSPropertyOp19
 70
     1
102
RTVSPropertyOp20
 70
     1
102
RTVSPropertyOp21
 70
     1
102
RTVSPropertyOp22
 70
     1
102
RTVSPropertyOp23
 70
     1
102
RTVSPropertyOp24
 70
     1
102
RTVSPropertyOp25
 70
     1
102
RTVSPropertyOp26
 70
     1
102
RTVSPropertyOp27
 70
     1
102
RTVSPropertyOp28
 70
     1
102
RTVSPropertyOp29
 70
     1
102
RTVSPropertyOp30
 70
     1
102
RTVSPropertyOp31
 70
     1
102
RTVSPropertyOp32
 70
     1
102
RTVSPropertyOp33
 70
     1
102
RTVSPropertyOp34
 70
     1
102
RTVSPropertyOp35
 70
     1
102
RTVSPropertyOp36
 70
     1
102
RTVSPropertyOp37
 70
     1
102
RTVSPropertyOp38
 70
     1
102
RTVSPropertyOp39
 70
     1
102
RTVSPropertyOp40
 70
     1
102
RTVSPropertyOp41
 70
     1
102
RTVSPropertyOp42
 70
     1
102
RTVSPropertyOp43
 70
     1
102
RTVSPropertyOp44
 70
     1
102
RTVSPropertyOp45
 70
     1
102
RTVSPropertyOp46
 70
     1
102
RTVSPropertyOp47
 70
     1
102
RTVSPropertyOp48
 70
     1
102
RTVSPropertyOp49
 70
     1
102
RTVSPropertyOp50
 70
     1
102
RTVSPropertyOp51
 70
     0
102
RTVSPropertyOp52
 70
     0
102
RTVSPropertyOp53
 70
     1
102
RTVSPropertyOp54
 70
     1
102
RTVSPropertyOp55
 70
     1
102
RTVSPropertyOp56
 70
     1
102
RTVSPropertyOp57
 70
     1
102
RTVSPropertyOp58
 70
     1
102
RTVSPropertyOp59
 70
     1
102
RTVSPropertyOp60
 70
     1
102
RTVSPropertyOp61
 70
     1
102
RTVSPropertyOp62
 70
     1
  0
XRECORD
  5
1D63
102
{ACAD_REACTORS
330
1D62
102
}
330
1D62
100
AcDbXrecord
280
     1
102
RTVSPost2010Prop28
280
     0
102
RTVSPost2010PropOp28
 70
     1
102
RTVSPost2010Prop29
280
     1
102
RTVSPost2010PropOp29
 70
     1
102
RTVSPost2010Prop30
280
     1
102
RTVSPost2010PropOp30
 70
     1
102
RTVSPost2010Prop31
280
     0
102
RTVSPost2010PropOp31
 70
     1
102
RTVSPost2010Prop32
280
     0
102
RTVSPost2010PropOp32
 70
     1
102
RTVSPost2010Prop33
280
     0
102
RTVSPost2010PropOp33
 70
     1
102
RTVSPost2010Prop34
280
     0
102
RTVSPost2010PropOp34
 70
     1
102
RTVSPost2010Prop35
280
     0
102
RTVSPost2010PropOp35
 70
     1
102
RTVSPost2010Prop36
280
     0
102
RTVSPost2010PropOp36
 70
     1
102
RTVSPost2010Prop37
 90
       50
102
RTVSPost2010PropOp37
 70
     1
102
RTVSPost2010Prop38
140
0.0
102
RTVSPost2010PropOp38
 70
     1
102
RTVSPost2010Prop39
140
1.0
102
RTVSPost2010PropOp39
 70
     1
102
RTVSPost2010Prop40
 90
        0
102
RTVSPost2010PropOp40
 70
     1
102
RTVSPost2010Prop41ColorIndex
 90
       18
102
RTVSPost2010Prop41ColorRGB
 90
        0
102
RTVSPost2010PropOp41
 70
     1
102
RTVSPost2010Prop42
 90
       50
102
RTVSPost2010PropOp42
 70
     1
102
RTVSPost2010Prop43
 90
        3
102
RTVSPost2010PropOp43
 70
     1
102
RTVSPost2010Prop44ColorIndex
 90
        5
102
RTVSPost2010Prop44ColorRGB
 90
      255
102
RTVSPost2010PropOp44
 70
     1
102
RTVSPost2010Prop45
280
     0
102
RTVSPost2010PropOp45
 70
     1
102
RTVSPost2010Prop46
 90
       50
102
RTVSPost2010PropOp46
 70
     1
102
RTVSPost2010Prop47
 90
       50
102
RTVSPost2010PropOp47
 70
     1
102
RTVSPost2010Prop48
 90
       50
102
RTVSPost2010PropOp48
 70
     1
102
RTVSPost2010Prop49
280
     0
102
RTVSPost2010PropOp49
 70
     1
102
RTVSPost2010Prop50
 90
       50
102
RTVSPost2010PropOp50
 70
     1
102
RTVSPost2010Prop51ColorIndex
 90
      256
102
RTVSPost2010Prop51ColorRGB
 90
-16777216
102
RTVSPost2010PropOp51
 70
     0
102
RTVSPost2010Prop52
140
1.0
102
RTVSPost2010PropOp52
 70
     0
102
RTVSPost2010Prop53
 90
        2
102
RTVSPost2010PropOp53
 70
     1
102
RTVSPost2010Prop54
  1
strokes_ogs.tif
102
RTVSPost2010PropOp54
 70
     1
102
RTVSPost2010Prop55
280
     0
102
RTVSPost2010PropOp55
 70
     1
102
RTVSPost2010Prop56
140
1.0
102
RTVSPost2010PropOp56
 70
     1
102
RTVSPost2010Prop57
140
1.0
102
RTVSPost2010PropOp57
 70
     1
102
RTVSPropertyOp0
 70
     1
102
RTVSPropertyOp1
 70
     1
102
RTVSPropertyOp2
 70
     1
102
RTVSPropertyOp3
 70
     1
102
RTVSPropertyOp4
 70
     1
102
RTVSPropertyOp5
 70
     1
102
RTVSPropertyOp6
 70
     1
102
RTVSPropertyOp7
 70
     1
102
RTVSPropertyOp8
 70
     1
102
RTVSPropertyOp9
 70
     1
102
RTVSPropertyOp10
 70
     1
102
RTVSPropertyOp11
 70
     1
102
RTVSPropertyOp12
 70
     1
102
RTVSPropertyOp13
 70
     1
102
RTVSPropertyOp14
 70
     1
102
RTVSPropertyOp15
 70
     1
102
RTVSPropertyOp16
 70
     1
102
RTVSPropertyOp17
 70
     1
102
RTVSPropertyOp18
 70
     1
102
RTVSPropertyOp19
 70
     1
102
RTVSPropertyOp20
 70
     1
102
RTVSPropertyOp21
 70
     1
102
RTVSPropertyOp22
 70
     1
102
RTVSPropertyOp23
 70
     1
102
RTVSPropertyOp24
 70
     1
102
RTVSPropertyOp25
 70
     1
102
RTVSPropertyOp26
 70
     1
102
RTVSPropertyOp27
 70
     1
102
RTVSPropertyOp28
 70
     1
102
RTVSPropertyOp29
 70
     1
102
RTVSPropertyOp30
 70
     1
102
RTVSPropertyOp31
 70
     1
102
RTVSPropertyOp32
 70
     1
102
RTVSPropertyOp33
 70
     1
102
RTVSPropertyOp34
 70
     1
102
RTVSPropertyOp35
 70
     1
102
RTVSPropertyOp36
 70
     1
102
RTVSPropertyOp37
 70
     1
102
RTVSPropertyOp38
 70
     1
102
RTVSPropertyOp39
 70
     1
102
RTVSPropertyOp40
 70
     1
102
RTVSPropertyOp41
 70
     1
102
RTVSPropertyOp42
 70
     1
102
RTVSPropertyOp43
 70
     1
102
RTVSPropertyOp44
 70
     1
102
RTVSPropertyOp45
 70
     1
102
RTVSPropertyOp46
 70
     1
102
RTVSPropertyOp47
 70
     1
102
RTVSPropertyOp48
 70
     1
102
RTVSPropertyOp49
 70
     1
102
RTVSPropertyOp50
 70
     1
102
RTVSPropertyOp51
 70
     0
102
RTVSPropertyOp52
 70
     0
102
RTVSPropertyOp53
 70
     1
102
RTVSPropertyOp54
 70
     1
102
RTVSPropertyOp55
 70
     1
102
RTVSPropertyOp56
 70
     1
102
RTVSPropertyOp57
 70
     1
102
RTVSPropertyOp58
 70
     1
102
RTVSPropertyOp59
 70
     1
102
RTVSPropertyOp60
 70
     1
102
RTVSPropertyOp61
 70
     1
102
RTVSPropertyOp62
 70
     1
  0
XRECORD
  5
1D7D
102
{ACAD_REACTORS
330
1D7C
102
}
330
1D7C
100
AcDbXrecord
280
     1
102
RTVSPost2010Prop28
280
     0
102
RTVSPost2010PropOp28
 70
     0
102
RTVSPost2010Prop29
280
     1
102
RTVSPost2010PropOp29
 70
     0
102
RTVSPost2010Prop30
280
     1
102
RTVSPost2010PropOp30
 70
     0
102
RTVSPost2010Prop31
280
     0
102
RTVSPost2010PropOp31
 70
     0
102
RTVSPost2010Prop32
280
     0
102
RTVSPost2010PropOp32
 70
     0
102
RTVSPost2010Prop33
280
     0
102
RTVSPost2010PropOp33
 70
     0
102
RTVSPost2010Prop34
280
     0
102
RTVSPost2010PropOp34
 70
     0
102
RTVSPost2010Prop35
280
     0
102
RTVSPost2010PropOp35
 70
     0
102
RTVSPost2010Prop36
280
     0
102
RTVSPost2010PropOp36
 70
     0
102
RTVSPost2010Prop37
 90
       50
102
RTVSPost2010PropOp37
 70
     0
102
RTVSPost2010Prop38
140
0.0
102
RTVSPost2010PropOp38
 70
     0
102
RTVSPost2010Prop39
140
1.0
102
RTVSPost2010PropOp39
 70
     0
102
RTVSPost2010Prop40
 90
        0
102
RTVSPost2010PropOp40
 70
     0
102
RTVSPost2010Prop41ColorIndex
 90
       18
102
RTVSPost2010Prop41ColorRGB
 90
        0
102
RTVSPost2010PropOp41
 70
     0
102
RTVSPost2010Prop42
 90
       50
102
RTVSPost2010PropOp42
 70
     0
102
RTVSPost2010Prop43
 90
        3
102
RTVSPost2010PropOp43
 70
     0
102
RTVSPost2010Prop44ColorIndex
 90
        5
102
RTVSPost2010Prop44ColorRGB
 90
      255
102
RTVSPost2010PropOp44
 70
     0
102
RTVSPost2010Prop45
280
     0
102
RTVSPost2010PropOp45
 70
     0
102
RTVSPost2010Prop46
 90
       50
102
RTVSPost2010PropOp46
 70
     0
102
RTVSPost2010Prop47
 90
       50
102
RTVSPost2010PropOp47
 70
     0
102
RTVSPost2010Prop48
 90
       50
102
RTVSPost2010PropOp48
 70
     0
102
RTVSPost2010Prop49
280
     0
102
RTVSPost2010PropOp49
 70
     0
102
RTVSPost2010Prop50
 90
       50
102
RTVSPost2010PropOp50
 70
     0
102
RTVSPost2010Prop51ColorIndex
 90
      256
102
RTVSPost2010Prop51ColorRGB
 90
-16777216
102
RTVSPost2010PropOp51
 70
     0
102
RTVSPost2010Prop52
140
1.0
102
RTVSPost2010PropOp52
 70
     0
102
RTVSPost2010Prop53
 90
        2
102
RTVSPost2010PropOp53
 70
     0
102
RTVSPost2010Prop54
  1
strokes_ogs.tif
102
RTVSPost2010PropOp54
 70
     0
102
RTVSPost2010Prop55
280
     0
102
RTVSPost2010PropOp55
 70
     0
102
RTVSPost2010Prop56
140
1.0
102
RTVSPost2010PropOp56
 70
     0
102
RTVSPost2010Prop57
140
1.0
102
RTVSPost2010PropOp57
 70
     0
102
RTVSPropertyOp0
 70
     0
102
RTVSPropertyOp1
 70
     0
102
RTVSPropertyOp2
 70
     0
102
RTVSPropertyOp3
 70
     0
102
RTVSPropertyOp4
 70
     0
102
RTVSPropertyOp5
 70
     0
102
RTVSPropertyOp6
 70
     0
102
RTVSPropertyOp7
 70
     0
102
RTVSPropertyOp8
 70
     0
102
RTVSPropertyOp9
 70
     0
102
RTVSPropertyOp10
 70
     0
102
RTVSPropertyOp11
 70
     0
102
RTVSPropertyOp12
 70
     0
102
RTVSPropertyOp13
 70
     0
102
RTVSPropertyOp14
 70
     2
102
RTVSPropertyOp15
 70
     0
102
RTVSPropertyOp16
 70
     0
102
RTVSPropertyOp17
 70
     0
102
RTVSPropertyOp18
 70
     0
102
RTVSPropertyOp19
 70
     0
102
RTVSPropertyOp20
 70
     0
102
RTVSPropertyOp21
 70
     0
102
RTVSPropertyOp22
 70
     0
102
RTVSPropertyOp23
 70
     0
102
RTVSPropertyOp24
 70
     0
102
RTVSPropertyOp25
 70
     0
102
RTVSPropertyOp26
 70
     0
102
RTVSPropertyOp27
 70
     0
102
RTVSPropertyOp28
 70
     0
102
RTVSPropertyOp29
 70
     0
102
RTVSPropertyOp30
 70
     0
102
RTVSPropertyOp31
 70
     0
102
RTVSPropertyOp32
 70
     0
102
RTVSPropertyOp33
 70
     0
102
RTVSPropertyOp34
 70
     0
102
RTVSPropertyOp35
 70
     0
102
RTVSPropertyOp36
 70
     0
102
RTVSPropertyOp37
 70
     0
102
RTVSPropertyOp38
 70
     0
102
RTVSPropertyOp39
 70
     0
102
RTVSPropertyOp40
 70
     0
102
RTVSPropertyOp41
 70
     0
102
RTVSPropertyOp42
 70
     0
102
RTVSPropertyOp43
 70
     0
102
RTVSPropertyOp44
 70
     0
102
RTVSPropertyOp45
 70
     0
102
RTVSPropertyOp46
 70
     0
102
RTVSPropertyOp47
 70
     0
102
RTVSPropertyOp48
 70
     0
102
RTVSPropertyOp49
 70
     0
102
RTVSPropertyOp50
 70
     0
102
RTVSPropertyOp51
 70
     0
102
RTVSPropertyOp52
 70
     0
102
RTVSPropertyOp53
 70
     0
102
RTVSPropertyOp54
 70
     0
102
RTVSPropertyOp55
 70
     0
102
RTVSPropertyOp56
 70
     0
102
RTVSPropertyOp57
 70
     0
102
RTVSPropertyOp58
 70
     0
102
RTVSPropertyOp59
 70
     0
102
RTVSPropertyOp60
 70
     0
102
RTVSPropertyOp61
 70
     0
102
RTVSPropertyOp62
 70
     0
  0
XRECORD
  5
1D6B
102
{ACAD_REACTORS
330
1D6A
102
}
330
1D6A
100
AcDbXrecord
280
     1
102
RTVSPost2010Prop28
280
     0
102
RTVSPost2010PropOp28
 70
     1
102
RTVSPost2010Prop29
280
     1
102
RTVSPost2010PropOp29
 70
     1
102
RTVSPost2010Prop30
280
     1
102
RTVSPost2010PropOp30
 70
     1
102
RTVSPost2010Prop31
280
     0
102
RTVSPost2010PropOp31
 70
     1
102
RTVSPost2010Prop32
280
     0
102
RTVSPost2010PropOp32
 70
     1
102
RTVSPost2010Prop33
280
     0
102
RTVSPost2010PropOp33
 70
     1
102
RTVSPost2010Prop34
280
     0
102
RTVSPost2010PropOp34
 70
     1
102
RTVSPost2010Prop35
280
     0
102
RTVSPost2010PropOp35
 70
     1
102
RTVSPost2010Prop36
280
     0
102
RTVSPost2010PropOp36
 70
     1
102
RTVSPost2010Prop37
 90
       50
102
RTVSPost2010PropOp37
 70
     1
102
RTVSPost2010Prop38
140
0.0
102
RTVSPost2010PropOp38
 70
     1
102
RTVSPost2010Prop39
140
1.0
102
RTVSPost2010PropOp39
 70
     1
102
RTVSPost2010Prop40
 90
        0
102
RTVSPost2010PropOp40
 70
     1
102
RTVSPost2010Prop41ColorIndex
 90
       18
102
RTVSPost2010Prop41ColorRGB
 90
        0
102
RTVSPost2010PropOp41
 70
     1
102
RTVSPost2010Prop42
 90
       50
102
RTVSPost2010PropOp42
 70
     1
102
RTVSPost2010Prop43
 90
        3
102
RTVSPost2010PropOp43
 70
     1
102
RTVSPost2010Prop44ColorIndex
 90
        5
102
RTVSPost2010Prop44ColorRGB
 90
      255
102
RTVSPost2010PropOp44
 70
     1
102
RTVSPost2010Prop45
280
     0
102
RTVSPost2010PropOp45
 70
     1
102
RTVSPost2010Prop46
 90
       50
102
RTVSPost2010PropOp46
 70
     1
102
RTVSPost2010Prop47
 90
       50
102
RTVSPost2010PropOp47
 70
     1
102
RTVSPost2010Prop48
 90
       50
102
RTVSPost2010PropOp48
 70
     1
102
RTVSPost2010Prop49
280
     0
102
RTVSPost2010PropOp49
 70
     1
102
RTVSPost2010Prop50
 90
       50
102
RTVSPost2010PropOp50
 70
     1
102
RTVSPost2010Prop51ColorIndex
 90
      256
102
RTVSPost2010Prop51ColorRGB
 90
-16777216
102
RTVSPost2010PropOp51
 70
     0
102
RTVSPost2010Prop52
140
1.0
102
RTVSPost2010PropOp52
 70
     0
102
RTVSPost2010Prop53
 90
        2
102
RTVSPost2010PropOp53
 70
     1
102
RTVSPost2010Prop54
  1
strokes_ogs.tif
102
RTVSPost2010PropOp54
 70
     1
102
RTVSPost2010Prop55
280
     0
102
RTVSPost2010PropOp55
 70
     1
102
RTVSPost2010Prop56
140
1.0
102
RTVSPost2010PropOp56
 70
     1
102
RTVSPost2010Prop57
140
1.0
102
RTVSPost2010PropOp57
 70
     1
102
RTVSPropertyOp0
 70
     1
102
RTVSPropertyOp1
 70
     1
102
RTVSPropertyOp2
 70
     1
102
RTVSPropertyOp3
 70
     1
102
RTVSPropertyOp4
 70
     1
102
RTVSPropertyOp5
 70
     1
102
RTVSPropertyOp6
 70
     1
102
RTVSPropertyOp7
 70
     1
102
RTVSPropertyOp8
 70
     1
102
RTVSPropertyOp9
 70
     1
102
RTVSPropertyOp10
 70
     1
102
RTVSPropertyOp11
 70
     1
102
RTVSPropertyOp12
 70
     1
102
RTVSPropertyOp13
 70
     1
102
RTVSPropertyOp14
 70
     1
102
RTVSPropertyOp15
 70
     1
102
RTVSPropertyOp16
 70
     1
102
RTVSPropertyOp17
 70
     1
102
RTVSPropertyOp18
 70
     1
102
RTVSPropertyOp19
 70
     1
102
RTVSPropertyOp20
 70
     1
102
RTVSPropertyOp21
 70
     1
102
RTVSPropertyOp22
 70
     1
102
RTVSPropertyOp23
 70
     1
102
RTVSPropertyOp24
 70
     1
102
RTVSPropertyOp25
 70
     1
102
RTVSPropertyOp26
 70
     1
102
RTVSPropertyOp27
 70
     1
102
RTVSPropertyOp28
 70
     1
102
RTVSPropertyOp29
 70
     1
102
RTVSPropertyOp30
 70
     1
102
RTVSPropertyOp31
 70
     1
102
RTVSPropertyOp32
 70
     1
102
RTVSPropertyOp33
 70
     1
102
RTVSPropertyOp34
 70
     1
102
RTVSPropertyOp35
 70
     1
102
RTVSPropertyOp36
 70
     1
102
RTVSPropertyOp37
 70
     1
102
RTVSPropertyOp38
 70
     1
102
RTVSPropertyOp39
 70
     1
102
RTVSPropertyOp40
 70
     1
102
RTVSPropertyOp41
 70
     1
102
RTVSPropertyOp42
 70
     1
102
RTVSPropertyOp43
 70
     1
102
RTVSPropertyOp44
 70
     1
102
RTVSPropertyOp45
 70
     1
102
RTVSPropertyOp46
 70
     1
102
RTVSPropertyOp47
 70
     1
102
RTVSPropertyOp48
 70
     1
102
RTVSPropertyOp49
 70
     1
102
RTVSPropertyOp50
 70
     1
102
RTVSPropertyOp51
 70
     0
102
RTVSPropertyOp52
 70
     0
102
RTVSPropertyOp53
 70
     1
102
RTVSPropertyOp54
 70
     1
102
RTVSPropertyOp55
 70
     1
102
RTVSPropertyOp56
 70
     1
102
RTVSPropertyOp57
 70
     1
102
RTVSPropertyOp58
 70
     1
102
RTVSPropertyOp59
 70
     1
102
RTVSPropertyOp60
 70
     1
102
RTVSPropertyOp61
 70
     1
102
RTVSPropertyOp62
 70
     1
  0
XRECORD
  5
1D4F
102
{ACAD_REACTORS
330
1D4E
102
}
330
1D4E
100
AcDbXrecord
280
     1
102
RTVSPost2010Prop28
280
     0
102
RTVSPost2010PropOp28
 70
     1
102
RTVSPost2010Prop29
280
     1
102
RTVSPost2010PropOp29
 70
     1
102
RTVSPost2010Prop30
280
     1
102
RTVSPost2010PropOp30
 70
     1
102
RTVSPost2010Prop31
280
     0
102
RTVSPost2010PropOp31
 70
     1
102
RTVSPost2010Prop32
280
     0
102
RTVSPost2010PropOp32
 70
     1
102
RTVSPost2010Prop33
280
     0
102
RTVSPost2010PropOp33
 70
     1
102
RTVSPost2010Prop34
280
     0
102
RTVSPost2010PropOp34
 70
     1
102
RTVSPost2010Prop35
280
     0
102
RTVSPost2010PropOp35
 70
     1
102
RTVSPost2010Prop36
280
     0
102
RTVSPost2010PropOp36
 70
     1
102
RTVSPost2010Prop37
 90
       50
102
RTVSPost2010PropOp37
 70
     1
102
RTVSPost2010Prop38
140
0.0
102
RTVSPost2010PropOp38
 70
     1
102
RTVSPost2010Prop39
140
1.0
102
RTVSPost2010PropOp39
 70
     1
102
RTVSPost2010Prop40
 90
        0
102
RTVSPost2010PropOp40
 70
     1
102
RTVSPost2010Prop41ColorIndex
 90
       18
102
RTVSPost2010Prop41ColorRGB
 90
        0
102
RTVSPost2010PropOp41
 70
     1
102
RTVSPost2010Prop42
 90
       50
102
RTVSPost2010PropOp42
 70
     1
102
RTVSPost2010Prop43
 90
        3
102
RTVSPost2010PropOp43
 70
     1
102
RTVSPost2010Prop44ColorIndex
 90
        5
102
RTVSPost2010Prop44ColorRGB
 90
      255
102
RTVSPost2010PropOp44
 70
     1
102
RTVSPost2010Prop45
280
     0
102
RTVSPost2010PropOp45
 70
     1
102
RTVSPost2010Prop46
 90
       50
102
RTVSPost2010PropOp46
 70
     1
102
RTVSPost2010Prop47
 90
       50
102
RTVSPost2010PropOp47
 70
     1
102
RTVSPost2010Prop48
 90
       50
102
RTVSPost2010PropOp48
 70
     1
102
RTVSPost2010Prop49
280
     0
102
RTVSPost2010PropOp49
 70
     1
102
RTVSPost2010Prop50
 90
       50
102
RTVSPost2010PropOp50
 70
     1
102
RTVSPost2010Prop51ColorIndex
 90
      256
102
RTVSPost2010Prop51ColorRGB
 90
-16777216
102
RTVSPost2010PropOp51
 70
     0
102
RTVSPost2010Prop52
140
1.0
102
RTVSPost2010PropOp52
 70
     0
102
RTVSPost2010Prop53
 90
        2
102
RTVSPost2010PropOp53
 70
     1
102
RTVSPost2010Prop54
  1
strokes_ogs.tif
102
RTVSPost2010PropOp54
 70
     1
102
RTVSPost2010Prop55
280
     0
102
RTVSPost2010PropOp55
 70
     1
102
RTVSPost2010Prop56
140
1.0
102
RTVSPost2010PropOp56
 70
     1
102
RTVSPost2010Prop57
140
1.0
102
RTVSPost2010PropOp57
 70
     1
102
RTVSPropertyOp0
 70
     1
102
RTVSPropertyOp1
 70
     1
102
RTVSPropertyOp2
 70
     1
102
RTVSPropertyOp3
 70
     1
102
RTVSPropertyOp4
 70
     1
102
RTVSPropertyOp5
 70
     1
102
RTVSPropertyOp6
 70
     1
102
RTVSPropertyOp7
 70
     1
102
RTVSPropertyOp8
 70
     1
102
RTVSPropertyOp9
 70
     1
102
RTVSPropertyOp10
 70
     1
102
RTVSPropertyOp11
 70
     1
102
RTVSPropertyOp12
 70
     1
102
RTVSPropertyOp13
 70
     1
102
RTVSPropertyOp14
 70
     1
102
RTVSPropertyOp15
 70
     1
102
RTVSPropertyOp16
 70
     1
102
RTVSPropertyOp17
 70
     1
102
RTVSPropertyOp18
 70
     1
102
RTVSPropertyOp19
 70
     1
102
RTVSPropertyOp20
 70
     1
102
RTVSPropertyOp21
 70
     1
102
RTVSPropertyOp22
 70
     1
102
RTVSPropertyOp23
 70
     1
102
RTVSPropertyOp24
 70
     1
102
RTVSPropertyOp25
 70
     1
102
RTVSPropertyOp26
 70
     1
102
RTVSPropertyOp27
 70
     1
102
RTVSPropertyOp28
 70
     1
102
RTVSPropertyOp29
 70
     1
102
RTVSPropertyOp30
 70
     1
102
RTVSPropertyOp31
 70
     1
102
RTVSPropertyOp32
 70
     1
102
RTVSPropertyOp33
 70
     1
102
RTVSPropertyOp34
 70
     1
102
RTVSPropertyOp35
 70
     1
102
RTVSPropertyOp36
 70
     1
102
RTVSPropertyOp37
 70
     1
102
RTVSPropertyOp38
 70
     1
102
RTVSPropertyOp39
 70
     1
102
RTVSPropertyOp40
 70
     1
102
RTVSPropertyOp41
 70
     1
102
RTVSPropertyOp42
 70
     1
102
RTVSPropertyOp43
 70
     1
102
RTVSPropertyOp44
 70
     1
102
RTVSPropertyOp45
 70
     1
102
RTVSPropertyOp46
 70
     1
102
RTVSPropertyOp47
 70
     1
102
RTVSPropertyOp48
 70
     1
102
RTVSPropertyOp49
 70
     1
102
RTVSPropertyOp50
 70
     1
102
RTVSPropertyOp51
 70
     0
102
RTVSPropertyOp52
 70
     0
102
RTVSPropertyOp53
 70
     1
102
RTVSPropertyOp54
 70
     1
102
RTVSPropertyOp55
 70
     1
102
RTVSPropertyOp56
 70
     1
102
RTVSPropertyOp57
 70
     1
102
RTVSPropertyOp58
 70
     1
102
RTVSPropertyOp59
 70
     1
102
RTVSPropertyOp60
 70
     1
102
RTVSPropertyOp61
 70
     1
102
RTVSPropertyOp62
 70
     1
  0
XRECORD
  5
1D51
102
{ACAD_REACTORS
330
1D50
102
}
330
1D50
100
AcDbXrecord
280
     1
102
RTVSPost2010Prop28
280
     0
102
RTVSPost2010PropOp28
 70
     1
102
RTVSPost2010Prop29
280
     1
102
RTVSPost2010PropOp29
 70
     1
102
RTVSPost2010Prop30
280
     1
102
RTVSPost2010PropOp30
 70
     1
102
RTVSPost2010Prop31
280
     0
102
RTVSPost2010PropOp31
 70
     1
102
RTVSPost2010Prop32
280
     0
102
RTVSPost2010PropOp32
 70
     1
102
RTVSPost2010Prop33
280
     0
102
RTVSPost2010PropOp33
 70
     1
102
RTVSPost2010Prop34
280
     0
102
RTVSPost2010PropOp34
 70
     1
102
RTVSPost2010Prop35
280
     0
102
RTVSPost2010PropOp35
 70
     1
102
RTVSPost2010Prop36
280
     0
102
RTVSPost2010PropOp36
 70
     1
102
RTVSPost2010Prop37
 90
       50
102
RTVSPost2010PropOp37
 70
     1
102
RTVSPost2010Prop38
140
0.0
102
RTVSPost2010PropOp38
 70
     1
102
RTVSPost2010Prop39
140
1.0
102
RTVSPost2010PropOp39
 70
     1
102
RTVSPost2010Prop40
 90
        0
102
RTVSPost2010PropOp40
 70
     1
102
RTVSPost2010Prop41ColorIndex
 90
       18
102
RTVSPost2010Prop41ColorRGB
 90
        0
102
RTVSPost2010PropOp41
 70
     1
102
RTVSPost2010Prop42
 90
       50
102
RTVSPost2010PropOp42
 70
     1
102
RTVSPost2010Prop43
 90
        3
102
RTVSPost2010PropOp43
 70
     1
102
RTVSPost2010Prop44ColorIndex
 90
        5
102
RTVSPost2010Prop44ColorRGB
 90
      255
102
RTVSPost2010PropOp44
 70
     1
102
RTVSPost2010Prop45
280
     0
102
RTVSPost2010PropOp45
 70
     1
102
RTVSPost2010Prop46
 90
       50
102
RTVSPost2010PropOp46
 70
     1
102
RTVSPost2010Prop47
 90
       50
102
RTVSPost2010PropOp47
 70
     1
102
RTVSPost2010Prop48
 90
       50
102
RTVSPost2010PropOp48
 70
     1
102
RTVSPost2010Prop49
280
     0
102
RTVSPost2010PropOp49
 70
     1
102
RTVSPost2010Prop50
 90
       50
102
RTVSPost2010PropOp50
 70
     1
102
RTVSPost2010Prop51ColorIndex
 90
      256
102
RTVSPost2010Prop51ColorRGB
 90
-16777216
102
RTVSPost2010PropOp51
 70
     0
102
RTVSPost2010Prop52
140
1.0
102
RTVSPost2010PropOp52
 70
     0
102
RTVSPost2010Prop53
 90
        2
102
RTVSPost2010PropOp53
 70
     1
102
RTVSPost2010Prop54
  1
strokes_ogs.tif
102
RTVSPost2010PropOp54
 70
     1
102
RTVSPost2010Prop55
280
     0
102
RTVSPost2010PropOp55
 70
     1
102
RTVSPost2010Prop56
140
1.0
102
RTVSPost2010PropOp56
 70
     1
102
RTVSPost2010Prop57
140
1.0
102
RTVSPost2010PropOp57
 70
     1
102
RTVSPropertyOp0
 70
     1
102
RTVSPropertyOp1
 70
     1
102
RTVSPropertyOp2
 70
     1
102
RTVSPropertyOp3
 70
     1
102
RTVSPropertyOp4
 70
     1
102
RTVSPropertyOp5
 70
     1
102
RTVSPropertyOp6
 70
     1
102
RTVSPropertyOp7
 70
     1
102
RTVSPropertyOp8
 70
     1
102
RTVSPropertyOp9
 70
     1
102
RTVSPropertyOp10
 70
     1
102
RTVSPropertyOp11
 70
     1
102
RTVSPropertyOp12
 70
     1
102
RTVSPropertyOp13
 70
     1
102
RTVSPropertyOp14
 70
     1
102
RTVSPropertyOp15
 70
     1
102
RTVSPropertyOp16
 70
     1
102
RTVSPropertyOp17
 70
     1
102
RTVSPropertyOp18
 70
     1
102
RTVSPropertyOp19
 70
     1
102
RTVSPropertyOp20
 70
     1
102
RTVSPropertyOp21
 70
     1
102
RTVSPropertyOp22
 70
     1
102
RTVSPropertyOp23
 70
     1
102
RTVSPropertyOp24
 70
     1
102
RTVSPropertyOp25
 70
     1
102
RTVSPropertyOp26
 70
     1
102
RTVSPropertyOp27
 70
     1
102
RTVSPropertyOp28
 70
     1
102
RTVSPropertyOp29
 70
     1
102
RTVSPropertyOp30
 70
     1
102
RTVSPropertyOp31
 70
     1
102
RTVSPropertyOp32
 70
     1
102
RTVSPropertyOp33
 70
     1
102
RTVSPropertyOp34
 70
     1
102
RTVSPropertyOp35
 70
     1
102
RTVSPropertyOp36
 70
     1
102
RTVSPropertyOp37
 70
     1
102
RTVSPropertyOp38
 70
     1
102
RTVSPropertyOp39
 70
     1
102
RTVSPropertyOp40
 70
     1
102
RTVSPropertyOp41
 70
     1
102
RTVSPropertyOp42
 70
     1
102
RTVSPropertyOp43
 70
     1
102
RTVSPropertyOp44
 70
     1
102
RTVSPropertyOp45
 70
     1
102
RTVSPropertyOp46
 70
     1
102
RTVSPropertyOp47
 70
     1
102
RTVSPropertyOp48
 70
     1
102
RTVSPropertyOp49
 70
     1
102
RTVSPropertyOp50
 70
     1
102
RTVSPropertyOp51
 70
     0
102
RTVSPropertyOp52
 70
     0
102
RTVSPropertyOp53
 70
     1
102
RTVSPropertyOp54
 70
     1
102
RTVSPropertyOp55
 70
     1
102
RTVSPropertyOp56
 70
     1
102
RTVSPropertyOp57
 70
     1
102
RTVSPropertyOp58
 70
     1
102
RTVSPropertyOp59
 70
     1
102
RTVSPropertyOp60
 70
     1
102
RTVSPropertyOp61
 70
     1
102
RTVSPropertyOp62
 70
     1
  0
XRECORD
  5
1D53
102
{ACAD_REACTORS
330
1D52
102
}
330
1D52
100
AcDbXrecord
280
     1
102
RTVSPost2010Prop28
280
     0
102
RTVSPost2010PropOp28
 70
     1
102
RTVSPost2010Prop29
280
     1
102
RTVSPost2010PropOp29
 70
     1
102
RTVSPost2010Prop30
280
     1
102
RTVSPost2010PropOp30
 70
     1
102
RTVSPost2010Prop31
280
     0
102
RTVSPost2010PropOp31
 70
     1
102
RTVSPost2010Prop32
280
     0
102
RTVSPost2010PropOp32
 70
     1
102
RTVSPost2010Prop33
280
     0
102
RTVSPost2010PropOp33
 70
     1
102
RTVSPost2010Prop34
280
     0
102
RTVSPost2010PropOp34
 70
     1
102
RTVSPost2010Prop35
280
     0
102
RTVSPost2010PropOp35
 70
     1
102
RTVSPost2010Prop36
280
     0
102
RTVSPost2010PropOp36
 70
     1
102
RTVSPost2010Prop37
 90
       50
102
RTVSPost2010PropOp37
 70
     1
102
RTVSPost2010Prop38
140
0.0
102
RTVSPost2010PropOp38
 70
     1
102
RTVSPost2010Prop39
140
1.0
102
RTVSPost2010PropOp39
 70
     1
102
RTVSPost2010Prop40
 90
        0
102
RTVSPost2010PropOp40
 70
     1
102
RTVSPost2010Prop41ColorIndex
 90
       18
102
RTVSPost2010Prop41ColorRGB
 90
        0
102
RTVSPost2010PropOp41
 70
     1
102
RTVSPost2010Prop42
 90
       50
102
RTVSPost2010PropOp42
 70
     1
102
RTVSPost2010Prop43
 90
        3
102
RTVSPost2010PropOp43
 70
     1
102
RTVSPost2010Prop44ColorIndex
 90
        5
102
RTVSPost2010Prop44ColorRGB
 90
      255
102
RTVSPost2010PropOp44
 70
     1
102
RTVSPost2010Prop45
280
     0
102
RTVSPost2010PropOp45
 70
     1
102
RTVSPost2010Prop46
 90
       50
102
RTVSPost2010PropOp46
 70
     1
102
RTVSPost2010Prop47
 90
       50
102
RTVSPost2010PropOp47
 70
     1
102
RTVSPost2010Prop48
 90
       50
102
RTVSPost2010PropOp48
 70
     1
102
RTVSPost2010Prop49
280
     0
102
RTVSPost2010PropOp49
 70
     1
102
RTVSPost2010Prop50
 90
       50
102
RTVSPost2010PropOp50
 70
     1
102
RTVSPost2010Prop51ColorIndex
 90
      256
102
RTVSPost2010Prop51ColorRGB
 90
-16777216
102
RTVSPost2010PropOp51
 70
     0
102
RTVSPost2010Prop52
140
1.0
102
RTVSPost2010PropOp52
 70
     0
102
RTVSPost2010Prop53
 90
        2
102
RTVSPost2010PropOp53
 70
     1
102
RTVSPost2010Prop54
  1
strokes_ogs.tif
102
RTVSPost2010PropOp54
 70
     1
102
RTVSPost2010Prop55
280
     0
102
RTVSPost2010PropOp55
 70
     1
102
RTVSPost2010Prop56
140
1.0
102
RTVSPost2010PropOp56
 70
     1
102
RTVSPost2010Prop57
140
1.0
102
RTVSPost2010PropOp57
 70
     1
102
RTVSPropertyOp0
 70
     1
102
RTVSPropertyOp1
 70
     1
102
RTVSPropertyOp2
 70
     1
102
RTVSPropertyOp3
 70
     1
102
RTVSPropertyOp4
 70
     1
102
RTVSPropertyOp5
 70
     1
102
RTVSPropertyOp6
 70
     1
102
RTVSPropertyOp7
 70
     1
102
RTVSPropertyOp8
 70
     1
102
RTVSPropertyOp9
 70
     1
102
RTVSPropertyOp10
 70
     1
102
RTVSPropertyOp11
 70
     1
102
RTVSPropertyOp12
 70
     1
102
RTVSPropertyOp13
 70
     1
102
RTVSPropertyOp14
 70
     1
102
RTVSPropertyOp15
 70
     1
102
RTVSPropertyOp16
 70
     1
102
RTVSPropertyOp17
 70
     1
102
RTVSPropertyOp18
 70
     1
102
RTVSPropertyOp19
 70
     1
102
RTVSPropertyOp20
 70
     1
102
RTVSPropertyOp21
 70
     1
102
RTVSPropertyOp22
 70
     1
102
RTVSPropertyOp23
 70
     1
102
RTVSPropertyOp24
 70
     1
102
RTVSPropertyOp25
 70
     1
102
RTVSPropertyOp26
 70
     1
102
RTVSPropertyOp27
 70
     1
102
RTVSPropertyOp28
 70
     1
102
RTVSPropertyOp29
 70
     1
102
RTVSPropertyOp30
 70
     1
102
RTVSPropertyOp31
 70
     1
102
RTVSPropertyOp32
 70
     1
102
RTVSPropertyOp33
 70
     1
102
RTVSPropertyOp34
 70
     1
102
RTVSPropertyOp35
 70
     1
102
RTVSPropertyOp36
 70
     1
102
RTVSPropertyOp37
 70
     1
102
RTVSPropertyOp38
 70
     1
102
RTVSPropertyOp39
 70
     1
102
RTVSPropertyOp40
 70
     1
102
RTVSPropertyOp41
 70
     1
102
RTVSPropertyOp42
 70
     1
102
RTVSPropertyOp43
 70
     1
102
RTVSPropertyOp44
 70
     1
102
RTVSPropertyOp45
 70
     1
102
RTVSPropertyOp46
 70
     1
102
RTVSPropertyOp47
 70
     1
102
RTVSPropertyOp48
 70
     1
102
RTVSPropertyOp49
 70
     1
102
RTVSPropertyOp50
 70
     1
102
RTVSPropertyOp51
 70
     0
102
RTVSPropertyOp52
 70
     0
102
RTVSPropertyOp53
 70
     1
102
RTVSPropertyOp54
 70
     1
102
RTVSPropertyOp55
 70
     1
102
RTVSPropertyOp56
 70
     1
102
RTVSPropertyOp57
 70
     1
102
RTVSPropertyOp58
 70
     1
102
RTVSPropertyOp59
 70
     1
102
RTVSPropertyOp60
 70
     1
102
RTVSPropertyOp61
 70
     1
102
RTVSPropertyOp62
 70
     1
  0
XRECORD
  5
1D55
102
{ACAD_REACTORS
330
1D54
102
}
330
1D54
100
AcDbXrecord
280
     1
102
RTVSPost2010Prop28
280
     0
102
RTVSPost2010PropOp28
 70
     1
102
RTVSPost2010Prop29
280
     1
102
RTVSPost2010PropOp29
 70
     1
102
RTVSPost2010Prop30
280
     1
102
RTVSPost2010PropOp30
 70
     1
102
RTVSPost2010Prop31
280
     0
102
RTVSPost2010PropOp31
 70
     1
102
RTVSPost2010Prop32
280
     0
102
RTVSPost2010PropOp32
 70
     1
102
RTVSPost2010Prop33
280
     0
102
RTVSPost2010PropOp33
 70
     1
102
RTVSPost2010Prop34
280
     0
102
RTVSPost2010PropOp34
 70
     1
102
RTVSPost2010Prop35
280
     0
102
RTVSPost2010PropOp35
 70
     1
102
RTVSPost2010Prop36
280
     0
102
RTVSPost2010PropOp36
 70
     1
102
RTVSPost2010Prop37
 90
       50
102
RTVSPost2010PropOp37
 70
     1
102
RTVSPost2010Prop38
140
0.0
102
RTVSPost2010PropOp38
 70
     1
102
RTVSPost2010Prop39
140
1.0
102
RTVSPost2010PropOp39
 70
     1
102
RTVSPost2010Prop40
 90
        0
102
RTVSPost2010PropOp40
 70
     1
102
RTVSPost2010Prop41ColorIndex
 90
       18
102
RTVSPost2010Prop41ColorRGB
 90
        0
102
RTVSPost2010PropOp41
 70
     1
102
RTVSPost2010Prop42
 90
       50
102
RTVSPost2010PropOp42
 70
     1
102
RTVSPost2010Prop43
 90
        3
102
RTVSPost2010PropOp43
 70
     1
102
RTVSPost2010Prop44ColorIndex
 90
        5
102
RTVSPost2010Prop44ColorRGB
 90
      255
102
RTVSPost2010PropOp44
 70
     1
102
RTVSPost2010Prop45
280
     0
102
RTVSPost2010PropOp45
 70
     1
102
RTVSPost2010Prop46
 90
       50
102
RTVSPost2010PropOp46
 70
     1
102
RTVSPost2010Prop47
 90
       50
102
RTVSPost2010PropOp47
 70
     1
102
RTVSPost2010Prop48
 90
       50
102
RTVSPost2010PropOp48
 70
     1
102
RTVSPost2010Prop49
280
     0
102
RTVSPost2010PropOp49
 70
     1
102
RTVSPost2010Prop50
 90
       50
102
RTVSPost2010PropOp50
 70
     1
102
RTVSPost2010Prop51ColorIndex
 90
      256
102
RTVSPost2010Prop51ColorRGB
 90
-16777216
102
RTVSPost2010PropOp51
 70
     0
102
RTVSPost2010Prop52
140
1.0
102
RTVSPost2010PropOp52
 70
     0
102
RTVSPost2010Prop53
 90
        2
102
RTVSPost2010PropOp53
 70
     1
102
RTVSPost2010Prop54
  1
strokes_ogs.tif
102
RTVSPost2010PropOp54
 70
     1
102
RTVSPost2010Prop55
280
     0
102
RTVSPost2010PropOp55
 70
     1
102
RTVSPost2010Prop56
140
1.0
102
RTVSPost2010PropOp56
 70
     1
102
RTVSPost2010Prop57
140
1.0
102
RTVSPost2010PropOp57
 70
     1
102
RTVSPropertyOp0
 70
     1
102
RTVSPropertyOp1
 70
     1
102
RTVSPropertyOp2
 70
     1
102
RTVSPropertyOp3
 70
     1
102
RTVSPropertyOp4
 70
     1
102
RTVSPropertyOp5
 70
     1
102
RTVSPropertyOp6
 70
     1
102
RTVSPropertyOp7
 70
     1
102
RTVSPropertyOp8
 70
     1
102
RTVSPropertyOp9
 70
     1
102
RTVSPropertyOp10
 70
     1
102
RTVSPropertyOp11
 70
     1
102
RTVSPropertyOp12
 70
     1
102
RTVSPropertyOp13
 70
     1
102
RTVSPropertyOp14
 70
     1
102
RTVSPropertyOp15
 70
     1
102
RTVSPropertyOp16
 70
     1
102
RTVSPropertyOp17
 70
     1
102
RTVSPropertyOp18
 70
     1
102
RTVSPropertyOp19
 70
     1
102
RTVSPropertyOp20
 70
     1
102
RTVSPropertyOp21
 70
     1
102
RTVSPropertyOp22
 70
     1
102
RTVSPropertyOp23
 70
     1
102
RTVSPropertyOp24
 70
     1
102
RTVSPropertyOp25
 70
     1
102
RTVSPropertyOp26
 70
     1
102
RTVSPropertyOp27
 70
     1
102
RTVSPropertyOp28
 70
     1
102
RTVSPropertyOp29
 70
     1
102
RTVSPropertyOp30
 70
     1
102
RTVSPropertyOp31
 70
     1
102
RTVSPropertyOp32
 70
     1
102
RTVSPropertyOp33
 70
     1
102
RTVSPropertyOp34
 70
     1
102
RTVSPropertyOp35
 70
     1
102
RTVSPropertyOp36
 70
     1
102
RTVSPropertyOp37
 70
     1
102
RTVSPropertyOp38
 70
     1
102
RTVSPropertyOp39
 70
     1
102
RTVSPropertyOp40
 70
     1
102
RTVSPropertyOp41
 70
     1
102
RTVSPropertyOp42
 70
     1
102
RTVSPropertyOp43
 70
     1
102
RTVSPropertyOp44
 70
     1
102
RTVSPropertyOp45
 70
     1
102
RTVSPropertyOp46
 70
     1
102
RTVSPropertyOp47
 70
     1
102
RTVSPropertyOp48
 70
     1
102
RTVSPropertyOp49
 70
     1
102
RTVSPropertyOp50
 70
     1
102
RTVSPropertyOp51
 70
     0
102
RTVSPropertyOp52
 70
     0
102
RTVSPropertyOp53
 70
     1
102
RTVSPropertyOp54
 70
     1
102
RTVSPropertyOp55
 70
     1
102
RTVSPropertyOp56
 70
     1
102
RTVSPropertyOp57
 70
     1
102
RTVSPropertyOp58
 70
     1
102
RTVSPropertyOp59
 70
     1
102
RTVSPropertyOp60
 70
     1
102
RTVSPropertyOp61
 70
     1
102
RTVSPropertyOp62
 70
     1
  0
XRECORD
  5
1D5D
102
{ACAD_REACTORS
330
1D5C
102
}
330
1D5C
100
AcDbXrecord
280
     1
102
RTVSPost2010Prop28
280
     0
102
RTVSPost2010PropOp28
 70
     1
102
RTVSPost2010Prop29
280
     1
102
RTVSPost2010PropOp29
 70
     1
102
RTVSPost2010Prop30
280
     1
102
RTVSPost2010PropOp30
 70
     1
102
RTVSPost2010Prop31
280
     0
102
RTVSPost2010PropOp31
 70
     1
102
RTVSPost2010Prop32
280
     0
102
RTVSPost2010PropOp32
 70
     1
102
RTVSPost2010Prop33
280
     0
102
RTVSPost2010PropOp33
 70
     1
102
RTVSPost2010Prop34
280
     0
102
RTVSPost2010PropOp34
 70
     1
102
RTVSPost2010Prop35
280
     0
102
RTVSPost2010PropOp35
 70
     1
102
RTVSPost2010Prop36
280
     0
102
RTVSPost2010PropOp36
 70
     1
102
RTVSPost2010Prop37
 90
       50
102
RTVSPost2010PropOp37
 70
     1
102
RTVSPost2010Prop38
140
0.0
102
RTVSPost2010PropOp38
 70
     1
102
RTVSPost2010Prop39
140
1.0
102
RTVSPost2010PropOp39
 70
     1
102
RTVSPost2010Prop40
 90
        0
102
RTVSPost2010PropOp40
 70
     1
102
RTVSPost2010Prop41ColorIndex
 90
       18
102
RTVSPost2010Prop41ColorRGB
 90
        0
102
RTVSPost2010PropOp41
 70
     1
102
RTVSPost2010Prop42
 90
       50
102
RTVSPost2010PropOp42
 70
     1
102
RTVSPost2010Prop43
 90
        3
102
RTVSPost2010PropOp43
 70
     1
102
RTVSPost2010Prop44ColorIndex
 90
        5
102
RTVSPost2010Prop44ColorRGB
 90
      255
102
RTVSPost2010PropOp44
 70
     1
102
RTVSPost2010Prop45
280
     0
102
RTVSPost2010PropOp45
 70
     1
102
RTVSPost2010Prop46
 90
       50
102
RTVSPost2010PropOp46
 70
     1
102
RTVSPost2010Prop47
 90
       50
102
RTVSPost2010PropOp47
 70
     1
102
RTVSPost2010Prop48
 90
       50
102
RTVSPost2010PropOp48
 70
     1
102
RTVSPost2010Prop49
280
     0
102
RTVSPost2010PropOp49
 70
     1
102
RTVSPost2010Prop50
 90
       50
102
RTVSPost2010PropOp50
 70
     1
102
RTVSPost2010Prop51ColorIndex
 90
      256
102
RTVSPost2010Prop51ColorRGB
 90
-16777216
102
RTVSPost2010PropOp51
 70
     0
102
RTVSPost2010Prop52
140
1.0
102
RTVSPost2010PropOp52
 70
     0
102
RTVSPost2010Prop53
 90
        2
102
RTVSPost2010PropOp53
 70
     1
102
RTVSPost2010Prop54
  1
strokes_ogs.tif
102
RTVSPost2010PropOp54
 70
     1
102
RTVSPost2010Prop55
280
     0
102
RTVSPost2010PropOp55
 70
     1
102
RTVSPost2010Prop56
140
1.0
102
RTVSPost2010PropOp56
 70
     1
102
RTVSPost2010Prop57
140
1.0
102
RTVSPost2010PropOp57
 70
     1
102
RTVSPropertyOp0
 70
     1
102
RTVSPropertyOp1
 70
     1
102
RTVSPropertyOp2
 70
     1
102
RTVSPropertyOp3
 70
     1
102
RTVSPropertyOp4
 70
     1
102
RTVSPropertyOp5
 70
     1
102
RTVSPropertyOp6
 70
     1
102
RTVSPropertyOp7
 70
     1
102
RTVSPropertyOp8
 70
     1
102
RTVSPropertyOp9
 70
     1
102
RTVSPropertyOp10
 70
     1
102
RTVSPropertyOp11
 70
     1
102
RTVSPropertyOp12
 70
     1
102
RTVSPropertyOp13
 70
     1
102
RTVSPropertyOp14
 70
     1
102
RTVSPropertyOp15
 70
     1
102
RTVSPropertyOp16
 70
     1
102
RTVSPropertyOp17
 70
     1
102
RTVSPropertyOp18
 70
     1
102
RTVSPropertyOp19
 70
     1
102
RTVSPropertyOp20
 70
     1
102
RTVSPropertyOp21
 70
     1
102
RTVSPropertyOp22
 70
     1
102
RTVSPropertyOp23
 70
     1
102
RTVSPropertyOp24
 70
     1
102
RTVSPropertyOp25
 70
     1
102
RTVSPropertyOp26
 70
     1
102
RTVSPropertyOp27
 70
     1
102
RTVSPropertyOp28
 70
     1
102
RTVSPropertyOp29
 70
     1
102
RTVSPropertyOp30
 70
     1
102
RTVSPropertyOp31
 70
     1
102
RTVSPropertyOp32
 70
     1
102
RTVSPropertyOp33
 70
     1
102
RTVSPropertyOp34
 70
     1
102
RTVSPropertyOp35
 70
     1
102
RTVSPropertyOp36
 70
     1
102
RTVSPropertyOp37
 70
     1
102
RTVSPropertyOp38
 70
     1
102
RTVSPropertyOp39
 70
     1
102
RTVSPropertyOp40
 70
     1
102
RTVSPropertyOp41
 70
     1
102
RTVSPropertyOp42
 70
     1
102
RTVSPropertyOp43
 70
     1
102
RTVSPropertyOp44
 70
     1
102
RTVSPropertyOp45
 70
     1
102
RTVSPropertyOp46
 70
     1
102
RTVSPropertyOp47
 70
     1
102
RTVSPropertyOp48
 70
     1
102
RTVSPropertyOp49
 70
     1
102
RTVSPropertyOp50
 70
     1
102
RTVSPropertyOp51
 70
     0
102
RTVSPropertyOp52
 70
     0
102
RTVSPropertyOp53
 70
     1
102
RTVSPropertyOp54
 70
     1
102
RTVSPropertyOp55
 70
     1
102
RTVSPropertyOp56
 70
     1
102
RTVSPropertyOp57
 70
     1
102
RTVSPropertyOp58
 70
     1
102
RTVSPropertyOp59
 70
     1
102
RTVSPropertyOp60
 70
     1
102
RTVSPropertyOp61
 70
     1
102
RTVSPropertyOp62
 70
     1
  0
XRECORD
  5
1D79
102
{ACAD_REACTORS
330
1D78
102
}
330
1D78
100
AcDbXrecord
280
     1
102
RTVSPost2010Prop28
280
     0
102
RTVSPost2010PropOp28
 70
     0
102
RTVSPost2010Prop29
280
     1
102
RTVSPost2010PropOp29
 70
     0
102
RTVSPost2010Prop30
280
     1
102
RTVSPost2010PropOp30
 70
     0
102
RTVSPost2010Prop31
280
     0
102
RTVSPost2010PropOp31
 70
     0
102
RTVSPost2010Prop32
280
     0
102
RTVSPost2010PropOp32
 70
     0
102
RTVSPost2010Prop33
280
     0
102
RTVSPost2010PropOp33
 70
     0
102
RTVSPost2010Prop34
280
     0
102
RTVSPost2010PropOp34
 70
     0
102
RTVSPost2010Prop35
280
     0
102
RTVSPost2010PropOp35
 70
     0
102
RTVSPost2010Prop36
280
     0
102
RTVSPost2010PropOp36
 70
     0
102
RTVSPost2010Prop37
 90
       50
102
RTVSPost2010PropOp37
 70
     0
102
RTVSPost2010Prop38
140
0.0
102
RTVSPost2010PropOp38
 70
     0
102
RTVSPost2010Prop39
140
1.0
102
RTVSPost2010PropOp39
 70
     0
102
RTVSPost2010Prop40
 90
        0
102
RTVSPost2010PropOp40
 70
     0
102
RTVSPost2010Prop41ColorIndex
 90
       18
102
RTVSPost2010Prop41ColorRGB
 90
        0
102
RTVSPost2010PropOp41
 70
     0
102
RTVSPost2010Prop42
 90
       50
102
RTVSPost2010PropOp42
 70
     0
102
RTVSPost2010Prop43
 90
        3
102
RTVSPost2010PropOp43
 70
     0
102
RTVSPost2010Prop44ColorIndex
 90
        5
102
RTVSPost2010Prop44ColorRGB
 90
      255
102
RTVSPost2010PropOp44
 70
     0
102
RTVSPost2010Prop45
280
     0
102
RTVSPost2010PropOp45
 70
     0
102
RTVSPost2010Prop46
 90
       50
102
RTVSPost2010PropOp46
 70
     0
102
RTVSPost2010Prop47
 90
       50
102
RTVSPost2010PropOp47
 70
     0
102
RTVSPost2010Prop48
 90
       50
102
RTVSPost2010PropOp48
 70
     0
102
RTVSPost2010Prop49
280
     0
102
RTVSPost2010PropOp49
 70
     0
102
RTVSPost2010Prop50
 90
       50
102
RTVSPost2010PropOp50
 70
     0
102
RTVSPost2010Prop51ColorIndex
 90
      256
102
RTVSPost2010Prop51ColorRGB
 90
-16777216
102
RTVSPost2010PropOp51
 70
     0
102
RTVSPost2010Prop52
140
1.0
102
RTVSPost2010PropOp52
 70
     0
102
RTVSPost2010Prop53
 90
        2
102
RTVSPost2010PropOp53
 70
     0
102
RTVSPost2010Prop54
  1
strokes_ogs.tif
102
RTVSPost2010PropOp54
 70
     0
102
RTVSPost2010Prop55
280
     0
102
RTVSPost2010PropOp55
 70
     0
102
RTVSPost2010Prop56
140
1.0
102
RTVSPost2010PropOp56
 70
     0
102
RTVSPost2010Prop57
140
1.0
102
RTVSPost2010PropOp57
 70
     0
102
RTVSPropertyOp0
 70
     0
102
RTVSPropertyOp1
 70
     0
102
RTVSPropertyOp2
 70
     0
102
RTVSPropertyOp3
 70
     0
102
RTVSPropertyOp4
 70
     0
102
RTVSPropertyOp5
 70
     0
102
RTVSPropertyOp6
 70
     0
102
RTVSPropertyOp7
 70
     0
102
RTVSPropertyOp8
 70
     0
102
RTVSPropertyOp9
 70
     0
102
RTVSPropertyOp10
 70
     0
102
RTVSPropertyOp11
 70
     0
102
RTVSPropertyOp12
 70
     0
102
RTVSPropertyOp13
 70
     0
102
RTVSPropertyOp14
 70
     2
102
RTVSPropertyOp15
 70
     0
102
RTVSPropertyOp16
 70
     0
102
RTVSPropertyOp17
 70
     0
102
RTVSPropertyOp18
 70
     0
102
RTVSPropertyOp19
 70
     0
102
RTVSPropertyOp20
 70
     0
102
RTVSPropertyOp21
 70
     0
102
RTVSPropertyOp22
 70
     0
102
RTVSPropertyOp23
 70
     0
102
RTVSPropertyOp24
 70
     0
102
RTVSPropertyOp25
 70
     0
102
RTVSPropertyOp26
 70
     0
102
RTVSPropertyOp27
 70
     0
102
RTVSPropertyOp28
 70
     0
102
RTVSPropertyOp29
 70
     0
102
RTVSPropertyOp30
 70
     0
102
RTVSPropertyOp31
 70
     0
102
RTVSPropertyOp32
 70
     0
102
RTVSPropertyOp33
 70
     0
102
RTVSPropertyOp34
 70
     0
102
RTVSPropertyOp35
 70
     0
102
RTVSPropertyOp36
 70
     0
102
RTVSPropertyOp37
 70
     0
102
RTVSPropertyOp38
 70
     0
102
RTVSPropertyOp39
 70
     0
102
RTVSPropertyOp40
 70
     0
102
RTVSPropertyOp41
 70
     0
102
RTVSPropertyOp42
 70
     0
102
RTVSPropertyOp43
 70
     0
102
RTVSPropertyOp44
 70
     0
102
RTVSPropertyOp45
 70
     0
102
RTVSPropertyOp46
 70
     0
102
RTVSPropertyOp47
 70
     0
102
RTVSPropertyOp48
 70
     0
102
RTVSPropertyOp49
 70
     0
102
RTVSPropertyOp50
 70
     0
102
RTVSPropertyOp51
 70
     0
102
RTVSPropertyOp52
 70
     0
102
RTVSPropertyOp53
 70
     0
102
RTVSPropertyOp54
 70
     0
102
RTVSPropertyOp55
 70
     0
102
RTVSPropertyOp56
 70
     0
102
RTVSPropertyOp57
 70
     0
102
RTVSPropertyOp58
 70
     0
102
RTVSPropertyOp59
 70
     0
102
RTVSPropertyOp60
 70
     0
102
RTVSPropertyOp61
 70
     0
102
RTVSPropertyOp62
 70
     0
  0
XRECORD
  5
1D69
102
{ACAD_REACTORS
330
1D68
102
}
330
1D68
100
AcDbXrecord
280
     1
102
RTVSPost2010Prop28
280
     0
102
RTVSPost2010PropOp28
 70
     1
102
RTVSPost2010Prop29
280
     1
102
RTVSPost2010PropOp29
 70
     1
102
RTVSPost2010Prop30
280
     1
102
RTVSPost2010PropOp30
 70
     1
102
RTVSPost2010Prop31
280
     0
102
RTVSPost2010PropOp31
 70
     1
102
RTVSPost2010Prop32
280
     0
102
RTVSPost2010PropOp32
 70
     1
102
RTVSPost2010Prop33
280
     0
102
RTVSPost2010PropOp33
 70
     1
102
RTVSPost2010Prop34
280
     0
102
RTVSPost2010PropOp34
 70
     1
102
RTVSPost2010Prop35
280
     0
102
RTVSPost2010PropOp35
 70
     1
102
RTVSPost2010Prop36
280
     0
102
RTVSPost2010PropOp36
 70
     1
102
RTVSPost2010Prop37
 90
       50
102
RTVSPost2010PropOp37
 70
     1
102
RTVSPost2010Prop38
140
0.0
102
RTVSPost2010PropOp38
 70
     1
102
RTVSPost2010Prop39
140
1.0
102
RTVSPost2010PropOp39
 70
     1
102
RTVSPost2010Prop40
 90
        0
102
RTVSPost2010PropOp40
 70
     1
102
RTVSPost2010Prop41ColorIndex
 90
       18
102
RTVSPost2010Prop41ColorRGB
 90
        0
102
RTVSPost2010PropOp41
 70
     1
102
RTVSPost2010Prop42
 90
       50
102
RTVSPost2010PropOp42
 70
     1
102
RTVSPost2010Prop43
 90
        3
102
RTVSPost2010PropOp43
 70
     1
102
RTVSPost2010Prop44ColorIndex
 90
        5
102
RTVSPost2010Prop44ColorRGB
 90
      255
102
RTVSPost2010PropOp44
 70
     1
102
RTVSPost2010Prop45
280
     0
102
RTVSPost2010PropOp45
 70
     1
102
RTVSPost2010Prop46
 90
       50
102
RTVSPost2010PropOp46
 70
     1
102
RTVSPost2010Prop47
 90
       50
102
RTVSPost2010PropOp47
 70
     1
102
RTVSPost2010Prop48
 90
       50
102
RTVSPost2010PropOp48
 70
     1
102
RTVSPost2010Prop49
280
     0
102
RTVSPost2010PropOp49
 70
     1
102
RTVSPost2010Prop50
 90
       50
102
RTVSPost2010PropOp50
 70
     1
102
RTVSPost2010Prop51ColorIndex
 90
      256
102
RTVSPost2010Prop51ColorRGB
 90
-16777216
102
RTVSPost2010PropOp51
 70
     0
102
RTVSPost2010Prop52
140
1.0
102
RTVSPost2010PropOp52
 70
     0
102
RTVSPost2010Prop53
 90
        2
102
RTVSPost2010PropOp53
 70
     1
102
RTVSPost2010Prop54
  1
strokes_ogs.tif
102
RTVSPost2010PropOp54
 70
     1
102
RTVSPost2010Prop55
280
     0
102
RTVSPost2010PropOp55
 70
     1
102
RTVSPost2010Prop56
140
1.0
102
RTVSPost2010PropOp56
 70
     1
102
RTVSPost2010Prop57
140
1.0
102
RTVSPost2010PropOp57
 70
     1
102
RTVSPropertyOp0
 70
     1
102
RTVSPropertyOp1
 70
     1
102
RTVSPropertyOp2
 70
     1
102
RTVSPropertyOp3
 70
     1
102
RTVSPropertyOp4
 70
     1
102
RTVSPropertyOp5
 70
     1
102
RTVSPropertyOp6
 70
     1
102
RTVSPropertyOp7
 70
     1
102
RTVSPropertyOp8
 70
     1
102
RTVSPropertyOp9
 70
     1
102
RTVSPropertyOp10
 70
     1
102
RTVSPropertyOp11
 70
     1
102
RTVSPropertyOp12
 70
     1
102
RTVSPropertyOp13
 70
     1
102
RTVSPropertyOp14
 70
     1
102
RTVSPropertyOp15
 70
     1
102
RTVSPropertyOp16
 70
     1
102
RTVSPropertyOp17
 70
     1
102
RTVSPropertyOp18
 70
     1
102
RTVSPropertyOp19
 70
     1
102
RTVSPropertyOp20
 70
     1
102
RTVSPropertyOp21
 70
     1
102
RTVSPropertyOp22
 70
     1
102
RTVSPropertyOp23
 70
     1
102
RTVSPropertyOp24
 70
     1
102
RTVSPropertyOp25
 70
     1
102
RTVSPropertyOp26
 70
     1
102
RTVSPropertyOp27
 70
     1
102
RTVSPropertyOp28
 70
     1
102
RTVSPropertyOp29
 70
     1
102
RTVSPropertyOp30
 70
     1
102
RTVSPropertyOp31
 70
     1
102
RTVSPropertyOp32
 70
     1
102
RTVSPropertyOp33
 70
     1
102
RTVSPropertyOp34
 70
     1
102
RTVSPropertyOp35
 70
     1
102
RTVSPropertyOp36
 70
     1
102
RTVSPropertyOp37
 70
     1
102
RTVSPropertyOp38
 70
     1
102
RTVSPropertyOp39
 70
     1
102
RTVSPropertyOp40
 70
     1
102
RTVSPropertyOp41
 70
     1
102
RTVSPropertyOp42
 70
     1
102
RTVSPropertyOp43
 70
     1
102
RTVSPropertyOp44
 70
     1
102
RTVSPropertyOp45
 70
     1
102
RTVSPropertyOp46
 70
     1
102
RTVSPropertyOp47
 70
     1
102
RTVSPropertyOp48
 70
     1
102
RTVSPropertyOp49
 70
     1
102
RTVSPropertyOp50
 70
     1
102
RTVSPropertyOp51
 70
     0
102
RTVSPropertyOp52
 70
     0
102
RTVSPropertyOp53
 70
     1
102
RTVSPropertyOp54
 70
     1
102
RTVSPropertyOp55
 70
     1
102
RTVSPropertyOp56
 70
     1
102
RTVSPropertyOp57
 70
     1
102
RTVSPropertyOp58
 70
     1
102
RTVSPropertyOp59
 70
     1
102
RTVSPropertyOp60
 70
     1
102
RTVSPropertyOp61
 70
     1
102
RTVSPropertyOp62
 70
     1
  0
XRECORD
  5
1D7B
102
{ACAD_REACTORS
330
1D7A
102
}
330
1D7A
100
AcDbXrecord
280
     1
102
RTVSPost2010Prop28
280
     0
102
RTVSPost2010PropOp28
 70
     0
102
RTVSPost2010Prop29
280
     1
102
RTVSPost2010PropOp29
 70
     0
102
RTVSPost2010Prop30
280
     1
102
RTVSPost2010PropOp30
 70
     0
102
RTVSPost2010Prop31
280
     0
102
RTVSPost2010PropOp31
 70
     0
102
RTVSPost2010Prop32
280
     0
102
RTVSPost2010PropOp32
 70
     0
102
RTVSPost2010Prop33
280
     0
102
RTVSPost2010PropOp33
 70
     0
102
RTVSPost2010Prop34
280
     0
102
RTVSPost2010PropOp34
 70
     0
102
RTVSPost2010Prop35
280
     0
102
RTVSPost2010PropOp35
 70
     0
102
RTVSPost2010Prop36
280
     0
102
RTVSPost2010PropOp36
 70
     0
102
RTVSPost2010Prop37
 90
       50
102
RTVSPost2010PropOp37
 70
     0
102
RTVSPost2010Prop38
140
0.0
102
RTVSPost2010PropOp38
 70
     0
102
RTVSPost2010Prop39
140
1.0
102
RTVSPost2010PropOp39
 70
     0
102
RTVSPost2010Prop40
 90
        0
102
RTVSPost2010PropOp40
 70
     0
102
RTVSPost2010Prop41ColorIndex
 90
       18
102
RTVSPost2010Prop41ColorRGB
 90
        0
102
RTVSPost2010PropOp41
 70
     0
102
RTVSPost2010Prop42
 90
       50
102
RTVSPost2010PropOp42
 70
     0
102
RTVSPost2010Prop43
 90
        3
102
RTVSPost2010PropOp43
 70
     0
102
RTVSPost2010Prop44ColorIndex
 90
        5
102
RTVSPost2010Prop44ColorRGB
 90
      255
102
RTVSPost2010PropOp44
 70
     0
102
RTVSPost2010Prop45
280
     0
102
RTVSPost2010PropOp45
 70
     0
102
RTVSPost2010Prop46
 90
       50
102
RTVSPost2010PropOp46
 70
     0
102
RTVSPost2010Prop47
 90
       50
102
RTVSPost2010PropOp47
 70
     0
102
RTVSPost2010Prop48
 90
       50
102
RTVSPost2010PropOp48
 70
     0
102
RTVSPost2010Prop49
280
     0
102
RTVSPost2010PropOp49
 70
     0
102
RTVSPost2010Prop50
 90
       50
102
RTVSPost2010PropOp50
 70
     0
102
RTVSPost2010Prop51ColorIndex
 90
      256
102
RTVSPost2010Prop51ColorRGB
 90
-16777216
102
RTVSPost2010PropOp51
 70
     0
102
RTVSPost2010Prop52
140
1.0
102
RTVSPost2010PropOp52
 70
     0
102
RTVSPost2010Prop53
 90
        2
102
RTVSPost2010PropOp53
 70
     0
102
RTVSPost2010Prop54
  1
strokes_ogs.tif
102
RTVSPost2010PropOp54
 70
     0
102
RTVSPost2010Prop55
280
     0
102
RTVSPost2010PropOp55
 70
     0
102
RTVSPost2010Prop56
140
1.0
102
RTVSPost2010PropOp56
 70
     0
102
RTVSPost2010Prop57
140
1.0
102
RTVSPost2010PropOp57
 70
     0
102
RTVSPropertyOp0
 70
     0
102
RTVSPropertyOp1
 70
     0
102
RTVSPropertyOp2
 70
     0
102
RTVSPropertyOp3
 70
     0
102
RTVSPropertyOp4
 70
     0
102
RTVSPropertyOp5
 70
     0
102
RTVSPropertyOp6
 70
     0
102
RTVSPropertyOp7
 70
     0
102
RTVSPropertyOp8
 70
     0
102
RTVSPropertyOp9
 70
     0
102
RTVSPropertyOp10
 70
     0
102
RTVSPropertyOp11
 70
     0
102
RTVSPropertyOp12
 70
     0
102
RTVSPropertyOp13
 70
     0
102
RTVSPropertyOp14
 70
     2
102
RTVSPropertyOp15
 70
     0
102
RTVSPropertyOp16
 70
     0
102
RTVSPropertyOp17
 70
     0
102
RTVSPropertyOp18
 70
     0
102
RTVSPropertyOp19
 70
     0
102
RTVSPropertyOp20
 70
     0
102
RTVSPropertyOp21
 70
     0
102
RTVSPropertyOp22
 70
     0
102
RTVSPropertyOp23
 70
     0
102
RTVSPropertyOp24
 70
     0
102
RTVSPropertyOp25
 70
     0
102
RTVSPropertyOp26
 70
     0
102
RTVSPropertyOp27
 70
     0
102
RTVSPropertyOp28
 70
     0
102
RTVSPropertyOp29
 70
     0
102
RTVSPropertyOp30
 70
     0
102
RTVSPropertyOp31
 70
     0
102
RTVSPropertyOp32
 70
     0
102
RTVSPropertyOp33
 70
     0
102
RTVSPropertyOp34
 70
     0
102
RTVSPropertyOp35
 70
     0
102
RTVSPropertyOp36
 70
     0
102
RTVSPropertyOp37
 70
     0
102
RTVSPropertyOp38
 70
     0
102
RTVSPropertyOp39
 70
     0
102
RTVSPropertyOp40
 70
     0
102
RTVSPropertyOp41
 70
     0
102
RTVSPropertyOp42
 70
     0
102
RTVSPropertyOp43
 70
     0
102
RTVSPropertyOp44
 70
     0
102
RTVSPropertyOp45
 70
     0
102
RTVSPropertyOp46
 70
     0
102
RTVSPropertyOp47
 70
     0
102
RTVSPropertyOp48
 70
     0
102
RTVSPropertyOp49
 70
     0
102
RTVSPropertyOp50
 70
     0
102
RTVSPropertyOp51
 70
     0
102
RTVSPropertyOp52
 70
     0
102
RTVSPropertyOp53
 70
     0
102
RTVSPropertyOp54
 70
     0
102
RTVSPropertyOp55
 70
     0
102
RTVSPropertyOp56
 70
     0
102
RTVSPropertyOp57
 70
     0
102
RTVSPropertyOp58
 70
     0
102
RTVSPropertyOp59
 70
     0
102
RTVSPropertyOp60
 70
     0
102
RTVSPropertyOp61
 70
     0
102
RTVSPropertyOp62
 70
     0
  0
XRECORD
  5
1D61
102
{ACAD_REACTORS
330
1D60
102
}
330
1D60
100
AcDbXrecord
280
     1
102
RTVSPost2010Prop28
280
     0
102
RTVSPost2010PropOp28
 70
     1
102
RTVSPost2010Prop29
280
     1
102
RTVSPost2010PropOp29
 70
     1
102
RTVSPost2010Prop30
280
     1
102
RTVSPost2010PropOp30
 70
     1
102
RTVSPost2010Prop31
280
     0
102
RTVSPost2010PropOp31
 70
     1
102
RTVSPost2010Prop32
280
     0
102
RTVSPost2010PropOp32
 70
     1
102
RTVSPost2010Prop33
280
     0
102
RTVSPost2010PropOp33
 70
     1
102
RTVSPost2010Prop34
280
     0
102
RTVSPost2010PropOp34
 70
     1
102
RTVSPost2010Prop35
280
     0
102
RTVSPost2010PropOp35
 70
     1
102
RTVSPost2010Prop36
280
     0
102
RTVSPost2010PropOp36
 70
     1
102
RTVSPost2010Prop37
 90
       50
102
RTVSPost2010PropOp37
 70
     1
102
RTVSPost2010Prop38
140
0.0
102
RTVSPost2010PropOp38
 70
     1
102
RTVSPost2010Prop39
140
1.0
102
RTVSPost2010PropOp39
 70
     1
102
RTVSPost2010Prop40
 90
        0
102
RTVSPost2010PropOp40
 70
     1
102
RTVSPost2010Prop41ColorIndex
 90
       18
102
RTVSPost2010Prop41ColorRGB
 90
        0
102
RTVSPost2010PropOp41
 70
     1
102
RTVSPost2010Prop42
 90
       50
102
RTVSPost2010PropOp42
 70
     1
102
RTVSPost2010Prop43
 90
        3
102
RTVSPost2010PropOp43
 70
     1
102
RTVSPost2010Prop44ColorIndex
 90
        5
102
RTVSPost2010Prop44ColorRGB
 90
      255
102
RTVSPost2010PropOp44
 70
     1
102
RTVSPost2010Prop45
280
     0
102
RTVSPost2010PropOp45
 70
     1
102
RTVSPost2010Prop46
 90
       50
102
RTVSPost2010PropOp46
 70
     1
102
RTVSPost2010Prop47
 90
       50
102
RTVSPost2010PropOp47
 70
     1
102
RTVSPost2010Prop48
 90
       50
102
RTVSPost2010PropOp48
 70
     1
102
RTVSPost2010Prop49
280
     0
102
RTVSPost2010PropOp49
 70
     1
102
RTVSPost2010Prop50
 90
       50
102
RTVSPost2010PropOp50
 70
     1
102
RTVSPost2010Prop51ColorIndex
 90
      256
102
RTVSPost2010Prop51ColorRGB
 90
-16777216
102
RTVSPost2010PropOp51
 70
     0
102
RTVSPost2010Prop52
140
1.0
102
RTVSPost2010PropOp52
 70
     0
102
RTVSPost2010Prop53
 90
        2
102
RTVSPost2010PropOp53
 70
     1
102
RTVSPost2010Prop54
  1
strokes_ogs.tif
102
RTVSPost2010PropOp54
 70
     1
102
RTVSPost2010Prop55
280
     0
102
RTVSPost2010PropOp55
 70
     1
102
RTVSPost2010Prop56
140
1.0
102
RTVSPost2010PropOp56
 70
     1
102
RTVSPost2010Prop57
140
1.0
102
RTVSPost2010PropOp57
 70
     1
102
RTVSPropertyOp0
 70
     1
102
RTVSPropertyOp1
 70
     1
102
RTVSPropertyOp2
 70
     1
102
RTVSPropertyOp3
 70
     1
102
RTVSPropertyOp4
 70
     1
102
RTVSPropertyOp5
 70
     1
102
RTVSPropertyOp6
 70
     1
102
RTVSPropertyOp7
 70
     1
102
RTVSPropertyOp8
 70
     1
102
RTVSPropertyOp9
 70
     1
102
RTVSPropertyOp10
 70
     1
102
RTVSPropertyOp11
 70
     1
102
RTVSPropertyOp12
 70
     1
102
RTVSPropertyOp13
 70
     1
102
RTVSPropertyOp14
 70
     1
102
RTVSPropertyOp15
 70
     1
102
RTVSPropertyOp16
 70
     1
102
RTVSPropertyOp17
 70
     1
102
RTVSPropertyOp18
 70
     1
102
RTVSPropertyOp19
 70
     1
102
RTVSPropertyOp20
 70
     1
102
RTVSPropertyOp21
 70
     1
102
RTVSPropertyOp22
 70
     1
102
RTVSPropertyOp23
 70
     1
102
RTVSPropertyOp24
 70
     1
102
RTVSPropertyOp25
 70
     1
102
RTVSPropertyOp26
 70
     1
102
RTVSPropertyOp27
 70
     1
102
RTVSPropertyOp28
 70
     1
102
RTVSPropertyOp29
 70
     1
102
RTVSPropertyOp30
 70
     1
102
RTVSPropertyOp31
 70
     1
102
RTVSPropertyOp32
 70
     1
102
RTVSPropertyOp33
 70
     1
102
RTVSPropertyOp34
 70
     1
102
RTVSPropertyOp35
 70
     1
102
RTVSPropertyOp36
 70
     1
102
RTVSPropertyOp37
 70
     1
102
RTVSPropertyOp38
 70
     1
102
RTVSPropertyOp39
 70
     1
102
RTVSPropertyOp40
 70
     1
102
RTVSPropertyOp41
 70
     1
102
RTVSPropertyOp42
 70
     1
102
RTVSPropertyOp43
 70
     1
102
RTVSPropertyOp44
 70
     1
102
RTVSPropertyOp45
 70
     1
102
RTVSPropertyOp46
 70
     1
102
RTVSPropertyOp47
 70
     1
102
RTVSPropertyOp48
 70
     1
102
RTVSPropertyOp49
 70
     1
102
RTVSPropertyOp50
 70
     1
102
RTVSPropertyOp51
 70
     0
102
RTVSPropertyOp52
 70
     0
102
RTVSPropertyOp53
 70
     1
102
RTVSPropertyOp54
 70
     1
102
RTVSPropertyOp55
 70
     1
102
RTVSPropertyOp56
 70
     1
102
RTVSPropertyOp57
 70
     1
102
RTVSPropertyOp58
 70
     1
102
RTVSPropertyOp59
 70
     1
102
RTVSPropertyOp60
 70
     1
102
RTVSPropertyOp61
 70
     1
102
RTVSPropertyOp62
 70
     1
  0
XRECORD
  5
1D77
102
{ACAD_REACTORS
330
1D76
102
}
330
1D76
100
AcDbXrecord
280
     1
102
RTVSPost2010Prop28
280
     0
102
RTVSPost2010PropOp28
 70
     1
102
RTVSPost2010Prop29
280
     1
102
RTVSPost2010PropOp29
 70
     1
102
RTVSPost2010Prop30
280
     1
102
RTVSPost2010PropOp30
 70
     1
102
RTVSPost2010Prop31
280
     0
102
RTVSPost2010PropOp31
 70
     1
102
RTVSPost2010Prop32
280
     0
102
RTVSPost2010PropOp32
 70
     1
102
RTVSPost2010Prop33
280
     0
102
RTVSPost2010PropOp33
 70
     1
102
RTVSPost2010Prop34
280
     0
102
RTVSPost2010PropOp34
 70
     1
102
RTVSPost2010Prop35
280
     0
102
RTVSPost2010PropOp35
 70
     1
102
RTVSPost2010Prop36
280
     0
102
RTVSPost2010PropOp36
 70
     1
102
RTVSPost2010Prop37
 90
       50
102
RTVSPost2010PropOp37
 70
     1
102
RTVSPost2010Prop38
140
0.0
102
RTVSPost2010PropOp38
 70
     1
102
RTVSPost2010Prop39
140
1.0
102
RTVSPost2010PropOp39
 70
     1
102
RTVSPost2010Prop40
 90
        0
102
RTVSPost2010PropOp40
 70
     1
102
RTVSPost2010Prop41ColorIndex
 90
       18
102
RTVSPost2010Prop41ColorRGB
 90
        0
102
RTVSPost2010PropOp41
 70
     1
102
RTVSPost2010Prop42
 90
       50
102
RTVSPost2010PropOp42
 70
     1
102
RTVSPost2010Prop43
 90
        3
102
RTVSPost2010PropOp43
 70
     1
102
RTVSPost2010Prop44ColorIndex
 90
        5
102
RTVSPost2010Prop44ColorRGB
 90
      255
102
RTVSPost2010PropOp44
 70
     1
102
RTVSPost2010Prop45
280
     0
102
RTVSPost2010PropOp45
 70
     1
102
RTVSPost2010Prop46
 90
       50
102
RTVSPost2010PropOp46
 70
     1
102
RTVSPost2010Prop47
 90
       50
102
RTVSPost2010PropOp47
 70
     1
102
RTVSPost2010Prop48
 90
       50
102
RTVSPost2010PropOp48
 70
     1
102
RTVSPost2010Prop49
280
     0
102
RTVSPost2010PropOp49
 70
     1
102
RTVSPost2010Prop50
 90
       50
102
RTVSPost2010PropOp50
 70
     1
102
RTVSPost2010Prop51ColorIndex
 90
      256
102
RTVSPost2010Prop51ColorRGB
 90
-16777216
102
RTVSPost2010PropOp51
 70
     0
102
RTVSPost2010Prop52
140
1.0
102
RTVSPost2010PropOp52
 70
     0
102
RTVSPost2010Prop53
 90
        2
102
RTVSPost2010PropOp53
 70
     1
102
RTVSPost2010Prop54
  1
strokes_ogs.tif
102
RTVSPost2010PropOp54
 70
     1
102
RTVSPost2010Prop55
280
     0
102
RTVSPost2010PropOp55
 70
     1
102
RTVSPost2010Prop56
140
1.0
102
RTVSPost2010PropOp56
 70
     1
102
RTVSPost2010Prop57
140
1.0
102
RTVSPost2010PropOp57
 70
     1
102
RTVSPropertyOp0
 70
     1
102
RTVSPropertyOp1
 70
     1
102
RTVSPropertyOp2
 70
     1
102
RTVSPropertyOp3
 70
     1
102
RTVSPropertyOp4
 70
     1
102
RTVSPropertyOp5
 70
     1
102
RTVSPropertyOp6
 70
     1
102
RTVSPropertyOp7
 70
     1
102
RTVSPropertyOp8
 70
     1
102
RTVSPropertyOp9
 70
     1
102
RTVSPropertyOp10
 70
     1
102
RTVSPropertyOp11
 70
     1
102
RTVSPropertyOp12
 70
     1
102
RTVSPropertyOp13
 70
     1
102
RTVSPropertyOp14
 70
     1
102
RTVSPropertyOp15
 70
     1
102
RTVSPropertyOp16
 70
     1
102
RTVSPropertyOp17
 70
     1
102
RTVSPropertyOp18
 70
     1
102
RTVSPropertyOp19
 70
     1
102
RTVSPropertyOp20
 70
     1
102
RTVSPropertyOp21
 70
     1
102
RTVSPropertyOp22
 70
     1
102
RTVSPropertyOp23
 70
     1
102
RTVSPropertyOp24
 70
     1
102
RTVSPropertyOp25
 70
     1
102
RTVSPropertyOp26
 70
     1
102
RTVSPropertyOp27
 70
     1
102
RTVSPropertyOp28
 70
     1
102
RTVSPropertyOp29
 70
     1
102
RTVSPropertyOp30
 70
     1
102
RTVSPropertyOp31
 70
     1
102
RTVSPropertyOp32
 70
     1
102
RTVSPropertyOp33
 70
     1
102
RTVSPropertyOp34
 70
     1
102
RTVSPropertyOp35
 70
     1
102
RTVSPropertyOp36
 70
     1
102
RTVSPropertyOp37
 70
     1
102
RTVSPropertyOp38
 70
     1
102
RTVSPropertyOp39
 70
     1
102
RTVSPropertyOp40
 70
     1
102
RTVSPropertyOp41
 70
     1
102
RTVSPropertyOp42
 70
     1
102
RTVSPropertyOp43
 70
     1
102
RTVSPropertyOp44
 70
     1
102
RTVSPropertyOp45
 70
     1
102
RTVSPropertyOp46
 70
     1
102
RTVSPropertyOp47
 70
     1
102
RTVSPropertyOp48
 70
     1
102
RTVSPropertyOp49
 70
     1
102
RTVSPropertyOp50
 70
     1
102
RTVSPropertyOp51
 70
     0
102
RTVSPropertyOp52
 70
     0
102
RTVSPropertyOp53
 70
     1
102
RTVSPropertyOp54
 70
     1
102
RTVSPropertyOp55
 70
     1
102
RTVSPropertyOp56
 70
     1
102
RTVSPropertyOp57
 70
     1
102
RTVSPropertyOp58
 70
     1
102
RTVSPropertyOp59
 70
     1
102
RTVSPropertyOp60
 70
     1
102
RTVSPropertyOp61
 70
     1
102
RTVSPropertyOp62
 70
     1
  0
XRECORD
  5
1D75
102
{ACAD_REACTORS
330
1D74
102
}
330
1D74
100
AcDbXrecord
280
     1
102
RTVSPost2010Prop28
280
     0
102
RTVSPost2010PropOp28
 70
     1
102
RTVSPost2010Prop29
280
     1
102
RTVSPost2010PropOp29
 70
     1
102
RTVSPost2010Prop30
280
     1
102
RTVSPost2010PropOp30
 70
     1
102
RTVSPost2010Prop31
280
     0
102
RTVSPost2010PropOp31
 70
     1
102
RTVSPost2010Prop32
280
     0
102
RTVSPost2010PropOp32
 70
     1
102
RTVSPost2010Prop33
280
     0
102
RTVSPost2010PropOp33
 70
     1
102
RTVSPost2010Prop34
280
     0
102
RTVSPost2010PropOp34
 70
     1
102
RTVSPost2010Prop35
280
     0
102
RTVSPost2010PropOp35
 70
     1
102
RTVSPost2010Prop36
280
     0
102
RTVSPost2010PropOp36
 70
     1
102
RTVSPost2010Prop37
 90
       50
102
RTVSPost2010PropOp37
 70
     1
102
RTVSPost2010Prop38
140
0.0
102
RTVSPost2010PropOp38
 70
     1
102
RTVSPost2010Prop39
140
1.0
102
RTVSPost2010PropOp39
 70
     1
102
RTVSPost2010Prop40
 90
        0
102
RTVSPost2010PropOp40
 70
     1
102
RTVSPost2010Prop41ColorIndex
 90
       18
102
RTVSPost2010Prop41ColorRGB
 90
        0
102
RTVSPost2010PropOp41
 70
     1
102
RTVSPost2010Prop42
 90
       50
102
RTVSPost2010PropOp42
 70
     1
102
RTVSPost2010Prop43
 90
        3
102
RTVSPost2010PropOp43
 70
     1
102
RTVSPost2010Prop44ColorIndex
 90
        5
102
RTVSPost2010Prop44ColorRGB
 90
      255
102
RTVSPost2010PropOp44
 70
     1
102
RTVSPost2010Prop45
280
     0
102
RTVSPost2010PropOp45
 70
     1
102
RTVSPost2010Prop46
 90
       50
102
RTVSPost2010PropOp46
 70
     1
102
RTVSPost2010Prop47
 90
       50
102
RTVSPost2010PropOp47
 70
     1
102
RTVSPost2010Prop48
 90
       50
102
RTVSPost2010PropOp48
 70
     1
102
RTVSPost2010Prop49
280
     0
102
RTVSPost2010PropOp49
 70
     1
102
RTVSPost2010Prop50
 90
       50
102
RTVSPost2010PropOp50
 70
     1
102
RTVSPost2010Prop51ColorIndex
 90
      256
102
RTVSPost2010Prop51ColorRGB
 90
-16777216
102
RTVSPost2010PropOp51
 70
     0
102
RTVSPost2010Prop52
140
1.0
102
RTVSPost2010PropOp52
 70
     0
102
RTVSPost2010Prop53
 90
        2
102
RTVSPost2010PropOp53
 70
     1
102
RTVSPost2010Prop54
  1
strokes_ogs.tif
102
RTVSPost2010PropOp54
 70
     1
102
RTVSPost2010Prop55
280
     0
102
RTVSPost2010PropOp55
 70
     1
102
RTVSPost2010Prop56
140
1.0
102
RTVSPost2010PropOp56
 70
     1
102
RTVSPost2010Prop57
140
1.0
102
RTVSPost2010PropOp57
 70
     1
102
RTVSPropertyOp0
 70
     1
102
RTVSPropertyOp1
 70
     1
102
RTVSPropertyOp2
 70
     1
102
RTVSPropertyOp3
 70
     1
102
RTVSPropertyOp4
 70
     1
102
RTVSPropertyOp5
 70
     1
102
RTVSPropertyOp6
 70
     1
102
RTVSPropertyOp7
 70
     1
102
RTVSPropertyOp8
 70
     1
102
RTVSPropertyOp9
 70
     1
102
RTVSPropertyOp10
 70
     1
102
RTVSPropertyOp11
 70
     1
102
RTVSPropertyOp12
 70
     1
102
RTVSPropertyOp13
 70
     1
102
RTVSPropertyOp14
 70
     1
102
RTVSPropertyOp15
 70
     1
102
RTVSPropertyOp16
 70
     1
102
RTVSPropertyOp17
 70
     1
102
RTVSPropertyOp18
 70
     1
102
RTVSPropertyOp19
 70
     1
102
RTVSPropertyOp20
 70
     1
102
RTVSPropertyOp21
 70
     1
102
RTVSPropertyOp22
 70
     1
102
RTVSPropertyOp23
 70
     1
102
RTVSPropertyOp24
 70
     1
102
RTVSPropertyOp25
 70
     1
102
RTVSPropertyOp26
 70
     1
102
RTVSPropertyOp27
 70
     1
102
RTVSPropertyOp28
 70
     1
102
RTVSPropertyOp29
 70
     1
102
RTVSPropertyOp30
 70
     1
102
RTVSPropertyOp31
 70
     1
102
RTVSPropertyOp32
 70
     1
102
RTVSPropertyOp33
 70
     1
102
RTVSPropertyOp34
 70
     1
102
RTVSPropertyOp35
 70
     1
102
RTVSPropertyOp36
 70
     1
102
RTVSPropertyOp37
 70
     1
102
RTVSPropertyOp38
 70
     1
102
RTVSPropertyOp39
 70
     1
102
RTVSPropertyOp40
 70
     1
102
RTVSPropertyOp41
 70
     1
102
RTVSPropertyOp42
 70
     1
102
RTVSPropertyOp43
 70
     1
102
RTVSPropertyOp44
 70
     1
102
RTVSPropertyOp45
 70
     1
102
RTVSPropertyOp46
 70
     1
102
RTVSPropertyOp47
 70
     1
102
RTVSPropertyOp48
 70
     1
102
RTVSPropertyOp49
 70
     1
102
RTVSPropertyOp50
 70
     1
102
RTVSPropertyOp51
 70
     0
102
RTVSPropertyOp52
 70
     0
102
RTVSPropertyOp53
 70
     1
102
RTVSPropertyOp54
 70
     1
102
RTVSPropertyOp55
 70
     1
102
RTVSPropertyOp56
 70
     1
102
RTVSPropertyOp57
 70
     1
102
RTVSPropertyOp58
 70
     1
102
RTVSPropertyOp59
 70
     1
102
RTVSPropertyOp60
 70
     1
102
RTVSPropertyOp61
 70
     1
102
RTVSPropertyOp62
 70
     1
  0
XRECORD
  5
1D6F
102
{ACAD_REACTORS
330
1D6E
102
}
330
1D6E
100
AcDbXrecord
280
     1
102
RTVSPost2010Prop28
280
     0
102
RTVSPost2010PropOp28
 70
     1
102
RTVSPost2010Prop29
280
     1
102
RTVSPost2010PropOp29
 70
     1
102
RTVSPost2010Prop30
280
     1
102
RTVSPost2010PropOp30
 70
     1
102
RTVSPost2010Prop31
280
     0
102
RTVSPost2010PropOp31
 70
     1
102
RTVSPost2010Prop32
280
     0
102
RTVSPost2010PropOp32
 70
     1
102
RTVSPost2010Prop33
280
     0
102
RTVSPost2010PropOp33
 70
     1
102
RTVSPost2010Prop34
280
     0
102
RTVSPost2010PropOp34
 70
     1
102
RTVSPost2010Prop35
280
     0
102
RTVSPost2010PropOp35
 70
     1
102
RTVSPost2010Prop36
280
     0
102
RTVSPost2010PropOp36
 70
     1
102
RTVSPost2010Prop37
 90
       50
102
RTVSPost2010PropOp37
 70
     1
102
RTVSPost2010Prop38
140
0.0
102
RTVSPost2010PropOp38
 70
     1
102
RTVSPost2010Prop39
140
1.0
102
RTVSPost2010PropOp39
 70
     1
102
RTVSPost2010Prop40
 90
        0
102
RTVSPost2010PropOp40
 70
     1
102
RTVSPost2010Prop41ColorIndex
 90
       18
102
RTVSPost2010Prop41ColorRGB
 90
        0
102
RTVSPost2010PropOp41
 70
     1
102
RTVSPost2010Prop42
 90
       50
102
RTVSPost2010PropOp42
 70
     1
102
RTVSPost2010Prop43
 90
        3
102
RTVSPost2010PropOp43
 70
     1
102
RTVSPost2010Prop44ColorIndex
 90
        5
102
RTVSPost2010Prop44ColorRGB
 90
      255
102
RTVSPost2010PropOp44
 70
     1
102
RTVSPost2010Prop45
280
     0
102
RTVSPost2010PropOp45
 70
     1
102
RTVSPost2010Prop46
 90
       50
102
RTVSPost2010PropOp46
 70
     1
102
RTVSPost2010Prop47
 90
       50
102
RTVSPost2010PropOp47
 70
     1
102
RTVSPost2010Prop48
 90
       50
102
RTVSPost2010PropOp48
 70
     1
102
RTVSPost2010Prop49
280
     0
102
RTVSPost2010PropOp49
 70
     1
102
RTVSPost2010Prop50
 90
       50
102
RTVSPost2010PropOp50
 70
     1
102
RTVSPost2010Prop51ColorIndex
 90
      256
102
RTVSPost2010Prop51ColorRGB
 90
-16777216
102
RTVSPost2010PropOp51
 70
     0
102
RTVSPost2010Prop52
140
1.0
102
RTVSPost2010PropOp52
 70
     0
102
RTVSPost2010Prop53
 90
        2
102
RTVSPost2010PropOp53
 70
     1
102
RTVSPost2010Prop54
  1
strokes_ogs.tif
102
RTVSPost2010PropOp54
 70
     1
102
RTVSPost2010Prop55
280
     0
102
RTVSPost2010PropOp55
 70
     1
102
RTVSPost2010Prop56
140
1.0
102
RTVSPost2010PropOp56
 70
     1
102
RTVSPost2010Prop57
140
1.0
102
RTVSPost2010PropOp57
 70
     1
102
RTVSPropertyOp0
 70
     1
102
RTVSPropertyOp1
 70
     1
102
RTVSPropertyOp2
 70
     1
102
RTVSPropertyOp3
 70
     1
102
RTVSPropertyOp4
 70
     1
102
RTVSPropertyOp5
 70
     1
102
RTVSPropertyOp6
 70
     1
102
RTVSPropertyOp7
 70
     1
102
RTVSPropertyOp8
 70
     1
102
RTVSPropertyOp9
 70
     1
102
RTVSPropertyOp10
 70
     1
102
RTVSPropertyOp11
 70
     1
102
RTVSPropertyOp12
 70
     1
102
RTVSPropertyOp13
 70
     1
102
RTVSPropertyOp14
 70
     1
102
RTVSPropertyOp15
 70
     1
102
RTVSPropertyOp16
 70
     1
102
RTVSPropertyOp17
 70
     1
102
RTVSPropertyOp18
 70
     1
102
RTVSPropertyOp19
 70
     1
102
RTVSPropertyOp20
 70
     1
102
RTVSPropertyOp21
 70
     1
102
RTVSPropertyOp22
 70
     1
102
RTVSPropertyOp23
 70
     1
102
RTVSPropertyOp24
 70
     1
102
RTVSPropertyOp25
 70
     1
102
RTVSPropertyOp26
 70
     1
102
RTVSPropertyOp27
 70
     1
102
RTVSPropertyOp28
 70
     1
102
RTVSPropertyOp29
 70
     1
102
RTVSPropertyOp30
 70
     1
102
RTVSPropertyOp31
 70
     1
102
RTVSPropertyOp32
 70
     1
102
RTVSPropertyOp33
 70
     1
102
RTVSPropertyOp34
 70
     1
102
RTVSPropertyOp35
 70
     1
102
RTVSPropertyOp36
 70
     1
102
RTVSPropertyOp37
 70
     1
102
RTVSPropertyOp38
 70
     1
102
RTVSPropertyOp39
 70
     1
102
RTVSPropertyOp40
 70
     1
102
RTVSPropertyOp41
 70
     1
102
RTVSPropertyOp42
 70
     1
102
RTVSPropertyOp43
 70
     1
102
RTVSPropertyOp44
 70
     1
102
RTVSPropertyOp45
 70
     1
102
RTVSPropertyOp46
 70
     1
102
RTVSPropertyOp47
 70
     1
102
RTVSPropertyOp48
 70
     1
102
RTVSPropertyOp49
 70
     1
102
RTVSPropertyOp50
 70
     1
102
RTVSPropertyOp51
 70
     0
102
RTVSPropertyOp52
 70
     0
102
RTVSPropertyOp53
 70
     1
102
RTVSPropertyOp54
 70
     1
102
RTVSPropertyOp55
 70
     1
102
RTVSPropertyOp56
 70
     1
102
RTVSPropertyOp57
 70
     1
102
RTVSPropertyOp58
 70
     1
102
RTVSPropertyOp59
 70
     1
102
RTVSPropertyOp60
 70
     1
102
RTVSPropertyOp61
 70
     1
102
RTVSPropertyOp62
 70
     1
  0
XRECORD
  5
1D71
102
{ACAD_REACTORS
330
1D70
102
}
330
1D70
100
AcDbXrecord
280
     1
102
RTVSPost2010Prop28
280
     0
102
RTVSPost2010PropOp28
 70
     1
102
RTVSPost2010Prop29
280
     1
102
RTVSPost2010PropOp29
 70
     1
102
RTVSPost2010Prop30
280
     1
102
RTVSPost2010PropOp30
 70
     1
102
RTVSPost2010Prop31
280
     0
102
RTVSPost2010PropOp31
 70
     1
102
RTVSPost2010Prop32
280
     0
102
RTVSPost2010PropOp32
 70
     1
102
RTVSPost2010Prop33
280
     0
102
RTVSPost2010PropOp33
 70
     1
102
RTVSPost2010Prop34
280
     0
102
RTVSPost2010PropOp34
 70
     1
102
RTVSPost2010Prop35
280
     0
102
RTVSPost2010PropOp35
 70
     1
102
RTVSPost2010Prop36
280
     0
102
RTVSPost2010PropOp36
 70
     1
102
RTVSPost2010Prop37
 90
       50
102
RTVSPost2010PropOp37
 70
     1
102
RTVSPost2010Prop38
140
0.0
102
RTVSPost2010PropOp38
 70
     1
102
RTVSPost2010Prop39
140
1.0
102
RTVSPost2010PropOp39
 70
     1
102
RTVSPost2010Prop40
 90
        0
102
RTVSPost2010PropOp40
 70
     1
102
RTVSPost2010Prop41ColorIndex
 90
       18
102
RTVSPost2010Prop41ColorRGB
 90
        0
102
RTVSPost2010PropOp41
 70
     1
102
RTVSPost2010Prop42
 90
       50
102
RTVSPost2010PropOp42
 70
     1
102
RTVSPost2010Prop43
 90
        3
102
RTVSPost2010PropOp43
 70
     1
102
RTVSPost2010Prop44ColorIndex
 90
        5
102
RTVSPost2010Prop44ColorRGB
 90
      255
102
RTVSPost2010PropOp44
 70
     1
102
RTVSPost2010Prop45
280
     0
102
RTVSPost2010PropOp45
 70
     1
102
RTVSPost2010Prop46
 90
       50
102
RTVSPost2010PropOp46
 70
     1
102
RTVSPost2010Prop47
 90
       50
102
RTVSPost2010PropOp47
 70
     1
102
RTVSPost2010Prop48
 90
       50
102
RTVSPost2010PropOp48
 70
     1
102
RTVSPost2010Prop49
280
     0
102
RTVSPost2010PropOp49
 70
     1
102
RTVSPost2010Prop50
 90
       50
102
RTVSPost2010PropOp50
 70
     1
102
RTVSPost2010Prop51ColorIndex
 90
      256
102
RTVSPost2010Prop51ColorRGB
 90
-16777216
102
RTVSPost2010PropOp51
 70
     0
102
RTVSPost2010Prop52
140
1.0
102
RTVSPost2010PropOp52
 70
     0
102
RTVSPost2010Prop53
 90
        2
102
RTVSPost2010PropOp53
 70
     1
102
RTVSPost2010Prop54
  1
strokes_ogs.tif
102
RTVSPost2010PropOp54
 70
     1
102
RTVSPost2010Prop55
280
     0
102
RTVSPost2010PropOp55
 70
     1
102
RTVSPost2010Prop56
140
1.0
102
RTVSPost2010PropOp56
 70
     1
102
RTVSPost2010Prop57
140
1.0
102
RTVSPost2010PropOp57
 70
     1
102
RTVSPropertyOp0
 70
     1
102
RTVSPropertyOp1
 70
     1
102
RTVSPropertyOp2
 70
     1
102
RTVSPropertyOp3
 70
     1
102
RTVSPropertyOp4
 70
     1
102
RTVSPropertyOp5
 70
     1
102
RTVSPropertyOp6
 70
     1
102
RTVSPropertyOp7
 70
     1
102
RTVSPropertyOp8
 70
     1
102
RTVSPropertyOp9
 70
     1
102
RTVSPropertyOp10
 70
     1
102
RTVSPropertyOp11
 70
     1
102
RTVSPropertyOp12
 70
     1
102
RTVSPropertyOp13
 70
     1
102
RTVSPropertyOp14
 70
     1
102
RTVSPropertyOp15
 70
     1
102
RTVSPropertyOp16
 70
     1
102
RTVSPropertyOp17
 70
     1
102
RTVSPropertyOp18
 70
     1
102
RTVSPropertyOp19
 70
     1
102
RTVSPropertyOp20
 70
     1
102
RTVSPropertyOp21
 70
     1
102
RTVSPropertyOp22
 70
     1
102
RTVSPropertyOp23
 70
     1
102
RTVSPropertyOp24
 70
     1
102
RTVSPropertyOp25
 70
     1
102
RTVSPropertyOp26
 70
     1
102
RTVSPropertyOp27
 70
     1
102
RTVSPropertyOp28
 70
     1
102
RTVSPropertyOp29
 70
     1
102
RTVSPropertyOp30
 70
     1
102
RTVSPropertyOp31
 70
     1
102
RTVSPropertyOp32
 70
     1
102
RTVSPropertyOp33
 70
     1
102
RTVSPropertyOp34
 70
     1
102
RTVSPropertyOp35
 70
     1
102
RTVSPropertyOp36
 70
     1
102
RTVSPropertyOp37
 70
     1
102
RTVSPropertyOp38
 70
     1
102
RTVSPropertyOp39
 70
     1
102
RTVSPropertyOp40
 70
     1
102
RTVSPropertyOp41
 70
     1
102
RTVSPropertyOp42
 70
     1
102
RTVSPropertyOp43
 70
     1
102
RTVSPropertyOp44
 70
     1
102
RTVSPropertyOp45
 70
     1
102
RTVSPropertyOp46
 70
     1
102
RTVSPropertyOp47
 70
     1
102
RTVSPropertyOp48
 70
     1
102
RTVSPropertyOp49
 70
     1
102
RTVSPropertyOp50
 70
     1
102
RTVSPropertyOp51
 70
     0
102
RTVSPropertyOp52
 70
     0
102
RTVSPropertyOp53
 70
     1
102
RTVSPropertyOp54
 70
     1
102
RTVSPropertyOp55
 70
     1
102
RTVSPropertyOp56
 70
     1
102
RTVSPropertyOp57
 70
     1
102
RTVSPropertyOp58
 70
     1
102
RTVSPropertyOp59
 70
     1
102
RTVSPropertyOp60
 70
     1
102
RTVSPropertyOp61
 70
     1
102
RTVSPropertyOp62
 70
     1
  0
XRECORD
  5
1D67
102
{ACAD_REACTORS
330
1D66
102
}
330
1D66
100
AcDbXrecord
280
     1
102
RTVSPost2010Prop28
280
     0
102
RTVSPost2010PropOp28
 70
     1
102
RTVSPost2010Prop29
280
     1
102
RTVSPost2010PropOp29
 70
     1
102
RTVSPost2010Prop30
280
     1
102
RTVSPost2010PropOp30
 70
     1
102
RTVSPost2010Prop31
280
     0
102
RTVSPost2010PropOp31
 70
     1
102
RTVSPost2010Prop32
280
     0
102
RTVSPost2010PropOp32
 70
     1
102
RTVSPost2010Prop33
280
     0
102
RTVSPost2010PropOp33
 70
     1
102
RTVSPost2010Prop34
280
     0
102
RTVSPost2010PropOp34
 70
     1
102
RTVSPost2010Prop35
280
     0
102
RTVSPost2010PropOp35
 70
     1
102
RTVSPost2010Prop36
280
     0
102
RTVSPost2010PropOp36
 70
     1
102
RTVSPost2010Prop37
 90
       50
102
RTVSPost2010PropOp37
 70
     1
102
RTVSPost2010Prop38
140
0.0
102
RTVSPost2010PropOp38
 70
     1
102
RTVSPost2010Prop39
140
1.0
102
RTVSPost2010PropOp39
 70
     1
102
RTVSPost2010Prop40
 90
        0
102
RTVSPost2010PropOp40
 70
     1
102
RTVSPost2010Prop41ColorIndex
 90
       18
102
RTVSPost2010Prop41ColorRGB
 90
        0
102
RTVSPost2010PropOp41
 70
     1
102
RTVSPost2010Prop42
 90
       50
102
RTVSPost2010PropOp42
 70
     1
102
RTVSPost2010Prop43
 90
        3
102
RTVSPost2010PropOp43
 70
     1
102
RTVSPost2010Prop44ColorIndex
 90
        5
102
RTVSPost2010Prop44ColorRGB
 90
      255
102
RTVSPost2010PropOp44
 70
     1
102
RTVSPost2010Prop45
280
     0
102
RTVSPost2010PropOp45
 70
     1
102
RTVSPost2010Prop46
 90
       50
102
RTVSPost2010PropOp46
 70
     1
102
RTVSPost2010Prop47
 90
       50
102
RTVSPost2010PropOp47
 70
     1
102
RTVSPost2010Prop48
 90
       50
102
RTVSPost2010PropOp48
 70
     1
102
RTVSPost2010Prop49
280
     0
102
RTVSPost2010PropOp49
 70
     1
102
RTVSPost2010Prop50
 90
       50
102
RTVSPost2010PropOp50
 70
     1
102
RTVSPost2010Prop51ColorIndex
 90
      256
102
RTVSPost2010Prop51ColorRGB
 90
-16777216
102
RTVSPost2010PropOp51
 70
     0
102
RTVSPost2010Prop52
140
1.0
102
RTVSPost2010PropOp52
 70
     0
102
RTVSPost2010Prop53
 90
        2
102
RTVSPost2010PropOp53
 70
     1
102
RTVSPost2010Prop54
  1
strokes_ogs.tif
102
RTVSPost2010PropOp54
 70
     1
102
RTVSPost2010Prop55
280
     0
102
RTVSPost2010PropOp55
 70
     1
102
RTVSPost2010Prop56
140
1.0
102
RTVSPost2010PropOp56
 70
     1
102
RTVSPost2010Prop57
140
1.0
102
RTVSPost2010PropOp57
 70
     1
102
RTVSPropertyOp0
 70
     1
102
RTVSPropertyOp1
 70
     1
102
RTVSPropertyOp2
 70
     1
102
RTVSPropertyOp3
 70
     1
102
RTVSPropertyOp4
 70
     1
102
RTVSPropertyOp5
 70
     1
102
RTVSPropertyOp6
 70
     1
102
RTVSPropertyOp7
 70
     1
102
RTVSPropertyOp8
 70
     1
102
RTVSPropertyOp9
 70
     1
102
RTVSPropertyOp10
 70
     1
102
RTVSPropertyOp11
 70
     1
102
RTVSPropertyOp12
 70
     1
102
RTVSPropertyOp13
 70
     1
102
RTVSPropertyOp14
 70
     1
102
RTVSPropertyOp15
 70
     1
102
RTVSPropertyOp16
 70
     1
102
RTVSPropertyOp17
 70
     1
102
RTVSPropertyOp18
 70
     1
102
RTVSPropertyOp19
 70
     1
102
RTVSPropertyOp20
 70
     1
102
RTVSPropertyOp21
 70
     1
102
RTVSPropertyOp22
 70
     1
102
RTVSPropertyOp23
 70
     1
102
RTVSPropertyOp24
 70
     1
102
RTVSPropertyOp25
 70
     1
102
RTVSPropertyOp26
 70
     1
102
RTVSPropertyOp27
 70
     1
102
RTVSPropertyOp28
 70
     1
102
RTVSPropertyOp29
 70
     1
102
RTVSPropertyOp30
 70
     1
102
RTVSPropertyOp31
 70
     1
102
RTVSPropertyOp32
 70
     1
102
RTVSPropertyOp33
 70
     1
102
RTVSPropertyOp34
 70
     1
102
RTVSPropertyOp35
 70
     1
102
RTVSPropertyOp36
 70
     1
102
RTVSPropertyOp37
 70
     1
102
RTVSPropertyOp38
 70
     1
102
RTVSPropertyOp39
 70
     1
102
RTVSPropertyOp40
 70
     1
102
RTVSPropertyOp41
 70
     1
102
RTVSPropertyOp42
 70
     1
102
RTVSPropertyOp43
 70
     1
102
RTVSPropertyOp44
 70
     1
102
RTVSPropertyOp45
 70
     1
102
RTVSPropertyOp46
 70
     1
102
RTVSPropertyOp47
 70
     1
102
RTVSPropertyOp48
 70
     1
102
RTVSPropertyOp49
 70
     1
102
RTVSPropertyOp50
 70
     1
102
RTVSPropertyOp51
 70
     0
102
RTVSPropertyOp52
 70
     0
102
RTVSPropertyOp53
 70
     1
102
RTVSPropertyOp54
 70
     1
102
RTVSPropertyOp55
 70
     1
102
RTVSPropertyOp56
 70
     1
102
RTVSPropertyOp57
 70
     1
102
RTVSPropertyOp58
 70
     1
102
RTVSPropertyOp59
 70
     1
102
RTVSPropertyOp60
 70
     1
102
RTVSPropertyOp61
 70
     1
102
RTVSPropertyOp62
 70
     1
  0
XRECORD
  5
1D5B
102
{ACAD_REACTORS
330
1D5A
102
}
330
1D5A
100
AcDbXrecord
280
     1
102
RTVSPost2010Prop28
280
     0
102
RTVSPost2010PropOp28
 70
     1
102
RTVSPost2010Prop29
280
     1
102
RTVSPost2010PropOp29
 70
     1
102
RTVSPost2010Prop30
280
     1
102
RTVSPost2010PropOp30
 70
     1
102
RTVSPost2010Prop31
280
     0
102
RTVSPost2010PropOp31
 70
     1
102
RTVSPost2010Prop32
280
     0
102
RTVSPost2010PropOp32
 70
     1
102
RTVSPost2010Prop33
280
     0
102
RTVSPost2010PropOp33
 70
     1
102
RTVSPost2010Prop34
280
     0
102
RTVSPost2010PropOp34
 70
     1
102
RTVSPost2010Prop35
280
     0
102
RTVSPost2010PropOp35
 70
     1
102
RTVSPost2010Prop36
280
     0
102
RTVSPost2010PropOp36
 70
     1
102
RTVSPost2010Prop37
 90
       50
102
RTVSPost2010PropOp37
 70
     1
102
RTVSPost2010Prop38
140
0.0
102
RTVSPost2010PropOp38
 70
     1
102
RTVSPost2010Prop39
140
1.0
102
RTVSPost2010PropOp39
 70
     1
102
RTVSPost2010Prop40
 90
        0
102
RTVSPost2010PropOp40
 70
     1
102
RTVSPost2010Prop41ColorIndex
 90
       18
102
RTVSPost2010Prop41ColorRGB
 90
        0
102
RTVSPost2010PropOp41
 70
     1
102
RTVSPost2010Prop42
 90
       50
102
RTVSPost2010PropOp42
 70
     1
102
RTVSPost2010Prop43
 90
        3
102
RTVSPost2010PropOp43
 70
     1
102
RTVSPost2010Prop44ColorIndex
 90
        5
102
RTVSPost2010Prop44ColorRGB
 90
      255
102
RTVSPost2010PropOp44
 70
     1
102
RTVSPost2010Prop45
280
     0
102
RTVSPost2010PropOp45
 70
     1
102
RTVSPost2010Prop46
 90
       50
102
RTVSPost2010PropOp46
 70
     1
102
RTVSPost2010Prop47
 90
       50
102
RTVSPost2010PropOp47
 70
     1
102
RTVSPost2010Prop48
 90
       50
102
RTVSPost2010PropOp48
 70
     1
102
RTVSPost2010Prop49
280
     0
102
RTVSPost2010PropOp49
 70
     1
102
RTVSPost2010Prop50
 90
       50
102
RTVSPost2010PropOp50
 70
     1
102
RTVSPost2010Prop51ColorIndex
 90
      256
102
RTVSPost2010Prop51ColorRGB
 90
-16777216
102
RTVSPost2010PropOp51
 70
     0
102
RTVSPost2010Prop52
140
1.0
102
RTVSPost2010PropOp52
 70
     0
102
RTVSPost2010Prop53
 90
        2
102
RTVSPost2010PropOp53
 70
     1
102
RTVSPost2010Prop54
  1
strokes_ogs.tif
102
RTVSPost2010PropOp54
 70
     1
102
RTVSPost2010Prop55
280
     0
102
RTVSPost2010PropOp55
 70
     1
102
RTVSPost2010Prop56
140
1.0
102
RTVSPost2010PropOp56
 70
     1
102
RTVSPost2010Prop57
140
1.0
102
RTVSPost2010PropOp57
 70
     1
102
RTVSPropertyOp0
 70
     1
102
RTVSPropertyOp1
 70
     1
102
RTVSPropertyOp2
 70
     1
102
RTVSPropertyOp3
 70
     1
102
RTVSPropertyOp4
 70
     1
102
RTVSPropertyOp5
 70
     1
102
RTVSPropertyOp6
 70
     1
102
RTVSPropertyOp7
 70
     1
102
RTVSPropertyOp8
 70
     1
102
RTVSPropertyOp9
 70
     1
102
RTVSPropertyOp10
 70
     1
102
RTVSPropertyOp11
 70
     1
102
RTVSPropertyOp12
 70
     1
102
RTVSPropertyOp13
 70
     1
102
RTVSPropertyOp14
 70
     1
102
RTVSPropertyOp15
 70
     1
102
RTVSPropertyOp16
 70
     1
102
RTVSPropertyOp17
 70
     1
102
RTVSPropertyOp18
 70
     1
102
RTVSPropertyOp19
 70
     1
102
RTVSPropertyOp20
 70
     1
102
RTVSPropertyOp21
 70
     1
102
RTVSPropertyOp22
 70
     1
102
RTVSPropertyOp23
 70
     1
102
RTVSPropertyOp24
 70
     1
102
RTVSPropertyOp25
 70
     1
102
RTVSPropertyOp26
 70
     1
102
RTVSPropertyOp27
 70
     1
102
RTVSPropertyOp28
 70
     1
102
RTVSPropertyOp29
 70
     1
102
RTVSPropertyOp30
 70
     1
102
RTVSPropertyOp31
 70
     1
102
RTVSPropertyOp32
 70
     1
102
RTVSPropertyOp33
 70
     1
102
RTVSPropertyOp34
 70
     1
102
RTVSPropertyOp35
 70
     1
102
RTVSPropertyOp36
 70
     1
102
RTVSPropertyOp37
 70
     1
102
RTVSPropertyOp38
 70
     1
102
RTVSPropertyOp39
 70
     1
102
RTVSPropertyOp40
 70
     1
102
RTVSPropertyOp41
 70
     1
102
RTVSPropertyOp42
 70
     1
102
RTVSPropertyOp43
 70
     1
102
RTVSPropertyOp44
 70
     1
102
RTVSPropertyOp45
 70
     1
102
RTVSPropertyOp46
 70
     1
102
RTVSPropertyOp47
 70
     1
102
RTVSPropertyOp48
 70
     1
102
RTVSPropertyOp49
 70
     1
102
RTVSPropertyOp50
 70
     1
102
RTVSPropertyOp51
 70
     0
102
RTVSPropertyOp52
 70
     0
102
RTVSPropertyOp53
 70
     1
102
RTVSPropertyOp54
 70
     1
102
RTVSPropertyOp55
 70
     1
102
RTVSPropertyOp56
 70
     1
102
RTVSPropertyOp57
 70
     1
102
RTVSPropertyOp58
 70
     1
102
RTVSPropertyOp59
 70
     1
102
RTVSPropertyOp60
 70
     1
102
RTVSPropertyOp61
 70
     1
102
RTVSPropertyOp62
 70
     1
  0
XRECORD
  5
1D73
102
{ACAD_REACTORS
330
1D72
102
}
330
1D72
100
AcDbXrecord
280
     1
102
RTVSPost2010Prop28
280
     0
102
RTVSPost2010PropOp28
 70
     1
102
RTVSPost2010Prop29
280
     1
102
RTVSPost2010PropOp29
 70
     1
102
RTVSPost2010Prop30
280
     1
102
RTVSPost2010PropOp30
 70
     1
102
RTVSPost2010Prop31
280
     0
102
RTVSPost2010PropOp31
 70
     1
102
RTVSPost2010Prop32
280
     0
102
RTVSPost2010PropOp32
 70
     1
102
RTVSPost2010Prop33
280
     0
102
RTVSPost2010PropOp33
 70
     1
102
RTVSPost2010Prop34
280
     0
102
RTVSPost2010PropOp34
 70
     1
102
RTVSPost2010Prop35
280
     0
102
RTVSPost2010PropOp35
 70
     1
102
RTVSPost2010Prop36
280
     0
102
RTVSPost2010PropOp36
 70
     1
102
RTVSPost2010Prop37
 90
       50
102
RTVSPost2010PropOp37
 70
     1
102
RTVSPost2010Prop38
140
0.0
102
RTVSPost2010PropOp38
 70
     1
102
RTVSPost2010Prop39
140
1.0
102
RTVSPost2010PropOp39
 70
     1
102
RTVSPost2010Prop40
 90
        0
102
RTVSPost2010PropOp40
 70
     1
102
RTVSPost2010Prop41ColorIndex
 90
       18
102
RTVSPost2010Prop41ColorRGB
 90
        0
102
RTVSPost2010PropOp41
 70
     1
102
RTVSPost2010Prop42
 90
       50
102
RTVSPost2010PropOp42
 70
     1
102
RTVSPost2010Prop43
 90
        3
102
RTVSPost2010PropOp43
 70
     1
102
RTVSPost2010Prop44ColorIndex
 90
        5
102
RTVSPost2010Prop44ColorRGB
 90
      255
102
RTVSPost2010PropOp44
 70
     1
102
RTVSPost2010Prop45
280
     0
102
RTVSPost2010PropOp45
 70
     1
102
RTVSPost2010Prop46
 90
       50
102
RTVSPost2010PropOp46
 70
     1
102
RTVSPost2010Prop47
 90
       50
102
RTVSPost2010PropOp47
 70
     1
102
RTVSPost2010Prop48
 90
       50
102
RTVSPost2010PropOp48
 70
     1
102
RTVSPost2010Prop49
280
     0
102
RTVSPost2010PropOp49
 70
     1
102
RTVSPost2010Prop50
 90
       50
102
RTVSPost2010PropOp50
 70
     1
102
RTVSPost2010Prop51ColorIndex
 90
      256
102
RTVSPost2010Prop51ColorRGB
 90
-16777216
102
RTVSPost2010PropOp51
 70
     0
102
RTVSPost2010Prop52
140
1.0
102
RTVSPost2010PropOp52
 70
     0
102
RTVSPost2010Prop53
 90
        2
102
RTVSPost2010PropOp53
 70
     1
102
RTVSPost2010Prop54
  1
strokes_ogs.tif
102
RTVSPost2010PropOp54
 70
     1
102
RTVSPost2010Prop55
280
     0
102
RTVSPost2010PropOp55
 70
     1
102
RTVSPost2010Prop56
140
1.0
102
RTVSPost2010PropOp56
 70
     1
102
RTVSPost2010Prop57
140
1.0
102
RTVSPost2010PropOp57
 70
     1
102
RTVSPropertyOp0
 70
     1
102
RTVSPropertyOp1
 70
     1
102
RTVSPropertyOp2
 70
     1
102
RTVSPropertyOp3
 70
     1
102
RTVSPropertyOp4
 70
     1
102
RTVSPropertyOp5
 70
     1
102
RTVSPropertyOp6
 70
     1
102
RTVSPropertyOp7
 70
     1
102
RTVSPropertyOp8
 70
     1
102
RTVSPropertyOp9
 70
     1
102
RTVSPropertyOp10
 70
     1
102
RTVSPropertyOp11
 70
     1
102
RTVSPropertyOp12
 70
     1
102
RTVSPropertyOp13
 70
     1
102
RTVSPropertyOp14
 70
     1
102
RTVSPropertyOp15
 70
     1
102
RTVSPropertyOp16
 70
     1
102
RTVSPropertyOp17
 70
     1
102
RTVSPropertyOp18
 70
     1
102
RTVSPropertyOp19
 70
     1
102
RTVSPropertyOp20
 70
     1
102
RTVSPropertyOp21
 70
     1
102
RTVSPropertyOp22
 70
     1
102
RTVSPropertyOp23
 70
     1
102
RTVSPropertyOp24
 70
     1
102
RTVSPropertyOp25
 70
     1
102
RTVSPropertyOp26
 70
     1
102
RTVSPropertyOp27
 70
     1
102
RTVSPropertyOp28
 70
     1
102
RTVSPropertyOp29
 70
     1
102
RTVSPropertyOp30
 70
     1
102
RTVSPropertyOp31
 70
     1
102
RTVSPropertyOp32
 70
     1
102
RTVSPropertyOp33
 70
     1
102
RTVSPropertyOp34
 70
     1
102
RTVSPropertyOp35
 70
     1
102
RTVSPropertyOp36
 70
     1
102
RTVSPropertyOp37
 70
     1
102
RTVSPropertyOp38
 70
     1
102
RTVSPropertyOp39
 70
     1
102
RTVSPropertyOp40
 70
     1
102
RTVSPropertyOp41
 70
     1
102
RTVSPropertyOp42
 70
     1
102
RTVSPropertyOp43
 70
     1
102
RTVSPropertyOp44
 70
     1
102
RTVSPropertyOp45
 70
     1
102
RTVSPropertyOp46
 70
     1
102
RTVSPropertyOp47
 70
     1
102
RTVSPropertyOp48
 70
     1
102
RTVSPropertyOp49
 70
     1
102
RTVSPropertyOp50
 70
     1
102
RTVSPropertyOp51
 70
     0
102
RTVSPropertyOp52
 70
     0
102
RTVSPropertyOp53
 70
     1
102
RTVSPropertyOp54
 70
     1
102
RTVSPropertyOp55
 70
     1
102
RTVSPropertyOp56
 70
     1
102
RTVSPropertyOp57
 70
     1
102
RTVSPropertyOp58
 70
     1
102
RTVSPropertyOp59
 70
     1
102
RTVSPropertyOp60
 70
     1
102
RTVSPropertyOp61
 70
     1
102
RTVSPropertyOp62
 70
     1
  0
ENDSEC
  0
EOF
