  0
SECTION
  2
HEADER
  9
$ACADVER
  1
AC1015
  9
$ACADMAINTVER
 70
    20
  9
$DWGCODEPAGE
  3
ANSI_932
  9
$INSBASE
 10
0.0
 20
0.0
 30
0.0
  9
$EXTMIN
 10
-0.3848774194739235
 20
-0.2718396993659553
 30
-0.0000000000000144
  9
$EXTMAX
 10
8410.385034076288
 20
5940.271950346394
 30
0.0000000000000016
  9
$LIMMIN
 10
0.0
 20
0.0
  9
$LIMMAX
 10
8410.0
 20
5940.0
  9
$ORTHOMODE
 70
     1
  9
$REGENMODE
 70
     1
  9
$FILLMODE
 70
     1
  9
$QTEXTMODE
 70
     0
  9
$MIRRTEXT
 70
     0
  9
$LTSCALE
 40
10.0
  9
$ATTMODE
 70
     1
  9
$TEXTSIZE
 40
3.0
  9
$TRACEWID
 40
0.05
  9
$TEXTSTYLE
  7
STANDARD
  9
$CLAYER
  8
0
  9
$CELTYPE
  6
BYLAYER
  9
$CECOLOR
 62
   256
  9
$CELTSCALE
 40
1.0
  9
$DISPSILH
 70
     0
  9
$DIMSCALE
 40
10.0
  9
$DIMASZ
 40
2.0
  9
$DIMEXO
 40
3.0
  9
$DIMDLI
 40
0.0
  9
$DIMRND
 40
0.0
  9
$DIMDLE
 40
0.0
  9
$DIMEXE
 40
1.0
  9
$DIMTP
 40
0.0
  9
$DIMTM
 40
0.0
  9
$DIMTXT
 40
2.5
  9
$DIMCEN
 40
0.0
  9
$DIMTSZ
 40
0.0
  9
$DIMTOL
 70
     0
  9
$DIMLIM
 70
     0
  9
$DIMTIH
 70
     0
  9
$DIMTOH
 70
     0
  9
$DIMSE1
 70
     0
  9
$DIMSE2
 70
     0
  9
$DIMTAD
 70
     3
  9
$DIMZIN
 70
     8
  9
$DIMBLK
  1

  9
$DIMASO
 70
     1
  9
$DIMSHO
 70
     0
  9
$DIMPOST
  1

  9
$DIMAPOST
  1

  9
$DIMALT
 70
     0
  9
$DIMALTD
 70
     2
  9
$DIMALTF
 40
25.4
  9
$DIMLFAC
 40
1.0
  9
$DIMTOFL
 70
     1
  9
$DIMTVP
 40
1.0
  9
$DIMTIX
 70
     1
  9
$DIMSOXD
 70
     0
  9
$DIMSAH
 70
     1
  9
$DIMBLK1
  1
OPEN
  9
$DIMBLK2
  1
OPEN
  9
$DIMSTYLE
  2
STANDARD
  9
$DIMCLRD
 70
     0
  9
$DIMCLRE
 70
     0
  9
$DIMCLRT
 70
     0
  9
$DIMTFAC
 40
1.0
  9
$DIMGAP
 40
0.0
  9
$DIMJUST
 70
     0
  9
$DIMSD1
 70
     0
  9
$DIMSD2
 70
     0
  9
$DIMTOLJ
 70
     1
  9
$DIMTZIN
 70
     8
  9
$DIMALTZ
 70
     8
  9
$DIMALTTZ
 70
     8
  9
$DIMUPT
 70
     0
  9
$DIMDEC
 70
     1
  9
$DIMTDEC
 70
     1
  9
$DIMALTU
 70
     2
  9
$DIMALTTD
 70
     2
  9
$DIMTXSTY
  7
STANDARD
  9
$DIMAUNIT
 70
     0
  9
$DIMADEC
 70
     0
  9
$DIMALTRND
 40
0.0
  9
$DIMAZIN
 70
     0
  9
$DIMDSEP
 70
    46
  9
$DIMATFIT
 70
     3
  9
$DIMFRAC
 70
     0
  9
$DIMLDRBLK
  1

  9
$DIMLUNIT
 70
     2
  9
$DIMLWD
 70
    -2
  9
$DIMLWE
 70
    -2
  9
$DIMTMOVE
 70
     2
  9
$LUNITS
 70
     2
  9
$LUPREC
 70
     1
  9
$SKETCHINC
 40
0.1
  9
$FILLETRAD
 40
20.0
  9
$AUNITS
 70
     0
  9
$AUPREC
 70
     1
  9
$MENU
  1
d:\powerup\haneda
  9
$ELEVATION
 40
0.0
  9
$PELEVATION
 40
0.0
  9
$THICKNESS
 40
0.0
  9
$LIMCHECK
 70
     0
  9
$CHAMFERA
 40
0.0
  9
$CHAMFERB
 40
0.0
  9
$CHAMFERC
 40
0.0
  9
$CHAMFERD
 40
0.0
  9
$SKPOLY
 70
     0
  9
$TDCREATE
 40
2451206.539872882
  9
$TDUCREATE
 40
2451206.164872882
  9
$TDUPDATE
 40
2456348.149253681
  9
$TDUUPDATE
 40
2456347.774253680
  9
$TDINDWG
 40
0.5127755556
  9
$TDUSRTIMER
 40
0.5127755556
  9
$USRTIMER
 70
     1
  9
$ANGBASE
 50
0.0
  9
$ANGDIR
 70
     0
  9
$PDMODE
 70
     0
  9
$PDSIZE
 40
0.0
  9
$PLINEWID
 40
0.0
  9
$SPLFRAME
 70
     0
  9
$SPLINETYPE
 70
     6
  9
$SPLINESEGS
 70
     8
  9
$HANDSEED
  5
12F9
  9
$SURFTAB1
 70
     6
  9
$SURFTAB2
 70
     6
  9
$SURFTYPE
 70
     6
  9
$SURFU
 70
     6
  9
$SURFV
 70
     6
  9
$UCSBASE
  2

  9
$UCSNAME
  2

  9
$UCSORG
 10
1189.147689836032
 20
4889.750143086112
 30
0.0
  9
$UCSXDIR
 10
1.0
 20
0.0
 30
0.0
  9
$UCSYDIR
 10
0.0
 20
1.0
 30
0.0
  9
$UCSORTHOREF
  2

  9
$UCSORTHOVIEW
 70
     0
  9
$UCSORGTOP
 10
0.0
 20
0.0
 30
0.0
  9
$UCSORGBOTTOM
 10
0.0
 20
0.0
 30
0.0
  9
$UCSORGLEFT
 10
0.0
 20
0.0
 30
0.0
  9
$UCSORGRIGHT
 10
0.0
 20
0.0
 30
0.0
  9
$UCSORGFRONT
 10
0.0
 20
0.0
 30
0.0
  9
$UCSORGBACK
 10
0.0
 20
0.0
 30
0.0
  9
$PUCSBASE
  2

  9
$PUCSNAME
  2

  9
$PUCSORG
 10
0.0
 20
0.0
 30
0.0
  9
$PUCSXDIR
 10
1.0
 20
0.0
 30
0.0
  9
$PUCSYDIR
 10
0.0
 20
1.0
 30
0.0
  9
$PUCSORTHOREF
  2

  9
$PUCSORTHOVIEW
 70
     0
  9
$PUCSORGTOP
 10
0.0
 20
0.0
 30
0.0
  9
$PUCSORGBOTTOM
 10
0.0
 20
0.0
 30
0.0
  9
$PUCSORGLEFT
 10
0.0
 20
0.0
 30
0.0
  9
$PUCSORGRIGHT
 10
0.0
 20
0.0
 30
0.0
  9
$PUCSORGFRONT
 10
0.0
 20
0.0
 30
0.0
  9
$PUCSORGBACK
 10
0.0
 20
0.0
 30
0.0
  9
$USERI1
 70
     0
  9
$USERI2
 70
     0
  9
$USERI3
 70
     0
  9
$USERI4
 70
     0
  9
$USERI5
 70
     0
  9
$USERR1
 40
0.0
  9
$USERR2
 40
0.0
  9
$USERR3
 40
0.0
  9
$USERR4
 40
0.0
  9
$USERR5
 40
1.0
  9
$WORLDVIEW
 70
     1
  9
$SHADEDGE
 70
     3
  9
$SHADEDIF
 70
    70
  9
$TILEMODE
 70
     1
  9
$MAXACTVP
 70
    16
  9
$PINSBASE
 10
0.0
 20
0.0
 30
0.0
  9
$PLIMCHECK
 70
     0
  9
$PEXTMIN
 10
1.000000000000000E+20
 20
1.000000000000000E+20
 30
1.000000000000000E+20
  9
$PEXTMAX
 10
-1.000000000000000E+20
 20
-1.000000000000000E+20
 30
-1.000000000000000E+20
  9
$PLIMMIN
 10
0.0
 20
0.0
  9
$PLIMMAX
 10
12.0
 20
9.0
  9
$UNITMODE
 70
     0
  9
$VISRETAIN
 70
     0
  9
$PLINEGEN
 70
     0
  9
$PSLTSCALE
 70
     0
  9
$TREEDEPTH
 70
  3020
  9
$CMLSTYLE
  2
STANDARD
  9
$CMLJUST
 70
     0
  9
$CMLSCALE
 40
1.0
  9
$PROXYGRAPHICS
 70
     1
  9
$MEASUREMENT
 70
     0
  9
$CELWEIGHT
370
    -1
  9
$ENDCAPS
280
     0
  9
$JOINSTYLE
280
     0
  9
$LWDISPLAY
290
     0
  9
$INSUNITS
 70
     0
  9
$HYPERLINKBASE
  1

  9
$STYLESHEET
  1

  9
$XEDIT
290
     1
  9
$CEPSNTYPE
380
     0
  9
$PSTYLEMODE
290
     1
  9
$FINGERPRINTGUID
  2
{81A5F3EE-6EFA-4D4E-AB8A-791CF9997F2B}
  9
$VERSIONGUID
  2
{1CCA17B2-E364-4507-BC00-3A8B37924EB3}
  9
$EXTNAMES
290
     1
  9
$PSVPSCALE
 40
0.0
  9
$OLESTARTUP
290
     0
  0
ENDSEC
  0
SECTION
  2
CLASSES
  0
CLASS
  1
DICTIONARYVAR
  2
AcDbDictionaryVar
  3
ObjectDBX Classes
 90
        0
280
     0
281
     0
  0
CLASS
  1
ACDBDICTIONARYWDFLT
  2
AcDbDictionaryWithDefault
  3
ObjectDBX Classes
 90
        0
280
     0
281
     0
  0
CLASS
  1
ACDBPLACEHOLDER
  2
AcDbPlaceHolder
  3
ObjectDBX Classes
 90
        0
280
     0
281
     0
  0
CLASS
  1
LAYOUT
  2
AcDbLayout
  3
ObjectDBX Classes
 90
        0
280
     0
281
     0
  0
ENDSEC
  0
SECTION
  2
TABLES
  0
TABLE
  2
VPORT
  5
57
330
0
100
AcDbSymbolTable
 70
     6
  0
VPORT
  5
12F1
330
57
100
AcDbSymbolTableRecord
100
AcDbViewportTableRecord
  2
*Active
 70
     0
 10
0.0
 20
0.0
 11
1.0
 21
1.0
 12
4205.000078328407
 22
2970.000055323513
 13
0.0
 23
0.0
 14
1.0
 24
1.0
 15
0.0
 25
0.0
 16
0.0
 26
0.0
 36
1.0
 17
0.0
 27
0.0
 37
0.0
 40
6146.375382953532
 41
1.376978417266186
 42
50.0
 43
0.0
 44
0.0
 50
0.0
 51
0.0
 71
     0
 72
  1000
 73
     1
 74
     0
 75
     0
 76
     0
 77
     0
 78
     0
281
     0
 65
     1
110
1189.147689836032
120
4889.750143086112
130
0.0
111
1.0
121
0.0
131
0.0
112
0.0
122
1.0
132
0.0
 79
     0
146
0.0
  0
ENDTAB
  0
TABLE
  2
LTYPE
  5
54
330
0
100
AcDbSymbolTable
 70
     1
  0
LTYPE
  5
61
330
54
100
AcDbSymbolTableRecord
100
AcDbLinetypeTableRecord
  2
BYBLOCK
 70
     0
  3

 72
    65
 73
     0
 40
0.0
  0
LTYPE
  5
62
330
54
100
AcDbSymbolTableRecord
100
AcDbLinetypeTableRecord
  2
BYLAYER
 70
     0
  3

 72
    65
 73
     0
 40
0.0
  0
LTYPE
  5
63
330
54
100
AcDbSymbolTableRecord
100
AcDbLinetypeTableRecord
  2
CONTINUOUS
 70
     0
  3
Solid line
 72
    65
 73
     0
 40
0.0
  0
ENDTAB
  0
TABLE
  2
LAYER
  5
51
330
0
100
AcDbSymbolTable
 70
     6
  0
LAYER
  5
5E
330
51
100
AcDbSymbolTableRecord
100
AcDbLayerTableRecord
  2
0
 70
     0
 62
     7
  6
CONTINUOUS
370
    -3
390
1145
  0
LAYER
  5
85
330
51
100
AcDbSymbolTableRecord
100
AcDbLayerTableRecord
  2
DEFPOINTS
 70
     0
 62
     7
  6
CONTINUOUS
290
     0
370
    -3
390
1145
  0
LAYER
  5
AE
330
51
100
AcDbSymbolTableRecord
100
AcDbLayerTableRecord
  2
1-構造
 70
     0
 62
     2
  6
CONTINUOUS
370
    -3
390
1145
  0
LAYER
  5
347
330
51
100
AcDbSymbolTableRecord
100
AcDbLayerTableRecord
  2
6-寸法
 70
     0
 62
     7
  6
CONTINUOUS
370
    -3
390
1145
  0
LAYER
  5
348
330
51
100
AcDbSymbolTableRecord
100
AcDbLayerTableRecord
  2
7-文字
 70
     0
 62
     7
  6
CONTINUOUS
370
    -3
390
1145
  0
LAYER
  5
1141
330
51
100
AcDbSymbolTableRecord
100
AcDbLayerTableRecord
  2
細線
 70
     0
 62
     4
  6
CONTINUOUS
370
    -3
390
1145
  0
ENDTAB
  0
TABLE
  2
STYLE
  5
52
330
0
100
AcDbSymbolTable
 70
     3
  0
STYLE
  5
5F
330
52
100
AcDbSymbolTableRecord
100
AcDbTextStyleTableRecord
  2
STANDARD
 70
     0
 40
0.0
 41
1.0
 50
0.0
 71
     0
 42
3.0
  3

  4

1001
ACAD
1000
MS Gothic
1071
    32817
  0
STYLE
  5
BA
330
52
100
AcDbSymbolTableRecord
100
AcDbTextStyleTableRecord
  2
DIM
 70
     0
 40
0.0
 41
0.6
 50
0.0
 71
     0
 42
0.2
  3
simplex
  4
bigfont
  0
STYLE
  5
32C
330
52
100
AcDbSymbolTableRecord
100
AcDbTextStyleTableRecord
  2
STANDARD2
 70
     0
 40
8.0
 41
1.0
 50
0.0
 71
     0
 42
8.0
  3

  4

1001
ACAD
1000
MS Gothic
1071
    32817
  0
ENDTAB
  0
TABLE
  2
VIEW
  5
55
330
0
100
AcDbSymbolTable
 70
     0
  0
ENDTAB
  0
TABLE
  2
UCS
  5
56
330
0
100
AcDbSymbolTable
 70
     0
  0
ENDTAB
  0
TABLE
  2
APPID
  5
58
330
0
100
AcDbSymbolTable
 70
     5
  0
APPID
  5
60
330
58
100
AcDbSymbolTableRecord
100
AcDbRegAppTableRecord
  2
ACAD
 70
     0
  0
APPID
  5
E9F
330
58
100
AcDbSymbolTableRecord
100
AcDbRegAppTableRecord
  2
CONTENTBLOCKDESCRIPTION
 70
     0
  0
APPID
  5
EAA
330
58
100
AcDbSymbolTableRecord
100
AcDbRegAppTableRecord
  2
CONTENTBLOCKICON
 70
     0
  0
APPID
  5
1002
330
58
100
AcDbSymbolTableRecord
100
AcDbRegAppTableRecord
  2
CONTENTTABDATA
 70
     0
  0
APPID
  5
1003
330
58
100
AcDbSymbolTableRecord
100
AcDbRegAppTableRecord
  2
CONTENTCURRENTTAB
 70
     0
  0
ENDTAB
  0
TABLE
  2
DIMSTYLE
  5
59
330
0
100
AcDbSymbolTable
 70
     1
100
AcDbDimStyleTable
 71
     0
  0
DIMSTYLE
105
6F
102
{ACAD_REACTORS
330
914
330
921
330
A11
330
A1E
330
AC2
330
B4D
330
CBD
330
CCA
330
D1A
330
D27
330
D3F
330
D3E
330
D8E
330
D9B
330
E28
330
E50
330
E73
330
E7F
330
E8E
330
E9B
330
CCE
330
CD0
330
D9C
330
D9D
102
}
330
59
100
AcDbSymbolTableRecord
100
AcDbDimStyleTableRecord
  2
STANDARD
 70
     0
 40
100.0
 41
1.0
 42
1.0
 43
0.0
 44
1.0
 73
     0
 74
     0
 78
     8
140
2.5
141
0.0
145
1.0
147
0.0
172
     1
174
     1
271
     1
272
     1
279
     2
284
     8
285
     8
286
     8
340
5F
  0
ENDTAB
  0
TABLE
  2
BLOCK_RECORD
  5
50
330
0
100
AcDbSymbolTable
 70
    26
  0
BLOCK_RECORD
  5
67
330
50
100
AcDbSymbolTableRecord
100
AcDbBlockTableRecord
  2
*MODEL_SPACE
340
114A
  0
BLOCK_RECORD
  5
64
330
50
100
AcDbSymbolTableRecord
100
AcDbBlockTableRecord
  2
*PAPER_SPACE
340
114B
  0
BLOCK_RECORD
  5
199
330
50
100
AcDbSymbolTableRecord
100
AcDbBlockTableRecord
  2
_OPEN
340
0
102
{BLKREFS
331
90D
331
90E
331
91A
331
91B
331
A0A
331
A0B
331
A17
331
A18
331
ABB
331
ABC
331
B46
331
B47
331
CB6
331
CB7
331
CC3
331
CC4
331
CD7
331
CD8
331
CE3
331
CE4
331
D37
331
D38
331
D2C
331
D2D
331
D4A
331
D4B
331
D56
331
D57
331
D87
331
D88
331
D94
331
D95
331
DA8
331
DA9
331
DB4
331
DB5
331
E61
331
E62
331
E49
331
E4A
331
E6C
331
E6D
331
E78
331
E79
331
1132
331
1133
331
E94
331
E95
331
E87
331
E88
102
}
  0
BLOCK_RECORD
  5
908
330
50
100
AcDbSymbolTableRecord
100
AcDbBlockTableRecord
  2
*D1
340
0
  0
BLOCK_RECORD
  5
915
330
50
100
AcDbSymbolTableRecord
100
AcDbBlockTableRecord
  2
*D2
340
0
  0
BLOCK_RECORD
  5
A05
330
50
100
AcDbSymbolTableRecord
100
AcDbBlockTableRecord
  2
*D3
340
0
  0
BLOCK_RECORD
  5
A12
330
50
100
AcDbSymbolTableRecord
100
AcDbBlockTableRecord
  2
*D4
340
0
  0
BLOCK_RECORD
  5
AB6
330
50
100
AcDbSymbolTableRecord
100
AcDbBlockTableRecord
  2
*D5
340
0
  0
BLOCK_RECORD
  5
B41
330
50
100
AcDbSymbolTableRecord
100
AcDbBlockTableRecord
  2
*D6
340
0
  0
BLOCK_RECORD
  5
CB1
330
50
100
AcDbSymbolTableRecord
100
AcDbBlockTableRecord
  2
*D7
340
0
  0
BLOCK_RECORD
  5
CBE
330
50
100
AcDbSymbolTableRecord
100
AcDbBlockTableRecord
  2
*D8
340
0
  0
BLOCK_RECORD
  5
CD2
330
50
100
AcDbSymbolTableRecord
100
AcDbBlockTableRecord
  2
*D9
340
0
  0
BLOCK_RECORD
  5
CDE
330
50
100
AcDbSymbolTableRecord
100
AcDbBlockTableRecord
  2
*D10
340
0
  0
BLOCK_RECORD
  5
D0E
330
50
100
AcDbSymbolTableRecord
100
AcDbBlockTableRecord
  2
*D11
340
0
  0
BLOCK_RECORD
  5
D1B
330
50
100
AcDbSymbolTableRecord
100
AcDbBlockTableRecord
  2
*D12
340
0
  0
BLOCK_RECORD
  5
D45
330
50
100
AcDbSymbolTableRecord
100
AcDbBlockTableRecord
  2
*D13
340
0
  0
BLOCK_RECORD
  5
D51
330
50
100
AcDbSymbolTableRecord
100
AcDbBlockTableRecord
  2
*D14
340
0
  0
BLOCK_RECORD
  5
D82
330
50
100
AcDbSymbolTableRecord
100
AcDbBlockTableRecord
  2
*D15
340
0
  0
BLOCK_RECORD
  5
D8F
330
50
100
AcDbSymbolTableRecord
100
AcDbBlockTableRecord
  2
*D16
340
0
  0
BLOCK_RECORD
  5
DA3
330
50
100
AcDbSymbolTableRecord
100
AcDbBlockTableRecord
  2
*D17
340
0
  0
BLOCK_RECORD
  5
DAF
330
50
100
AcDbSymbolTableRecord
100
AcDbBlockTableRecord
  2
*D18
340
0
  0
BLOCK_RECORD
  5
E37
330
50
100
AcDbSymbolTableRecord
100
AcDbBlockTableRecord
  2
*D19
340
0
  0
BLOCK_RECORD
  5
E44
330
50
100
AcDbSymbolTableRecord
100
AcDbBlockTableRecord
  2
*D20
340
0
  0
BLOCK_RECORD
  5
E68
330
50
100
AcDbSymbolTableRecord
100
AcDbBlockTableRecord
  2
*D21
340
0
  0
BLOCK_RECORD
  5
E74
330
50
100
AcDbSymbolTableRecord
100
AcDbBlockTableRecord
  2
*D22
340
0
  0
BLOCK_RECORD
  5
E82
330
50
100
AcDbSymbolTableRecord
100
AcDbBlockTableRecord
  2
*D23
340
0
  0
BLOCK_RECORD
  5
E8F
330
50
100
AcDbSymbolTableRecord
100
AcDbBlockTableRecord
  2
*D24
340
0
  0
BLOCK_RECORD
  5
EA0
330
50
100
AcDbSymbolTableRecord
100
AcDbBlockTableRecord
  2
GURIISI
340
0
310
2800000020000000200000000100040000000000000200000000000000000000000000000000000000000000000080000080000000808000800000008000800080800000C0C0C000808080000000FF0000FF000000FFFF00FF000000FF00FF00FFFF0000FFFFFF00FFFFFFFFFFFFFFFFFFFFFFFFFFFFFFFFFF00000FFFFFF0
310
000FFFFFF0000FFFFFF00FFF00FFFF0FFF00FFFF00FFF00FFFF0FFFFF00FF0FFFFFF0FF00FFFFF00FF0FFFFFFF00F0FFFFFFF0F0FFFFFFF0FF0FFFFFFFF000FFFFFFF000FFFFFFFF0F0FFFFFFFFF0FFFFFFFFF00FFFFFFFF0F0FFFFFFFFF0FFFFFFFFF00FFFFFFFFF00FFFFFFFFF00FFFFFFFFF0FFFFFFFFFF0FFFFFFFFFF0
310
FFFFFFFFF0FFFFFFFFFFF0FFFFFFFFF0FFFFFFFFF0FFFFFFFFFFF0FFFFFFFFF00FFFFFFFF00FFFFFFFFFFF0FFFFFFFF00FFFFFFFF00FFFFFFFFFFF0FFFFFFF0000FFFFFFF0F0FFFFFFFFFFF0FFFFFF0FF0FFFFFF00F00FFFFFF0FFF000FFF00FFF00FFF00FFF00FFFF0FFF00F00000FF00F00000FF00FF0000FFF0FFFFF0FF
310
F00FFFF00FFF0FFFFF00FF00FFFFFF0FF0FFFFFF00F0FFFFFFF0FF0FFFFFFFF0F0FFFFFFF0F0FFFFFFF00F0FFFFFFFF00FFFFFFFFF00FFFFFFFF0F0FFFFFFFFF0FFFFFFFFF00FFFFFFFFF00FFFFFFFFF00FFFFFFFFF0FFFFFFFFFF0FFFFFFFFFF0FFFFFFFFF0FFFFFFFFFF00FFFFFFFFF0FFFFFFFFF0FFFFFFFFFFF0FFFFFF
310
FFF0FFFFFFFFF00FFFFFFFFFF00FFFFFFFF00FFFFFFFF00FFFFFFFFFFF0FFFFFFFF00FFFFFFFF0F0FFFFFFFFFF00FFFFFF0FF0FFFFFFF0F0FFFFFFF0FFF00FFFF00FF00FFFFF0FFF00FFFF0FFFFFF00000FFFFF00000FFFFF000000FFFFFFFFFFFFFFFFFFFFFFFFFFFFFFFFF
102
{BLKREFS
331
EAB
102
}
  0
ENDTAB
  0
ENDSEC
  0
SECTION
  2
BLOCKS
  0
BLOCK
  5
88
330
67
100
AcDbEntity
  8
0
 62
     7
100
AcDbBlockBegin
  2
*MODEL_SPACE
 70
     0
 10
0.0
 20
0.0
 30
0.0
  3
*MODEL_SPACE
  1

  0
ENDBLK
  5
89
330
67
100
AcDbEntity
  8
0
 62
     7
100
AcDbBlockEnd
  0
BLOCK
  5
86
330
64
100
AcDbEntity
 67
     1
  8
0
 62
     7
100
AcDbBlockBegin
  2
*PAPER_SPACE
 70
     0
 10
0.0
 20
0.0
 30
0.0
  3
*PAPER_SPACE
  1

  0
ENDBLK
  5
87
330
64
100
AcDbEntity
 67
     1
  8
0
 62
     7
100
AcDbBlockEnd
  0
BLOCK
  5
19A
330
199
100
AcDbEntity
  8
0
100
AcDbBlockBegin
  2
_OPEN
 70
     0
 10
0.0
 20
0.0
 30
0.0
  3
_OPEN
  1

  0
LINE
  5
19B
330
199
100
AcDbEntity
  8
0
  6
ByBlock
 62
     0
100
AcDbLine
 10
-1.0
 20
0.1666666666666666
 30
0.0
 11
0.0
 21
0.0
 31
0.0
  0
LINE
  5
19C
330
199
100
AcDbEntity
  8
0
  6
ByBlock
 62
     0
100
AcDbLine
 10
0.0
 20
0.0
 30
0.0
 11
-1.0
 21
-0.1666666666666666
 31
0.0
  0
LINE
  5
19D
330
199
100
AcDbEntity
  8
0
  6
ByBlock
 62
     0
100
AcDbLine
 10
0.0
 20
0.0
 30
0.0
 11
-1.0
 21
0.0
 31
0.0
  0
ENDBLK
  5
19E
330
199
100
AcDbEntity
  8
0
100
AcDbBlockEnd
  0
BLOCK
  5
909
330
908
100
AcDbEntity
  8
0
100
AcDbBlockBegin
  2
*D1
 70
     1
 10
0.0
 20
0.0
 30
0.0
  3
*D1
  1

  0
LINE
  5
90A
330
908
100
AcDbEntity
  8
0
  6
ByBlock
 62
     0
100
AcDbLine
 10
1873.923165362892
 20
4705.669811580356
 30
0.0
 11
1873.923165362892
 21
4625.669811580356
 31
0.0
  0
LINE
  5
90B
330
908
100
AcDbEntity
  8
0
  6
ByBlock
 62
     0
100
AcDbLine
 10
2473.923165362892
 20
4705.669811580356
 30
0.0
 11
2473.923165362892
 21
4625.669811580356
 31
0.0
  0
LINE
  5
90C
330
908
100
AcDbEntity
  8
0
  6
ByBlock
 62
     0
100
AcDbLine
 10
1893.923165362892
 20
4635.669811580355
 30
0.0
 11
2453.923165362892
 21
4635.669811580355
 31
0.0
  0
INSERT
  5
90D
330
908
100
AcDbEntity
  8
0
  6
ByBlock
 62
     0
100
AcDbBlockReference
  2
_OPEN
 10
1873.923165362892
 20
4635.669811580355
 30
0.0
 41
20.0
 42
20.0
 43
20.0
 50
180.0
  0
INSERT
  5
90E
330
908
100
AcDbEntity
  8
0
  6
ByBlock
 62
     0
100
AcDbBlockReference
  2
_OPEN
 10
2473.923165362892
 20
4635.669811580355
 30
0.0
 41
20.0
 42
20.0
 43
20.0
  0
MTEXT
  5
90F
330
908
100
AcDbEntity
  8
0
  6
ByBlock
 62
     0
100
AcDbMText
 10
2173.923165362892
 20
4660.669811580356
 30
0.0
 40
25.0
 41
0.0
 71
     5
 72
     1
  1
\A1;600
 73
     1
 44
1.0
1001
ACAD
1000
MTEXTBEGIN
1070
    73
1070
     1
1070
    44
1040
1.0
1070
    74
1070
     0
1000
MTEXTEND
  0
POINT
  5
910
330
908
100
AcDbEntity
  8
DEFPOINTS
  6
ByBlock
 62
     0
100
AcDbPoint
 10
1873.923165362892
 20
4735.669811580356
 30
0.0
  0
POINT
  5
911
330
908
100
AcDbEntity
  8
DEFPOINTS
  6
ByBlock
 62
     0
100
AcDbPoint
 10
2473.923165362892
 20
4735.669811580356
 30
0.0
  0
POINT
  5
912
330
908
100
AcDbEntity
  8
DEFPOINTS
  6
ByBlock
 62
     0
100
AcDbPoint
 10
2473.923165362892
 20
4635.669811580355
 30
0.0
  0
ENDBLK
  5
913
330
908
100
AcDbEntity
  8
0
100
AcDbBlockEnd
  0
BLOCK
  5
916
330
915
100
AcDbEntity
  8
0
100
AcDbBlockBegin
  2
*D2
 70
     1
 10
0.0
 20
0.0
 30
0.0
  3
*D2
  1

  0
LINE
  5
917
330
915
100
AcDbEntity
  8
0
  6
ByBlock
 62
     0
100
AcDbLine
 10
1873.923165362892
 20
4205.669811580356
 30
0.0
 11
1873.923165362892
 21
4125.669811580356
 31
0.0
  0
LINE
  5
918
330
915
100
AcDbEntity
  8
0
  6
ByBlock
 62
     0
100
AcDbLine
 10
2873.923165362893
 20
4205.669811580354
 30
0.0
 11
2873.923165362893
 21
4125.669811580356
 31
0.0
  0
LINE
  5
919
330
915
100
AcDbEntity
  8
0
  6
ByBlock
 62
     0
100
AcDbLine
 10
1893.923165362892
 20
4135.669811580355
 30
0.0
 11
2853.923165362892
 21
4135.669811580355
 31
0.0
  0
INSERT
  5
91A
330
915
100
AcDbEntity
  8
0
  6
ByBlock
 62
     0
100
AcDbBlockReference
  2
_OPEN
 10
1873.923165362892
 20
4135.669811580355
 30
0.0
 41
20.0
 42
20.0
 43
20.0
 50
180.0
  0
INSERT
  5
91B
330
915
100
AcDbEntity
  8
0
  6
ByBlock
 62
     0
100
AcDbBlockReference
  2
_OPEN
 10
2873.923165362893
 20
4135.669811580355
 30
0.0
 41
20.0
 42
20.0
 43
20.0
  0
MTEXT
  5
91C
330
915
100
AcDbEntity
  8
0
  6
ByBlock
 62
     0
100
AcDbMText
 10
2373.923165362892
 20
4160.669811580356
 30
0.0
 40
25.0
 41
0.0
 71
     5
 72
     1
  1
\A1;1000
 73
     1
 44
1.0
1001
ACAD
1000
MTEXTBEGIN
1070
    73
1070
     1
1070
    44
1040
1.0
1070
    74
1070
     0
1000
MTEXTEND
  0
POINT
  5
91D
330
915
100
AcDbEntity
  8
DEFPOINTS
  6
ByBlock
 62
     0
100
AcDbPoint
 10
1873.923165362892
 20
4235.669811580356
 30
0.0
  0
POINT
  5
91E
330
915
100
AcDbEntity
  8
DEFPOINTS
  6
ByBlock
 62
     0
100
AcDbPoint
 10
2873.923165362893
 20
4235.669811580353
 30
0.0
  0
POINT
  5
91F
330
915
100
AcDbEntity
  8
DEFPOINTS
  6
ByBlock
 62
     0
100
AcDbPoint
 10
2873.923165362893
 20
4135.669811580355
 30
0.0
  0
ENDBLK
  5
920
330
915
100
AcDbEntity
  8
0
100
AcDbBlockEnd
  0
BLOCK
  5
A06
330
A05
100
AcDbEntity
  8
0
100
AcDbBlockBegin
  2
*D3
 70
     1
 10
0.0
 20
0.0
 30
0.0
  3
*D3
  1

  0
LINE
  5
A07
330
A05
100
AcDbEntity
  8
0
  6
ByBlock
 62
     0
100
AcDbLine
 10
1873.923165362892
 20
2955.669811580356
 30
0.0
 11
1873.923165362892
 21
2875.669811580356
 31
0.0
  0
LINE
  5
A08
330
A05
100
AcDbEntity
  8
0
  6
ByBlock
 62
     0
100
AcDbLine
 10
2473.923165362892
 20
2955.669811580356
 30
0.0
 11
2473.923165362892
 21
2875.669811580356
 31
0.0
  0
LINE
  5
A09
330
A05
100
AcDbEntity
  8
0
  6
ByBlock
 62
     0
100
AcDbLine
 10
1893.923165362892
 20
2885.669811580356
 30
0.0
 11
2453.923165362892
 21
2885.669811580356
 31
0.0
  0
INSERT
  5
A0A
330
A05
100
AcDbEntity
  8
0
  6
ByBlock
 62
     0
100
AcDbBlockReference
  2
_OPEN
 10
1873.923165362892
 20
2885.669811580356
 30
0.0
 41
20.0
 42
20.0
 43
20.0
 50
180.0
  0
INSERT
  5
A0B
330
A05
100
AcDbEntity
  8
0
  6
ByBlock
 62
     0
100
AcDbBlockReference
  2
_OPEN
 10
2473.923165362892
 20
2885.669811580356
 30
0.0
 41
20.0
 42
20.0
 43
20.0
  0
MTEXT
  5
A0C
330
A05
100
AcDbEntity
  8
0
  6
ByBlock
 62
     0
100
AcDbMText
 10
2173.923165362892
 20
2910.669811580356
 30
0.0
 40
25.0
 41
0.0
 71
     5
 72
     1
  1
\A1;600
 73
     1
 44
1.0
1001
ACAD
1000
MTEXTBEGIN
1070
    73
1070
     1
1070
    44
1040
1.0
1070
    74
1070
     0
1000
MTEXTEND
  0
POINT
  5
A0D
330
A05
100
AcDbEntity
  8
DEFPOINTS
  6
ByBlock
 62
     0
100
AcDbPoint
 10
1873.923165362892
 20
2985.669811580356
 30
0.0
  0
POINT
  5
A0E
330
A05
100
AcDbEntity
  8
DEFPOINTS
  6
ByBlock
 62
     0
100
AcDbPoint
 10
2473.923165362892
 20
2985.669811580356
 30
0.0
  0
POINT
  5
A0F
330
A05
100
AcDbEntity
  8
DEFPOINTS
  6
ByBlock
 62
     0
100
AcDbPoint
 10
2473.923165362892
 20
2885.669811580356
 30
0.0
  0
ENDBLK
  5
A10
330
A05
100
AcDbEntity
  8
0
100
AcDbBlockEnd
  0
BLOCK
  5
A13
330
A12
100
AcDbEntity
  8
0
100
AcDbBlockBegin
  2
*D4
 70
     1
 10
0.0
 20
0.0
 30
0.0
  3
*D4
  1

  0
LINE
  5
A14
330
A12
100
AcDbEntity
  8
0
  6
ByBlock
 62
     0
100
AcDbLine
 10
1873.923165362892
 20
2355.669811580356
 30
0.0
 11
1873.923165362892
 21
2265.669811580356
 31
0.0
  0
LINE
  5
A15
330
A12
100
AcDbEntity
  8
0
  6
ByBlock
 62
     0
100
AcDbLine
 10
2873.923165362893
 20
2355.669811580356
 30
0.0
 11
2873.923165362893
 21
2265.669811580356
 31
0.0
  0
LINE
  5
A16
330
A12
100
AcDbEntity
  8
0
  6
ByBlock
 62
     0
100
AcDbLine
 10
1893.923165362892
 20
2275.669811580355
 30
0.0
 11
2853.923165362892
 21
2275.669811580355
 31
0.0
  0
INSERT
  5
A17
330
A12
100
AcDbEntity
  8
0
  6
ByBlock
 62
     0
100
AcDbBlockReference
  2
_OPEN
 10
1873.923165362892
 20
2275.669811580355
 30
0.0
 41
20.0
 42
20.0
 43
20.0
 50
180.0
  0
INSERT
  5
A18
330
A12
100
AcDbEntity
  8
0
  6
ByBlock
 62
     0
100
AcDbBlockReference
  2
_OPEN
 10
2873.923165362893
 20
2275.669811580355
 30
0.0
 41
20.0
 42
20.0
 43
20.0
  0
MTEXT
  5
A19
330
A12
100
AcDbEntity
  8
0
  6
ByBlock
 62
     0
100
AcDbMText
 10
2373.923165362892
 20
2300.669811580355
 30
0.0
 40
25.0
 41
0.0
 71
     5
 72
     1
  1
\A1;1000
 73
     1
 44
1.0
1001
ACAD
1000
MTEXTBEGIN
1070
    73
1070
     1
1070
    44
1040
1.0
1070
    74
1070
     0
1000
MTEXTEND
  0
POINT
  5
A1A
330
A12
100
AcDbEntity
  8
DEFPOINTS
  6
ByBlock
 62
     0
100
AcDbPoint
 10
1873.923165362892
 20
2385.669811580356
 30
0.0
  0
POINT
  5
A1B
330
A12
100
AcDbEntity
  8
DEFPOINTS
  6
ByBlock
 62
     0
100
AcDbPoint
 10
2873.923165362893
 20
2385.669811580356
 30
0.0
  0
POINT
  5
A1C
330
A12
100
AcDbEntity
  8
DEFPOINTS
  6
ByBlock
 62
     0
100
AcDbPoint
 10
2873.923165362893
 20
2275.669811580355
 30
0.0
  0
ENDBLK
  5
A1D
330
A12
100
AcDbEntity
  8
0
100
AcDbBlockEnd
  0
BLOCK
  5
AB7
330
AB6
100
AcDbEntity
  8
0
100
AcDbBlockBegin
  2
*D5
 70
     1
 10
0.0
 20
0.0
 30
0.0
  3
*D5
  1

  0
LINE
  5
AB8
330
AB6
100
AcDbEntity
  8
0
  6
ByBlock
 62
     0
100
AcDbLine
 10
5750.42234665465
 20
4605.669811580354
 30
0.0
 11
5750.42234665465
 21
4525.669811580356
 31
0.0
  0
LINE
  5
AB9
330
AB6
100
AcDbEntity
  8
0
  6
ByBlock
 62
     0
100
AcDbLine
 10
6350.422346654649
 20
4605.669811580355
 30
0.0
 11
6350.422346654649
 21
4525.669811580356
 31
0.0
  0
LINE
  5
ABA
330
AB6
100
AcDbEntity
  8
0
  6
ByBlock
 62
     0
100
AcDbLine
 10
5770.42234665465
 20
4535.669811580356
 30
0.0
 11
6330.42234665465
 21
4535.669811580356
 31
0.0
  0
INSERT
  5
ABB
330
AB6
100
AcDbEntity
  8
0
  6
ByBlock
 62
     0
100
AcDbBlockReference
  2
_OPEN
 10
5750.42234665465
 20
4535.669811580356
 30
0.0
 41
20.0
 42
20.0
 43
20.0
 50
180.0
  0
INSERT
  5
ABC
330
AB6
100
AcDbEntity
  8
0
  6
ByBlock
 62
     0
100
AcDbBlockReference
  2
_OPEN
 10
6350.422346654649
 20
4535.669811580356
 30
0.0
 41
20.0
 42
20.0
 43
20.0
  0
MTEXT
  5
ABD
330
AB6
100
AcDbEntity
  8
0
  6
ByBlock
 62
     0
100
AcDbMText
 10
6050.42234665465
 20
4560.669811580356
 30
0.0
 40
25.0
 41
0.0
 71
     5
 72
     1
  1
\A1;600
 73
     1
 44
1.0
1001
ACAD
1000
MTEXTBEGIN
1070
    73
1070
     1
1070
    44
1040
1.0
1070
    74
1070
     0
1000
MTEXTEND
  0
POINT
  5
ABE
330
AB6
100
AcDbEntity
  8
DEFPOINTS
  6
ByBlock
 62
     0
100
AcDbPoint
 10
5750.42234665465
 20
4635.669811580354
 30
0.0
  0
POINT
  5
ABF
330
AB6
100
AcDbEntity
  8
DEFPOINTS
  6
ByBlock
 62
     0
100
AcDbPoint
 10
6350.422346654649
 20
4635.669811580355
 30
0.0
  0
POINT
  5
AC0
330
AB6
100
AcDbEntity
  8
DEFPOINTS
  6
ByBlock
 62
     0
100
AcDbPoint
 10
6350.422346654649
 20
4535.669811580356
 30
0.0
  0
ENDBLK
  5
AC1
330
AB6
100
AcDbEntity
  8
0
100
AcDbBlockEnd
  0
BLOCK
  5
B42
330
B41
100
AcDbEntity
  8
0
100
AcDbBlockBegin
  2
*D6
 70
     1
 10
0.0
 20
0.0
 30
0.0
  3
*D6
  1

  0
LINE
  5
B43
330
B41
100
AcDbEntity
  8
0
  6
ByBlock
 62
     0
100
AcDbLine
 10
5750.422346654652
 20
3905.669811580356
 30
0.0
 11
5750.422346654652
 21
3825.669811580356
 31
0.0
  0
LINE
  5
B44
330
B41
100
AcDbEntity
  8
0
  6
ByBlock
 62
     0
100
AcDbLine
 10
6750.422346654651
 20
3905.669811580359
 30
0.0
 11
6750.422346654651
 21
3825.669811580356
 31
0.0
  0
LINE
  5
B45
330
B41
100
AcDbEntity
  8
0
  6
ByBlock
 62
     0
100
AcDbLine
 10
5770.422346654651
 20
3835.669811580356
 30
0.0
 11
6730.422346654652
 21
3835.669811580356
 31
0.0
  0
INSERT
  5
B46
330
B41
100
AcDbEntity
  8
0
  6
ByBlock
 62
     0
100
AcDbBlockReference
  2
_OPEN
 10
5750.422346654652
 20
3835.669811580356
 30
0.0
 41
20.0
 42
20.0
 43
20.0
 50
180.0
  0
INSERT
  5
B47
330
B41
100
AcDbEntity
  8
0
  6
ByBlock
 62
     0
100
AcDbBlockReference
  2
_OPEN
 10
6750.422346654651
 20
3835.669811580356
 30
0.0
 41
20.0
 42
20.0
 43
20.0
  0
MTEXT
  5
B48
330
B41
100
AcDbEntity
  8
0
  6
ByBlock
 62
     0
100
AcDbMText
 10
6250.422346654652
 20
3860.669811580356
 30
0.0
 40
25.0
 41
0.0
 71
     5
 72
     1
  1
\A1;1000
 73
     1
 44
1.0
1001
ACAD
1000
MTEXTBEGIN
1070
    73
1070
     1
1070
    44
1040
1.0
1070
    74
1070
     0
1000
MTEXTEND
  0
POINT
  5
B49
330
B41
100
AcDbEntity
  8
DEFPOINTS
  6
ByBlock
 62
     0
100
AcDbPoint
 10
5750.422346654652
 20
3935.669811580356
 30
0.0
  0
POINT
  5
B4A
330
B41
100
AcDbEntity
  8
DEFPOINTS
  6
ByBlock
 62
     0
100
AcDbPoint
 10
6750.422346654651
 20
3935.669811580359
 30
0.0
  0
POINT
  5
B4B
330
B41
100
AcDbEntity
  8
DEFPOINTS
  6
ByBlock
 62
     0
100
AcDbPoint
 10
6750.422346654651
 20
3835.669811580356
 30
0.0
  0
ENDBLK
  5
B4C
330
B41
100
AcDbEntity
  8
0
100
AcDbBlockEnd
  0
BLOCK
  5
CB2
330
CB1
100
AcDbEntity
  8
0
100
AcDbBlockBegin
  2
*D7
 70
     1
 10
0.0
 20
0.0
 30
0.0
  3
*D7
  1

  0
LINE
  5
CB3
330
CB1
100
AcDbEntity
  8
0
  6
ByBlock
 62
     0
100
AcDbLine
 10
1049.294749266119
 20
4705.669811580356
 30
0.0
 11
1049.294749266119
 21
4625.669811580356
 31
0.0
  0
LINE
  5
CB4
330
CB1
100
AcDbEntity
  8
0
  6
ByBlock
 62
     0
100
AcDbLine
 10
1169.294749266119
 20
4705.669811580356
 30
0.0
 11
1169.294749266119
 21
4625.669811580356
 31
0.0
  0
LINE
  5
CB5
330
CB1
100
AcDbEntity
  8
0
  6
ByBlock
 62
     0
100
AcDbLine
 10
1069.294749266119
 20
4635.669811580355
 30
0.0
 11
1149.294749266118
 21
4635.669811580355
 31
0.0
  0
INSERT
  5
CB6
330
CB1
100
AcDbEntity
  8
0
  6
ByBlock
 62
     0
100
AcDbBlockReference
  2
_OPEN
 10
1049.294749266119
 20
4635.669811580355
 30
0.0
 41
20.0
 42
20.0
 43
20.0
 50
180.0
  0
INSERT
  5
CB7
330
CB1
100
AcDbEntity
  8
0
  6
ByBlock
 62
     0
100
AcDbBlockReference
  2
_OPEN
 10
1169.294749266119
 20
4635.669811580355
 30
0.0
 41
20.0
 42
20.0
 43
20.0
  0
MTEXT
  5
CB8
330
CB1
100
AcDbEntity
  8
0
  6
ByBlock
 62
     0
100
AcDbMText
 10
1109.294749266118
 20
4660.669811580356
 30
0.0
 40
25.0
 41
0.0
 71
     5
 72
     1
  1
\A1;120
 73
     1
 44
1.0
1001
ACAD
1000
MTEXTBEGIN
1070
    73
1070
     1
1070
    44
1040
1.0
1070
    74
1070
     0
1000
MTEXTEND
  0
POINT
  5
CB9
330
CB1
100
AcDbEntity
  8
DEFPOINTS
  6
ByBlock
 62
     0
100
AcDbPoint
 10
1049.294749266119
 20
4735.669811580356
 30
0.0
  0
POINT
  5
CBA
330
CB1
100
AcDbEntity
  8
DEFPOINTS
  6
ByBlock
 62
     0
100
AcDbPoint
 10
1169.294749266119
 20
4735.669811580356
 30
0.0
  0
POINT
  5
CBB
330
CB1
100
AcDbEntity
  8
DEFPOINTS
  6
ByBlock
 62
     0
100
AcDbPoint
 10
1169.294749266119
 20
4635.669811580355
 30
0.0
  0
ENDBLK
  5
CBC
330
CB1
100
AcDbEntity
  8
0
100
AcDbBlockEnd
  0
BLOCK
  5
CBF
330
CBE
100
AcDbEntity
  8
0
100
AcDbBlockBegin
  2
*D8
 70
     1
 10
0.0
 20
0.0
 30
0.0
  3
*D8
  1

  0
LINE
  5
CC0
330
CBE
100
AcDbEntity
  8
0
  6
ByBlock
 62
     0
100
AcDbLine
 10
1019.294749266119
 20
4855.669811580355
 30
0.0
 11
939.2947492661189
 21
4855.669811580355
 31
0.0
  0
LINE
  5
CC1
330
CBE
100
AcDbEntity
  8
0
  6
ByBlock
 62
     0
100
AcDbLine
 10
1019.294749266119
 20
4735.669811580356
 30
0.0
 11
939.2947492661189
 21
4735.669811580356
 31
0.0
  0
LINE
  5
CC2
330
CBE
100
AcDbEntity
  8
0
  6
ByBlock
 62
     0
100
AcDbLine
 10
949.2947492661189
 20
4835.669811580356
 30
0.0
 11
949.2947492661189
 21
4755.669811580355
 31
0.0
  0
INSERT
  5
CC3
330
CBE
100
AcDbEntity
  8
0
  6
ByBlock
 62
     0
100
AcDbBlockReference
  2
_OPEN
 10
949.2947492661189
 20
4855.669811580355
 30
0.0
 41
20.0
 42
20.0
 43
20.0
 50
90.0
  0
INSERT
  5
CC4
330
CBE
100
AcDbEntity
  8
0
  6
ByBlock
 62
     0
100
AcDbBlockReference
  2
_OPEN
 10
949.2947492661189
 20
4735.669811580356
 30
0.0
 41
20.0
 42
20.0
 43
20.0
 50
270.0
  0
MTEXT
  5
CC5
330
CBE
100
AcDbEntity
  8
0
  6
ByBlock
 62
     0
100
AcDbMText
 10
924.2947492661189
 20
4795.669811580355
 30
0.0
 40
25.0
 41
0.0
 71
     5
 72
     1
  1
\A1;120
 11
0.0000000000000001
 21
1.0
 31
0.0
 73
     1
 44
1.0
1001
ACAD
1000
MTEXTBEGIN
1070
    73
1070
     1
1070
    44
1040
1.0
1070
    74
1070
     0
1000
MTEXTEND
  0
POINT
  5
CC6
330
CBE
100
AcDbEntity
  8
DEFPOINTS
  6
ByBlock
 62
     0
100
AcDbPoint
 10
1049.294749266119
 20
4855.669811580355
 30
0.0
  0
POINT
  5
CC7
330
CBE
100
AcDbEntity
  8
DEFPOINTS
  6
ByBlock
 62
     0
100
AcDbPoint
 10
1049.294749266119
 20
4735.669811580356
 30
0.0
  0
POINT
  5
CC8
330
CBE
100
AcDbEntity
  8
DEFPOINTS
  6
ByBlock
 62
     0
100
AcDbPoint
 10
949.2947492661189
 20
4735.669811580356
 30
0.0
  0
ENDBLK
  5
CC9
330
CBE
100
AcDbEntity
  8
0
100
AcDbBlockEnd
  0
BLOCK
  5
CD3
330
CD2
100
AcDbEntity
  8
0
100
AcDbBlockBegin
  2
*D9
 70
     1
 10
0.0
 20
0.0
 30
0.0
  3
*D9
  1

  0
LINE
  5
CD4
330
CD2
100
AcDbEntity
  8
0
  6
ByBlock
 62
     0
100
AcDbLine
 10
1049.294749266119
 20
4705.669811580356
 30
0.0
 11
1049.294749266119
 21
4625.669811580356
 31
0.0
  0
LINE
  5
CD5
330
CD2
100
AcDbEntity
  8
0
  6
ByBlock
 62
     0
100
AcDbLine
 10
1169.294749266119
 20
4705.669811580356
 30
0.0
 11
1169.294749266119
 21
4625.669811580356
 31
0.0
  0
LINE
  5
CD6
330
CD2
100
AcDbEntity
  8
0
  6
ByBlock
 62
     0
100
AcDbLine
 10
1069.294749266119
 20
4635.669811580355
 30
0.0
 11
1149.294749266118
 21
4635.669811580355
 31
0.0
  0
INSERT
  5
CD7
330
CD2
100
AcDbEntity
  8
0
  6
ByBlock
 62
     0
100
AcDbBlockReference
  2
_OPEN
 10
1049.294749266119
 20
4635.669811580355
 30
0.0
 41
20.0
 42
20.0
 43
20.0
 50
180.0
  0
INSERT
  5
CD8
330
CD2
100
AcDbEntity
  8
0
  6
ByBlock
 62
     0
100
AcDbBlockReference
  2
_OPEN
 10
1169.294749266119
 20
4635.669811580355
 30
0.0
 41
20.0
 42
20.0
 43
20.0
  0
MTEXT
  5
CD9
330
CD2
100
AcDbEntity
  8
0
  6
ByBlock
 62
     0
100
AcDbMText
 10
1109.294749266118
 20
4660.669811580356
 30
0.0
 40
25.0
 41
0.0
 71
     5
 72
     1
  1
\A1;120
 73
     1
 44
1.0
1001
ACAD
1000
MTEXTBEGIN
1070
    73
1070
     1
1070
    44
1040
1.0
1070
    74
1070
     0
1000
MTEXTEND
  0
POINT
  5
CDA
330
CD2
100
AcDbEntity
  8
DEFPOINTS
  6
ByBlock
 62
     0
100
AcDbPoint
 10
1049.294749266119
 20
4735.669811580356
 30
0.0
  0
POINT
  5
CDB
330
CD2
100
AcDbEntity
  8
DEFPOINTS
  6
ByBlock
 62
     0
100
AcDbPoint
 10
1169.294749266119
 20
4735.669811580356
 30
0.0
  0
POINT
  5
CDC
330
CD2
100
AcDbEntity
  8
DEFPOINTS
  6
ByBlock
 62
     0
100
AcDbPoint
 10
1169.294749266119
 20
4635.669811580355
 30
0.0
  0
ENDBLK
  5
CDD
330
CD2
100
AcDbEntity
  8
0
100
AcDbBlockEnd
  0
BLOCK
  5
CDF
330
CDE
100
AcDbEntity
  8
0
100
AcDbBlockBegin
  2
*D10
 70
     1
 10
0.0
 20
0.0
 30
0.0
  3
*D10
  1

  0
LINE
  5
CE0
330
CDE
100
AcDbEntity
  8
0
  6
ByBlock
 62
     0
100
AcDbLine
 10
1019.294749266119
 20
4855.669811580355
 30
0.0
 11
939.2947492661189
 21
4855.669811580355
 31
0.0
  0
LINE
  5
CE1
330
CDE
100
AcDbEntity
  8
0
  6
ByBlock
 62
     0
100
AcDbLine
 10
1019.294749266119
 20
4735.669811580356
 30
0.0
 11
939.2947492661189
 21
4735.669811580356
 31
0.0
  0
LINE
  5
CE2
330
CDE
100
AcDbEntity
  8
0
  6
ByBlock
 62
     0
100
AcDbLine
 10
949.2947492661189
 20
4835.669811580356
 30
0.0
 11
949.2947492661189
 21
4755.669811580355
 31
0.0
  0
INSERT
  5
CE3
330
CDE
100
AcDbEntity
  8
0
  6
ByBlock
 62
     0
100
AcDbBlockReference
  2
_OPEN
 10
949.2947492661189
 20
4855.669811580355
 30
0.0
 41
20.0
 42
20.0
 43
20.0
 50
90.0
  0
INSERT
  5
CE4
330
CDE
100
AcDbEntity
  8
0
  6
ByBlock
 62
     0
100
AcDbBlockReference
  2
_OPEN
 10
949.2947492661189
 20
4735.669811580356
 30
0.0
 41
20.0
 42
20.0
 43
20.0
 50
270.0
  0
MTEXT
  5
CE5
330
CDE
100
AcDbEntity
  8
0
  6
ByBlock
 62
     0
100
AcDbMText
 10
924.2947492661189
 20
4795.669811580355
 30
0.0
 40
25.0
 41
0.0
 71
     5
 72
     1
  1
\A1;120
 11
0.0000000000000001
 21
1.0
 31
0.0
 73
     1
 44
1.0
1001
ACAD
1000
MTEXTBEGIN
1070
    73
1070
     1
1070
    44
1040
1.0
1070
    74
1070
     0
1000
MTEXTEND
  0
POINT
  5
CE6
330
CDE
100
AcDbEntity
  8
DEFPOINTS
  6
ByBlock
 62
     0
100
AcDbPoint
 10
1049.294749266119
 20
4855.669811580355
 30
0.0
  0
POINT
  5
CE7
330
CDE
100
AcDbEntity
  8
DEFPOINTS
  6
ByBlock
 62
     0
100
AcDbPoint
 10
1049.294749266119
 20
4735.669811580356
 30
0.0
  0
POINT
  5
CE8
330
CDE
100
AcDbEntity
  8
DEFPOINTS
  6
ByBlock
 62
     0
100
AcDbPoint
 10
949.2947492661189
 20
4735.669811580356
 30
0.0
  0
ENDBLK
  5
CE9
330
CDE
100
AcDbEntity
  8
0
100
AcDbBlockEnd
  0
BLOCK
  5
D33
330
D0E
100
AcDbEntity
  8
0
100
AcDbBlockBegin
  2
*D11
 70
     1
 10
0.0
 20
0.0
 30
0.0
  3
*D11
  1

  0
LINE
  5
D34
330
D0E
100
AcDbEntity
  8
0
  6
ByBlock
 62
     0
100
AcDbLine
 10
1044.294749266118
 20
2537.735056008458
 30
0.0
 11
1044.294749266118
 21
2457.73505600846
 31
0.0
  0
LINE
  5
D35
330
D0E
100
AcDbEntity
  8
0
  6
ByBlock
 62
     0
100
AcDbLine
 10
1194.294749266118
 20
2537.73505600846
 30
0.0
 11
1194.294749266118
 21
2457.73505600846
 31
0.0
  0
LINE
  5
D36
330
D0E
100
AcDbEntity
  8
0
  6
ByBlock
 62
     0
100
AcDbLine
 10
1064.294749266118
 20
2467.73505600846
 30
0.0
 11
1174.294749266118
 21
2467.73505600846
 31
0.0
  0
INSERT
  5
D37
330
D0E
100
AcDbEntity
  8
0
  6
ByBlock
 62
     0
100
AcDbBlockReference
  2
_OPEN
 10
1044.294749266118
 20
2467.73505600846
 30
0.0
 41
20.0
 42
20.0
 43
20.0
 50
180.0
  0
INSERT
  5
D38
330
D0E
100
AcDbEntity
  8
0
  6
ByBlock
 62
     0
100
AcDbBlockReference
  2
_OPEN
 10
1194.294749266118
 20
2467.73505600846
 30
0.0
 41
20.0
 42
20.0
 43
20.0
  0
MTEXT
  5
D39
330
D0E
100
AcDbEntity
  8
0
  6
ByBlock
 62
     0
100
AcDbMText
 10
1119.294749266118
 20
2492.73505600846
 30
0.0
 40
25.0
 41
0.0
 71
     5
 72
     1
  1
\A1;150
 73
     1
 44
1.0
1001
ACAD
1000
MTEXTBEGIN
1070
    73
1070
     1
1070
    44
1040
1.0
1070
    74
1070
     0
1000
MTEXTEND
  0
POINT
  5
D3A
330
D0E
100
AcDbEntity
  8
DEFPOINTS
  6
ByBlock
 62
     0
100
AcDbPoint
 10
1044.294749266118
 20
2567.735056008458
 30
0.0
  0
POINT
  5
D3B
330
D0E
100
AcDbEntity
  8
DEFPOINTS
  6
ByBlock
 62
     0
100
AcDbPoint
 10
1194.294749266118
 20
2567.73505600846
 30
0.0
  0
POINT
  5
D3C
330
D0E
100
AcDbEntity
  8
DEFPOINTS
  6
ByBlock
 62
     0
100
AcDbPoint
 10
1194.294749266118
 20
2467.73505600846
 30
0.0
  0
ENDBLK
  5
D3D
330
D0E
100
AcDbEntity
  8
0
100
AcDbBlockEnd
  0
BLOCK
  5
D28
330
D1B
100
AcDbEntity
  8
0
100
AcDbBlockBegin
  2
*D12
 70
     1
 10
0.0
 20
0.0
 30
0.0
  3
*D12
  1

  0
LINE
  5
D29
330
D1B
100
AcDbEntity
  8
0
  6
ByBlock
 62
     0
100
AcDbLine
 10
1014.294749266118
 20
2567.73505600846
 30
0.0
 11
909.2947492661187
 21
2567.73505600846
 31
0.0
  0
LINE
  5
D2A
330
D1B
100
AcDbEntity
  8
0
  6
ByBlock
 62
     0
100
AcDbLine
 10
1014.294749266118
 20
2687.73505600846
 30
0.0
 11
909.2947492661187
 21
2687.73505600846
 31
0.0
  0
LINE
  5
D2B
330
D1B
100
AcDbEntity
  8
0
  6
ByBlock
 62
     0
100
AcDbLine
 10
919.2947492661188
 20
2587.73505600846
 30
0.0
 11
919.2947492661188
 21
2667.73505600846
 31
0.0
  0
INSERT
  5
D2C
330
D1B
100
AcDbEntity
  8
0
  6
ByBlock
 62
     0
100
AcDbBlockReference
  2
_OPEN
 10
919.2947492661188
 20
2567.73505600846
 30
0.0
 41
20.0
 42
20.0
 43
20.0
 50
270.0
  0
INSERT
  5
D2D
330
D1B
100
AcDbEntity
  8
0
  6
ByBlock
 62
     0
100
AcDbBlockReference
  2
_OPEN
 10
919.2947492661188
 20
2687.73505600846
 30
0.0
 41
20.0
 42
20.0
 43
20.0
 50
90.0
  0
MTEXT
  5
D2E
330
D1B
100
AcDbEntity
  8
0
  6
ByBlock
 62
     0
100
AcDbMText
 10
894.2947492661188
 20
2627.73505600846
 30
0.0
 40
25.0
 41
0.0
 71
     5
 72
     1
  1
\A1;120
 11
0.0000000000000001
 21
1.0
 31
0.0
 73
     1
 44
1.0
1001
ACAD
1000
MTEXTBEGIN
1070
    73
1070
     1
1070
    44
1040
1.0
1070
    74
1070
     0
1000
MTEXTEND
  0
POINT
  5
D2F
330
D1B
100
AcDbEntity
  8
DEFPOINTS
  6
ByBlock
 62
     0
100
AcDbPoint
 10
1044.294749266118
 20
2567.73505600846
 30
0.0
  0
POINT
  5
D30
330
D1B
100
AcDbEntity
  8
DEFPOINTS
  6
ByBlock
 62
     0
100
AcDbPoint
 10
1044.294749266118
 20
2687.73505600846
 30
0.0
  0
POINT
  5
D31
330
D1B
100
AcDbEntity
  8
DEFPOINTS
  6
ByBlock
 62
     0
100
AcDbPoint
 10
919.2947492661188
 20
2687.73505600846
 30
0.0
  0
ENDBLK
  5
D32
330
D1B
100
AcDbEntity
  8
0
100
AcDbBlockEnd
  0
BLOCK
  5
D46
330
D45
100
AcDbEntity
  8
0
100
AcDbBlockBegin
  2
*D13
 70
     1
 10
0.0
 20
0.0
 30
0.0
  3
*D13
  1

  0
LINE
  5
D47
330
D45
100
AcDbEntity
  8
0
  6
ByBlock
 62
     0
100
AcDbLine
 10
1044.294749266118
 20
2537.735056008458
 30
0.0
 11
1044.294749266118
 21
2457.73505600846
 31
0.0
  0
LINE
  5
D48
330
D45
100
AcDbEntity
  8
0
  6
ByBlock
 62
     0
100
AcDbLine
 10
1194.294749266118
 20
2537.73505600846
 30
0.0
 11
1194.294749266118
 21
2457.73505600846
 31
0.0
  0
LINE
  5
D49
330
D45
100
AcDbEntity
  8
0
  6
ByBlock
 62
     0
100
AcDbLine
 10
1064.294749266118
 20
2467.73505600846
 30
0.0
 11
1174.294749266118
 21
2467.73505600846
 31
0.0
  0
INSERT
  5
D4A
330
D45
100
AcDbEntity
  8
0
  6
ByBlock
 62
     0
100
AcDbBlockReference
  2
_OPEN
 10
1044.294749266118
 20
2467.73505600846
 30
0.0
 41
20.0
 42
20.0
 43
20.0
 50
180.0
  0
INSERT
  5
D4B
330
D45
100
AcDbEntity
  8
0
  6
ByBlock
 62
     0
100
AcDbBlockReference
  2
_OPEN
 10
1194.294749266118
 20
2467.73505600846
 30
0.0
 41
20.0
 42
20.0
 43
20.0
  0
MTEXT
  5
D4C
330
D45
100
AcDbEntity
  8
0
  6
ByBlock
 62
     0
100
AcDbMText
 10
1119.294749266118
 20
2492.73505600846
 30
0.0
 40
25.0
 41
0.0
 71
     5
 72
     1
  1
\A1;150
 73
     1
 44
1.0
1001
ACAD
1000
MTEXTBEGIN
1070
    73
1070
     1
1070
    44
1040
1.0
1070
    74
1070
     0
1000
MTEXTEND
  0
POINT
  5
D4D
330
D45
100
AcDbEntity
  8
DEFPOINTS
  6
ByBlock
 62
     0
100
AcDbPoint
 10
1044.294749266118
 20
2567.735056008458
 30
0.0
  0
POINT
  5
D4E
330
D45
100
AcDbEntity
  8
DEFPOINTS
  6
ByBlock
 62
     0
100
AcDbPoint
 10
1194.294749266118
 20
2567.73505600846
 30
0.0
  0
POINT
  5
D4F
330
D45
100
AcDbEntity
  8
DEFPOINTS
  6
ByBlock
 62
     0
100
AcDbPoint
 10
1194.294749266118
 20
2467.73505600846
 30
0.0
  0
ENDBLK
  5
D50
330
D45
100
AcDbEntity
  8
0
100
AcDbBlockEnd
  0
BLOCK
  5
D52
330
D51
100
AcDbEntity
  8
0
100
AcDbBlockBegin
  2
*D14
 70
     1
 10
0.0
 20
0.0
 30
0.0
  3
*D14
  1

  0
LINE
  5
D53
330
D51
100
AcDbEntity
  8
0
  6
ByBlock
 62
     0
100
AcDbLine
 10
1014.294749266118
 20
2567.73505600846
 30
0.0
 11
909.2947492661187
 21
2567.73505600846
 31
0.0
  0
LINE
  5
D54
330
D51
100
AcDbEntity
  8
0
  6
ByBlock
 62
     0
100
AcDbLine
 10
1014.294749266118
 20
2687.73505600846
 30
0.0
 11
909.2947492661187
 21
2687.73505600846
 31
0.0
  0
LINE
  5
D55
330
D51
100
AcDbEntity
  8
0
  6
ByBlock
 62
     0
100
AcDbLine
 10
919.2947492661188
 20
2587.73505600846
 30
0.0
 11
919.2947492661188
 21
2667.73505600846
 31
0.0
  0
INSERT
  5
D56
330
D51
100
AcDbEntity
  8
0
  6
ByBlock
 62
     0
100
AcDbBlockReference
  2
_OPEN
 10
919.2947492661188
 20
2567.73505600846
 30
0.0
 41
20.0
 42
20.0
 43
20.0
 50
270.0
  0
INSERT
  5
D57
330
D51
100
AcDbEntity
  8
0
  6
ByBlock
 62
     0
100
AcDbBlockReference
  2
_OPEN
 10
919.2947492661188
 20
2687.73505600846
 30
0.0
 41
20.0
 42
20.0
 43
20.0
 50
90.0
  0
MTEXT
  5
D58
330
D51
100
AcDbEntity
  8
0
  6
ByBlock
 62
     0
100
AcDbMText
 10
894.2947492661188
 20
2627.73505600846
 30
0.0
 40
25.0
 41
0.0
 71
     5
 72
     1
  1
\A1;120
 11
0.0000000000000001
 21
1.0
 31
0.0
 73
     1
 44
1.0
1001
ACAD
1000
MTEXTBEGIN
1070
    73
1070
     1
1070
    44
1040
1.0
1070
    74
1070
     0
1000
MTEXTEND
  0
POINT
  5
D59
330
D51
100
AcDbEntity
  8
DEFPOINTS
  6
ByBlock
 62
     0
100
AcDbPoint
 10
1044.294749266118
 20
2567.73505600846
 30
0.0
  0
POINT
  5
D5A
330
D51
100
AcDbEntity
  8
DEFPOINTS
  6
ByBlock
 62
     0
100
AcDbPoint
 10
1044.294749266118
 20
2687.73505600846
 30
0.0
  0
POINT
  5
D5B
330
D51
100
AcDbEntity
  8
DEFPOINTS
  6
ByBlock
 62
     0
100
AcDbPoint
 10
919.2947492661188
 20
2687.73505600846
 30
0.0
  0
ENDBLK
  5
D5C
330
D51
100
AcDbEntity
  8
0
100
AcDbBlockEnd
  0
BLOCK
  5
D83
330
D82
100
AcDbEntity
  8
0
100
AcDbBlockBegin
  2
*D15
 70
     1
 10
0.0
 20
0.0
 30
0.0
  3
*D15
  1

  0
LINE
  5
D84
330
D82
100
AcDbEntity
  8
0
  6
ByBlock
 62
     0
100
AcDbLine
 10
4885.793930557877
 20
4785.669811580356
 30
0.0
 11
4805.793930557877
 21
4785.669811580356
 31
0.0
  0
LINE
  5
D85
330
D82
100
AcDbEntity
  8
0
  6
ByBlock
 62
     0
100
AcDbLine
 10
4885.793930557877
 20
4635.669811580355
 30
0.0
 11
4805.793930557877
 21
4635.669811580355
 31
0.0
  0
LINE
  5
D86
330
D82
100
AcDbEntity
  8
0
  6
ByBlock
 62
     0
100
AcDbLine
 10
4815.793930557877
 20
4765.669811580355
 30
0.0
 11
4815.793930557877
 21
4655.669811580355
 31
0.0
  0
INSERT
  5
D87
330
D82
100
AcDbEntity
  8
0
  6
ByBlock
 62
     0
100
AcDbBlockReference
  2
_OPEN
 10
4815.793930557877
 20
4785.669811580356
 30
0.0
 41
20.0
 42
20.0
 43
20.0
 50
90.0
  0
INSERT
  5
D88
330
D82
100
AcDbEntity
  8
0
  6
ByBlock
 62
     0
100
AcDbBlockReference
  2
_OPEN
 10
4815.793930557877
 20
4635.669811580355
 30
0.0
 41
20.0
 42
20.0
 43
20.0
 50
270.0
  0
MTEXT
  5
D89
330
D82
100
AcDbEntity
  8
0
  6
ByBlock
 62
     0
100
AcDbMText
 10
4790.793930557876
 20
4710.669811580356
 30
0.0
 40
25.0
 41
0.0
 71
     5
 72
     1
  1
\A1;150
 11
0.0000000000000001
 21
1.0
 31
0.0
 73
     1
 44
1.0
1001
ACAD
1000
MTEXTBEGIN
1070
    73
1070
     1
1070
    44
1040
1.0
1070
    74
1070
     0
1000
MTEXTEND
  0
POINT
  5
D8A
330
D82
100
AcDbEntity
  8
DEFPOINTS
  6
ByBlock
 62
     0
100
AcDbPoint
 10
4915.793930557876
 20
4785.669811580356
 30
0.0
  0
POINT
  5
D8B
330
D82
100
AcDbEntity
  8
DEFPOINTS
  6
ByBlock
 62
     0
100
AcDbPoint
 10
4915.793930557876
 20
4635.669811580355
 30
0.0
  0
POINT
  5
D8C
330
D82
100
AcDbEntity
  8
DEFPOINTS
  6
ByBlock
 62
     0
100
AcDbPoint
 10
4815.793930557877
 20
4635.669811580355
 30
0.0
  0
ENDBLK
  5
D8D
330
D82
100
AcDbEntity
  8
0
100
AcDbBlockEnd
  0
BLOCK
  5
D90
330
D8F
100
AcDbEntity
  8
0
100
AcDbBlockBegin
  2
*D16
 70
     1
 10
0.0
 20
0.0
 30
0.0
  3
*D16
  1

  0
LINE
  5
D91
330
D8F
100
AcDbEntity
  8
0
  6
ByBlock
 62
     0
100
AcDbLine
 10
4915.793930557876
 20
4605.669811580355
 30
0.0
 11
4915.793930557876
 21
4525.669811580356
 31
0.0
  0
LINE
  5
D92
330
D8F
100
AcDbEntity
  8
0
  6
ByBlock
 62
     0
100
AcDbLine
 10
5065.793930557877
 20
4605.669811580355
 30
0.0
 11
5065.793930557877
 21
4525.669811580356
 31
0.0
  0
LINE
  5
D93
330
D8F
100
AcDbEntity
  8
0
  6
ByBlock
 62
     0
100
AcDbLine
 10
4935.793930557877
 20
4535.669811580356
 30
0.0
 11
5045.793930557877
 21
4535.669811580356
 31
0.0
  0
INSERT
  5
D94
330
D8F
100
AcDbEntity
  8
0
  6
ByBlock
 62
     0
100
AcDbBlockReference
  2
_OPEN
 10
4915.793930557876
 20
4535.669811580356
 30
0.0
 41
20.0
 42
20.0
 43
20.0
 50
180.0
  0
INSERT
  5
D95
330
D8F
100
AcDbEntity
  8
0
  6
ByBlock
 62
     0
100
AcDbBlockReference
  2
_OPEN
 10
5065.793930557877
 20
4535.669811580356
 30
0.0
 41
20.0
 42
20.0
 43
20.0
  0
MTEXT
  5
D96
330
D8F
100
AcDbEntity
  8
0
  6
ByBlock
 62
     0
100
AcDbMText
 10
4990.793930557877
 20
4560.669811580356
 30
0.0
 40
25.0
 41
0.0
 71
     5
 72
     1
  1
\A1;150
 73
     1
 44
1.0
1001
ACAD
1000
MTEXTBEGIN
1070
    73
1070
     1
1070
    44
1040
1.0
1070
    74
1070
     0
1000
MTEXTEND
  0
POINT
  5
D97
330
D8F
100
AcDbEntity
  8
DEFPOINTS
  6
ByBlock
 62
     0
100
AcDbPoint
 10
4915.793930557876
 20
4635.669811580355
 30
0.0
  0
POINT
  5
D98
330
D8F
100
AcDbEntity
  8
DEFPOINTS
  6
ByBlock
 62
     0
100
AcDbPoint
 10
5065.793930557877
 20
4635.669811580355
 30
0.0
  0
POINT
  5
D99
330
D8F
100
AcDbEntity
  8
DEFPOINTS
  6
ByBlock
 62
     0
100
AcDbPoint
 10
5065.793930557877
 20
4535.669811580356
 30
0.0
  0
ENDBLK
  5
D9A
330
D8F
100
AcDbEntity
  8
0
100
AcDbBlockEnd
  0
BLOCK
  5
DA4
330
DA3
100
AcDbEntity
  8
0
100
AcDbBlockBegin
  2
*D17
 70
     1
 10
0.0
 20
0.0
 30
0.0
  3
*D17
  1

  0
LINE
  5
DA5
330
DA3
100
AcDbEntity
  8
0
  6
ByBlock
 62
     0
100
AcDbLine
 10
4885.793930557877
 20
4785.669811580356
 30
0.0
 11
4805.793930557877
 21
4785.669811580356
 31
0.0
  0
LINE
  5
DA6
330
DA3
100
AcDbEntity
  8
0
  6
ByBlock
 62
     0
100
AcDbLine
 10
4885.793930557877
 20
4635.669811580355
 30
0.0
 11
4805.793930557877
 21
4635.669811580355
 31
0.0
  0
LINE
  5
DA7
330
DA3
100
AcDbEntity
  8
0
  6
ByBlock
 62
     0
100
AcDbLine
 10
4815.793930557877
 20
4765.669811580355
 30
0.0
 11
4815.793930557877
 21
4655.669811580355
 31
0.0
  0
INSERT
  5
DA8
330
DA3
100
AcDbEntity
  8
0
  6
ByBlock
 62
     0
100
AcDbBlockReference
  2
_OPEN
 10
4815.793930557877
 20
4785.669811580356
 30
0.0
 41
20.0
 42
20.0
 43
20.0
 50
90.0
  0
INSERT
  5
DA9
330
DA3
100
AcDbEntity
  8
0
  6
ByBlock
 62
     0
100
AcDbBlockReference
  2
_OPEN
 10
4815.793930557877
 20
4635.669811580355
 30
0.0
 41
20.0
 42
20.0
 43
20.0
 50
270.0
  0
MTEXT
  5
DAA
330
DA3
100
AcDbEntity
  8
0
  6
ByBlock
 62
     0
100
AcDbMText
 10
4790.793930557876
 20
4710.669811580356
 30
0.0
 40
25.0
 41
0.0
 71
     5
 72
     1
  1
\A1;150
 11
0.0000000000000001
 21
1.0
 31
0.0
 73
     1
 44
1.0
1001
ACAD
1000
MTEXTBEGIN
1070
    73
1070
     1
1070
    44
1040
1.0
1070
    74
1070
     0
1000
MTEXTEND
  0
POINT
  5
DAB
330
DA3
100
AcDbEntity
  8
DEFPOINTS
  6
ByBlock
 62
     0
100
AcDbPoint
 10
4915.793930557876
 20
4785.669811580356
 30
0.0
  0
POINT
  5
DAC
330
DA3
100
AcDbEntity
  8
DEFPOINTS
  6
ByBlock
 62
     0
100
AcDbPoint
 10
4915.793930557876
 20
4635.669811580355
 30
0.0
  0
POINT
  5
DAD
330
DA3
100
AcDbEntity
  8
DEFPOINTS
  6
ByBlock
 62
     0
100
AcDbPoint
 10
4815.793930557877
 20
4635.669811580355
 30
0.0
  0
ENDBLK
  5
DAE
330
DA3
100
AcDbEntity
  8
0
100
AcDbBlockEnd
  0
BLOCK
  5
DB0
330
DAF
100
AcDbEntity
  8
0
100
AcDbBlockBegin
  2
*D18
 70
     1
 10
0.0
 20
0.0
 30
0.0
  3
*D18
  1

  0
LINE
  5
DB1
330
DAF
100
AcDbEntity
  8
0
  6
ByBlock
 62
     0
100
AcDbLine
 10
4915.793930557876
 20
4605.669811580355
 30
0.0
 11
4915.793930557876
 21
4525.669811580356
 31
0.0
  0
LINE
  5
DB2
330
DAF
100
AcDbEntity
  8
0
  6
ByBlock
 62
     0
100
AcDbLine
 10
5065.793930557877
 20
4605.669811580355
 30
0.0
 11
5065.793930557877
 21
4525.669811580356
 31
0.0
  0
LINE
  5
DB3
330
DAF
100
AcDbEntity
  8
0
  6
ByBlock
 62
     0
100
AcDbLine
 10
4935.793930557877
 20
4535.669811580356
 30
0.0
 11
5045.793930557877
 21
4535.669811580356
 31
0.0
  0
INSERT
  5
DB4
330
DAF
100
AcDbEntity
  8
0
  6
ByBlock
 62
     0
100
AcDbBlockReference
  2
_OPEN
 10
4915.793930557876
 20
4535.669811580356
 30
0.0
 41
20.0
 42
20.0
 43
20.0
 50
180.0
  0
INSERT
  5
DB5
330
DAF
100
AcDbEntity
  8
0
  6
ByBlock
 62
     0
100
AcDbBlockReference
  2
_OPEN
 10
5065.793930557877
 20
4535.669811580356
 30
0.0
 41
20.0
 42
20.0
 43
20.0
  0
MTEXT
  5
DB6
330
DAF
100
AcDbEntity
  8
0
  6
ByBlock
 62
     0
100
AcDbMText
 10
4990.793930557877
 20
4560.669811580356
 30
0.0
 40
25.0
 41
0.0
 71
     5
 72
     1
  1
\A1;150
 73
     1
 44
1.0
1001
ACAD
1000
MTEXTBEGIN
1070
    73
1070
     1
1070
    44
1040
1.0
1070
    74
1070
     0
1000
MTEXTEND
  0
POINT
  5
DB7
330
DAF
100
AcDbEntity
  8
DEFPOINTS
  6
ByBlock
 62
     0
100
AcDbPoint
 10
4915.793930557876
 20
4635.669811580355
 30
0.0
  0
POINT
  5
DB8
330
DAF
100
AcDbEntity
  8
DEFPOINTS
  6
ByBlock
 62
     0
100
AcDbPoint
 10
5065.793930557877
 20
4635.669811580355
 30
0.0
  0
POINT
  5
DB9
330
DAF
100
AcDbEntity
  8
DEFPOINTS
  6
ByBlock
 62
     0
100
AcDbPoint
 10
5065.793930557877
 20
4535.669811580356
 30
0.0
  0
ENDBLK
  5
DBA
330
DAF
100
AcDbEntity
  8
0
100
AcDbBlockEnd
  0
BLOCK
  5
E5D
330
E37
100
AcDbEntity
  8
0
100
AcDbBlockBegin
  2
*D19
 70
     1
 10
0.0
 20
0.0
 30
0.0
  3
*D19
  1

  0
LINE
  5
E5E
330
E37
100
AcDbEntity
  8
0
  6
ByBlock
 62
     0
100
AcDbLine
 10
5219.294749266119
 20
2220.73505600846
 30
0.0
 11
5079.294749266117
 21
2220.73505600846
 31
0.0
  0
LINE
  5
E5F
330
E37
100
AcDbEntity
  8
0
  6
ByBlock
 62
     0
100
AcDbLine
 10
5219.294749266119
 20
2100.73505600846
 30
0.0
 11
5079.294749266117
 21
2100.73505600846
 31
0.0
  0
LINE
  5
E60
330
E37
100
AcDbEntity
  8
0
  6
ByBlock
 62
     0
100
AcDbLine
 10
5089.294749266117
 20
2200.73505600846
 30
0.0
 11
5089.294749266117
 21
2120.73505600846
 31
0.0
  0
INSERT
  5
E61
330
E37
100
AcDbEntity
  8
0
  6
ByBlock
 62
     0
100
AcDbBlockReference
  2
_OPEN
 10
5089.294749266117
 20
2220.73505600846
 30
0.0
 41
20.0
 42
20.0
 43
20.0
 50
90.0
  0
INSERT
  5
E62
330
E37
100
AcDbEntity
  8
0
  6
ByBlock
 62
     0
100
AcDbBlockReference
  2
_OPEN
 10
5089.294749266117
 20
2100.73505600846
 30
0.0
 41
20.0
 42
20.0
 43
20.0
 50
270.0
  0
MTEXT
  5
E63
330
E37
100
AcDbEntity
  8
0
  6
ByBlock
 62
     0
100
AcDbMText
 10
5064.294749266117
 20
2160.73505600846
 30
0.0
 40
25.0
 41
0.0
 71
     5
 72
     1
  1
\A1;120
 11
0.0000000000000001
 21
1.0
 31
0.0
 73
     1
 44
1.0
1001
ACAD
1000
MTEXTBEGIN
1070
    73
1070
     1
1070
    44
1040
1.0
1070
    74
1070
     0
1000
MTEXTEND
  0
POINT
  5
E64
330
E37
100
AcDbEntity
  8
DEFPOINTS
  6
ByBlock
 62
     0
100
AcDbPoint
 10
5249.294749266119
 20
2220.73505600846
 30
0.0
  0
POINT
  5
E65
330
E37
100
AcDbEntity
  8
DEFPOINTS
  6
ByBlock
 62
     0
100
AcDbPoint
 10
5249.294749266119
 20
2100.73505600846
 30
0.0
  0
POINT
  5
E66
330
E37
100
AcDbEntity
  8
DEFPOINTS
  6
ByBlock
 62
     0
100
AcDbPoint
 10
5089.294749266117
 20
2100.73505600846
 30
0.0
  0
ENDBLK
  5
E67
330
E37
100
AcDbEntity
  8
0
100
AcDbBlockEnd
  0
BLOCK
  5
E45
330
E44
100
AcDbEntity
  8
0
100
AcDbBlockBegin
  2
*D20
 70
     1
 10
0.0
 20
0.0
 30
0.0
  3
*D20
  1

  0
LINE
  5
E46
330
E44
100
AcDbEntity
  8
0
  6
ByBlock
 62
     0
100
AcDbLine
 10
5249.294749266119
 20
2250.73505600846
 30
0.0
 11
5249.294749266119
 21
2330.73505600846
 31
0.0
  0
LINE
  5
E47
330
E44
100
AcDbEntity
  8
0
  6
ByBlock
 62
     0
100
AcDbLine
 10
5369.294749266119
 20
2250.73505600846
 30
0.0
 11
5369.294749266119
 21
2330.73505600846
 31
0.0
  0
LINE
  5
E48
330
E44
100
AcDbEntity
  8
0
  6
ByBlock
 62
     0
100
AcDbLine
 10
5269.294749266119
 20
2320.73505600846
 30
0.0
 11
5349.294749266118
 21
2320.73505600846
 31
0.0
  0
INSERT
  5
E49
330
E44
100
AcDbEntity
  8
0
  6
ByBlock
 62
     0
100
AcDbBlockReference
  2
_OPEN
 10
5249.294749266119
 20
2320.73505600846
 30
0.0
 41
20.0
 42
20.0
 43
20.0
 50
180.0
  0
INSERT
  5
E4A
330
E44
100
AcDbEntity
  8
0
  6
ByBlock
 62
     0
100
AcDbBlockReference
  2
_OPEN
 10
5369.294749266119
 20
2320.73505600846
 30
0.0
 41
20.0
 42
20.0
 43
20.0
  0
MTEXT
  5
E4B
330
E44
100
AcDbEntity
  8
0
  6
ByBlock
 62
     0
100
AcDbMText
 10
5309.294749266118
 20
2345.73505600846
 30
0.0
 40
25.0
 41
0.0
 71
     5
 72
     1
  1
\A1;120
 73
     1
 44
1.0
1001
ACAD
1000
MTEXTBEGIN
1070
    73
1070
     1
1070
    44
1040
1.0
1070
    74
1070
     0
1000
MTEXTEND
  0
POINT
  5
E4C
330
E44
100
AcDbEntity
  8
DEFPOINTS
  6
ByBlock
 62
     0
100
AcDbPoint
 10
5249.294749266119
 20
2220.73505600846
 30
0.0
  0
POINT
  5
E4D
330
E44
100
AcDbEntity
  8
DEFPOINTS
  6
ByBlock
 62
     0
100
AcDbPoint
 10
5369.294749266119
 20
2220.73505600846
 30
0.0
  0
POINT
  5
E4E
330
E44
100
AcDbEntity
  8
DEFPOINTS
  6
ByBlock
 62
     0
100
AcDbPoint
 10
5369.294749266119
 20
2320.73505600846
 30
0.0
  0
ENDBLK
  5
E4F
330
E44
100
AcDbEntity
  8
0
100
AcDbBlockEnd
  0
BLOCK
  5
E69
330
E68
100
AcDbEntity
  8
0
100
AcDbBlockBegin
  2
*D21
 70
     1
 10
0.0
 20
0.0
 30
0.0
  3
*D21
  1

  0
LINE
  5
E6A
330
E68
100
AcDbEntity
  8
0
  6
ByBlock
 62
     0
100
AcDbLine
 10
5189.294749266117
 20
1980.73505600846
 30
0.0
 11
5079.294749266117
 21
1980.73505600846
 31
0.0
  0
LINE
  5
E6B
330
E68
100
AcDbEntity
  8
0
  6
ByBlock
 62
     0
100
AcDbLine
 10
5089.294749266117
 20
2080.73505600846
 30
0.0
 11
5089.294749266117
 21
2000.73505600846
 31
0.0
  0
INSERT
  5
E6C
330
E68
100
AcDbEntity
  8
0
  6
ByBlock
 62
     0
100
AcDbBlockReference
  2
_OPEN
 10
5089.294749266117
 20
2100.73505600846
 30
0.0
 41
20.0
 42
20.0
 43
20.0
 50
90.0
  0
INSERT
  5
E6D
330
E68
100
AcDbEntity
  8
0
  6
ByBlock
 62
     0
100
AcDbBlockReference
  2
_OPEN
 10
5089.294749266117
 20
1980.73505600846
 30
0.0
 41
20.0
 42
20.0
 43
20.0
 50
270.0
  0
MTEXT
  5
E6E
330
E68
100
AcDbEntity
  8
0
  6
ByBlock
 62
     0
100
AcDbMText
 10
5064.294749266117
 20
2040.735056008461
 30
0.0
 40
25.0
 41
0.0
 71
     5
 72
     1
  1
\A1;120
 11
0.0000000000000001
 21
1.0
 31
0.0
 73
     1
 44
1.0
1001
ACAD
1000
MTEXTBEGIN
1070
    73
1070
     1
1070
    44
1040
1.0
1070
    74
1070
     0
1000
MTEXTEND
  0
POINT
  5
E6F
330
E68
100
AcDbEntity
  8
DEFPOINTS
  6
ByBlock
 62
     0
100
AcDbPoint
 10
5249.294749266119
 20
2100.73505600846
 30
0.0
  0
POINT
  5
E70
330
E68
100
AcDbEntity
  8
DEFPOINTS
  6
ByBlock
 62
     0
100
AcDbPoint
 10
5219.294749266118
 20
1980.73505600846
 30
0.0
  0
POINT
  5
E71
330
E68
100
AcDbEntity
  8
DEFPOINTS
  6
ByBlock
 62
     0
100
AcDbPoint
 10
5089.294749266117
 20
1980.73505600846
 30
0.0
  0
ENDBLK
  5
E72
330
E68
100
AcDbEntity
  8
0
100
AcDbBlockEnd
  0
BLOCK
  5
E75
330
E74
100
AcDbEntity
  8
0
100
AcDbBlockBegin
  2
*D22
 70
     1
 10
0.0
 20
0.0
 30
0.0
  3
*D22
  1

  0
LINE
  5
E76
330
E74
100
AcDbEntity
  8
0
  6
ByBlock
 62
     0
100
AcDbLine
 10
5159.294749266118
 20
1930.73505600846
 30
0.0
 11
5079.294749266117
 21
1930.73505600846
 31
0.0
  0
LINE
  5
E77
330
E74
100
AcDbEntity
  8
0
  6
ByBlock
 62
     0
100
AcDbLine
 10
5089.294749266117
 20
1960.73505600846
 30
0.0
 11
5089.294749266117
 21
1950.73505600846
 31
0.0
  0
INSERT
  5
E78
330
E74
100
AcDbEntity
  8
0
  6
ByBlock
 62
     0
100
AcDbBlockReference
  2
_OPEN
 10
5089.294749266117
 20
1980.73505600846
 30
0.0
 41
20.0
 42
20.0
 43
20.0
 50
90.0
  0
INSERT
  5
E79
330
E74
100
AcDbEntity
  8
0
  6
ByBlock
 62
     0
100
AcDbBlockReference
  2
_OPEN
 10
5089.294749266117
 20
1930.73505600846
 30
0.0
 41
20.0
 42
20.0
 43
20.0
 50
270.0
  0
MTEXT
  5
E7A
330
E74
100
AcDbEntity
  8
0
  6
ByBlock
 62
     0
100
AcDbMText
 10
5064.294749266117
 20
1955.73505600846
 30
0.0
 40
25.0
 41
0.0
 71
     5
 72
     1
  1
\A1;50
 11
0.0000000000000001
 21
1.0
 31
0.0
 73
     1
 44
1.0
1001
ACAD
1000
MTEXTBEGIN
1070
    73
1070
     1
1070
    44
1040
1.0
1070
    74
1070
     0
1000
MTEXTEND
  0
POINT
  5
E7B
330
E74
100
AcDbEntity
  8
DEFPOINTS
  6
ByBlock
 62
     0
100
AcDbPoint
 10
5219.294749266118
 20
1980.73505600846
 30
0.0
  0
POINT
  5
E7C
330
E74
100
AcDbEntity
  8
DEFPOINTS
  6
ByBlock
 62
     0
100
AcDbPoint
 10
5189.294749266117
 20
1930.73505600846
 30
0.0
  0
POINT
  5
E7D
330
E74
100
AcDbEntity
  8
DEFPOINTS
  6
ByBlock
 62
     0
100
AcDbPoint
 10
5089.294749266117
 20
1930.73505600846
 30
0.0
  0
ENDBLK
  5
E7E
330
E74
100
AcDbEntity
  8
0
100
AcDbBlockEnd
  0
BLOCK
  5
112E
330
E82
100
AcDbEntity
  8
0
100
AcDbBlockBegin
  2
*D23
 70
     1
 10
0.0
 20
0.0
 30
0.0
  3
*D23
  1

  0
LINE
  5
112F
330
E82
100
AcDbEntity
  8
0
  6
ByBlock
 62
     0
100
AcDbLine
 10
5419.294749266118
 20
1700.73505600846
 30
0.0
 11
5419.294749266118
 21
1620.73505600846
 31
0.0
  0
LINE
  5
1130
330
E82
100
AcDbEntity
  8
0
  6
ByBlock
 62
     0
100
AcDbLine
 10
5569.294749266119
 20
1700.73505600846
 30
0.0
 11
5569.294749266119
 21
1620.73505600846
 31
0.0
  0
LINE
  5
1131
330
E82
100
AcDbEntity
  8
0
  6
ByBlock
 62
     0
100
AcDbLine
 10
5439.294749266117
 20
1630.73505600846
 30
0.0
 11
5549.294749266119
 21
1630.73505600846
 31
0.0
  0
INSERT
  5
1132
330
E82
100
AcDbEntity
  8
0
  6
ByBlock
 62
     0
100
AcDbBlockReference
  2
_OPEN
 10
5419.294749266118
 20
1630.73505600846
 30
0.0
 41
20.0
 42
20.0
 43
20.0
 50
180.0
  0
INSERT
  5
1133
330
E82
100
AcDbEntity
  8
0
  6
ByBlock
 62
     0
100
AcDbBlockReference
  2
_OPEN
 10
5569.294749266119
 20
1630.73505600846
 30
0.0
 41
20.0
 42
20.0
 43
20.0
  0
MTEXT
  5
1134
330
E82
100
AcDbEntity
  8
0
  6
ByBlock
 62
     0
100
AcDbMText
 10
5494.294749266119
 20
1655.73505600846
 30
0.0
 40
25.0
 41
0.0
 71
     5
 72
     1
  1
\A1;150
 73
     1
 44
1.0
1001
ACAD
1000
MTEXTBEGIN
1070
    73
1070
     1
1070
    44
1040
1.0
1070
    74
1070
     0
1000
MTEXTEND
  0
POINT
  5
1135
330
E82
100
AcDbEntity
  8
DEFPOINTS
  6
ByBlock
 62
     0
100
AcDbPoint
 10
5419.294749266118
 20
1730.73505600846
 30
0.0
  0
POINT
  5
1136
330
E82
100
AcDbEntity
  8
DEFPOINTS
  6
ByBlock
 62
     0
100
AcDbPoint
 10
5569.294749266119
 20
1730.73505600846
 30
0.0
  0
POINT
  5
1137
330
E82
100
AcDbEntity
  8
DEFPOINTS
  6
ByBlock
 62
     0
100
AcDbPoint
 10
5569.294749266119
 20
1630.73505600846
 30
0.0
  0
ENDBLK
  5
1138
330
E82
100
AcDbEntity
  8
0
100
AcDbBlockEnd
  0
BLOCK
  5
E90
330
E8F
100
AcDbEntity
  8
0
100
AcDbBlockBegin
  2
*D24
 70
     1
 10
0.0
 20
0.0
 30
0.0
  3
*D24
  1

  0
LINE
  5
E91
330
E8F
100
AcDbEntity
  8
0
  6
ByBlock
 62
     0
100
AcDbLine
 10
5189.294749266117
 20
1900.73505600846
 30
0.0
 11
5189.294749266117
 21
1770.73505600846
 31
0.0
  0
LINE
  5
E92
330
E8F
100
AcDbEntity
  8
0
  6
ByBlock
 62
     0
100
AcDbLine
 10
5369.294749266119
 20
1900.73505600846
 30
0.0
 11
5369.294749266119
 21
1770.73505600846
 31
0.0
  0
LINE
  5
E93
330
E8F
100
AcDbEntity
  8
0
  6
ByBlock
 62
     0
100
AcDbLine
 10
5209.294749266118
 20
1780.73505600846
 30
0.0
 11
5349.294749266118
 21
1780.73505600846
 31
0.0
  0
INSERT
  5
E94
330
E8F
100
AcDbEntity
  8
0
  6
ByBlock
 62
     0
100
AcDbBlockReference
  2
_OPEN
 10
5189.294749266117
 20
1780.73505600846
 30
0.0
 41
20.0
 42
20.0
 43
20.0
 50
180.0
  0
INSERT
  5
E95
330
E8F
100
AcDbEntity
  8
0
  6
ByBlock
 62
     0
100
AcDbBlockReference
  2
_OPEN
 10
5369.294749266119
 20
1780.73505600846
 30
0.0
 41
20.0
 42
20.0
 43
20.0
  0
MTEXT
  5
E96
330
E8F
100
AcDbEntity
  8
0
  6
ByBlock
 62
     0
100
AcDbMText
 10
5279.294749266119
 20
1805.73505600846
 30
0.0
 40
25.0
 41
0.0
 71
     5
 72
     1
  1
\A1;180
 73
     1
 44
1.0
1001
ACAD
1000
MTEXTBEGIN
1070
    73
1070
     1
1070
    44
1040
1.0
1070
    74
1070
     0
1000
MTEXTEND
  0
POINT
  5
E97
330
E8F
100
AcDbEntity
  8
DEFPOINTS
  6
ByBlock
 62
     0
100
AcDbPoint
 10
5189.294749266117
 20
1930.73505600846
 30
0.0
  0
POINT
  5
E98
330
E8F
100
AcDbEntity
  8
DEFPOINTS
  6
ByBlock
 62
     0
100
AcDbPoint
 10
5369.294749266119
 20
1930.73505600846
 30
0.0
  0
POINT
  5
E99
330
E8F
100
AcDbEntity
  8
DEFPOINTS
  6
ByBlock
 62
     0
100
AcDbPoint
 10
5369.294749266119
 20
1780.73505600846
 30
0.0
  0
ENDBLK
  5
E9A
330
E8F
100
AcDbEntity
  8
0
100
AcDbBlockEnd
  0
BLOCK
  5
EA7
330
EA0
100
AcDbEntity
  8
0
100
AcDbBlockBegin
  2
GURIISI
 70
     0
 10
0.0
 20
0.0
 30
0.0
  3
GURIISI
  1

  0
ELLIPSE
  5
EA1
330
EA0
100
AcDbEntity
  8
0
100
AcDbEllipse
 10
106.9717847756565
 20
51.80385637475501
 30
0.0
 11
-18.10800601554684
 21
-49.7513376390632
 31
0.0
210
0.0
220
0.0
230
1.0
 40
0.6370965814071999
 41
0.0
 42
6.283185307179586
  0
ELLIPSE
  5
EA2
330
EA0
100
AcDbEntity
  8
0
100
AcDbEllipse
 10
36.88841281398345
 20
51.80385637475501
 30
0.0
 11
-18.10800601554684
 21
-49.7513376390632
 31
0.0
210
0.0
220
0.0
230
1.0
 40
0.6370965814071999
 41
0.0
 42
6.283185307179586
  0
ELLIPSE
  5
EA3
330
EA0
100
AcDbEntity
  8
0
100
AcDbEllipse
 10
177.0551567373268
 20
51.80385637475501
 30
0.0
 11
-18.10800601554684
 21
-49.7513376390632
 31
0.0
210
0.0
220
0.0
230
1.0
 40
0.6370965814071999
 41
2.540389369560635
 42
7.922479761453955
  0
ELLIPSE
  5
EA4
330
EA0
100
AcDbEntity
  8
0
100
AcDbEllipse
 10
106.9717847756565
 20
148.803856374755
 30
0.0
 11
-18.10800601554684
 21
-49.7513376390632
 31
0.0
210
0.0
220
0.0
230
1.0
 40
0.6370965814071999
 41
0.0
 42
6.283185307179586
  0
ELLIPSE
  5
EA5
330
EA0
100
AcDbEntity
  8
0
100
AcDbEllipse
 10
36.88841281398345
 20
148.803856374755
 30
0.0
 11
-18.10800601554684
 21
-49.7513376390632
 31
0.0
210
0.0
220
0.0
230
1.0
 40
0.6370965814071999
 41
0.0
 42
6.283185307179586
  0
ELLIPSE
  5
EA6
330
EA0
100
AcDbEntity
  8
0
100
AcDbEllipse
 10
177.0551567373268
 20
148.803856374755
 30
0.0
 11
-18.10800601554684
 21
-49.7513376390632
 31
0.0
210
0.0
220
0.0
230
1.0
 40
0.6370965814071999
 41
2.540389369560626
 42
7.92247976145397
  0
ENDBLK
  5
EA8
330
EA0
100
AcDbEntity
  8
0
100
AcDbBlockEnd
  0
ENDSEC
  0
SECTION
  2
ENTITIES
  0
MTEXT
  5
CA
330
67
100
AcDbEntity
  8
1-構造
  6
Continuous
 62
     7
100
AcDbMText
 10
34848.0
 20
72131.0
 30
0.0
 40
320.0
 41
0.0
 71
     7
 72
     5
  1

  7
DIM
 73
     1
 44
1.0
1001
ACAD
1000
MTEXTBEGIN
1070
    73
1070
     1
1070
    44
1040
1.0
1070
    74
1070
     0
1000
MTEXTEND
  0
LINE
  5
770
330
67
100
AcDbEntity
  8
DEFPOINTS
 48
10.0
100
AcDbLine
 10
0.0
 20
5940.0
 30
0.0
 11
0.0
 21
0.0
 31
0.0
  0
LINE
  5
772
330
67
100
AcDbEntity
  8
DEFPOINTS
 48
10.0
100
AcDbLine
 10
0.0
 20
0.0
 30
0.0
 11
8410.0
 21
0.0
 31
0.0
  0
LINE
  5
78C
330
67
100
AcDbEntity
  8
DEFPOINTS
 48
10.0
100
AcDbLine
 10
8410.0
 20
5940.0
 30
0.0
 11
8410.0
 21
0.0
 31
0.0
  0
LINE
  5
78D
330
67
100
AcDbEntity
  8
DEFPOINTS
 48
10.0
100
AcDbLine
 10
0.0
 20
5940.0
 30
0.0
 11
8410.0
 21
5940.0
 31
0.0
  0
LINE
  5
792
330
67
100
AcDbEntity
  8
DEFPOINTS
 48
10.0
100
AcDbLine
 10
8210.0
 20
5740.0
 30
0.0
 11
8210.0
 21
200.0
 31
0.0
  0
LINE
  5
793
330
67
100
AcDbEntity
  8
DEFPOINTS
 48
10.0
100
AcDbLine
 10
200.0
 20
200.0
 30
0.0
 11
8210.0
 21
200.0
 31
0.0
  0
LINE
  5
794
330
67
100
AcDbEntity
  8
DEFPOINTS
 48
10.0
100
AcDbLine
 10
200.0
 20
5740.0
 30
0.0
 11
200.0
 21
200.0
 31
0.0
  0
LINE
  5
795
330
67
100
AcDbEntity
  8
DEFPOINTS
 48
10.0
100
AcDbLine
 10
200.0
 20
5740.0
 30
0.0
 11
8210.0
 21
5740.0
 31
0.0
  0
LINE
  5
7B9
330
67
100
AcDbEntity
  8
1-構造
100
AcDbLine
 10
1449.294749266118
 20
2100.73505600846
 30
0.0
 11
1599.294749266118
 21
2100.73505600846
 31
0.0
  0
LINE
  5
8E5
330
67
100
AcDbEntity
  8
1-構造
100
AcDbLine
 10
2273.923165362893
 20
4455.669811580356
 30
0.0
 11
2273.923165362893
 21
4335.669811580356
 31
0.0
  0
LINE
  5
8E8
330
67
100
AcDbEntity
  8
1-構造
100
AcDbLine
 10
2273.923165362893
 20
3955.669811580356
 30
0.0
 11
2273.923165362893
 21
3835.669811580356
 31
0.0
  0
LINE
  5
8E9
330
67
100
AcDbEntity
  8
1-構造
100
AcDbLine
 10
2873.923165362893
 20
4455.669811580356
 30
0.0
 11
2873.923165362893
 21
4335.669811580356
 31
0.0
  0
LINE
  5
8EA
330
67
100
AcDbEntity
  8
1-構造
100
AcDbLine
 10
3273.923165362892
 20
3955.669811580356
 30
0.0
 11
3273.923165362892
 21
3835.669811580354
 31
0.0
  0
LINE
  5
8EF
330
67
100
AcDbEntity
  8
1-構造
100
AcDbLine
 10
2273.923165362893
 20
4335.669811580356
 30
0.0
 11
2873.923165362893
 21
4335.669811580356
 31
0.0
  0
LINE
  5
8F2
330
67
100
AcDbEntity
  8
1-構造
100
AcDbLine
 10
2273.923165362893
 20
3835.669811580356
 30
0.0
 11
3273.923165362892
 21
3835.669811580356
 31
0.0
  0
DIMENSION
  5
914
330
67
100
AcDbEntity
  8
6-寸法
100
AcDbDimension
  2
*D1
 10
2873.923165362893
 20
4235.669811580356
 30
0.0
 11
2573.923165362892
 21
4260.669811580355
 31
0.0
 12
400.0
 22
-400.0
 32
0.0
 70
    32
 71
     5
 42
-1.0
  3
STANDARD
100
AcDbAlignedDimension
 13
2273.923165362893
 23
4335.669811580356
 33
0.0
 14
2873.923165362893
 24
4335.669811580356
 34
0.0
100
AcDbRotatedDimension
1001
ACAD
1000
DSTYLE
1002
{
1070
    40
1040
10.0
1070
   173
1070
     1
1070
    42
1040
3.0
1070
     7
1000
_OPEN
1070
     6
1000
_OPEN
1070
    41
1040
2.0
1002
}
  0
DIMENSION
  5
921
330
67
100
AcDbEntity
  8
6-寸法
100
AcDbDimension
  2
*D2
 10
3273.923165362892
 20
3735.669811580356
 30
0.0
 11
2773.923165362893
 21
3760.669811580356
 31
0.0
 12
400.0
 22
-400.0
 32
0.0
 70
    32
 71
     5
 42
-1.0
  3
STANDARD
100
AcDbAlignedDimension
 13
2273.923165362893
 23
3835.669811580356
 33
0.0
 14
3273.923165362892
 24
3835.669811580354
 34
0.0
100
AcDbRotatedDimension
1001
ACAD
1000
DSTYLE
1002
{
1070
    40
1040
10.0
1070
   173
1070
     1
1070
    42
1040
3.0
1070
     7
1000
_OPEN
1070
     6
1000
_OPEN
1070
    41
1040
2.0
1002
}
  0
LINE
  5
9EB
330
67
100
AcDbEntity
  8
1-構造
100
AcDbLine
 10
2278.923165362892
 20
2220.73505600846
 30
0.0
 11
2278.923165362892
 21
2100.73505600846
 31
0.0
  0
LINE
  5
9ED
330
67
100
AcDbEntity
  8
1-構造
100
AcDbLine
 10
2278.923165362892
 20
1620.73505600846
 30
0.0
 11
2278.923165362892
 21
1500.735056008459
 31
0.0
  0
LINE
  5
9EF
330
67
100
AcDbEntity
  8
1-構造
100
AcDbLine
 10
2878.923165362892
 20
2220.73505600846
 30
0.0
 11
2878.923165362892
 21
2100.73505600846
 31
0.0
  0
LINE
  5
9F0
330
67
100
AcDbEntity
  8
1-構造
100
AcDbLine
 10
3278.923165362891
 20
1620.73505600846
 30
0.0
 11
3278.923165362892
 21
1500.73505600846
 31
0.0
  0
LINE
  5
9F3
330
67
100
AcDbEntity
  8
1-構造
100
AcDbLine
 10
2278.923165362892
 20
2100.73505600846
 30
0.0
 11
2878.923165362892
 21
2100.73505600846
 31
0.0
  0
LINE
  5
9F5
330
67
100
AcDbEntity
  8
1-構造
100
AcDbLine
 10
2278.923165362892
 20
1500.735056008459
 30
0.0
 11
3278.923165362892
 21
1500.735056008459
 31
0.0
  0
DIMENSION
  5
A11
330
67
100
AcDbEntity
  8
6-寸法
100
AcDbDimension
  2
*D3
 10
2878.923165362892
 20
2000.73505600846
 30
0.0
 11
2578.923165362891
 21
2025.73505600846
 31
0.0
 12
404.999999999999
 22
-884.934755571896
 32
0.0
 70
    32
 71
     5
 42
-1.0
  3
STANDARD
100
AcDbAlignedDimension
 13
2278.923165362892
 23
2100.73505600846
 33
0.0
 14
2878.923165362892
 24
2100.73505600846
 34
0.0
100
AcDbRotatedDimension
1001
ACAD
1000
DSTYLE
1002
{
1070
    40
1040
10.0
1070
   173
1070
     1
1070
    42
1040
3.0
1070
     7
1000
_OPEN
1070
     6
1000
_OPEN
1070
    41
1040
2.0
1002
}
  0
DIMENSION
  5
A1E
330
67
100
AcDbEntity
  8
6-寸法
100
AcDbDimension
  2
*D4
 10
3278.923165362892
 20
1390.735056008459
 30
0.0
 11
2778.923165362892
 21
1415.73505600846
 31
0.0
 12
404.999999999999
 22
-884.934755571896
 32
0.0
 70
    32
 71
     5
 42
-1.0
  3
STANDARD
100
AcDbAlignedDimension
 13
2278.923165362892
 23
1500.735056008459
 33
0.0
 14
3278.923165362892
 24
1500.735056008459
 34
0.0
100
AcDbRotatedDimension
1001
ACAD
1000
DSTYLE
1002
{
1070
    40
1040
10.0
1070
   173
1070
     1
1070
    42
1040
3.0
1070
     7
1000
_OPEN
1070
     6
1000
_OPEN
1070
    41
1040
2.0
1002
}
  0
LINE
  5
A3B
330
67
100
AcDbEntity
  8
1-構造
100
AcDbLine
 10
6074.42234665465
 20
4455.669811580356
 30
0.0
 11
6074.42234665465
 21
4305.669811580355
 31
0.0
  0
LINE
  5
A3C
330
67
100
AcDbEntity
  8
1-構造
100
AcDbLine
 10
6674.42234665465
 20
4455.669811580356
 30
0.0
 11
6674.422346654651
 21
4305.669811580355
 31
0.0
  0
LINE
  5
AA8
330
67
100
AcDbEntity
  8
1-構造
100
AcDbLine
 10
6074.42234665465
 20
4305.669811580354
 30
0.0
 11
6674.42234665465
 21
4305.669811580355
 31
0.0
  0
DIMENSION
  5
AC2
330
67
100
AcDbEntity
  8
6-寸法
100
AcDbDimension
  2
*D5
 10
6674.42234665465
 20
4205.669811580356
 30
0.0
 11
6374.42234665465
 21
4230.669811580355
 31
0.0
 12
324.0
 22
-330.0
 32
0.0
 70
    32
 71
     5
 42
-1.0
  3
STANDARD
100
AcDbAlignedDimension
 13
6074.42234665465
 23
4305.669811580354
 33
0.0
 14
6674.42234665465
 24
4305.669811580355
 34
0.0
100
AcDbRotatedDimension
1001
ACAD
1000
DSTYLE
1002
{
1070
    40
1040
10.0
1070
   173
1070
     1
1070
    42
1040
3.0
1070
     7
1000
_OPEN
1070
     6
1000
_OPEN
1070
    41
1040
2.0
1002
}
  0
LINE
  5
AC4
330
67
100
AcDbEntity
  8
1-構造
100
AcDbLine
 10
6074.42234665465
 20
4025.669811580356
 30
0.0
 11
6074.42234665465
 21
3875.669811580356
 31
0.0
  0
LINE
  5
ACB
330
67
100
AcDbEntity
  8
1-構造
100
AcDbLine
 10
6074.42234665465
 20
3875.669811580355
 30
0.0
 11
7074.422346654651
 21
3875.669811580356
 31
0.0
  0
LINE
  5
B3F
330
67
100
AcDbEntity
  8
1-構造
100
AcDbLine
 10
7074.422346654651
 20
4025.669811580356
 30
0.0
 11
7074.422346654651
 21
3875.66981158036
 31
0.0
  0
DIMENSION
  5
B4D
330
67
100
AcDbEntity
  8
6-寸法
100
AcDbDimension
  2
*D6
 10
7074.422346654651
 20
3775.669811580356
 30
0.0
 11
6574.422346654651
 21
3800.669811580356
 31
0.0
 12
324.0
 22
-60.0
 32
0.0
 70
    32
 71
     5
 42
-1.0
  3
STANDARD
100
AcDbAlignedDimension
 13
6074.42234665465
 23
3875.669811580356
 33
0.0
 14
7074.422346654651
 24
3875.66981158036
 34
0.0
100
AcDbRotatedDimension
1001
ACAD
1000
DSTYLE
1002
{
1070
    40
1040
10.0
1070
   173
1070
     1
1070
    42
1040
3.0
1070
     7
1000
_OPEN
1070
     6
1000
_OPEN
1070
    41
1040
2.0
1002
}
  0
LINE
  5
B7D
330
67
100
AcDbEntity
  8
7-文字
100
AcDbLine
 10
3664.423135752784
 20
5348.968403460997
 30
0.0
 11
4745.576864247216
 21
5348.968403460997
 31
0.0
  0
LINE
  5
C6A
330
67
100
AcDbEntity
  8
1-構造
100
AcDbLine
 10
5239.793930557876
 20
4305.669811580355
 30
0.0
 11
5389.793930557877
 21
4305.669811580355
 31
0.0
  0
LWPOLYLINE
  5
CA1
330
67
100
AcDbEntity
  8
1-構造
100
AcDbPolyline
 90
        4
 70
     1
 43
0.0
 10
1449.294749266119
 20
4335.669811580356
 10
1569.294749266119
 20
4335.669811580356
 10
1569.294749266119
 20
4455.669811580356
 10
1449.294749266119
 20
4455.669811580356
  0
DIMENSION
  5
CBD
330
67
100
AcDbEntity
  8
6-寸法
100
AcDbDimension
  2
*D7
 10
1569.294749266119
 20
4235.669811580356
 30
0.0
 11
1509.294749266119
 21
4260.669811580355
 31
0.0
 12
400.0
 22
-400.0
 32
0.0
 70
    32
 71
     5
 42
-1.0
  3
STANDARD
100
AcDbAlignedDimension
 13
1449.294749266119
 23
4335.669811580356
 33
0.0
 14
1569.294749266119
 24
4335.669811580356
 34
0.0
100
AcDbRotatedDimension
1001
ACAD
1000
DSTYLE
1002
{
1070
    40
1040
10.0
1070
   173
1070
     1
1070
    42
1040
3.0
1070
     7
1000
_OPEN
1070
     6
1000
_OPEN
1070
    41
1040
2.0
1002
}
  0
DIMENSION
  5
CCA
330
67
100
AcDbEntity
  8
6-寸法
100
AcDbDimension
  2
*D8
 10
1349.294749266119
 20
4335.669811580356
 30
0.0
 11
1324.294749266119
 21
4395.669811580355
 31
0.0
 12
400.0
 22
-400.0
 32
0.0
 70
    32
 71
     5
 42
-1.0
  3
STANDARD
100
AcDbAlignedDimension
 13
1449.294749266119
 23
4455.669811580356
 33
0.0
 14
1449.294749266119
 24
4335.669811580356
 34
0.0
 50
90.0
100
AcDbRotatedDimension
1001
ACAD
1000
DSTYLE
1002
{
1070
    40
1040
10.0
1070
   173
1070
     1
1070
    42
1040
3.0
1070
     7
1000
_OPEN
1070
     6
1000
_OPEN
1070
    41
1040
2.0
1002
}
  0
LINE
  5
CCD
330
67
100
AcDbEntity
  8
1-構造
100
AcDbLine
 10
2273.923165362893
 20
4455.669811580356
 30
0.0
 11
2873.923165362893
 21
4455.669811580356
 31
0.0
  0
DIMENSION
  5
CCE
330
67
100
AcDbEntity
  8
6-寸法
100
AcDbDimension
  2
*D10
 10
1349.294749266119
 20
3835.669811580356
 30
0.0
 11
1324.294749266119
 21
3895.669811580356
 31
0.0
 12
400.0
 22
-900.0
 32
0.0
 70
    32
 71
     5
 42
-1.0
  3
STANDARD
100
AcDbAlignedDimension
 13
1449.294749266119
 23
3955.669811580356
 33
0.0
 14
1449.294749266119
 24
3835.669811580356
 34
0.0
 50
90.0
100
AcDbRotatedDimension
1001
ACAD
1000
DSTYLE
1002
{
1070
    40
1040
10.0
1070
   173
1070
     1
1070
    42
1040
3.0
1070
     7
1000
_OPEN
1070
     6
1000
_OPEN
1070
    41
1040
2.0
1002
}
  0
LWPOLYLINE
  5
CCF
330
67
100
AcDbEntity
  8
1-構造
100
AcDbPolyline
 90
        4
 70
     1
 43
0.0
 10
1449.294749266119
 20
3835.669811580356
 10
1569.294749266119
 20
3835.669811580356
 10
1569.294749266119
 20
3955.669811580356
 10
1449.294749266119
 20
3955.669811580356
  0
DIMENSION
  5
CD0
330
67
100
AcDbEntity
  8
6-寸法
100
AcDbDimension
  2
*D9
 10
1569.294749266119
 20
3735.669811580356
 30
0.0
 11
1509.294749266119
 21
3760.669811580356
 31
0.0
 12
400.0
 22
-900.0
 32
0.0
 70
    32
 71
     5
 42
-1.0
  3
STANDARD
100
AcDbAlignedDimension
 13
1449.294749266119
 23
3835.669811580356
 33
0.0
 14
1569.294749266119
 24
3835.669811580356
 34
0.0
100
AcDbRotatedDimension
1001
ACAD
1000
DSTYLE
1002
{
1070
    40
1040
10.0
1070
   173
1070
     1
1070
    42
1040
3.0
1070
     7
1000
_OPEN
1070
     6
1000
_OPEN
1070
    41
1040
2.0
1002
}
  0
LINE
  5
D08
330
67
100
AcDbEntity
  8
1-構造
100
AcDbLine
 10
2273.923165362893
 20
3955.669811580356
 30
0.0
 11
3273.923165362892
 21
3955.669811580356
 31
0.0
  0
LINE
  5
D0B
330
67
100
AcDbEntity
  8
1-構造
100
AcDbLine
 10
1449.294749266119
 20
2220.73505600846
 30
0.0
 11
1599.294749266119
 21
2220.73505600846
 31
0.0
  0
LINE
  5
D0C
330
67
100
AcDbEntity
  8
1-構造
100
AcDbLine
 10
1449.294749266119
 20
2220.73505600846
 30
0.0
 11
1449.294749266118
 21
2100.73505600846
 31
0.0
  0
LINE
  5
D0D
330
67
100
AcDbEntity
  8
1-構造
100
AcDbLine
 10
1599.294749266119
 20
2220.735056008459
 30
0.0
 11
1599.294749266118
 21
2100.73505600846
 31
0.0
  0
DIMENSION
  5
D1A
330
67
100
AcDbEntity
  8
6-寸法
100
AcDbDimension
  2
*D11
 10
1599.294749266118
 20
2000.73505600846
 30
0.0
 11
1524.294749266118
 21
2025.73505600846
 31
0.0
 12
404.999999999999
 22
-467.0
 32
0.0
 70
    32
 71
     5
 42
-1.0
  3
STANDARD
100
AcDbAlignedDimension
 13
1449.294749266118
 23
2100.735056008458
 33
0.0
 14
1599.294749266118
 24
2100.73505600846
 34
0.0
100
AcDbRotatedDimension
1001
ACAD
1000
DSTYLE
1002
{
1070
    40
1040
10.0
1070
   173
1070
     1
1070
    42
1040
3.0
1070
     7
1000
_OPEN
1070
     6
1000
_OPEN
1070
    41
1040
2.0
1002
}
  0
DIMENSION
  5
D27
330
67
100
AcDbEntity
  8
6-寸法
100
AcDbDimension
  2
*D12
 10
1324.294749266119
 20
2220.73505600846
 30
0.0
 11
1299.294749266119
 21
2160.73505600846
 31
0.0
 12
404.999999999999
 22
-467.0
 32
0.0
 70
    32
 71
     5
 42
-1.0
  3
STANDARD
100
AcDbAlignedDimension
 13
1449.294749266118
 23
2100.73505600846
 33
0.0
 14
1449.294749266118
 24
2220.73505600846
 34
0.0
 50
90.0
100
AcDbRotatedDimension
1001
ACAD
1000
DSTYLE
1002
{
1070
    40
1040
10.0
1070
   173
1070
     1
1070
    42
1040
3.0
1070
     7
1000
_OPEN
1070
     6
1000
_OPEN
1070
    41
1040
2.0
1002
}
  0
DIMENSION
  5
D3E
330
67
100
AcDbEntity
  8
6-寸法
100
AcDbDimension
  2
*D14
 10
1324.294749266119
 20
1620.73505600846
 30
0.0
 11
1299.294749266119
 21
1560.73505600846
 31
0.0
 12
405.0
 22
-1067.0
 32
0.0
 70
    32
 71
     5
 42
-1.0
  3
STANDARD
100
AcDbAlignedDimension
 13
1449.294749266118
 23
1500.73505600846
 33
0.0
 14
1449.294749266118
 24
1620.73505600846
 34
0.0
 50
90.0
100
AcDbRotatedDimension
1001
ACAD
1000
DSTYLE
1002
{
1070
    40
1040
10.0
1070
   173
1070
     1
1070
    42
1040
3.0
1070
     7
1000
_OPEN
1070
     6
1000
_OPEN
1070
    41
1040
2.0
1002
}
  0
DIMENSION
  5
D3F
330
67
100
AcDbEntity
  8
6-寸法
100
AcDbDimension
  2
*D13
 10
1599.294749266118
 20
1400.735056008459
 30
0.0
 11
1524.294749266118
 21
1425.735056008459
 31
0.0
 12
405.0
 22
-1067.0
 32
0.0
 70
    32
 71
     5
 42
-1.0
  3
STANDARD
100
AcDbAlignedDimension
 13
1449.294749266118
 23
1500.735056008458
 33
0.0
 14
1599.294749266118
 24
1500.73505600846
 34
0.0
100
AcDbRotatedDimension
1001
ACAD
1000
DSTYLE
1002
{
1070
    40
1040
10.0
1070
   173
1070
     1
1070
    42
1040
3.0
1070
     7
1000
_OPEN
1070
     6
1000
_OPEN
1070
    41
1040
2.0
1002
}
  0
LINE
  5
D40
330
67
100
AcDbEntity
  8
1-構造
100
AcDbLine
 10
1449.294749266119
 20
1620.73505600846
 30
0.0
 11
1599.294749266119
 21
1620.73505600846
 31
0.0
  0
LINE
  5
D41
330
67
100
AcDbEntity
  8
1-構造
100
AcDbLine
 10
1449.294749266119
 20
1500.73505600846
 30
0.0
 11
1599.294749266118
 21
1500.73505600846
 31
0.0
  0
LINE
  5
D42
330
67
100
AcDbEntity
  8
1-構造
100
AcDbLine
 10
1449.294749266119
 20
1620.73505600846
 30
0.0
 11
1449.294749266118
 21
1500.73505600846
 31
0.0
  0
LINE
  5
D44
330
67
100
AcDbEntity
  8
1-構造
100
AcDbLine
 10
1599.294749266119
 20
1620.735056008459
 30
0.0
 11
1599.294749266118
 21
1500.735056008459
 31
0.0
  0
LINE
  5
D7C
330
67
100
AcDbEntity
  8
1-構造
100
AcDbLine
 10
2278.923165362892
 20
1620.73505600846
 30
0.0
 11
3278.923165362891
 21
1620.73505600846
 31
0.0
  0
LINE
  5
D7E
330
67
100
AcDbEntity
  8
1-構造
100
AcDbLine
 10
2278.923165362892
 20
2220.73505600846
 30
0.0
 11
2878.923165362892
 21
2220.73505600846
 31
0.0
  0
LINE
  5
D7F
330
67
100
AcDbEntity
  8
1-構造
100
AcDbLine
 10
5239.793930557876
 20
4455.669811580356
 30
0.0
 11
5389.793930557877
 21
4455.669811580356
 31
0.0
  0
LINE
  5
D80
330
67
100
AcDbEntity
  8
1-構造
100
AcDbLine
 10
5239.793930557876
 20
4455.669811580356
 30
0.0
 11
5239.793930557876
 21
4305.669811580355
 31
0.0
  0
LINE
  5
D81
330
67
100
AcDbEntity
  8
1-構造
100
AcDbLine
 10
5389.793930557877
 20
4455.669811580356
 30
0.0
 11
5389.793930557877
 21
4305.669811580355
 31
0.0
  0
DIMENSION
  5
D8E
330
67
100
AcDbEntity
  8
6-寸法
100
AcDbDimension
  2
*D15
 10
5139.793930557877
 20
4305.669811580355
 30
0.0
 11
5114.793930557876
 21
4380.669811580355
 31
0.0
 12
324.0
 22
-330.0
 32
0.0
 70
    32
 71
     5
 42
-1.0
  3
STANDARD
100
AcDbAlignedDimension
 13
5239.793930557876
 23
4455.669811580356
 33
0.0
 14
5239.793930557876
 24
4305.669811580355
 34
0.0
 50
90.0
100
AcDbRotatedDimension
1001
ACAD
1000
DSTYLE
1002
{
1070
    40
1040
10.0
1070
   173
1070
     1
1070
    42
1040
3.0
1070
     7
1000
_OPEN
1070
     6
1000
_OPEN
1070
    41
1040
2.0
1002
}
  0
DIMENSION
  5
D9B
330
67
100
AcDbEntity
  8
6-寸法
100
AcDbDimension
  2
*D16
 10
5389.793930557877
 20
4205.669811580356
 30
0.0
 11
5314.793930557876
 21
4230.669811580355
 31
0.0
 12
324.0
 22
-330.0
 32
0.0
 70
    32
 71
     5
 42
-1.0
  3
STANDARD
100
AcDbAlignedDimension
 13
5239.793930557876
 23
4305.669811580355
 33
0.0
 14
5389.793930557877
 24
4305.669811580355
 34
0.0
100
AcDbRotatedDimension
1001
ACAD
1000
DSTYLE
1002
{
1070
    40
1040
10.0
1070
   173
1070
     1
1070
    42
1040
3.0
1070
     7
1000
_OPEN
1070
     6
1000
_OPEN
1070
    41
1040
2.0
1002
}
  0
DIMENSION
  5
D9C
330
67
100
AcDbEntity
  8
6-寸法
100
AcDbDimension
  2
*D17
 10
5139.793930557877
 20
3875.669811580356
 30
0.0
 11
5114.793930557876
 21
3950.669811580356
 31
0.0
 12
324.0
 22
-760.0
 32
0.0
 70
    32
 71
     5
 42
-1.0
  3
STANDARD
100
AcDbAlignedDimension
 13
5239.793930557876
 23
4025.669811580356
 33
0.0
 14
5239.793930557876
 24
3875.669811580356
 34
0.0
 50
90.0
100
AcDbRotatedDimension
1001
ACAD
1000
DSTYLE
1002
{
1070
    40
1040
10.0
1070
   173
1070
     1
1070
    42
1040
3.0
1070
     7
1000
_OPEN
1070
     6
1000
_OPEN
1070
    41
1040
2.0
1002
}
  0
DIMENSION
  5
D9D
330
67
100
AcDbEntity
  8
6-寸法
100
AcDbDimension
  2
*D18
 10
5389.793930557877
 20
3775.669811580356
 30
0.0
 11
5314.793930557876
 21
3800.669811580356
 31
0.0
 12
324.0
 22
-760.0
 32
0.0
 70
    32
 71
     5
 42
-1.0
  3
STANDARD
100
AcDbAlignedDimension
 13
5239.793930557876
 23
3875.669811580356
 33
0.0
 14
5389.793930557877
 24
3875.669811580356
 34
0.0
100
AcDbRotatedDimension
1001
ACAD
1000
DSTYLE
1002
{
1070
    40
1040
10.0
1070
   173
1070
     1
1070
    42
1040
3.0
1070
     7
1000
_OPEN
1070
     6
1000
_OPEN
1070
    41
1040
2.0
1002
}
  0
LINE
  5
D9E
330
67
100
AcDbEntity
  8
1-構造
100
AcDbLine
 10
5239.793930557876
 20
3875.669811580356
 30
0.0
 11
5389.793930557877
 21
3875.669811580356
 31
0.0
  0
LINE
  5
D9F
330
67
100
AcDbEntity
  8
1-構造
100
AcDbLine
 10
5239.793930557876
 20
4025.669811580356
 30
0.0
 11
5389.793930557877
 21
4025.669811580356
 31
0.0
  0
LINE
  5
DA1
330
67
100
AcDbEntity
  8
1-構造
100
AcDbLine
 10
5239.793930557876
 20
4025.669811580356
 30
0.0
 11
5239.793930557876
 21
3875.669811580356
 31
0.0
  0
LINE
  5
DA2
330
67
100
AcDbEntity
  8
1-構造
100
AcDbLine
 10
5389.793930557877
 20
4025.669811580356
 30
0.0
 11
5389.793930557877
 21
3875.669811580356
 31
0.0
  0
LINE
  5
DDB
330
67
100
AcDbEntity
  8
1-構造
100
AcDbLine
 10
6074.42234665465
 20
4455.669811580356
 30
0.0
 11
6674.42234665465
 21
4455.669811580358
 31
0.0
  0
LINE
  5
DDC
330
67
100
AcDbEntity
  8
1-構造
100
AcDbLine
 10
6074.42234665465
 20
4025.669811580356
 30
0.0
 11
7074.422346654651
 21
4025.669811580356
 31
0.0
  0
LINE
  5
DF3
330
67
100
AcDbEntity
  8
7-文字
100
AcDbLine
 10
998.7097939461818
 20
4871.380481711594
 30
0.0
 11
1962.588898082543
 21
4871.380481711594
 31
0.0
  0
LINE
  5
DF4
330
67
100
AcDbEntity
  8
7-文字
100
AcDbLine
 10
998.7097939461818
 20
2637.380481711594
 30
0.0
 11
1961.776715341426
 21
2637.380481711594
 31
0.0
  0
LINE
  5
DF6
330
67
100
AcDbEntity
  8
7-文字
100
AcDbLine
 10
4798.709793946182
 20
4871.380481711594
 30
0.0
 11
5762.588898082542
 21
4871.380481711594
 31
0.0
  0
LINE
  5
E00
330
67
100
AcDbEntity
  8
7-文字
100
AcDbLine
 10
4798.709793946182
 20
2637.380481711594
 30
0.0
 11
6184.619288015888
 21
2636.356560367808
 31
0.0
  0
DIMENSION
  5
E28
330
67
100
AcDbEntity
  8
6-寸法
100
AcDbDimension
  2
*D19
 10
5289.294749266117
 20
1900.73505600846
 30
0.0
 11
5264.294749266117
 21
1960.73505600846
 31
0.0
 12
200.0
 22
-200.0
 32
0.0
 70
    32
 71
     5
 42
-1.0
  3
STANDARD
100
AcDbAlignedDimension
 13
5449.294749266119
 23
2020.73505600846
 33
0.0
 14
5449.294749266119
 24
1900.73505600846
 34
0.0
 50
90.0
100
AcDbRotatedDimension
1001
ACAD
1000
DSTYLE
1002
{
1070
    40
1040
10.0
1070
   173
1070
     1
1070
    42
1040
3.0
1070
     7
1000
_OPEN
1070
     6
1000
_OPEN
1070
    41
1040
2.0
1002
}
  0
DIMENSION
  5
E50
330
67
100
AcDbEntity
  8
6-寸法
100
AcDbDimension
  2
*D20
 10
5569.294749266119
 20
2120.73505600846
 30
0.0
 11
5509.294749266119
 21
2145.73505600846
 31
0.0
 12
200.0
 22
-200.0
 32
0.0
 70
    32
 71
     5
 42
-1.0
  3
STANDARD
100
AcDbAlignedDimension
 13
5449.294749266119
 23
2020.73505600846
 33
0.0
 14
5569.294749266119
 24
2020.73505600846
 34
0.0
100
AcDbRotatedDimension
1001
ACAD
1000
DSTYLE
1002
{
1070
    40
1040
10.0
1070
   173
1070
     1
1070
    42
1040
3.0
1070
     7
1000
_OPEN
1070
     6
1000
_OPEN
1070
     5
1000

1070
    41
1040
2.0
1002
}
  0
LINE
  5
E51
102
{ACAD_REACTORS
330
1118
102
}
330
67
100
AcDbEntity
  8
1-構造
100
AcDbLine
 10
5449.294749266119
 20
1900.73505600846
 30
0.0
 11
5569.294749266119
 21
1900.73505600846
 31
0.0
  0
LINE
  5
E52
102
{ACAD_REACTORS
330
1118
102
}
330
67
100
AcDbEntity
  8
細線
100
AcDbLine
 10
5569.294749266119
 20
1730.73505600846
 30
0.0
 11
5569.29474926612
 21
1900.73505600846
 31
0.0
  0
LINE
  5
E53
330
67
100
AcDbEntity
  8
1-構造
100
AcDbLine
 10
5569.294749266119
 20
2020.73505600846
 30
0.0
 11
5449.294749266119
 21
2020.73505600846
 31
0.0
  0
LINE
  5
E54
330
67
100
AcDbEntity
  8
1-構造
100
AcDbLine
 10
5449.294749266119
 20
2020.73505600846
 30
0.0
 11
5449.294749266119
 21
1900.73505600846
 31
0.0
  0
LINE
  5
E55
102
{ACAD_REACTORS
330
1118
102
}
330
67
100
AcDbEntity
  8
細線
100
AcDbLine
 10
5409.294749266116
 20
1780.73505600846
 30
0.0
 11
5569.294749266119
 21
1780.73505600846
 31
0.0
  0
LINE
  5
E56
102
{ACAD_REACTORS
330
1118
102
}
330
67
100
AcDbEntity
  8
細線
100
AcDbLine
 10
5419.294749266118
 20
1780.73505600846
 30
0.0
 11
5419.294749266118
 21
1880.73505600846
 31
0.0
  0
LINE
  5
E57
330
67
100
AcDbEntity
  8
細線
100
AcDbLine
 10
5389.294749266117
 20
1730.73505600846
 30
0.0
 11
5569.294749266119
 21
1730.73505600846
 31
0.0
  0
LINE
  5
E59
330
67
100
AcDbEntity
  8
細線
100
AcDbLine
 10
5389.294749266118
 20
1730.73505600846
 30
0.0
 11
5389.294749266117
 21
1760.73505600846
 31
0.0
  0
ARC
  5
E5A
102
{ACAD_REACTORS
330
1118
102
}
330
67
100
AcDbEntity
  8
細線
100
AcDbCircle
 10
5439.294749266117
 20
1880.73505600846
 30
0.0
 40
20.0
100
AcDbArc
 50
90.0
 51
180.0
  0
ARC
  5
E5B
330
67
100
AcDbEntity
  8
細線
100
AcDbCircle
 10
5409.294749266116
 20
1760.73505600846
 30
0.0
 40
20.0
100
AcDbArc
 50
90.0
 51
180.0
  0
DIMENSION
  5
E73
330
67
100
AcDbEntity
  8
6-寸法
100
AcDbDimension
  2
*D21
 10
5289.294749266117
 20
1780.73505600846
 30
0.0
 11
5264.294749266117
 21
1840.73505600846
 31
0.0
 12
200.0
 22
-200.0
 32
0.0
 70
    32
 71
     5
 42
-1.0
  3
STANDARD
100
AcDbAlignedDimension
 13
5449.294749266119
 23
1900.73505600846
 33
0.0
 14
5419.294749266118
 24
1780.73505600846
 34
0.0
 50
90.0
100
AcDbRotatedDimension
1001
ACAD
1000
DSTYLE
1002
{
1070
    75
1070
     1
1070
    40
1040
10.0
1070
   173
1070
     1
1070
    42
1040
3.0
1070
     7
1000
_OPEN
1070
     6
1000
_OPEN
1070
     5
1000

1070
    41
1040
2.0
1002
}
  0
DIMENSION
  5
E7F
330
67
100
AcDbEntity
  8
6-寸法
100
AcDbDimension
  2
*D22
 10
5289.294749266117
 20
1730.73505600846
 30
0.0
 11
5264.294749266117
 21
1755.73505600846
 31
0.0
 12
200.0
 22
-200.0
 32
0.0
 70
    32
 71
     5
 42
-1.0
  3
STANDARD
100
AcDbAlignedDimension
 13
5419.294749266118
 23
1780.73505600846
 33
0.0
 14
5389.294749266118
 24
1730.73505600846
 34
0.0
 50
90.0
100
AcDbRotatedDimension
1001
ACAD
1000
DSTYLE
1002
{
1070
    75
1070
     1
1070
    40
1040
10.0
1070
   173
1070
     1
1070
    42
1040
3.0
1070
     7
1000
_OPEN
1070
     6
1000
_OPEN
1070
     5
1000

1070
    41
1040
2.0
1002
}
  0
DIMENSION
  5
E8E
330
67
100
AcDbEntity
  8
6-寸法
100
AcDbDimension
  2
*D23
 10
5569.294749266119
 20
1630.73505600846
 30
0.0
 11
5494.294749266119
 21
1655.73505600846
 31
0.0
 70
    32
 71
     5
 42
-1.0
  3
STANDARD
100
AcDbAlignedDimension
 13
5419.294749266118
 23
1730.73505600846
 33
0.0
 14
5569.294749266119
 24
1730.73505600846
 34
0.0
100
AcDbRotatedDimension
1001
ACAD
1000
DSTYLE
1002
{
1070
    40
1040
10.0
1070
   173
1070
     1
1070
    42
1040
3.0
1070
     7
1000
_OPEN
1070
     6
1000
_OPEN
1070
     5
1000

1070
    41
1040
2.0
1002
}
  0
DIMENSION
  5
E9B
330
67
100
AcDbEntity
  8
6-寸法
100
AcDbDimension
  2
*D24
 10
5569.294749266119
 20
1580.73505600846
 30
0.0
 11
5479.294749266119
 21
1605.73505600846
 31
0.0
 12
200.0
 22
-200.0
 32
0.0
 70
    32
 71
     5
 42
-1.0
  3
STANDARD
100
AcDbAlignedDimension
 13
5389.294749266118
 23
1730.73505600846
 33
0.0
 14
5569.294749266119
 24
1730.73505600846
 34
0.0
100
AcDbRotatedDimension
1001
ACAD
1000
DSTYLE
1002
{
1070
    40
1040
10.0
1070
   173
1070
     1
1070
    42
1040
3.0
1070
     7
1000
_OPEN
1070
     6
1000
_OPEN
1070
     5
1000

1070
    41
1040
2.0
1002
}
  0
LINE
  5
E9C
330
67
100
AcDbEntity
  8
6-寸法
100
AcDbLine
 10
5439.294749266117
 20
1900.73505600846
 30
0.0
 11
5449.294749266118
 21
1900.73505600846
 31
0.0
  0
LINE
  5
E9D
102
{ACAD_REACTORS
330
1118
102
}
330
67
100
AcDbEntity
  8
細線
100
AcDbLine
 10
5439.294749266117
 20
1900.73505600846
 30
0.0
 11
5449.294749266119
 21
1900.73505600846
 31
0.0
  0
LINE
  5
E9E
330
67
100
AcDbEntity
  8
1-構造
100
AcDbLine
 10
5569.294749266119
 20
1900.73505600846
 30
0.0
 11
5569.294749266119
 21
2020.73505600846
 31
0.0
  0
INSERT
  5
EAB
330
67
100
AcDbEntity
  8
0
100
AcDbBlockReference
  2
GURIISI
 10
5569.294749266119
 20
1780.73505600846
 30
0.0
 41
0.25
 42
0.25
 43
0.25
 50
180.0
  0
ELLIPSE
  5
EAC
330
67
100
AcDbEntity
  8
0
100
AcDbEllipse
 10
5416.037695460032
 20
1743.686020102149
 30
0.0
 11
-4.52700150388671
 21
-12.4378344097658
 31
0.0
210
0.0
220
0.0
230
1.0
 40
0.6370965814071999
 41
0.0
 42
6.283185307179586
  0
ELLIPSE
  5
EAD
330
67
100
AcDbEntity
  8
0
100
AcDbEllipse
 10
5398.516852469613
 20
1743.686020102149
 30
0.0
 11
-4.52700150388671
 21
-12.4378344097658
 31
0.0
210
0.0
220
0.0
230
1.0
 40
0.6370965814071999
 41
0.0
 42
6.283185307179586
  0
ELLIPSE
  5
EAE
330
67
100
AcDbEntity
  8
0
100
AcDbEllipse
 10
5433.55853845045
 20
1743.686020102149
 30
0.0
 11
-4.52700150388671
 21
-12.4378344097658
 31
0.0
210
0.0
220
0.0
230
1.0
 40
0.6370965814071999
 41
2.540389369560635
 42
7.922479761453955
  0
ELLIPSE
  5
EAF
330
67
100
AcDbEntity
  8
0
100
AcDbEllipse
 10
5416.037695460032
 20
1767.936020102149
 30
0.0
 11
-4.52700150388671
 21
-12.4378344097658
 31
0.0
210
0.0
220
0.0
230
1.0
 40
0.6370965814071999
 41
0.0
 42
6.283185307179586
  0
ELLIPSE
  5
EB0
330
67
100
AcDbEntity
  8
0
100
AcDbEllipse
 10
5398.516852469613
 20
1767.936020102149
 30
0.0
 11
-4.52700150388671
 21
-12.4378344097658
 31
0.0
210
0.0
220
0.0
230
1.0
 40
0.6370965814071999
 41
5.329205018612096
 42
9.316023962120182
  0
ELLIPSE
  5
EB1
330
67
100
AcDbEntity
  8
0
100
AcDbEllipse
 10
5433.55853845045
 20
1767.936020102149
 30
0.0
 11
-4.52700150388671
 21
-12.4378344097658
 31
0.0
210
0.0
220
0.0
230
1.0
 40
0.6370965814071999
 41
2.540389369560626
 42
7.92247976145397
  0
MTEXT
  5
FFD
102
{ACAD_REACTORS
330
FFE
102
}
330
67
100
AcDbEntity
  8
7-文字
100
AcDbMText
 10
5671.272072788621
 20
1762.048252018681
 30
0.0
 40
25.0
 41
0.0
 71
     4
 72
     1
  1
砕石(C-40)
 73
     1
 44
1.0
1001
ACAD
1000
MTEXTBEGIN
1070
    73
1070
     1
1070
    44
1040
1.0
1070
    74
1070
     0
1000
MTEXTEND
  0
LEADER
  5
FFE
330
67
100
AcDbEntity
  8
7-文字
100
AcDbLeader
  3
STANDARD
 73
     0
 74
     0
 40
29.31472081218274
 41
153.8071065989847
 76
     2
 10
5537.261493963423
 20
1761.271759947085
 30
0.0
 10
5661.27207278862
 20
1737.39089161259
 30
0.0
340
FFD
1001
ACAD
1000
DSTYLE
1002
{
1070
   341
1005
199
1070
    40
1040
10.0
1070
    41
1040
2.0
1070
    42
1040
3.0
1070
    45
1040
1.0
1070
    77
1070
     3
1070
   147
1040
1.0
1070
   172
1070
     0
1070
   173
1070
     1
1070
   174
1070
     0
1070
   343
1005
199
1070
   344
1005
199
1002
}
  0
MTEXT
  5
FFF
102
{ACAD_REACTORS
330
1000
102
}
330
67
100
AcDbEntity
  8
7-文字
100
AcDbMText
 10
5671.272072788621
 20
1853.09508366792
 30
0.0
 40
25.0
 41
0.0
 71
     4
 72
     1
  1
\A1;コンクリート
 73
     1
 44
1.0
1001
ACAD
1000
MTEXTBEGIN
1070
    73
1070
     1
1070
    44
1040
1.0
1070
    74
1070
     0
1000
MTEXTEND
  0
LEADER
  5
1000
330
67
100
AcDbEntity
  8
7-文字
100
AcDbLeader
  3
STANDARD
 73
     0
 74
     0
 40
27.91878172588833
 41
188.8324873096446
 76
     2
 10
5537.261493963423
 20
1846.132669535125
 30
0.0
 10
5661.27207278862
 20
1825.082708661786
 30
0.0
340
FFF
213
0.0
223
-4.052984143190769
233
0.0
1001
ACAD
1000
DSTYLE
1002
{
1070
   341
1005
199
1070
    40
1040
10.0
1070
    41
1040
2.0
1070
    42
1040
3.0
1070
    45
1040
1.0
1070
    77
1070
     3
1070
   147
1040
1.0
1070
   172
1070
     0
1070
   173
1070
     1
1070
   174
1070
     0
1070
   343
1005
199
1070
   344
1005
199
1002
}
  0
HATCH
  5
1118
330
67
100
AcDbEntity
  8
0
100
AcDbHatch
 10
0.0
 20
0.0
 30
0.0
210
0.0
220
0.0
230
1.0
  2
AR-CONC
 70
     0
 71
     1
 91
        1
 92
        7
 72
     1
 73
     1
 93
        6
 10
5449.294749266119
 20
1900.73505600846
 42
0.0
 10
5439.294749266117
 20
1900.73505600846
 42
0.4142135623730951
 10
5419.294749266118
 20
1880.73505600846
 42
0.0
 10
5419.294749266118
 20
1780.73505600846
 42
0.0
 10
5569.29474926612
 20
1780.73505600846
 42
0.0
 10
5569.29474926612
 20
1900.735056008459
 42
0.0
 97
        6
330
E51
330
E9D
330
E5A
330
E56
330
E55
330
E52
 75
     0
 76
     1
 52
0.0
 41
5.0
 77
     0
 78
    13
 53
50.0
 43
1389.147689836033
 44
4689.750143086111
 45
35.86300913003768
 46
-3.137606749129755
 79
     2
 49
3.75
 49
-41.25
 53
355.0
 43
1389.147689836033
 44
4689.750143086111
 45
-6.93756668065
 46
37.6096066850006
 79
     2
 49
3.0
 49
-33.0
 53
100.4514
 43
1392.136273836032
 44
4689.488676086112
 45
28.92546908570108
 46
34.47197710304768
 79
     2
 49
3.1870095
 49
-35.0571056
 53
46.1842
 43
1389.147689836033
 44
4699.750143086112
 45
53.36205243128222
 46
-8.275950716450903
 79
     2
 49
5.625
 49
-61.875
 53
96.63559999999998
 43
1393.594527086033
 44
4699.060477736112
 45
46.73313527743516
 46
48.70589354502208
 79
     2
 49
4.780514399999998
 49
-52.58564999999999
 53
351.1842000000001
 43
1389.147689836033
 44
4699.750143086112
 45
46.73309725668135
 46
48.70593004626623
 79
     2
 49
4.5
 49
-49.5
 53
21.0
 43
1394.147689836032
 44
4697.250143086112
 45
29.84535260592308
 46
-20.13094453326694
 79
     2
 49
3.75
 49
-41.25
 53
326.0
 43
1394.147689836032
 44
4697.250143086112
 45
12.16576659607908
 46
36.25750225234265
 79
     2
 49
3.0
 49
-33.0
 53
71.45140000000001
 43
1396.634801486033
 44
4695.572562786112
 45
42.01113142907449
 46
16.12652483549762
 79
     2
 49
3.1870095
 49
-35.0571056
 53
37.5
 43
1389.147689836033
 44
4689.750143086111
 45
0.6079927658645335
 46
16.64469269156557
 79
     6
 49
0.0
 49
-32.6
 49
0.0
 49
-33.5
 49
0.0
 49
-33.125
 53
7.499999999999999
 43
1389.147689836033
 44
4689.750143086111
 45
13.15347687210743
 46
19.72058559411801
 79
     6
 49
0.0
 49
-19.1
 49
0.0
 49
-31.85
 49
0.0
 49
-12.625
 53
327.5
 43
1377.997689836032
 44
4689.750143086111
 45
26.69112180862045
 46
-1.127743586718989
 79
     6
 49
0.0
 49
-12.5
 49
0.0
 49
-39.0
 49
0.0
 49
-51.75
 53
317.5
 43
1372.997689836032
 44
4689.750143086111
 45
29.15930846711931
 46
5.005249116615882
 79
     6
 49
0.0
 49
-16.25
 49
0.0
 49
-25.9
 49
0.0
 49
-36.75
 47
0.8950281550543241
 98
        1
 10
5486.821086572585
 20
1859.828684037515
  0
TEXT
  5
1159
330
67
100
AcDbEntity
  8
0
100
AcDbText
 10
3698.372757586616
 20
5376.95506144745
 30
0.0
 40
100.0
  1
地先境界ブロック
100
AcDbText
  0
TEXT
  5
115A
330
67
100
AcDbEntity
  8
0
100
AcDbText
 10
1018.835765038326
 20
4889.613943276099
 30
0.0
 40
80.0
  1
地先境界ブロックＡ
100
AcDbText
  0
TEXT
  5
115B
330
67
100
AcDbEntity
  8
0
100
AcDbText
 10
4818.835765038326
 20
4889.613943276099
 30
0.0
 40
80.0
  1
地先境界ブロックＣ
100
AcDbText
  0
TEXT
  5
115C
330
67
100
AcDbEntity
  8
0
100
AcDbText
 10
1018.835765038326
 20
2655.6139432761
 30
0.0
 40
80.0
  1
地先境界ブロックＢ
100
AcDbText
  0
TEXT
  5
115D
330
67
100
AcDbEntity
  8
0
100
AcDbText
 10
4818.835765038326
 20
2655.6139432761
 30
0.0
 40
80.0
  1
地先境界ブロック敷設参考図
100
AcDbText
  0
TEXT
  5
115E
330
67
100
AcDbEntity
  8
0
100
AcDbText
 10
4854.647624718964
 20
2535.6139432761
 30
0.0
 40
80.0
  1
<例：地先境界ブロックＡ>
100
AcDbText
  0
ENDSEC
  0
SECTION
  2
OBJECTS
  0
DICTIONARY
  5
5B
330
0
100
AcDbDictionary
281
     1
  3
ACAD_COLOR
350
1147
  3
ACAD_GROUP
350
5C
  3
ACAD_LAYOUT
350
1148
  3
ACAD_MATERIAL
350
1146
  3
ACAD_MLINESTYLE
350
5D
  3
ACAD_PLOTSETTINGS
350
1149
  3
ACAD_PLOTSTYLENAME
350
1144
  3
ACDBHEADERROUNDTRIPXREC
350
12F2
  3
ACDBVARIABLEDICTIONARY
350
1005
  3
CONTENTDICTIONARY
350
1001
  0
DICTIONARY
  5
1147
102
{ACAD_REACTORS
330
5B
102
}
330
5B
100
AcDbDictionary
281
     1
  0
DICTIONARY
  5
5C
102
{ACAD_REACTORS
330
5B
102
}
330
5B
100
AcDbDictionary
281
     1
  0
DICTIONARY
  5
1148
102
{ACAD_REACTORS
330
5B
102
}
330
5B
100
AcDbDictionary
281
     1
  3
Model
350
114A
  3
レイアウト1
350
114B
  0
DICTIONARY
  5
1146
102
{ACAD_REACTORS
330
5B
102
}
330
5B
100
AcDbDictionary
281
     1
  0
DICTIONARY
  5
5D
102
{ACAD_REACTORS
330
5B
102
}
330
5B
100
AcDbDictionary
281
     1
  3
STANDARD
350
6A
  0
DICTIONARY
  5
1149
102
{ACAD_REACTORS
330
5B
102
}
330
5B
100
AcDbDictionary
281
     1
  0
ACDBDICTIONARYWDFLT
  5
1144
102
{ACAD_REACTORS
330
5B
102
}
330
5B
100
AcDbDictionary
281
     1
  3
Normal
350
1145
100
AcDbDictionaryWithDefault
340
1145
  0
DICTIONARY
  5
12F2
102
{ACAD_REACTORS
330
5B
102
}
330
5B
100
AcDbDictionary
281
     1
  3
COLORDICT
350
12F4
  3
MATERIALDICT
350
12F3
  0
DICTIONARY
  5
1005
102
{ACAD_REACTORS
330
5B
102
}
330
5B
100
AcDbDictionary
281
     1
  3
DIMASSOC
350
12E7
  3
PROJECTNAME
350
12E8
  3
SORTENTS
350
1006
  0
DICTIONARY
  5
1001
102
{ACAD_REACTORS
330
5B
102
}
330
5B
100
AcDbDictionary
281
     1
  0
LAYOUT
  5
114A
102
{ACAD_XDICTIONARY
360
12F5
102
}
102
{ACAD_REACTORS
330
1148
102
}
330
1148
100
AcDbPlotSettings
  1

  2
EPSON LP-S5000
  4

  6

 40
0.0
 41
0.0
 42
0.0
 43
0.0
 44
0.0
 45
0.0
 46
0.0
 47
0.0
 48
0.0
 49
0.0
140
0.0
141
0.0
142
1.0
143
1.0
 70
  1712
 72
     0
 73
     0
 74
     0
  7

 75
     0
147
1.0
148
0.0
149
0.0
100
AcDbLayout
  1
Model
 70
     1
 71
     0
 10
0.0
 20
0.0
 11
12.0
 21
9.0
 12
0.0
 22
0.0
 32
0.0
 14
0.0
 24
0.0
 34
0.0
 15
0.0
 25
0.0
 35
0.0
146
0.0
 13
0.0
 23
0.0
 33
0.0
 16
1.0
 26
0.0
 36
0.0
 17
0.0
 27
1.0
 37
0.0
 76
     0
330
67
  0
LAYOUT
  5
114B
102
{ACAD_XDICTIONARY
360
12F7
102
}
102
{ACAD_REACTORS
330
1148
102
}
330
1148
100
AcDbPlotSettings
  1

  2
EPSON LP-S5000
  4

  6

 40
0.0
 41
0.0
 42
0.0
 43
0.0
 44
0.0
 45
0.0
 46
0.0
 47
0.0
 48
0.0
 49
0.0
140
0.0
141
0.0
142
1.0
143
1.0
 70
   688
 72
     0
 73
     0
 74
     5
  7

 75
    16
147
1.0
148
0.0
149
0.0
100
AcDbLayout
  1
レイアウト1
 70
     0
 71
     1
 10
0.0
 20
0.0
 11
12.0
 21
9.0
 12
0.0
 22
0.0
 32
0.0
 14
1.000000000000000E+20
 24
1.000000000000000E+20
 34
1.000000000000000E+20
 15
-1.000000000000000E+20
 25
-1.000000000000000E+20
 35
-1.000000000000000E+20
146
0.0
 13
0.0
 23
0.0
 33
0.0
 16
1.0
 26
0.0
 36
0.0
 17
0.0
 27
1.0
 37
0.0
 76
     0
330
64
  0
MLINESTYLE
  5
6A
102
{ACAD_REACTORS
330
5D
102
}
330
5D
100
AcDbMlineStyle
  2
STANDARD
 70
     0
  3

 62
     0
 51
90.0
 52
90.0
 71
     2
 49
0.5
 62
   256
  6
BYLAYER
 49
-0.5
 62
   256
  6
BYLAYER
  0
ACDBPLACEHOLDER
  5
1145
102
{ACAD_REACTORS
330
1144
102
}
330
1144
  0
XRECORD
  5
12F4
102
{ACAD_REACTORS
330
12F2
102
}
330
12F2
100
AcDbXrecord
280
     1
340
1147
  0
XRECORD
  5
12F3
102
{ACAD_REACTORS
330
12F2
102
}
330
12F2
100
AcDbXrecord
280
     1
340
1146
  0
DICTIONARYVAR
  5
12E7
102
{ACAD_REACTORS
330
1005
102
}
330
1005
100
DictionaryVariables
280
     0
  1
1
  0
DICTIONARYVAR
  5
12E8
102
{ACAD_REACTORS
330
1005
102
}
330
1005
100
DictionaryVariables
280
     0
  1

  0
DICTIONARYVAR
  5
1006
102
{ACAD_REACTORS
330
1005
102
}
330
1005
100
DictionaryVariables
280
     0
  1
96
  0
DICTIONARY
  5
12F5
330
114A
100
AcDbDictionary
280
     1
281
     1
  3
ACAD_XREC_ROUNDTRIP
360
12F6
  0
DICTIONARY
  5
12F7
330
114B
100
AcDbDictionary
280
     1
281
     1
  3
ACAD_XREC_ROUNDTRIP
360
12F8
  0
XRECORD
  5
12F6
102
{ACAD_REACTORS
330
12F5
102
}
330
12F5
100
AcDbXrecord
280
     1
102
SHADEPLOT
 70
     0
102
SHADEPLOTRESLEVEL
 70
     2
102
SHADEPLOTCUSTOMDPI
 70
   300
  0
XRECORD
  5
12F8
102
{ACAD_REACTORS
330
12F7
102
}
330
12F7
100
AcDbXrecord
280
     1
102
SHADEPLOT
 70
     0
102
SHADEPLOTRESLEVEL
 70
     2
102
SHADEPLOTCUSTOMDPI
 70
   300
  0
ENDSEC
  0
EOF
