  0
SECTION
  2
HEADER
  9
$ACADVER
  1
AC1015
  9
$ACADMAINTVER
 70
    20
  9
$DWGCODEPAGE
  3
ANSI_932
  9
$INSBASE
 10
0.0
 20
0.0
 30
0.0
  9
$EXTMIN
 10
-0.256633251272433
 20
-0.1812605841350887
 30
-0.0015258207003583
  9
$EXTMAX
 10
8410.256672413391
 20
5940.181288244414
 30
0.0000000349246037
  9
$LIMMIN
 10
0.0
 20
0.0
  9
$LIMMAX
 10
8410.0
 20
5940.0
  9
$ORTHOMODE
 70
     1
  9
$REGENMODE
 70
     1
  9
$FILLMODE
 70
     1
  9
$QTEXTMODE
 70
     0
  9
$MIRRTEXT
 70
     0
  9
$LTSCALE
 40
2.5
  9
$ATTMODE
 70
     1
  9
$TEXTSIZE
 40
3.0
  9
$TRACEWID
 40
0.05
  9
$TEXTSTYLE
  7
STANDARD
  9
$CLAYER
  8
7-文字
  9
$CELTYPE
  6
BYLAYER
  9
$CECOLOR
 62
   256
  9
$CELTSCALE
 40
1.0
  9
$DISPSILH
 70
     0
  9
$DIMSCALE
 40
10.0
  9
$DIMASZ
 40
2.0
  9
$DIMEXO
 40
3.0
  9
$DIMDLI
 40
0.0
  9
$DIMRND
 40
0.0
  9
$DIMDLE
 40
0.0
  9
$DIMEXE
 40
1.0
  9
$DIMTP
 40
0.0
  9
$DIMTM
 40
0.0
  9
$DIMTXT
 40
2.5
  9
$DIMCEN
 40
0.0
  9
$DIMTSZ
 40
0.0
  9
$DIMTOL
 70
     0
  9
$DIMLIM
 70
     0
  9
$DIMTIH
 70
     0
  9
$DIMTOH
 70
     0
  9
$DIMSE1
 70
     0
  9
$DIMSE2
 70
     0
  9
$DIMTAD
 70
     3
  9
$DIMZIN
 70
     8
  9
$DIMBLK
  1

  9
$DIMASO
 70
     1
  9
$DIMSHO
 70
     0
  9
$DIMPOST
  1

  9
$DIMAPOST
  1

  9
$DIMALT
 70
     0
  9
$DIMALTD
 70
     2
  9
$DIMALTF
 40
25.4
  9
$DIMLFAC
 40
1.0
  9
$DIMTOFL
 70
     1
  9
$DIMTVP
 40
1.0
  9
$DIMTIX
 70
     1
  9
$DIMSOXD
 70
     0
  9
$DIMSAH
 70
     1
  9
$DIMBLK1
  1
OPEN
  9
$DIMBLK2
  1
OPEN
  9
$DIMSTYLE
  2
STANDARD
  9
$DIMCLRD
 70
     0
  9
$DIMCLRE
 70
     0
  9
$DIMCLRT
 70
     0
  9
$DIMTFAC
 40
1.0
  9
$DIMGAP
 40
1.0
  9
$DIMJUST
 70
     0
  9
$DIMSD1
 70
     0
  9
$DIMSD2
 70
     0
  9
$DIMTOLJ
 70
     1
  9
$DIMTZIN
 70
     8
  9
$DIMALTZ
 70
     8
  9
$DIMALTTZ
 70
     8
  9
$DIMUPT
 70
     0
  9
$DIMDEC
 70
     1
  9
$DIMTDEC
 70
     1
  9
$DIMALTU
 70
     2
  9
$DIMALTTD
 70
     2
  9
$DIMTXSTY
  7
STANDARD
  9
$DIMAUNIT
 70
     0
  9
$DIMADEC
 70
     0
  9
$DIMALTRND
 40
0.0
  9
$DIMAZIN
 70
     0
  9
$DIMDSEP
 70
    46
  9
$DIMATFIT
 70
     3
  9
$DIMFRAC
 70
     0
  9
$DIMLDRBLK
  1
OPEN
  9
$DIMLUNIT
 70
     2
  9
$DIMLWD
 70
    -2
  9
$DIMLWE
 70
    -2
  9
$DIMTMOVE
 70
     0
  9
$LUNITS
 70
     2
  9
$LUPREC
 70
     1
  9
$SKETCHINC
 40
0.1
  9
$FILLETRAD
 40
20.0
  9
$AUNITS
 70
     0
  9
$AUPREC
 70
     1
  9
$MENU
  1
d:\powerup\haneda
  9
$ELEVATION
 40
0.0
  9
$PELEVATION
 40
0.0
  9
$THICKNESS
 40
0.0
  9
$LIMCHECK
 70
     0
  9
$CHAMFERA
 40
10.0
  9
$CHAMFERB
 40
10.0
  9
$CHAMFERC
 40
0.0
  9
$CHAMFERD
 40
0.0
  9
$SKPOLY
 70
     0
  9
$TDCREATE
 40
2451206.539872882
  9
$TDUCREATE
 40
2451206.164872882
  9
$TDUPDATE
 40
2456348.512382604
  9
$TDUUPDATE
 40
2456348.137382604
  9
$TDINDWG
 40
2.3394615625
  9
$TDUSRTIMER
 40
2.3394615625
  9
$USRTIMER
 70
     1
  9
$ANGBASE
 50
0.0
  9
$ANGDIR
 70
     0
  9
$PDMODE
 70
     0
  9
$PDSIZE
 40
0.0
  9
$PLINEWID
 40
0.0
  9
$SPLFRAME
 70
     0
  9
$SPLINETYPE
 70
     6
  9
$SPLINESEGS
 70
     8
  9
$HANDSEED
  5
939C
  9
$SURFTAB1
 70
     6
  9
$SURFTAB2
 70
     6
  9
$SURFTYPE
 70
     6
  9
$SURFU
 70
     6
  9
$SURFV
 70
     6
  9
$UCSBASE
  2

  9
$UCSNAME
  2

  9
$UCSORG
 10
1189.147689836032
 20
4889.750143086112
 30
0.0
  9
$UCSXDIR
 10
1.0
 20
0.0
 30
0.0
  9
$UCSYDIR
 10
0.0
 20
1.0
 30
0.0
  9
$UCSORTHOREF
  2

  9
$UCSORTHOVIEW
 70
     0
  9
$UCSORGTOP
 10
0.0
 20
0.0
 30
0.0
  9
$UCSORGBOTTOM
 10
0.0
 20
0.0
 30
0.0
  9
$UCSORGLEFT
 10
0.0
 20
0.0
 30
0.0
  9
$UCSORGRIGHT
 10
0.0
 20
0.0
 30
0.0
  9
$UCSORGFRONT
 10
0.0
 20
0.0
 30
0.0
  9
$UCSORGBACK
 10
0.0
 20
0.0
 30
0.0
  9
$PUCSBASE
  2

  9
$PUCSNAME
  2

  9
$PUCSORG
 10
0.0
 20
0.0
 30
0.0
  9
$PUCSXDIR
 10
1.0
 20
0.0
 30
0.0
  9
$PUCSYDIR
 10
0.0
 20
1.0
 30
0.0
  9
$PUCSORTHOREF
  2

  9
$PUCSORTHOVIEW
 70
     0
  9
$PUCSORGTOP
 10
0.0
 20
0.0
 30
0.0
  9
$PUCSORGBOTTOM
 10
0.0
 20
0.0
 30
0.0
  9
$PUCSORGLEFT
 10
0.0
 20
0.0
 30
0.0
  9
$PUCSORGRIGHT
 10
0.0
 20
0.0
 30
0.0
  9
$PUCSORGFRONT
 10
0.0
 20
0.0
 30
0.0
  9
$PUCSORGBACK
 10
0.0
 20
0.0
 30
0.0
  9
$USERI1
 70
     0
  9
$USERI2
 70
     0
  9
$USERI3
 70
     0
  9
$USERI4
 70
     0
  9
$USERI5
 70
     0
  9
$USERR1
 40
0.0
  9
$USERR2
 40
0.0
  9
$USERR3
 40
0.0
  9
$USERR4
 40
0.0
  9
$USERR5
 40
1.0
  9
$WORLDVIEW
 70
     1
  9
$SHADEDGE
 70
     3
  9
$SHADEDIF
 70
    70
  9
$TILEMODE
 70
     1
  9
$MAXACTVP
 70
    16
  9
$PINSBASE
 10
0.0
 20
0.0
 30
0.0
  9
$PLIMCHECK
 70
     0
  9
$PEXTMIN
 10
1.000000000000000E+20
 20
1.000000000000000E+20
 30
1.000000000000000E+20
  9
$PEXTMAX
 10
-1.000000000000000E+20
 20
-1.000000000000000E+20
 30
-1.000000000000000E+20
  9
$PLIMMIN
 10
0.0
 20
0.0
  9
$PLIMMAX
 10
12.0
 20
9.0
  9
$UNITMODE
 70
     0
  9
$VISRETAIN
 70
     0
  9
$PLINEGEN
 70
     0
  9
$PSLTSCALE
 70
     0
  9
$TREEDEPTH
 70
  3020
  9
$CMLSTYLE
  2
STANDARD
  9
$CMLJUST
 70
     0
  9
$CMLSCALE
 40
1.0
  9
$PROXYGRAPHICS
 70
     1
  9
$MEASUREMENT
 70
     0
  9
$CELWEIGHT
370
    -1
  9
$ENDCAPS
280
     0
  9
$JOINSTYLE
280
     0
  9
$LWDISPLAY
290
     0
  9
$INSUNITS
 70
     0
  9
$HYPERLINKBASE
  1

  9
$STYLESHEET
  1

  9
$XEDIT
290
     1
  9
$CEPSNTYPE
380
     0
  9
$PSTYLEMODE
290
     1
  9
$FINGERPRINTGUID
  2
{B6B89433-F088-4779-A980-1138ACE6D378}
  9
$VERSIONGUID
  2
{86F5AD37-D5A8-43AC-BCA7-39933CD8CC18}
  9
$EXTNAMES
290
     1
  9
$PSVPSCALE
 40
0.0
  9
$OLESTARTUP
290
     0
  0
ENDSEC
  0
SECTION
  2
CLASSES
  0
CLASS
  1
DICTIONARYVAR
  2
AcDbDictionaryVar
  3
ObjectDBX Classes
 90
        0
280
     0
281
     0
  0
CLASS
  1
ACDBDICTIONARYWDFLT
  2
AcDbDictionaryWithDefault
  3
ObjectDBX Classes
 90
        0
280
     0
281
     0
  0
CLASS
  1
ACDBPLACEHOLDER
  2
AcDbPlaceHolder
  3
ObjectDBX Classes
 90
        0
280
     0
281
     0
  0
CLASS
  1
LAYOUT
  2
AcDbLayout
  3
ObjectDBX Classes
 90
        0
280
     0
281
     0
  0
ENDSEC
  0
SECTION
  2
TABLES
  0
TABLE
  2
VPORT
  5
57
330
0
100
AcDbSymbolTable
 70
     7
  0
VPORT
  5
9394
330
57
100
AcDbSymbolTableRecord
100
AcDbViewportTableRecord
  2
*Active
 70
     0
 10
0.0
 20
0.0
 11
1.0
 21
1.0
 12
4205.000019581059
 22
2970.000013830139
 13
0.0
 23
0.0
 14
1.0
 24
1.0
 15
0.0
 25
0.0
 16
0.0
 26
0.0
 36
1.0
 17
0.0
 27
0.0
 37
0.0
 40
6146.187861979829
 41
1.376978417266186
 42
50.0
 43
0.0
 44
0.0
 50
0.0
 51
0.0
 71
     0
 72
  1000
 73
     1
 74
     0
 75
     0
 76
     0
 77
     0
 78
     0
281
     0
 65
     1
110
1189.147689836032
120
4889.750143086112
130
0.0
111
1.0
121
0.0
131
0.0
112
0.0
122
1.0
132
0.0
 79
     0
146
0.0
  0
ENDTAB
  0
TABLE
  2
LTYPE
  5
54
330
0
100
AcDbSymbolTable
 70
     1
  0
LTYPE
  5
61
330
54
100
AcDbSymbolTableRecord
100
AcDbLinetypeTableRecord
  2
BYBLOCK
 70
     0
  3

 72
    65
 73
     0
 40
0.0
  0
LTYPE
  5
62
330
54
100
AcDbSymbolTableRecord
100
AcDbLinetypeTableRecord
  2
BYLAYER
 70
     0
  3

 72
    65
 73
     0
 40
0.0
  0
LTYPE
  5
63
330
54
100
AcDbSymbolTableRecord
100
AcDbLinetypeTableRecord
  2
CONTINUOUS
 70
     0
  3
Solid line
 72
    65
 73
     0
 40
0.0
  0
ENDTAB
  0
TABLE
  2
LAYER
  5
51
330
0
100
AcDbSymbolTable
 70
     5
  0
LAYER
  5
5E
330
51
100
AcDbSymbolTableRecord
100
AcDbLayerTableRecord
  2
0
 70
     0
 62
     7
  6
CONTINUOUS
370
    -3
390
934B
  0
LAYER
  5
85
330
51
100
AcDbSymbolTableRecord
100
AcDbLayerTableRecord
  2
DEFPOINTS
 70
     0
 62
     7
  6
CONTINUOUS
290
     0
370
    -3
390
934B
  0
LAYER
  5
AE
330
51
100
AcDbSymbolTableRecord
100
AcDbLayerTableRecord
  2
1-構造
 70
     0
 62
     2
  6
CONTINUOUS
370
    -3
390
934B
  0
LAYER
  5
347
330
51
100
AcDbSymbolTableRecord
100
AcDbLayerTableRecord
  2
6-寸法
 70
     0
 62
     7
  6
CONTINUOUS
370
    -3
390
934B
  0
LAYER
  5
348
330
51
100
AcDbSymbolTableRecord
100
AcDbLayerTableRecord
  2
7-文字
 70
     0
 62
     7
  6
CONTINUOUS
370
    -3
390
934B
  0
ENDTAB
  0
TABLE
  2
STYLE
  5
52
330
0
100
AcDbSymbolTable
 70
     3
  0
STYLE
  5
5F
330
52
100
AcDbSymbolTableRecord
100
AcDbTextStyleTableRecord
  2
STANDARD
 70
     0
 40
0.0
 41
1.0
 50
0.0
 71
     0
 42
3.0
  3

  4

1001
ACAD
1000
MS Gothic
1071
    32817
  0
STYLE
  5
BA
330
52
100
AcDbSymbolTableRecord
100
AcDbTextStyleTableRecord
  2
DIM
 70
     0
 40
0.0
 41
0.6
 50
0.0
 71
     0
 42
0.2
  3
simplex
  4
bigfont
  0
STYLE
  5
32C
330
52
100
AcDbSymbolTableRecord
100
AcDbTextStyleTableRecord
  2
STANDARD2
 70
     0
 40
8.0
 41
1.0
 50
0.0
 71
     0
 42
8.0
  3
txt.shx
  4
BIGFONT.shx
  0
ENDTAB
  0
TABLE
  2
VIEW
  5
55
330
0
100
AcDbSymbolTable
 70
     0
  0
ENDTAB
  0
TABLE
  2
UCS
  5
56
330
0
100
AcDbSymbolTable
 70
     0
  0
ENDTAB
  0
TABLE
  2
APPID
  5
58
330
0
100
AcDbSymbolTable
 70
     3
  0
APPID
  5
60
330
58
100
AcDbSymbolTableRecord
100
AcDbRegAppTableRecord
  2
ACAD
 70
     0
  0
APPID
  5
549F
330
58
100
AcDbSymbolTableRecord
100
AcDbRegAppTableRecord
  2
CONTENTTABDATA
 70
     0
  0
APPID
  5
54A0
330
58
100
AcDbSymbolTableRecord
100
AcDbRegAppTableRecord
  2
CONTENTCURRENTTAB
 70
     0
  0
ENDTAB
  0
TABLE
  2
DIMSTYLE
  5
59
330
0
100
AcDbSymbolTable
 70
     1
100
AcDbDimStyleTable
 71
     0
  0
DIMSTYLE
105
6F
102
{ACAD_REACTORS
330
5F18
330
5F19
330
5F33
330
78C3
330
791C
330
7955
330
7964
330
7973
330
5F26
330
7A38
330
7A47
330
7A81
330
7B29
330
7B3A
330
7B34
330
7B27
330
7B31
330
7B22
330
7B33
330
7B38
330
7E0F
330
7FAF
330
7FAE
330
809E
330
80A7
330
808A
330
809B
330
80A0
330
809F
330
809C
330
8097
330
809A
330
82B3
330
82C1
330
82DB
330
82E1
330
831C
330
8333
330
832D
330
832C
330
8327
330
833D
330
8328
330
832E
330
832A
330
8331
330
8332
330
833C
330
833B
330
8E22
330
8E2D
330
8E20
330
8E2A
330
8E53
330
8E1B
330
8E2C
330
8E31
330
8E5C
330
8E65
330
8E44
330
8E59
330
8E5E
330
8E5D
330
8E5A
330
8E56
330
8E81
330
8E98
330
8E91
330
8E8C
330
8EAC
330
8E8D
330
8E93
330
8E8F
330
8EAA
330
8E7E
330
8ECD
330
8EC7
330
8EC2
330
8EC5
330
8EC6
330
8E7D
330
8EDF
330
8ECB
330
8E35
330
92A5
330
8E52
330
92CB
330
92E6
330
92FF
330
7974
330
7B3B
330
7B3C
102
}
330
59
100
AcDbSymbolTableRecord
100
AcDbDimStyleTableRecord
  2
STANDARD
 70
     0
 40
100.0
 41
1.0
 42
1.0
 43
0.0
 44
1.0
 73
     0
 74
     0
 78
     8
140
2.5
141
0.0
145
1.0
147
0.0
172
     1
174
     1
271
     1
272
     1
284
     8
285
     8
286
     8
340
5F
  0
ENDTAB
  0
TABLE
  2
BLOCK_RECORD
  5
50
330
0
100
AcDbSymbolTable
 70
    94
  0
BLOCK_RECORD
  5
67
330
50
100
AcDbSymbolTableRecord
100
AcDbBlockTableRecord
  2
*MODEL_SPACE
340
9350
  0
BLOCK_RECORD
  5
64
330
50
100
AcDbSymbolTableRecord
100
AcDbBlockTableRecord
  2
*PAPER_SPACE
340
9351
  0
BLOCK_RECORD
  5
199
330
50
100
AcDbSymbolTableRecord
100
AcDbBlockTableRecord
  2
_OPEN
340
0
102
{BLKREFS
331
5F44
331
5F45
331
7941
331
7867
331
7868
331
7A23
331
7A24
331
78BC
331
78BD
331
7916
331
796D
331
795E
331
7999
331
79A5
331
7A6C
331
7A6D
331
7A50
331
7A51
331
7A98
331
7A99
331
7B55
331
7B56
331
7D77
331
801C
331
801D
331
7C54
331
7C55
331
7D37
331
7D38
331
7D8F
331
7D53
331
7BDD
331
7BDE
331
7BEC
331
7BED
331
8064
331
8065
331
7E35
331
7FD5
331
7FE3
331
80D3
331
80D4
331
81C4
331
81C5
331
80EA
331
80EB
331
825C
331
81EF
331
81F0
331
812E
331
812F
331
813E
331
813F
331
8270
331
8271
331
8176
331
82D3
331
82D4
331
82C8
331
82C9
331
8308
331
8315
331
834C
331
834D
331
84D2
331
84D3
331
84FC
331
84E1
331
83BE
331
83BF
331
83CD
331
83CE
331
83D8
331
83D9
331
83E8
331
83E9
331
843F
331
8440
331
8520
331
8521
331
8515
331
8516
331
850A
331
84EE
331
8EEA
331
8EEB
331
8F05
331
8F06
331
8F11
331
8F12
331
9291
331
9292
331
8F3A
331
8F56
331
8F72
331
8F73
331
8F81
331
8F82
331
8F90
331
8F91
331
8FE7
331
8FE8
331
8FF2
331
8FF3
331
8FFE
331
8FFF
331
9029
331
9037
331
9038
331
9042
331
9043
331
9052
331
9053
331
92AB
331
92AC
331
90A7
331
90C0
331
90C1
331
92D2
331
92D3
331
9124
331
9132
331
9133
331
9141
331
9142
331
914C
331
914D
331
915C
331
915D
331
9167
331
9168
331
919F
331
91A9
331
91AA
331
91F2
331
91F3
331
91FD
331
91FE
331
9209
331
920A
331
9219
331
9236
331
9237
331
92EB
331
92EC
331
926A
331
9287
331
9288
331
929E
331
929F
331
92C4
331
92C5
331
92DF
331
92E0
331
92F8
331
92F9
331
79D7
331
79D8
331
7FA2
331
7FA3
331
848A
331
848B
331
852A
331
852E
102
}
  0
BLOCK_RECORD
  5
21CD
330
50
100
AcDbSymbolTableRecord
100
AcDbBlockTableRecord
  2
_DOTSMALL
340
0
102
{BLKREFS
331
7942
331
795D
331
79A4
331
7D78
331
7E34
331
7FE2
331
8175
331
8307
331
84FB
331
8509
102
}
  0
BLOCK_RECORD
  5
5F3F
330
50
100
AcDbSymbolTableRecord
100
AcDbBlockTableRecord
  2
*D2
340
0
  0
BLOCK_RECORD
  5
5F5A
330
50
100
AcDbSymbolTableRecord
100
AcDbBlockTableRecord
  2
*D3
340
0
  0
BLOCK_RECORD
  5
5F69
330
50
100
AcDbSymbolTableRecord
100
AcDbBlockTableRecord
  2
*D4
340
0
  0
BLOCK_RECORD
  5
5FA2
330
50
100
AcDbSymbolTableRecord
100
AcDbBlockTableRecord
  2
*D5
340
0
  0
BLOCK_RECORD
  5
78B7
330
50
100
AcDbSymbolTableRecord
100
AcDbBlockTableRecord
  2
*D6
340
0
  0
BLOCK_RECORD
  5
790F
330
50
100
AcDbSymbolTableRecord
100
AcDbBlockTableRecord
  2
*D7
340
0
  0
BLOCK_RECORD
  5
7948
330
50
100
AcDbSymbolTableRecord
100
AcDbBlockTableRecord
  2
*D8
340
0
  0
BLOCK_RECORD
  5
7956
330
50
100
AcDbSymbolTableRecord
100
AcDbBlockTableRecord
  2
*D9
340
0
  0
BLOCK_RECORD
  5
7975
330
50
100
AcDbSymbolTableRecord
100
AcDbBlockTableRecord
  2
*D10
340
0
  0
BLOCK_RECORD
  5
7983
330
50
100
AcDbSymbolTableRecord
100
AcDbBlockTableRecord
  2
*D11
340
0
  0
BLOCK_RECORD
  5
7A2A
330
50
100
AcDbSymbolTableRecord
100
AcDbBlockTableRecord
  2
*D12
340
0
  0
BLOCK_RECORD
  5
7A39
330
50
100
AcDbSymbolTableRecord
100
AcDbBlockTableRecord
  2
*D13
340
0
  0
BLOCK_RECORD
  5
7A73
330
50
100
AcDbSymbolTableRecord
100
AcDbBlockTableRecord
  2
*D14
340
0
  0
BLOCK_RECORD
  5
7B50
330
50
100
AcDbSymbolTableRecord
100
AcDbBlockTableRecord
  2
*D15
340
0
  0
BLOCK_RECORD
  5
7B5C
330
50
100
AcDbSymbolTableRecord
100
AcDbBlockTableRecord
  2
*D16
340
0
  0
BLOCK_RECORD
  5
7B6B
330
50
100
AcDbSymbolTableRecord
100
AcDbBlockTableRecord
  2
*D17
340
0
  0
BLOCK_RECORD
  5
7B77
330
50
100
AcDbSymbolTableRecord
100
AcDbBlockTableRecord
  2
*D18
340
0
  0
BLOCK_RECORD
  5
7B83
330
50
100
AcDbSymbolTableRecord
100
AcDbBlockTableRecord
  2
*D19
340
0
  0
BLOCK_RECORD
  5
7B8F
330
50
100
AcDbSymbolTableRecord
100
AcDbBlockTableRecord
  2
*D20
340
0
  0
BLOCK_RECORD
  5
7B9C
330
50
100
AcDbSymbolTableRecord
100
AcDbBlockTableRecord
  2
*D21
340
0
  0
BLOCK_RECORD
  5
7BD4
330
50
100
AcDbSymbolTableRecord
100
AcDbBlockTableRecord
  2
*D22
340
0
  0
BLOCK_RECORD
  5
7BE3
330
50
100
AcDbSymbolTableRecord
100
AcDbBlockTableRecord
  2
*D23
340
0
  0
BLOCK_RECORD
  5
7BF2
330
50
100
AcDbSymbolTableRecord
100
AcDbBlockTableRecord
  2
*D24
340
0
  0
BLOCK_RECORD
  5
7E01
330
50
100
AcDbSymbolTableRecord
100
AcDbBlockTableRecord
  2
*D25
340
0
  0
BLOCK_RECORD
  5
7FB0
330
50
100
AcDbSymbolTableRecord
100
AcDbBlockTableRecord
  2
*D26
340
0
  0
BLOCK_RECORD
  5
7FBE
330
50
100
AcDbSymbolTableRecord
100
AcDbBlockTableRecord
  2
*D27
340
0
  0
BLOCK_RECORD
  5
80CA
330
50
100
AcDbSymbolTableRecord
100
AcDbBlockTableRecord
  2
*D28
340
0
  0
BLOCK_RECORD
  5
80D9
330
50
100
AcDbSymbolTableRecord
100
AcDbBlockTableRecord
  2
*D29
340
0
  0
BLOCK_RECORD
  5
80E5
330
50
100
AcDbSymbolTableRecord
100
AcDbBlockTableRecord
  2
*D30
340
0
  0
BLOCK_RECORD
  5
810C
330
50
100
AcDbSymbolTableRecord
100
AcDbBlockTableRecord
  2
*D31
340
0
  0
BLOCK_RECORD
  5
811A
330
50
100
AcDbSymbolTableRecord
100
AcDbBlockTableRecord
  2
*D32
340
0
  0
BLOCK_RECORD
  5
8129
330
50
100
AcDbSymbolTableRecord
100
AcDbBlockTableRecord
  2
*D33
340
0
  0
BLOCK_RECORD
  5
8135
330
50
100
AcDbSymbolTableRecord
100
AcDbBlockTableRecord
  2
*D34
340
0
  0
BLOCK_RECORD
  5
8160
330
50
100
AcDbSymbolTableRecord
100
AcDbBlockTableRecord
  2
*D35
340
0
  0
BLOCK_RECORD
  5
816C
330
50
100
AcDbSymbolTableRecord
100
AcDbBlockTableRecord
  2
*D36
340
0
  0
BLOCK_RECORD
  5
82A7
330
50
100
AcDbSymbolTableRecord
100
AcDbBlockTableRecord
  2
*D37
340
0
  0
BLOCK_RECORD
  5
82B4
330
50
100
AcDbSymbolTableRecord
100
AcDbBlockTableRecord
  2
*D38
340
0
  0
BLOCK_RECORD
  5
82E2
330
50
100
AcDbSymbolTableRecord
100
AcDbBlockTableRecord
  2
*D39
340
0
  0
BLOCK_RECORD
  5
82F1
330
50
100
AcDbSymbolTableRecord
100
AcDbBlockTableRecord
  2
*D40
340
0
  0
BLOCK_RECORD
  5
8347
330
50
100
AcDbSymbolTableRecord
100
AcDbBlockTableRecord
  2
*D41
340
0
  0
BLOCK_RECORD
  5
838C
330
50
100
AcDbSymbolTableRecord
100
AcDbBlockTableRecord
  2
*D42
340
0
  0
BLOCK_RECORD
  5
8398
330
50
100
AcDbSymbolTableRecord
100
AcDbBlockTableRecord
  2
*D43
340
0
  0
BLOCK_RECORD
  5
83A7
330
50
100
AcDbSymbolTableRecord
100
AcDbBlockTableRecord
  2
*D44
340
0
  0
BLOCK_RECORD
  5
83B5
330
50
100
AcDbSymbolTableRecord
100
AcDbBlockTableRecord
  2
*D45
340
0
  0
BLOCK_RECORD
  5
83C4
330
50
100
AcDbSymbolTableRecord
100
AcDbBlockTableRecord
  2
*D46
340
0
  0
BLOCK_RECORD
  5
83D3
330
50
100
AcDbSymbolTableRecord
100
AcDbBlockTableRecord
  2
*D47
340
0
  0
BLOCK_RECORD
  5
83DF
330
50
100
AcDbSymbolTableRecord
100
AcDbBlockTableRecord
  2
*D48
340
0
  0
BLOCK_RECORD
  5
83EE
330
50
100
AcDbSymbolTableRecord
100
AcDbBlockTableRecord
  2
*D49
340
0
  0
BLOCK_RECORD
  5
83FA
330
50
100
AcDbSymbolTableRecord
100
AcDbBlockTableRecord
  2
*D50
340
0
  0
BLOCK_RECORD
  5
8406
330
50
100
AcDbSymbolTableRecord
100
AcDbBlockTableRecord
  2
*D51
340
0
  0
BLOCK_RECORD
  5
8413
330
50
100
AcDbSymbolTableRecord
100
AcDbBlockTableRecord
  2
*D52
340
0
  0
BLOCK_RECORD
  5
8422
330
50
100
AcDbSymbolTableRecord
100
AcDbBlockTableRecord
  2
*D53
340
0
  0
BLOCK_RECORD
  5
8EE5
330
50
100
AcDbSymbolTableRecord
100
AcDbBlockTableRecord
  2
*D54
340
0
  0
BLOCK_RECORD
  5
8F00
330
50
100
AcDbSymbolTableRecord
100
AcDbBlockTableRecord
  2
*D55
340
0
  0
BLOCK_RECORD
  5
8F0C
330
50
100
AcDbSymbolTableRecord
100
AcDbBlockTableRecord
  2
*D56
340
0
  0
BLOCK_RECORD
  5
8F18
330
50
100
AcDbSymbolTableRecord
100
AcDbBlockTableRecord
  2
*D57
340
0
  0
BLOCK_RECORD
  5
8F31
330
50
100
AcDbSymbolTableRecord
100
AcDbBlockTableRecord
  2
*D58
340
0
  0
BLOCK_RECORD
  5
8F4D
330
50
100
AcDbSymbolTableRecord
100
AcDbBlockTableRecord
  2
*D59
340
0
  0
BLOCK_RECORD
  5
8F69
330
50
100
AcDbSymbolTableRecord
100
AcDbBlockTableRecord
  2
*D60
340
0
  0
BLOCK_RECORD
  5
8F78
330
50
100
AcDbSymbolTableRecord
100
AcDbBlockTableRecord
  2
*D61
340
0
  0
BLOCK_RECORD
  5
8F87
330
50
100
AcDbSymbolTableRecord
100
AcDbBlockTableRecord
  2
*D62
340
0
  0
BLOCK_RECORD
  5
8FDE
330
50
100
AcDbSymbolTableRecord
100
AcDbBlockTableRecord
  2
*D63
340
0
  0
BLOCK_RECORD
  5
8FED
330
50
100
AcDbSymbolTableRecord
100
AcDbBlockTableRecord
  2
*D64
340
0
  0
BLOCK_RECORD
  5
8FF9
330
50
100
AcDbSymbolTableRecord
100
AcDbBlockTableRecord
  2
*D65
340
0
  0
BLOCK_RECORD
  5
9020
330
50
100
AcDbSymbolTableRecord
100
AcDbBlockTableRecord
  2
*D66
340
0
  0
BLOCK_RECORD
  5
902E
330
50
100
AcDbSymbolTableRecord
100
AcDbBlockTableRecord
  2
*D67
340
0
  0
BLOCK_RECORD
  5
903D
330
50
100
AcDbSymbolTableRecord
100
AcDbBlockTableRecord
  2
*D68
340
0
  0
BLOCK_RECORD
  5
9049
330
50
100
AcDbSymbolTableRecord
100
AcDbBlockTableRecord
  2
*D69
340
0
  0
BLOCK_RECORD
  5
9074
330
50
100
AcDbSymbolTableRecord
100
AcDbBlockTableRecord
  2
*D70
340
0
  0
BLOCK_RECORD
  5
909E
330
50
100
AcDbSymbolTableRecord
100
AcDbBlockTableRecord
  2
*D71
340
0
  0
BLOCK_RECORD
  5
90BB
330
50
100
AcDbSymbolTableRecord
100
AcDbBlockTableRecord
  2
*D72
340
0
  0
BLOCK_RECORD
  5
9100
330
50
100
AcDbSymbolTableRecord
100
AcDbBlockTableRecord
  2
*D73
340
0
  0
BLOCK_RECORD
  5
911B
330
50
100
AcDbSymbolTableRecord
100
AcDbBlockTableRecord
  2
*D74
340
0
  0
BLOCK_RECORD
  5
9129
330
50
100
AcDbSymbolTableRecord
100
AcDbBlockTableRecord
  2
*D75
340
0
  0
BLOCK_RECORD
  5
9138
330
50
100
AcDbSymbolTableRecord
100
AcDbBlockTableRecord
  2
*D76
340
0
  0
BLOCK_RECORD
  5
9147
330
50
100
AcDbSymbolTableRecord
100
AcDbBlockTableRecord
  2
*D77
340
0
  0
BLOCK_RECORD
  5
9153
330
50
100
AcDbSymbolTableRecord
100
AcDbBlockTableRecord
  2
*D78
340
0
  0
BLOCK_RECORD
  5
9162
330
50
100
AcDbSymbolTableRecord
100
AcDbBlockTableRecord
  2
*D79
340
0
  0
BLOCK_RECORD
  5
9196
330
50
100
AcDbSymbolTableRecord
100
AcDbBlockTableRecord
  2
*D80
340
0
  0
BLOCK_RECORD
  5
91A4
330
50
100
AcDbSymbolTableRecord
100
AcDbBlockTableRecord
  2
*D81
340
0
  0
BLOCK_RECORD
  5
91E9
330
50
100
AcDbSymbolTableRecord
100
AcDbBlockTableRecord
  2
*D82
340
0
  0
BLOCK_RECORD
  5
91F8
330
50
100
AcDbSymbolTableRecord
100
AcDbBlockTableRecord
  2
*D83
340
0
  0
BLOCK_RECORD
  5
9204
330
50
100
AcDbSymbolTableRecord
100
AcDbBlockTableRecord
  2
*D84
340
0
  0
BLOCK_RECORD
  5
9210
330
50
100
AcDbSymbolTableRecord
100
AcDbBlockTableRecord
  2
*D85
340
0
  0
BLOCK_RECORD
  5
922D
330
50
100
AcDbSymbolTableRecord
100
AcDbBlockTableRecord
  2
*D86
340
0
  0
BLOCK_RECORD
  5
9255
330
50
100
AcDbSymbolTableRecord
100
AcDbBlockTableRecord
  2
*D87
340
0
  0
BLOCK_RECORD
  5
9261
330
50
100
AcDbSymbolTableRecord
100
AcDbBlockTableRecord
  2
*D88
340
0
  0
BLOCK_RECORD
  5
927E
330
50
100
AcDbSymbolTableRecord
100
AcDbBlockTableRecord
  2
*D89
340
0
  0
BLOCK_RECORD
  5
9299
330
50
100
AcDbSymbolTableRecord
100
AcDbBlockTableRecord
  2
*D90
340
0
  0
BLOCK_RECORD
  5
92BF
330
50
100
AcDbSymbolTableRecord
100
AcDbBlockTableRecord
  2
*D91
340
0
  0
BLOCK_RECORD
  5
92DA
330
50
100
AcDbSymbolTableRecord
100
AcDbBlockTableRecord
  2
*D92
340
0
  0
BLOCK_RECORD
  5
92F3
330
50
100
AcDbSymbolTableRecord
100
AcDbBlockTableRecord
  2
*D93
340
0
  0
ENDTAB
  0
ENDSEC
  0
SECTION
  2
BLOCKS
  0
BLOCK
  5
88
330
67
100
AcDbEntity
  8
0
 62
     7
100
AcDbBlockBegin
  2
*MODEL_SPACE
 70
     0
 10
0.0
 20
0.0
 30
0.0
  3
*MODEL_SPACE
  1

  0
ENDBLK
  5
89
330
67
100
AcDbEntity
  8
0
 62
     7
100
AcDbBlockEnd
  0
BLOCK
  5
86
330
64
100
AcDbEntity
 67
     1
  8
0
 62
     7
100
AcDbBlockBegin
  2
*PAPER_SPACE
 70
     0
 10
0.0
 20
0.0
 30
0.0
  3
*PAPER_SPACE
  1

  0
ENDBLK
  5
87
330
64
100
AcDbEntity
 67
     1
  8
0
 62
     7
100
AcDbBlockEnd
  0
BLOCK
  5
19A
330
199
100
AcDbEntity
  8
0
 62
     7
100
AcDbBlockBegin
  2
_OPEN
 70
     0
 10
0.0
 20
0.0
 30
0.0
  3
_OPEN
  1

  0
LINE
  5
19B
330
199
100
AcDbEntity
  8
0
  6
ByBlock
 62
     0
100
AcDbLine
 10
-1.0
 20
0.166667
 30
0.0
 11
0.0
 21
0.0
 31
0.0
  0
LINE
  5
19C
330
199
100
AcDbEntity
  8
0
  6
ByBlock
 62
     0
100
AcDbLine
 10
0.0
 20
0.0
 30
0.0
 11
-1.0
 21
-0.166667
 31
0.0
  0
LINE
  5
19D
330
199
100
AcDbEntity
  8
0
  6
ByBlock
 62
     0
100
AcDbLine
 10
0.0
 20
0.0
 30
0.0
 11
-1.0
 21
0.0
 31
0.0
  0
ENDBLK
  5
19E
330
199
100
AcDbEntity
  8
0
100
AcDbBlockEnd
  0
BLOCK
  5
21CE
330
21CD
100
AcDbEntity
  8
0
100
AcDbBlockBegin
  2
_DOTSMALL
 70
     0
 10
0.0
 20
0.0
 30
0.0
  3
_DOTSMALL
  1

  0
LWPOLYLINE
  5
21CF
330
21CD
100
AcDbEntity
  8
0
  6
ByBlock
 62
     0
100
AcDbPolyline
 90
        2
 70
     1
 43
0.5
 10
-0.0625
 20
0.0
 42
1.0
 10
0.0625
 20
0.0
 42
1.0
  0
ENDBLK
  5
21D3
330
21CD
100
AcDbEntity
  8
0
100
AcDbBlockEnd
  0
BLOCK
  5
5F40
330
5F3F
100
AcDbEntity
  8
0
100
AcDbBlockBegin
  2
*D2
 70
     1
 10
0.0
 20
0.0
 30
0.0
  3
*D2
  1

  0
LINE
  5
5F41
330
5F3F
100
AcDbEntity
  8
0
  6
ByBlock
 62
     0
100
AcDbLine
 10
1663.405057
 20
4627.805161
 30
0.0
 11
1583.405057
 21
4627.805161
 31
0.0
  0
LINE
  5
5F42
330
5F3F
100
AcDbEntity
  8
0
  6
ByBlock
 62
     0
100
AcDbLine
 10
1663.405057
 20
4127.805161
 30
0.0
 11
1583.405057
 21
4127.805161
 31
0.0
  0
LINE
  5
5F43
330
5F3F
100
AcDbEntity
  8
0
  6
ByBlock
 62
     0
100
AcDbLine
 10
1593.405057
 20
4607.805161
 30
0.0
 11
1593.405057
 21
4147.805160999999
 31
0.0
  0
INSERT
  5
5F44
330
5F3F
100
AcDbEntity
  8
0
  6
ByBlock
 62
     0
100
AcDbBlockReference
  2
_OPEN
 10
1593.405057
 20
4627.805161
 30
0.0
 41
20.0
 42
20.0
 43
20.0
 50
90.0
  0
INSERT
  5
5F45
330
5F3F
100
AcDbEntity
  8
0
  6
ByBlock
 62
     0
100
AcDbBlockReference
  2
_OPEN
 10
1593.405057
 20
4127.805161
 30
0.0
 41
20.0
 42
20.0
 43
20.0
 50
270.0
  0
MTEXT
  5
5F46
330
5F3F
100
AcDbEntity
  8
0
  6
ByBlock
 62
     0
100
AcDbMText
 10
1570.905057
 20
4377.805161
 30
0.0
 40
25.0
 41
0.0
 71
     5
 72
     1
  1
\A1;500
 11
0.0
 21
1.0
 31
0.0
 73
     1
 44
1.0
1001
ACAD
1000
MTEXTBEGIN
1070
    73
1070
     1
1070
    44
1040
1.0
1070
    74
1070
     0
1000
MTEXTEND
  0
POINT
  5
5F47
330
5F3F
100
AcDbEntity
  8
DEFPOINTS
  6
ByBlock
 62
     0
100
AcDbPoint
 10
1693.405057
 20
4627.805161
 30
0.0
  0
POINT
  5
5F48
330
5F3F
100
AcDbEntity
  8
DEFPOINTS
  6
ByBlock
 62
     0
100
AcDbPoint
 10
1693.405057
 20
4127.805161
 30
0.0
  0
POINT
  5
5F49
330
5F3F
100
AcDbEntity
  8
DEFPOINTS
  6
ByBlock
 62
     0
100
AcDbPoint
 10
1593.405057
 20
4127.805161
 30
0.0
  0
ENDBLK
  5
5F4A
330
5F3F
100
AcDbEntity
  8
0
100
AcDbBlockEnd
  0
BLOCK
  5
7939
330
5F5A
100
AcDbEntity
  8
0
100
AcDbBlockBegin
  2
*D3
 70
     1
 10
0.0
 20
0.0
 30
0.0
  3
*D3
  1

  0
LINE
  5
793A
330
5F5A
100
AcDbEntity
  8
0
  6
ByBlock
 62
     0
100
AcDbLine
 10
2568.405057
 20
4444.076100999999
 30
0.0
 11
2483.405057
 21
4444.076100999999
 31
0.0
  0
LINE
  5
793B
330
5F5A
100
AcDbEntity
  8
0
  6
ByBlock
 62
     0
100
AcDbLine
 10
2653.227636
 20
4479.076100999999
 30
0.0
 11
2483.405057
 21
4479.076100999999
 31
0.0
  0
LINE
  5
793C
330
5F5A
100
AcDbEntity
  8
0
  6
ByBlock
 62
     0
100
AcDbLine
 10
2493.405057
 20
4424.076100999999
 30
0.0
 11
2493.405057
 21
4404.076101
 31
0.0
  0
LINE
  5
793D
330
5F5A
100
AcDbEntity
  8
0
  6
ByBlock
 62
     0
100
AcDbLine
 10
2493.405057
 20
4479.076100999999
 30
0.0
 11
2493.405057
 21
4499.076100999999
 31
0.0
  0
MTEXT
  5
793E
330
5F5A
100
AcDbEntity
  8
0
  6
ByBlock
 62
     0
100
AcDbMText
 10
2470.905057
 20
4417.939072999999
 30
0.0
 40
25.0
 41
0.0
 71
     5
 72
     1
  1
\A1;35
 11
0.0
 21
1.0
 31
0.0
 73
     1
 44
1.0
1001
ACAD
1000
MTEXTBEGIN
1070
    73
1070
     1
1070
    44
1040
1.0
1070
    74
1070
     0
1000
MTEXTEND
  0
LINE
  5
793F
330
5F5A
100
AcDbEntity
  8
0
  6
ByBlock
 62
     0
100
AcDbLine
 10
2493.405057
 20
4444.076100999999
 30
0.0
 11
2493.405057
 21
4479.076100999999
 31
0.0
  0
LINE
  5
7940
330
5F5A
100
AcDbEntity
  8
0
  6
ByBlock
 62
     0
100
AcDbLine
 10
2493.405057
 20
4444.076100999999
 30
0.0
 11
2493.405057
 21
4479.076100999999
 31
0.0
  0
INSERT
  5
7941
330
5F5A
100
AcDbEntity
  8
0
  6
ByBlock
 62
     0
100
AcDbBlockReference
  2
_OPEN
 10
2493.405057
 20
4444.076100999999
 30
0.0
 41
20.0
 42
20.0
 43
20.0
 50
90.0
  0
INSERT
  5
7942
330
5F5A
100
AcDbEntity
  8
0
  6
ByBlock
 62
     0
100
AcDbBlockReference
  2
_DOTSMALL
 10
2493.405057
 20
4479.076100999999
 30
0.0
 41
20.0
 42
20.0
 43
20.0
 50
270.0
  0
POINT
  5
7943
330
5F5A
100
AcDbEntity
  8
DEFPOINTS
  6
ByBlock
 62
     0
100
AcDbPoint
 10
2598.405057
 20
4444.076100999999
 30
0.0
  0
POINT
  5
7944
330
5F5A
100
AcDbEntity
  8
DEFPOINTS
  6
ByBlock
 62
     0
100
AcDbPoint
 10
2683.227636
 20
4479.076100999999
 30
0.0
  0
POINT
  5
7945
330
5F5A
100
AcDbEntity
  8
DEFPOINTS
  6
ByBlock
 62
     0
100
AcDbPoint
 10
2493.405057
 20
4479.076100999999
 30
0.0
  0
ENDBLK
  5
7946
330
5F5A
100
AcDbEntity
  8
0
100
AcDbBlockEnd
  0
BLOCK
  5
7863
330
5F69
100
AcDbEntity
  8
0
100
AcDbBlockBegin
  2
*D4
 70
     1
 10
0.0
 20
0.0
 30
0.0
  3
*D4
  1

  0
LINE
  5
7864
330
5F69
100
AcDbEntity
  8
0
  6
ByBlock
 62
     0
100
AcDbLine
 10
2593.405057
 20
4564.076101
 30
0.0
 11
2593.405057
 21
4644.076100999999
 31
0.0
  0
LINE
  5
7865
330
5F69
100
AcDbEntity
  8
0
  6
ByBlock
 62
     0
100
AcDbLine
 10
2955.405057
 20
4564.076101
 30
0.0
 11
2955.405057
 21
4644.076100999999
 31
0.0
  0
LINE
  5
7866
330
5F69
100
AcDbEntity
  8
0
  6
ByBlock
 62
     0
100
AcDbLine
 10
2613.405057
 20
4634.076100999999
 30
0.0
 11
2935.405057
 21
4634.076100999999
 31
0.0
  0
INSERT
  5
7867
330
5F69
100
AcDbEntity
  8
0
  6
ByBlock
 62
     0
100
AcDbBlockReference
  2
_OPEN
 10
2593.405057
 20
4634.076100999999
 30
0.0
 41
20.0
 42
20.0
 43
20.0
 50
180.0
  0
INSERT
  5
7868
330
5F69
100
AcDbEntity
  8
0
  6
ByBlock
 62
     0
100
AcDbBlockReference
  2
_OPEN
 10
2955.405057
 20
4634.076100999999
 30
0.0
 41
20.0
 42
20.0
 43
20.0
  0
MTEXT
  5
7869
330
5F69
100
AcDbEntity
  8
0
  6
ByBlock
 62
     0
100
AcDbMText
 10
2774.405057
 20
4656.576100999999
 30
0.0
 40
25.0
 41
0.0
 71
     5
 72
     1
  1
\A1;362
 73
     1
 44
1.0
1001
ACAD
1000
MTEXTBEGIN
1070
    73
1070
     1
1070
    44
1040
1.0
1070
    74
1070
     0
1000
MTEXTEND
  0
POINT
  5
786A
330
5F69
100
AcDbEntity
  8
DEFPOINTS
  6
ByBlock
 62
     0
100
AcDbPoint
 10
2593.405057
 20
4534.076100999999
 30
0.0
  0
POINT
  5
786B
330
5F69
100
AcDbEntity
  8
DEFPOINTS
  6
ByBlock
 62
     0
100
AcDbPoint
 10
2955.405057
 20
4534.076100999999
 30
0.0
  0
POINT
  5
786C
330
5F69
100
AcDbEntity
  8
DEFPOINTS
  6
ByBlock
 62
     0
100
AcDbPoint
 10
2955.405057
 20
4634.076100999999
 30
0.0
  0
ENDBLK
  5
786D
330
5F69
100
AcDbEntity
  8
0
100
AcDbBlockEnd
  0
BLOCK
  5
7A1F
330
5FA2
100
AcDbEntity
  8
0
100
AcDbBlockBegin
  2
*D5
 70
     1
 10
0.0
 20
0.0
 30
0.0
  3
*D5
  1

  0
LINE
  5
7A20
330
5FA2
100
AcDbEntity
  8
0
  6
ByBlock
 62
     0
100
AcDbLine
 10
2706.905057
 20
4044.076100999999
 30
0.0
 11
2706.905057
 21
4144.076100999999
 31
0.0
  0
LINE
  5
7A21
330
5FA2
100
AcDbEntity
  8
0
  6
ByBlock
 62
     0
100
AcDbLine
 10
2841.905057
 20
4044.076100999999
 30
0.0
 11
2841.905057
 21
4144.076100999999
 31
0.0
  0
LINE
  5
7A22
330
5FA2
100
AcDbEntity
  8
0
  6
ByBlock
 62
     0
100
AcDbLine
 10
2726.905057
 20
4134.076100999999
 30
0.0
 11
2821.905057
 21
4134.076100999999
 31
0.0
  0
INSERT
  5
7A23
330
5FA2
100
AcDbEntity
  8
0
  6
ByBlock
 62
     0
100
AcDbBlockReference
  2
_OPEN
 10
2706.905057
 20
4134.076100999999
 30
0.0
 41
20.0
 42
20.0
 43
20.0
 50
180.0
  0
INSERT
  5
7A24
330
5FA2
100
AcDbEntity
  8
0
  6
ByBlock
 62
     0
100
AcDbBlockReference
  2
_OPEN
 10
2841.905057
 20
4134.076100999999
 30
0.0
 41
20.0
 42
20.0
 43
20.0
  0
MTEXT
  5
7A25
330
5FA2
100
AcDbEntity
  8
0
  6
ByBlock
 62
     0
100
AcDbMText
 10
2774.405057
 20
4156.576100999999
 30
0.0
 40
25.0
 41
0.0
 71
     5
 72
     1
  1
\A1;135
 73
     1
 44
1.0
1001
ACAD
1000
MTEXTBEGIN
1070
    73
1070
     1
1070
    44
1040
1.0
1070
    74
1070
     0
1000
MTEXTEND
  0
POINT
  5
7A26
330
5FA2
100
AcDbEntity
  8
DEFPOINTS
  6
ByBlock
 62
     0
100
AcDbPoint
 10
2706.905057
 20
4014.076100999999
 30
0.0
  0
POINT
  5
7A27
330
5FA2
100
AcDbEntity
  8
DEFPOINTS
  6
ByBlock
 62
     0
100
AcDbPoint
 10
2841.905057
 20
4014.076100999999
 30
0.0
  0
POINT
  5
7A28
330
5FA2
100
AcDbEntity
  8
DEFPOINTS
  6
ByBlock
 62
     0
100
AcDbPoint
 10
2841.905057
 20
4134.076100999999
 30
0.0
  0
ENDBLK
  5
7A29
330
5FA2
100
AcDbEntity
  8
0
100
AcDbBlockEnd
  0
BLOCK
  5
78B8
330
78B7
100
AcDbEntity
  8
0
100
AcDbBlockBegin
  2
*D6
 70
     1
 10
0.0
 20
0.0
 30
0.0
  3
*D6
  1

  0
LINE
  5
78B9
330
78B7
100
AcDbEntity
  8
0
  6
ByBlock
 62
     0
100
AcDbLine
 10
2563.405057
 20
4534.076100999999
 30
0.0
 11
2433.405057
 21
4534.076100999999
 31
0.0
  0
LINE
  5
78BA
330
78B7
100
AcDbEntity
  8
0
  6
ByBlock
 62
     0
100
AcDbLine
 10
2568.405057
 20
4444.076100999999
 30
0.0
 11
2433.405057
 21
4444.076100999999
 31
0.0
  0
LINE
  5
78BB
330
78B7
100
AcDbEntity
  8
0
  6
ByBlock
 62
     0
100
AcDbLine
 10
2443.405057
 20
4514.076100999999
 30
0.0
 11
2443.405057
 21
4464.076100999999
 31
0.0
  0
INSERT
  5
78BC
330
78B7
100
AcDbEntity
  8
0
  6
ByBlock
 62
     0
100
AcDbBlockReference
  2
_OPEN
 10
2443.405057
 20
4534.076100999999
 30
0.0
 41
20.0
 42
20.0
 43
20.0
 50
90.0
  0
INSERT
  5
78BD
330
78B7
100
AcDbEntity
  8
0
  6
ByBlock
 62
     0
100
AcDbBlockReference
  2
_OPEN
 10
2443.405057
 20
4444.076100999999
 30
0.0
 41
20.0
 42
20.0
 43
20.0
 50
270.0
  0
MTEXT
  5
78BE
330
78B7
100
AcDbEntity
  8
0
  6
ByBlock
 62
     0
100
AcDbMText
 10
2420.905057
 20
4489.076101
 30
0.0
 40
25.0
 41
0.0
 71
     5
 72
     1
  1
\A1;90
 11
0.0
 21
1.0
 31
0.0
 73
     1
 44
1.0
1001
ACAD
1000
MTEXTBEGIN
1070
    73
1070
     1
1070
    44
1040
1.0
1070
    74
1070
     0
1000
MTEXTEND
  0
POINT
  5
78BF
330
78B7
100
AcDbEntity
  8
DEFPOINTS
  6
ByBlock
 62
     0
100
AcDbPoint
 10
2593.405057
 20
4534.076100999999
 30
0.0
  0
POINT
  5
78C0
330
78B7
100
AcDbEntity
  8
DEFPOINTS
  6
ByBlock
 62
     0
100
AcDbPoint
 10
2598.405057
 20
4444.076100999999
 30
0.0
  0
POINT
  5
78C1
330
78B7
100
AcDbEntity
  8
DEFPOINTS
  6
ByBlock
 62
     0
100
AcDbPoint
 10
2443.405057
 20
4444.076100999999
 30
0.0
  0
ENDBLK
  5
78C2
330
78B7
100
AcDbEntity
  8
0
100
AcDbBlockEnd
  0
BLOCK
  5
7910
330
790F
100
AcDbEntity
  8
0
100
AcDbBlockBegin
  2
*D7
 70
     1
 10
0.0
 20
0.0
 30
0.0
  3
*D7
  1

  0
LINE
  5
7911
330
790F
100
AcDbEntity
  8
0
  6
ByBlock
 62
     0
100
AcDbLine
 10
2563.405057
 20
4534.076100999999
 30
0.0
 11
2483.405057
 21
4534.076100999999
 31
0.0
  0
LINE
  5
7912
330
790F
100
AcDbEntity
  8
0
  6
ByBlock
 62
     0
100
AcDbLine
 10
2653.227636
 20
4479.076100999999
 30
0.0
 11
2483.405057
 21
4479.076100999999
 31
0.0
  0
LINE
  5
7913
330
790F
100
AcDbEntity
  8
0
  6
ByBlock
 62
     0
100
AcDbLine
 10
2493.405057
 20
4554.076100999999
 30
0.0
 11
2493.405057
 21
4574.076101
 31
0.0
  0
LINE
  5
7914
330
790F
100
AcDbEntity
  8
0
  6
ByBlock
 62
     0
100
AcDbLine
 10
2493.405057
 20
4479.076100999999
 30
0.0
 11
2493.405057
 21
4459.076100999999
 31
0.0
  0
LINE
  5
7915
330
790F
100
AcDbEntity
  8
0
  6
ByBlock
 62
     0
100
AcDbLine
 10
2493.405057
 20
4534.076100999999
 30
0.0
 11
2493.405057
 21
4479.076100999999
 31
0.0
  0
INSERT
  5
7916
330
790F
100
AcDbEntity
  8
0
  6
ByBlock
 62
     0
100
AcDbBlockReference
  2
_OPEN
 10
2493.405057
 20
4534.076100999999
 30
0.0
 41
20.0
 42
20.0
 43
20.0
 50
270.0
  0
MTEXT
  5
7917
330
790F
100
AcDbEntity
  8
0
  6
ByBlock
 62
     0
100
AcDbMText
 10
2470.905057
 20
4506.576100999999
 30
0.0
 40
25.0
 41
0.0
 71
     5
 72
     1
  1
\A1;55
 11
0.0
 21
1.0
 31
0.0
 73
     1
 44
1.0
1001
ACAD
1000
MTEXTBEGIN
1070
    73
1070
     1
1070
    44
1040
1.0
1070
    74
1070
     0
1000
MTEXTEND
  0
POINT
  5
7918
330
790F
100
AcDbEntity
  8
DEFPOINTS
  6
ByBlock
 62
     0
100
AcDbPoint
 10
2593.405057
 20
4534.076100999999
 30
0.0
  0
POINT
  5
7919
330
790F
100
AcDbEntity
  8
DEFPOINTS
  6
ByBlock
 62
     0
100
AcDbPoint
 10
2683.227636
 20
4479.076100999999
 30
0.0
  0
POINT
  5
791A
330
790F
100
AcDbEntity
  8
DEFPOINTS
  6
ByBlock
 62
     0
100
AcDbPoint
 10
2493.405057
 20
4479.076100999999
 30
0.0
  0
ENDBLK
  5
791B
330
790F
100
AcDbEntity
  8
0
100
AcDbBlockEnd
  0
BLOCK
  5
7965
330
7948
100
AcDbEntity
  8
0
100
AcDbBlockBegin
  2
*D8
 70
     1
 10
0.0
 20
0.0
 30
0.0
  3
*D8
  1

  0
LINE
  5
7966
330
7948
100
AcDbEntity
  8
0
  6
ByBlock
 62
     0
100
AcDbLine
 10
2593.405057
 20
4504.076100999999
 30
0.0
 11
2593.405057
 21
4334.076100999999
 31
0.0
  0
LINE
  5
7967
330
7948
100
AcDbEntity
  8
0
  6
ByBlock
 62
     0
100
AcDbLine
 10
2598.405057
 20
4414.076101
 30
0.0
 11
2598.405057
 21
4334.076100999999
 31
0.0
  0
LINE
  5
7968
330
7948
100
AcDbEntity
  8
0
  6
ByBlock
 62
     0
100
AcDbLine
 10
2573.405057
 20
4344.076100999999
 30
0.0
 11
2553.405057
 21
4344.076100999999
 31
0.0
  0
LINE
  5
7969
330
7948
100
AcDbEntity
  8
0
  6
ByBlock
 62
     0
100
AcDbLine
 10
2598.405057
 20
4344.076100999999
 30
0.0
 11
2618.405057
 21
4344.076100999999
 31
0.0
  0
MTEXT
  5
796A
330
7948
100
AcDbEntity
  8
0
  6
ByBlock
 62
     0
100
AcDbMText
 10
2576.572904
 20
4366.576100999999
 30
0.0
 40
25.0
 41
0.0
 71
     5
 72
     1
  1
\A1;5
 73
     1
 44
1.0
1001
ACAD
1000
MTEXTBEGIN
1070
    73
1070
     1
1070
    44
1040
1.0
1070
    74
1070
     0
1000
MTEXTEND
  0
LINE
  5
796B
330
7948
100
AcDbEntity
  8
0
  6
ByBlock
 62
     0
100
AcDbLine
 10
2593.405057
 20
4344.076100999999
 30
0.0
 11
2598.405057
 21
4344.076100999999
 31
0.0
  0
LINE
  5
796C
330
7948
100
AcDbEntity
  8
0
  6
ByBlock
 62
     0
100
AcDbLine
 10
2593.405057
 20
4344.076100999999
 30
0.0
 11
2598.405057
 21
4344.076100999999
 31
0.0
  0
INSERT
  5
796D
330
7948
100
AcDbEntity
  8
0
  6
ByBlock
 62
     0
100
AcDbBlockReference
  2
_OPEN
 10
2593.405057
 20
4344.076100999999
 30
0.0
 41
20.0
 42
20.0
 43
20.0
  0
POINT
  5
796E
330
7948
100
AcDbEntity
  8
DEFPOINTS
  6
ByBlock
 62
     0
100
AcDbPoint
 10
2593.405057
 20
4534.076100999999
 30
0.0
  0
POINT
  5
796F
330
7948
100
AcDbEntity
  8
DEFPOINTS
  6
ByBlock
 62
     0
100
AcDbPoint
 10
2598.405057
 20
4444.076100999999
 30
0.0
  0
POINT
  5
7970
330
7948
100
AcDbEntity
  8
DEFPOINTS
  6
ByBlock
 62
     0
100
AcDbPoint
 10
2598.405057
 20
4344.076100999999
 30
0.0
  0
ENDBLK
  5
7971
330
7948
100
AcDbEntity
  8
0
100
AcDbBlockEnd
  0
BLOCK
  5
7957
330
7956
100
AcDbEntity
  8
0
100
AcDbBlockBegin
  2
*D9
 70
     1
 10
0.0
 20
0.0
 30
0.0
  3
*D9
  1

  0
LINE
  5
7958
330
7956
100
AcDbEntity
  8
0
  6
ByBlock
 62
     0
100
AcDbLine
 10
2598.405057
 20
4414.076101
 30
0.0
 11
2598.405057
 21
4334.076100999999
 31
0.0
  0
LINE
  5
7959
330
7956
100
AcDbEntity
  8
0
  6
ByBlock
 62
     0
100
AcDbLine
 10
2648.405057
 20
4414.076101
 30
0.0
 11
2648.405057
 21
4334.076100999999
 31
0.0
  0
LINE
  5
795A
330
7956
100
AcDbEntity
  8
0
  6
ByBlock
 62
     0
100
AcDbLine
 10
2598.405057
 20
4344.076100999999
 30
0.0
 11
2578.405057
 21
4344.076100999999
 31
0.0
  0
LINE
  5
795B
330
7956
100
AcDbEntity
  8
0
  6
ByBlock
 62
     0
100
AcDbLine
 10
2668.405057
 20
4344.076100999999
 30
0.0
 11
2688.405057
 21
4344.076100999999
 31
0.0
  0
LINE
  5
795C
330
7956
100
AcDbEntity
  8
0
  6
ByBlock
 62
     0
100
AcDbLine
 10
2598.405057
 20
4344.076100999999
 30
0.0
 11
2648.405057
 21
4344.076100999999
 31
0.0
  0
INSERT
  5
795D
330
7956
100
AcDbEntity
  8
0
  6
ByBlock
 62
     0
100
AcDbBlockReference
  2
_DOTSMALL
 10
2598.405057
 20
4344.076100999999
 30
0.0
 41
20.0
 42
20.0
 43
20.0
  0
INSERT
  5
795E
330
7956
100
AcDbEntity
  8
0
  6
ByBlock
 62
     0
100
AcDbBlockReference
  2
_OPEN
 10
2648.405057
 20
4344.076100999999
 30
0.0
 41
20.0
 42
20.0
 43
20.0
 50
180.0
  0
MTEXT
  5
795F
330
7956
100
AcDbEntity
  8
0
  6
ByBlock
 62
     0
100
AcDbMText
 10
2623.405057
 20
4366.576100999999
 30
0.0
 40
25.0
 41
0.0
 71
     5
 72
     1
  1
\A1;50
 73
     1
 44
1.0
1001
ACAD
1000
MTEXTBEGIN
1070
    73
1070
     1
1070
    44
1040
1.0
1070
    74
1070
     0
1000
MTEXTEND
  0
POINT
  5
7960
330
7956
100
AcDbEntity
  8
DEFPOINTS
  6
ByBlock
 62
     0
100
AcDbPoint
 10
2598.405057
 20
4444.076100999999
 30
0.0
  0
POINT
  5
7961
330
7956
100
AcDbEntity
  8
DEFPOINTS
  6
ByBlock
 62
     0
100
AcDbPoint
 10
2648.405057
 20
4444.076100999999
 30
0.0
  0
POINT
  5
7962
330
7956
100
AcDbEntity
  8
DEFPOINTS
  6
ByBlock
 62
     0
100
AcDbPoint
 10
2648.405057
 20
4344.076100999999
 30
0.0
  0
ENDBLK
  5
7963
330
7956
100
AcDbEntity
  8
0
100
AcDbBlockEnd
  0
BLOCK
  5
7991
330
7975
100
AcDbEntity
  8
0
100
AcDbBlockBegin
  2
*D10
 70
     1
 10
0.0
 20
0.0
 30
0.0
  3
*D10
  1

  0
LINE
  5
7992
330
7975
100
AcDbEntity
  8
0
  6
ByBlock
 62
     0
100
AcDbLine
 10
2955.405057
 20
4504.076100999999
 30
0.0
 11
2955.405057
 21
4334.076100999999
 31
0.0
  0
LINE
  5
7993
330
7975
100
AcDbEntity
  8
0
  6
ByBlock
 62
     0
100
AcDbLine
 10
2950.405057
 20
4414.076101
 30
0.0
 11
2950.405057
 21
4334.076100999999
 31
0.0
  0
LINE
  5
7994
330
7975
100
AcDbEntity
  8
0
  6
ByBlock
 62
     0
100
AcDbLine
 10
2975.405057
 20
4344.076100999999
 30
0.0
 11
2995.405057
 21
4344.076100999999
 31
0.0
  0
LINE
  5
7995
330
7975
100
AcDbEntity
  8
0
  6
ByBlock
 62
     0
100
AcDbLine
 10
2950.405057
 20
4344.076100999999
 30
0.0
 11
2930.405057
 21
4344.076100999999
 31
0.0
  0
MTEXT
  5
7996
330
7975
100
AcDbEntity
  8
0
  6
ByBlock
 62
     0
100
AcDbMText
 10
2972.23721
 20
4366.576100999999
 30
0.0
 40
25.0
 41
0.0
 71
     5
 72
     1
  1
\A1;5
 73
     1
 44
1.0
1001
ACAD
1000
MTEXTBEGIN
1070
    73
1070
     1
1070
    44
1040
1.0
1070
    74
1070
     0
1000
MTEXTEND
  0
LINE
  5
7997
330
7975
100
AcDbEntity
  8
0
  6
ByBlock
 62
     0
100
AcDbLine
 10
2955.405057
 20
4344.076100999999
 30
0.0
 11
2950.405057
 21
4344.076100999999
 31
0.0
  0
LINE
  5
7998
330
7975
100
AcDbEntity
  8
0
  6
ByBlock
 62
     0
100
AcDbLine
 10
2955.405057
 20
4344.076100999999
 30
0.0
 11
2950.405057
 21
4344.076100999999
 31
0.0
  0
INSERT
  5
7999
330
7975
100
AcDbEntity
  8
0
  6
ByBlock
 62
     0
100
AcDbBlockReference
  2
_OPEN
 10
2955.405057
 20
4344.076100999999
 30
0.0
 41
20.0
 42
20.0
 43
20.0
 50
180.0
  0
POINT
  5
799A
330
7975
100
AcDbEntity
  8
DEFPOINTS
  6
ByBlock
 62
     0
100
AcDbPoint
 10
2955.405057
 20
4534.076100999999
 30
0.0
  0
POINT
  5
799B
330
7975
100
AcDbEntity
  8
DEFPOINTS
  6
ByBlock
 62
     0
100
AcDbPoint
 10
2950.405057
 20
4444.076100999999
 30
0.0
  0
POINT
  5
799C
330
7975
100
AcDbEntity
  8
DEFPOINTS
  6
ByBlock
 62
     0
100
AcDbPoint
 10
2950.405057
 20
4344.076100999999
 30
0.0
  0
ENDBLK
  5
799D
330
7975
100
AcDbEntity
  8
0
100
AcDbBlockEnd
  0
BLOCK
  5
799E
330
7983
100
AcDbEntity
  8
0
100
AcDbBlockBegin
  2
*D11
 70
     1
 10
0.0
 20
0.0
 30
0.0
  3
*D11
  1

  0
LINE
  5
799F
330
7983
100
AcDbEntity
  8
0
  6
ByBlock
 62
     0
100
AcDbLine
 10
2950.405057
 20
4414.076101
 30
0.0
 11
2950.405057
 21
4334.076100999999
 31
0.0
  0
LINE
  5
79A0
330
7983
100
AcDbEntity
  8
0
  6
ByBlock
 62
     0
100
AcDbLine
 10
2900.405057
 20
4414.076101
 30
0.0
 11
2900.405057
 21
4334.076100999999
 31
0.0
  0
LINE
  5
79A1
330
7983
100
AcDbEntity
  8
0
  6
ByBlock
 62
     0
100
AcDbLine
 10
2950.405057
 20
4344.076100999999
 30
0.0
 11
2970.405057
 21
4344.076100999999
 31
0.0
  0
LINE
  5
79A2
330
7983
100
AcDbEntity
  8
0
  6
ByBlock
 62
     0
100
AcDbLine
 10
2880.405057
 20
4344.076100999999
 30
0.0
 11
2860.405057
 21
4344.076100999999
 31
0.0
  0
LINE
  5
79A3
330
7983
100
AcDbEntity
  8
0
  6
ByBlock
 62
     0
100
AcDbLine
 10
2950.405057
 20
4344.076100999999
 30
0.0
 11
2900.405057
 21
4344.076100999999
 31
0.0
  0
INSERT
  5
79A4
330
7983
100
AcDbEntity
  8
0
  6
ByBlock
 62
     0
100
AcDbBlockReference
  2
_DOTSMALL
 10
2950.405057
 20
4344.076100999999
 30
0.0
 41
20.0
 42
20.0
 43
20.0
 50
180.0
  0
INSERT
  5
79A5
330
7983
100
AcDbEntity
  8
0
  6
ByBlock
 62
     0
100
AcDbBlockReference
  2
_OPEN
 10
2900.405057
 20
4344.076100999999
 30
0.0
 41
20.0
 42
20.0
 43
20.0
  0
MTEXT
  5
79A6
330
7983
100
AcDbEntity
  8
0
  6
ByBlock
 62
     0
100
AcDbMText
 10
2925.405057
 20
4366.576100999999
 30
0.0
 40
25.0
 41
0.0
 71
     5
 72
     1
  1
\A1;50
 73
     1
 44
1.0
1001
ACAD
1000
MTEXTBEGIN
1070
    73
1070
     1
1070
    44
1040
1.0
1070
    74
1070
     0
1000
MTEXTEND
  0
POINT
  5
79A7
330
7983
100
AcDbEntity
  8
DEFPOINTS
  6
ByBlock
 62
     0
100
AcDbPoint
 10
2950.405057
 20
4444.076100999999
 30
0.0
  0
POINT
  5
79A8
330
7983
100
AcDbEntity
  8
DEFPOINTS
  6
ByBlock
 62
     0
100
AcDbPoint
 10
2900.405057
 20
4444.076100999999
 30
0.0
  0
POINT
  5
79A9
330
7983
100
AcDbEntity
  8
DEFPOINTS
  6
ByBlock
 62
     0
100
AcDbPoint
 10
2900.405057
 20
4344.076100999999
 30
0.0
  0
ENDBLK
  5
79AA
330
7983
100
AcDbEntity
  8
0
100
AcDbBlockEnd
  0
BLOCK
  5
7A64
330
7A2A
100
AcDbEntity
  8
0
100
AcDbBlockBegin
  2
*D12
 70
     1
 10
0.0
 20
0.0
 30
0.0
  3
*D12
  1

  0
LINE
  5
7A65
330
7A2A
100
AcDbEntity
  8
0
  6
ByBlock
 62
     0
100
AcDbLine
 10
2841.905057
 20
4044.076100999999
 30
0.0
 11
2841.905057
 21
4144.076100999999
 31
0.0
  0
LINE
  5
7A66
330
7A2A
100
AcDbEntity
  8
0
  6
ByBlock
 62
     0
100
AcDbLine
 10
2851.905057
 20
4064.076101
 30
0.0
 11
2851.905057
 21
4144.076100999999
 31
0.0
  0
LINE
  5
7A67
330
7A2A
100
AcDbEntity
  8
0
  6
ByBlock
 62
     0
100
AcDbLine
 10
2821.905057
 20
4134.076100999999
 30
0.0
 11
2801.905057
 21
4134.076100999999
 31
0.0
  0
LINE
  5
7A68
330
7A2A
100
AcDbEntity
  8
0
  6
ByBlock
 62
     0
100
AcDbLine
 10
2871.905057
 20
4134.076100999999
 30
0.0
 11
2891.905057
 21
4134.076100999999
 31
0.0
  0
MTEXT
  5
7A69
330
7A2A
100
AcDbEntity
  8
0
  6
ByBlock
 62
     0
100
AcDbMText
 10
2870.294703
 20
4156.576100999999
 30
0.0
 40
25.0
 41
0.0
 71
     5
 72
     1
  1
\A1;10
 73
     1
 44
1.0
1001
ACAD
1000
MTEXTBEGIN
1070
    73
1070
     1
1070
    44
1040
1.0
1070
    74
1070
     0
1000
MTEXTEND
  0
LINE
  5
7A6A
330
7A2A
100
AcDbEntity
  8
0
  6
ByBlock
 62
     0
100
AcDbLine
 10
2841.905057
 20
4134.076100999999
 30
0.0
 11
2851.905057
 21
4134.076100999999
 31
0.0
  0
LINE
  5
7A6B
330
7A2A
100
AcDbEntity
  8
0
  6
ByBlock
 62
     0
100
AcDbLine
 10
2841.905057
 20
4134.076100999999
 30
0.0
 11
2851.905057
 21
4134.076100999999
 31
0.0
  0
INSERT
  5
7A6C
330
7A2A
100
AcDbEntity
  8
0
  6
ByBlock
 62
     0
100
AcDbBlockReference
  2
_OPEN
 10
2841.905057
 20
4134.076100999999
 30
0.0
 41
20.0
 42
20.0
 43
20.0
  0
INSERT
  5
7A6D
330
7A2A
100
AcDbEntity
  8
0
  6
ByBlock
 62
     0
100
AcDbBlockReference
  2
_OPEN
 10
2851.905057
 20
4134.076100999999
 30
0.0
 41
20.0
 42
20.0
 43
20.0
 50
180.0
  0
POINT
  5
7A6E
330
7A2A
100
AcDbEntity
  8
DEFPOINTS
  6
ByBlock
 62
     0
100
AcDbPoint
 10
2841.905057
 20
4014.076100999999
 30
0.0
  0
POINT
  5
7A6F
330
7A2A
100
AcDbEntity
  8
DEFPOINTS
  6
ByBlock
 62
     0
100
AcDbPoint
 10
2851.905057
 20
4034.076100999999
 30
0.0
  0
POINT
  5
7A70
330
7A2A
100
AcDbEntity
  8
DEFPOINTS
  6
ByBlock
 62
     0
100
AcDbPoint
 10
2851.905057
 20
4134.076100999999
 30
0.0
  0
ENDBLK
  5
7A71
330
7A2A
100
AcDbEntity
  8
0
100
AcDbBlockEnd
  0
BLOCK
  5
7A48
330
7A39
100
AcDbEntity
  8
0
100
AcDbBlockBegin
  2
*D13
 70
     1
 10
0.0
 20
0.0
 30
0.0
  3
*D13
  1

  0
LINE
  5
7A49
330
7A39
100
AcDbEntity
  8
0
  6
ByBlock
 62
     0
100
AcDbLine
 10
2706.905057
 20
4044.076100999999
 30
0.0
 11
2706.905057
 21
4144.076100999999
 31
0.0
  0
LINE
  5
7A4A
330
7A39
100
AcDbEntity
  8
0
  6
ByBlock
 62
     0
100
AcDbLine
 10
2696.905057
 20
4064.076101
 30
0.0
 11
2696.905057
 21
4144.076100999999
 31
0.0
  0
LINE
  5
7A4B
330
7A39
100
AcDbEntity
  8
0
  6
ByBlock
 62
     0
100
AcDbLine
 10
2726.905057
 20
4134.076100999999
 30
0.0
 11
2746.905057
 21
4134.076100999999
 31
0.0
  0
LINE
  5
7A4C
330
7A39
100
AcDbEntity
  8
0
  6
ByBlock
 62
     0
100
AcDbLine
 10
2676.905057
 20
4134.076100999999
 30
0.0
 11
2656.905057
 21
4134.076100999999
 31
0.0
  0
MTEXT
  5
7A4D
330
7A39
100
AcDbEntity
  8
0
  6
ByBlock
 62
     0
100
AcDbMText
 10
2673.16652
 20
4156.576100999999
 30
0.0
 40
25.0
 41
0.0
 71
     5
 72
     1
  1
\A1;10
 73
     1
 44
1.0
1001
ACAD
1000
MTEXTBEGIN
1070
    73
1070
     1
1070
    44
1040
1.0
1070
    74
1070
     0
1000
MTEXTEND
  0
LINE
  5
7A4E
330
7A39
100
AcDbEntity
  8
0
  6
ByBlock
 62
     0
100
AcDbLine
 10
2706.905057
 20
4134.076100999999
 30
0.0
 11
2696.905057
 21
4134.076100999999
 31
0.0
  0
LINE
  5
7A4F
330
7A39
100
AcDbEntity
  8
0
  6
ByBlock
 62
     0
100
AcDbLine
 10
2706.905057
 20
4134.076100999999
 30
0.0
 11
2696.905057
 21
4134.076100999999
 31
0.0
  0
INSERT
  5
7A50
330
7A39
100
AcDbEntity
  8
0
  6
ByBlock
 62
     0
100
AcDbBlockReference
  2
_OPEN
 10
2706.905057
 20
4134.076100999999
 30
0.0
 41
20.0
 42
20.0
 43
20.0
 50
180.0
  0
INSERT
  5
7A51
330
7A39
100
AcDbEntity
  8
0
  6
ByBlock
 62
     0
100
AcDbBlockReference
  2
_OPEN
 10
2696.905057
 20
4134.076100999999
 30
0.0
 41
20.0
 42
20.0
 43
20.0
  0
POINT
  5
7A52
330
7A39
100
AcDbEntity
  8
DEFPOINTS
  6
ByBlock
 62
     0
100
AcDbPoint
 10
2706.905057
 20
4014.076100999999
 30
0.0
  0
POINT
  5
7A53
330
7A39
100
AcDbEntity
  8
DEFPOINTS
  6
ByBlock
 62
     0
100
AcDbPoint
 10
2696.905057
 20
4034.076100999999
 30
0.0
  0
POINT
  5
7A54
330
7A39
100
AcDbEntity
  8
DEFPOINTS
  6
ByBlock
 62
     0
100
AcDbPoint
 10
2696.905057
 20
4134.076100999999
 30
0.0
  0
ENDBLK
  5
7A55
330
7A39
100
AcDbEntity
  8
0
100
AcDbBlockEnd
  0
BLOCK
  5
7A90
330
7A73
100
AcDbEntity
  8
0
100
AcDbBlockBegin
  2
*D14
 70
     1
 10
0.0
 20
0.0
 30
0.0
  3
*D14
  1

  0
LINE
  5
7A91
330
7A73
100
AcDbEntity
  8
0
  6
ByBlock
 62
     0
100
AcDbLine
 10
2811.905057
 20
4014.076100999999
 30
0.0
 11
2764.405057
 21
4014.076100999999
 31
0.0
  0
LINE
  5
7A92
330
7A73
100
AcDbEntity
  8
0
  6
ByBlock
 62
     0
100
AcDbLine
 10
2821.905057
 20
4034.076100999999
 30
0.0
 11
2764.405057
 21
4034.076100999999
 31
0.0
  0
LINE
  5
7A93
330
7A73
100
AcDbEntity
  8
0
  6
ByBlock
 62
     0
100
AcDbLine
 10
2774.405057
 20
3994.076101
 30
0.0
 11
2774.405057
 21
3974.076101
 31
0.0
  0
LINE
  5
7A94
330
7A73
100
AcDbEntity
  8
0
  6
ByBlock
 62
     0
100
AcDbLine
 10
2774.405057
 20
4054.076100999999
 30
0.0
 11
2774.405057
 21
4074.076101
 31
0.0
  0
MTEXT
  5
7A95
330
7A73
100
AcDbEntity
  8
0
  6
ByBlock
 62
     0
100
AcDbMText
 10
2751.905057
 20
4059.169821
 30
0.0
 40
25.0
 41
0.0
 71
     5
 72
     1
  1
\A1;20
 11
0.0
 21
1.0
 31
0.0
 73
     1
 44
1.0
1001
ACAD
1000
MTEXTBEGIN
1070
    73
1070
     1
1070
    44
1040
1.0
1070
    74
1070
     0
1000
MTEXTEND
  0
LINE
  5
7A96
330
7A73
100
AcDbEntity
  8
0
  6
ByBlock
 62
     0
100
AcDbLine
 10
2774.405057
 20
4014.076100999999
 30
0.0
 11
2774.405057
 21
4034.076100999999
 31
0.0
  0
LINE
  5
7A97
330
7A73
100
AcDbEntity
  8
0
  6
ByBlock
 62
     0
100
AcDbLine
 10
2774.405057
 20
4014.076100999999
 30
0.0
 11
2774.405057
 21
4034.076100999999
 31
0.0
  0
INSERT
  5
7A98
330
7A73
100
AcDbEntity
  8
0
  6
ByBlock
 62
     0
100
AcDbBlockReference
  2
_OPEN
 10
2774.405057
 20
4014.076100999999
 30
0.0
 41
20.0
 42
20.0
 43
20.0
 50
90.0
  0
INSERT
  5
7A99
330
7A73
100
AcDbEntity
  8
0
  6
ByBlock
 62
     0
100
AcDbBlockReference
  2
_OPEN
 10
2774.405057
 20
4034.076100999999
 30
0.0
 41
20.0
 42
20.0
 43
20.0
 50
270.0
  0
POINT
  5
7A9A
330
7A73
100
AcDbEntity
  8
DEFPOINTS
  6
ByBlock
 62
     0
100
AcDbPoint
 10
2841.905057
 20
4014.076100999999
 30
0.0
  0
POINT
  5
7A9B
330
7A73
100
AcDbEntity
  8
DEFPOINTS
  6
ByBlock
 62
     0
100
AcDbPoint
 10
2851.905057
 20
4034.076100999999
 30
0.0
  0
POINT
  5
7A9C
330
7A73
100
AcDbEntity
  8
DEFPOINTS
  6
ByBlock
 62
     0
100
AcDbPoint
 10
2774.405057
 20
4034.076100999999
 30
0.0
  0
ENDBLK
  5
7A9D
330
7A73
100
AcDbEntity
  8
0
100
AcDbBlockEnd
  0
BLOCK
  5
7B51
330
7B50
100
AcDbEntity
  8
0
100
AcDbBlockBegin
  2
*D15
 70
     1
 10
0.0
 20
0.0
 30
0.0
  3
*D15
  1

  0
LINE
  5
7B52
330
7B50
100
AcDbEntity
  8
0
  6
ByBlock
 62
     0
100
AcDbLine
 10
2563.405057
 20
4034.076100999999
 30
0.0
 11
2483.405057
 21
4034.076100999999
 31
0.0
  0
LINE
  5
7B53
330
7B50
100
AcDbEntity
  8
0
  6
ByBlock
 62
     0
100
AcDbLine
 10
2563.405057
 20
3534.076101
 30
0.0
 11
2483.405057
 21
3534.076101
 31
0.0
  0
LINE
  5
7B54
330
7B50
100
AcDbEntity
  8
0
  6
ByBlock
 62
     0
100
AcDbLine
 10
2493.405057
 20
4014.076100999999
 30
0.0
 11
2493.405057
 21
3554.076101
 31
0.0
  0
INSERT
  5
7B55
330
7B50
100
AcDbEntity
  8
0
  6
ByBlock
 62
     0
100
AcDbBlockReference
  2
_OPEN
 10
2493.405057
 20
4034.076100999999
 30
0.0
 41
20.0
 42
20.0
 43
20.0
 50
90.0
  0
INSERT
  5
7B56
330
7B50
100
AcDbEntity
  8
0
  6
ByBlock
 62
     0
100
AcDbBlockReference
  2
_OPEN
 10
2493.405057
 20
3534.076101
 30
0.0
 41
20.0
 42
20.0
 43
20.0
 50
270.0
  0
MTEXT
  5
7B57
330
7B50
100
AcDbEntity
  8
0
  6
ByBlock
 62
     0
100
AcDbMText
 10
2470.905057
 20
3784.076101
 30
0.0
 40
25.0
 41
0.0
 71
     5
 72
     1
  1
\A1;500
 11
0.0
 21
1.0
 31
0.0
 73
     1
 44
1.0
1001
ACAD
1000
MTEXTBEGIN
1070
    73
1070
     1
1070
    44
1040
1.0
1070
    74
1070
     0
1000
MTEXTEND
  0
POINT
  5
7B58
330
7B50
100
AcDbEntity
  8
DEFPOINTS
  6
ByBlock
 62
     0
100
AcDbPoint
 10
2593.405057
 20
4034.076100999999
 30
0.0
  0
POINT
  5
7B59
330
7B50
100
AcDbEntity
  8
DEFPOINTS
  6
ByBlock
 62
     0
100
AcDbPoint
 10
2593.405057
 20
3534.076101
 30
0.0
  0
POINT
  5
7B5A
330
7B50
100
AcDbEntity
  8
DEFPOINTS
  6
ByBlock
 62
     0
100
AcDbPoint
 10
2493.405057
 20
3534.076101
 30
0.0
  0
ENDBLK
  5
7B5B
330
7B50
100
AcDbEntity
  8
0
100
AcDbBlockEnd
  0
BLOCK
  5
7D6F
330
7B5C
100
AcDbEntity
  8
0
100
AcDbBlockBegin
  2
*D16
 70
     1
 10
0.0
 20
0.0
 30
0.0
  3
*D16
  1

  0
LINE
  5
7D70
330
7B5C
100
AcDbEntity
  8
0
  6
ByBlock
 62
     0
100
AcDbLine
 10
3568.405057
 20
4439.076101
 30
0.0
 11
3483.405057000001
 21
4439.076101
 31
0.0
  0
LINE
  5
7D71
330
7B5C
100
AcDbEntity
  8
0
  6
ByBlock
 62
     0
100
AcDbLine
 10
3659.405057
 20
4479.076100999999
 30
0.0
 11
3483.405057000001
 21
4479.076100999999
 31
0.0
  0
LINE
  5
7D72
330
7B5C
100
AcDbEntity
  8
0
  6
ByBlock
 62
     0
100
AcDbLine
 10
3493.405057
 20
4419.076100999999
 30
0.0
 11
3493.405057
 21
4399.076101
 31
0.0
  0
LINE
  5
7D73
330
7B5C
100
AcDbEntity
  8
0
  6
ByBlock
 62
     0
100
AcDbLine
 10
3493.405057
 20
4479.076100999999
 30
0.0
 11
3493.405057
 21
4499.076100999999
 31
0.0
  0
MTEXT
  5
7D74
330
7B5C
100
AcDbEntity
  8
0
  6
ByBlock
 62
     0
100
AcDbMText
 10
3470.905057
 20
4412.939072999999
 30
0.0
 40
25.0
 41
0.0
 71
     5
 72
     1
  1
\A1;40
 11
0.0
 21
1.0
 31
0.0
 73
     1
 44
1.0
1001
ACAD
1000
MTEXTBEGIN
1070
    73
1070
     1
1070
    44
1040
1.0
1070
    74
1070
     0
1000
MTEXTEND
  0
LINE
  5
7D75
330
7B5C
100
AcDbEntity
  8
0
  6
ByBlock
 62
     0
100
AcDbLine
 10
3493.405057
 20
4439.076101
 30
0.0
 11
3493.405057
 21
4479.076100999999
 31
0.0
  0
LINE
  5
7D76
330
7B5C
100
AcDbEntity
  8
0
  6
ByBlock
 62
     0
100
AcDbLine
 10
3493.405057
 20
4439.076101
 30
0.0
 11
3493.405057
 21
4479.076100999999
 31
0.0
  0
INSERT
  5
7D77
330
7B5C
100
AcDbEntity
  8
0
  6
ByBlock
 62
     0
100
AcDbBlockReference
  2
_OPEN
 10
3493.405057
 20
4439.076101
 30
0.0
 41
20.0
 42
20.0
 43
20.0
 50
90.0
  0
INSERT
  5
7D78
330
7B5C
100
AcDbEntity
  8
0
  6
ByBlock
 62
     0
100
AcDbBlockReference
  2
_DOTSMALL
 10
3493.405057
 20
4479.076100999999
 30
0.0
 41
20.0
 42
20.0
 43
20.0
 50
270.0
  0
POINT
  5
7D79
330
7B5C
100
AcDbEntity
  8
DEFPOINTS
  6
ByBlock
 62
     0
100
AcDbPoint
 10
3598.405057
 20
4439.076101
 30
0.0
  0
POINT
  5
7D7A
330
7B5C
100
AcDbEntity
  8
DEFPOINTS
  6
ByBlock
 62
     0
100
AcDbPoint
 10
3689.405057
 20
4479.076100999999
 30
0.0
  0
POINT
  5
7D7B
330
7B5C
100
AcDbEntity
  8
DEFPOINTS
  6
ByBlock
 62
     0
100
AcDbPoint
 10
3493.405057
 20
4479.076100999999
 30
0.0
  0
ENDBLK
  5
7D7C
330
7B5C
100
AcDbEntity
  8
0
100
AcDbBlockEnd
  0
BLOCK
  5
8018
330
7B6B
100
AcDbEntity
  8
0
100
AcDbBlockBegin
  2
*D17
 70
     1
 10
0.0
 20
0.0
 30
0.0
  3
*D17
  1

  0
LINE
  5
8019
330
7B6B
100
AcDbEntity
  8
0
  6
ByBlock
 62
     0
100
AcDbLine
 10
3731.905057
 20
4044.076100999999
 30
0.0
 11
3731.905057
 21
4144.076100999999
 31
0.0
  0
LINE
  5
801A
330
7B6B
100
AcDbEntity
  8
0
  6
ByBlock
 62
     0
100
AcDbLine
 10
3866.905057
 20
4044.076100999999
 30
0.0
 11
3866.905057
 21
4144.076100999999
 31
0.0
  0
LINE
  5
801B
330
7B6B
100
AcDbEntity
  8
0
  6
ByBlock
 62
     0
100
AcDbLine
 10
3751.905057
 20
4134.076100999999
 30
0.0
 11
3846.905057
 21
4134.076100999999
 31
0.0
  0
INSERT
  5
801C
330
7B6B
100
AcDbEntity
  8
0
  6
ByBlock
 62
     0
100
AcDbBlockReference
  2
_OPEN
 10
3731.905057
 20
4134.076100999999
 30
0.0
 41
20.0
 42
20.0
 43
20.0
 50
180.0
  0
INSERT
  5
801D
330
7B6B
100
AcDbEntity
  8
0
  6
ByBlock
 62
     0
100
AcDbBlockReference
  2
_OPEN
 10
3866.905057
 20
4134.076100999999
 30
0.0
 41
20.0
 42
20.0
 43
20.0
  0
MTEXT
  5
801E
330
7B6B
100
AcDbEntity
  8
0
  6
ByBlock
 62
     0
100
AcDbMText
 10
3799.405057
 20
4156.576100999999
 30
0.0
 40
25.0
 41
0.0
 71
     5
 72
     1
  1
\A1;135
 73
     1
 44
1.0
1001
ACAD
1000
MTEXTBEGIN
1070
    73
1070
     1
1070
    44
1040
1.0
1070
    74
1070
     0
1000
MTEXTEND
  0
POINT
  5
801F
330
7B6B
100
AcDbEntity
  8
DEFPOINTS
  6
ByBlock
 62
     0
100
AcDbPoint
 10
3731.905057
 20
4014.076100999999
 30
0.0
  0
POINT
  5
8020
330
7B6B
100
AcDbEntity
  8
DEFPOINTS
  6
ByBlock
 62
     0
100
AcDbPoint
 10
3866.905057
 20
4014.076100999999
 30
0.0
  0
POINT
  5
8021
330
7B6B
100
AcDbEntity
  8
DEFPOINTS
  6
ByBlock
 62
     0
100
AcDbPoint
 10
3866.905057
 20
4134.076100999999
 30
0.0
  0
ENDBLK
  5
8022
330
7B6B
100
AcDbEntity
  8
0
100
AcDbBlockEnd
  0
BLOCK
  5
7C50
330
7B77
100
AcDbEntity
  8
0
100
AcDbBlockBegin
  2
*D18
 70
     1
 10
0.0
 20
0.0
 30
0.0
  3
*D18
  1

  0
LINE
  5
7C51
330
7B77
100
AcDbEntity
  8
0
  6
ByBlock
 62
     0
100
AcDbLine
 10
3593.405057
 20
4564.076101
 30
0.0
 11
3593.405057
 21
4644.076100999999
 31
0.0
  0
LINE
  5
7C52
330
7B77
100
AcDbEntity
  8
0
  6
ByBlock
 62
     0
100
AcDbLine
 10
4005.405056999999
 20
4564.076101
 30
0.0
 11
4005.405056999999
 21
4644.076100999999
 31
0.0
  0
LINE
  5
7C53
330
7B77
100
AcDbEntity
  8
0
  6
ByBlock
 62
     0
100
AcDbLine
 10
3613.405057
 20
4634.076100999999
 30
0.0
 11
3985.405057
 21
4634.076100999999
 31
0.0
  0
INSERT
  5
7C54
330
7B77
100
AcDbEntity
  8
0
  6
ByBlock
 62
     0
100
AcDbBlockReference
  2
_OPEN
 10
3593.405057
 20
4634.076100999999
 30
0.0
 41
20.0
 42
20.0
 43
20.0
 50
180.0
  0
INSERT
  5
7C55
330
7B77
100
AcDbEntity
  8
0
  6
ByBlock
 62
     0
100
AcDbBlockReference
  2
_OPEN
 10
4005.405056999999
 20
4634.076100999999
 30
0.0
 41
20.0
 42
20.0
 43
20.0
  0
MTEXT
  5
7C56
330
7B77
100
AcDbEntity
  8
0
  6
ByBlock
 62
     0
100
AcDbMText
 10
3799.405057
 20
4656.576100999999
 30
0.0
 40
25.0
 41
0.0
 71
     5
 72
     1
  1
\A1;412
 73
     1
 44
1.0
1001
ACAD
1000
MTEXTBEGIN
1070
    73
1070
     1
1070
    44
1040
1.0
1070
    74
1070
     0
1000
MTEXTEND
  0
POINT
  5
7C57
330
7B77
100
AcDbEntity
  8
DEFPOINTS
  6
ByBlock
 62
     0
100
AcDbPoint
 10
3593.405057
 20
4534.076100999999
 30
0.0
  0
POINT
  5
7C58
330
7B77
100
AcDbEntity
  8
DEFPOINTS
  6
ByBlock
 62
     0
100
AcDbPoint
 10
4005.405056999999
 20
4534.076100999999
 30
0.0
  0
POINT
  5
7C59
330
7B77
100
AcDbEntity
  8
DEFPOINTS
  6
ByBlock
 62
     0
100
AcDbPoint
 10
4005.405056999999
 20
4634.076100999999
 30
0.0
  0
ENDBLK
  5
7C5A
330
7B77
100
AcDbEntity
  8
0
100
AcDbBlockEnd
  0
BLOCK
  5
7D33
330
7B83
100
AcDbEntity
  8
0
100
AcDbBlockBegin
  2
*D19
 70
     1
 10
0.0
 20
0.0
 30
0.0
  3
*D19
  1

  0
LINE
  5
7D34
330
7B83
100
AcDbEntity
  8
0
  6
ByBlock
 62
     0
100
AcDbLine
 10
3563.405057
 20
4534.076100999999
 30
0.0
 11
3433.405057
 21
4534.076100999999
 31
0.0
  0
LINE
  5
7D35
330
7B83
100
AcDbEntity
  8
0
  6
ByBlock
 62
     0
100
AcDbLine
 10
3568.405057
 20
4439.076101
 30
0.0
 11
3433.405057
 21
4439.076101
 31
0.0
  0
LINE
  5
7D36
330
7B83
100
AcDbEntity
  8
0
  6
ByBlock
 62
     0
100
AcDbLine
 10
3443.405057
 20
4514.076100999999
 30
0.0
 11
3443.405057
 21
4459.076100999999
 31
0.0
  0
INSERT
  5
7D37
330
7B83
100
AcDbEntity
  8
0
  6
ByBlock
 62
     0
100
AcDbBlockReference
  2
_OPEN
 10
3443.405057
 20
4534.076100999999
 30
0.0
 41
20.0
 42
20.0
 43
20.0
 50
90.0
  0
INSERT
  5
7D38
330
7B83
100
AcDbEntity
  8
0
  6
ByBlock
 62
     0
100
AcDbBlockReference
  2
_OPEN
 10
3443.405057
 20
4439.076101
 30
0.0
 41
20.0
 42
20.0
 43
20.0
 50
270.0
  0
MTEXT
  5
7D39
330
7B83
100
AcDbEntity
  8
0
  6
ByBlock
 62
     0
100
AcDbMText
 10
3420.905057000001
 20
4486.576100999999
 30
0.0
 40
25.0
 41
0.0
 71
     5
 72
     1
  1
\A1;95
 11
0.0
 21
1.0
 31
0.0
 73
     1
 44
1.0
1001
ACAD
1000
MTEXTBEGIN
1070
    73
1070
     1
1070
    44
1040
1.0
1070
    74
1070
     0
1000
MTEXTEND
  0
POINT
  5
7D3A
330
7B83
100
AcDbEntity
  8
DEFPOINTS
  6
ByBlock
 62
     0
100
AcDbPoint
 10
3593.405057
 20
4534.076100999999
 30
0.0
  0
POINT
  5
7D3B
330
7B83
100
AcDbEntity
  8
DEFPOINTS
  6
ByBlock
 62
     0
100
AcDbPoint
 10
3598.405057
 20
4439.076101
 30
0.0
  0
POINT
  5
7D3C
330
7B83
100
AcDbEntity
  8
DEFPOINTS
  6
ByBlock
 62
     0
100
AcDbPoint
 10
3443.405057
 20
4439.076101
 30
0.0
  0
ENDBLK
  5
7D3D
330
7B83
100
AcDbEntity
  8
0
100
AcDbBlockEnd
  0
BLOCK
  5
7D89
330
7B8F
100
AcDbEntity
  8
0
100
AcDbBlockBegin
  2
*D20
 70
     1
 10
0.0
 20
0.0
 30
0.0
  3
*D20
  1

  0
LINE
  5
7D8A
330
7B8F
100
AcDbEntity
  8
0
  6
ByBlock
 62
     0
100
AcDbLine
 10
3563.405057
 20
4534.076100999999
 30
0.0
 11
3483.405057000001
 21
4534.076100999999
 31
0.0
  0
LINE
  5
7D8B
330
7B8F
100
AcDbEntity
  8
0
  6
ByBlock
 62
     0
100
AcDbLine
 10
3513.405057
 20
4479.076100999999
 30
0.0
 11
3503.405057
 21
4479.076100999999
 31
0.0
  0
LINE
  5
7D8C
330
7B8F
100
AcDbEntity
  8
0
  6
ByBlock
 62
     0
100
AcDbLine
 10
3493.405057
 20
4554.076100999999
 30
0.0
 11
3493.405057
 21
4574.076101
 31
0.0
  0
LINE
  5
7D8D
330
7B8F
100
AcDbEntity
  8
0
  6
ByBlock
 62
     0
100
AcDbLine
 10
3493.405057
 20
4479.076100999999
 30
0.0
 11
3493.405057
 21
4459.076100999999
 31
0.0
  0
LINE
  5
7D8E
330
7B8F
100
AcDbEntity
  8
0
  6
ByBlock
 62
     0
100
AcDbLine
 10
3493.405057
 20
4534.076100999999
 30
0.0
 11
3493.405057
 21
4479.076100999999
 31
0.0
  0
INSERT
  5
7D8F
330
7B8F
100
AcDbEntity
  8
0
  6
ByBlock
 62
     0
100
AcDbBlockReference
  2
_OPEN
 10
3493.405057
 20
4534.076100999999
 30
0.0
 41
20.0
 42
20.0
 43
20.0
 50
270.0
  0
MTEXT
  5
7D90
330
7B8F
100
AcDbEntity
  8
0
  6
ByBlock
 62
     0
100
AcDbMText
 10
3470.905057
 20
4506.576100999999
 30
0.0
 40
25.0
 41
0.0
 71
     5
 72
     1
  1
\A1;55
 11
0.0
 21
1.0
 31
0.0
 73
     1
 44
1.0
1001
ACAD
1000
MTEXTBEGIN
1070
    73
1070
     1
1070
    44
1040
1.0
1070
    74
1070
     0
1000
MTEXTEND
  0
POINT
  5
7D91
330
7B8F
100
AcDbEntity
  8
DEFPOINTS
  6
ByBlock
 62
     0
100
AcDbPoint
 10
3593.405057
 20
4534.076100999999
 30
0.0
  0
POINT
  5
7D92
330
7B8F
100
AcDbEntity
  8
DEFPOINTS
  6
ByBlock
 62
     0
100
AcDbPoint
 10
3483.405057000001
 20
4479.076100999999
 30
0.0
  0
POINT
  5
7D93
330
7B8F
100
AcDbEntity
  8
DEFPOINTS
  6
ByBlock
 62
     0
100
AcDbPoint
 10
3493.405057
 20
4479.076100999999
 30
0.0
  0
ENDBLK
  5
7D94
330
7B8F
100
AcDbEntity
  8
0
100
AcDbBlockEnd
  0
BLOCK
  5
7D4B
330
7B9C
100
AcDbEntity
  8
0
100
AcDbBlockBegin
  2
*D21
 70
     1
 10
0.0
 20
0.0
 30
0.0
  3
*D21
  1

  0
LINE
  5
7D4C
330
7B9C
100
AcDbEntity
  8
0
  6
ByBlock
 62
     0
100
AcDbLine
 10
3593.405057
 20
4504.076100999999
 30
0.0
 11
3593.405057
 21
4329.076101
 31
0.0
  0
LINE
  5
7D4D
330
7B9C
100
AcDbEntity
  8
0
  6
ByBlock
 62
     0
100
AcDbLine
 10
3598.405057
 20
4409.076100999999
 30
0.0
 11
3598.405057
 21
4329.076101
 31
0.0
  0
LINE
  5
7D4E
330
7B9C
100
AcDbEntity
  8
0
  6
ByBlock
 62
     0
100
AcDbLine
 10
3573.405057
 20
4339.076100999999
 30
0.0
 11
3553.405057
 21
4339.076100999999
 31
0.0
  0
LINE
  5
7D4F
330
7B9C
100
AcDbEntity
  8
0
  6
ByBlock
 62
     0
100
AcDbLine
 10
3598.405057
 20
4339.076100999999
 30
0.0
 11
3618.405057
 21
4339.076100999999
 31
0.0
  0
MTEXT
  5
7D50
330
7B9C
100
AcDbEntity
  8
0
  6
ByBlock
 62
     0
100
AcDbMText
 10
3576.572904000001
 20
4361.576100999999
 30
0.0
 40
25.0
 41
0.0
 71
     5
 72
     1
  1
\A1;5
 73
     1
 44
1.0
1001
ACAD
1000
MTEXTBEGIN
1070
    73
1070
     1
1070
    44
1040
1.0
1070
    74
1070
     0
1000
MTEXTEND
  0
LINE
  5
7D51
330
7B9C
100
AcDbEntity
  8
0
  6
ByBlock
 62
     0
100
AcDbLine
 10
3593.405057
 20
4339.076100999999
 30
0.0
 11
3598.405057
 21
4339.076100999999
 31
0.0
  0
LINE
  5
7D52
330
7B9C
100
AcDbEntity
  8
0
  6
ByBlock
 62
     0
100
AcDbLine
 10
3593.405057
 20
4339.076100999999
 30
0.0
 11
3598.405057
 21
4339.076100999999
 31
0.0
  0
INSERT
  5
7D53
330
7B9C
100
AcDbEntity
  8
0
  6
ByBlock
 62
     0
100
AcDbBlockReference
  2
_OPEN
 10
3593.405057
 20
4339.076100999999
 30
0.0
 41
20.0
 42
20.0
 43
20.0
  0
POINT
  5
7D54
330
7B9C
100
AcDbEntity
  8
DEFPOINTS
  6
ByBlock
 62
     0
100
AcDbPoint
 10
3593.405057
 20
4534.076100999999
 30
0.0
  0
POINT
  5
7D55
330
7B9C
100
AcDbEntity
  8
DEFPOINTS
  6
ByBlock
 62
     0
100
AcDbPoint
 10
3598.405057
 20
4439.076101
 30
0.0
  0
POINT
  5
7D56
330
7B9C
100
AcDbEntity
  8
DEFPOINTS
  6
ByBlock
 62
     0
100
AcDbPoint
 10
3598.405057
 20
4339.076100999999
 30
0.0
  0
ENDBLK
  5
7D57
330
7B9C
100
AcDbEntity
  8
0
100
AcDbBlockEnd
  0
BLOCK
  5
7BD5
330
7BD4
100
AcDbEntity
  8
0
100
AcDbBlockBegin
  2
*D22
 70
     1
 10
0.0
 20
0.0
 30
0.0
  3
*D22
  1

  0
LINE
  5
7BD6
330
7BD4
100
AcDbEntity
  8
0
  6
ByBlock
 62
     0
100
AcDbLine
 10
2841.905057
 20
4044.076100999999
 30
0.0
 11
2841.905057
 21
4144.076100999999
 31
0.0
  0
LINE
  5
7BD7
330
7BD4
100
AcDbEntity
  8
0
  6
ByBlock
 62
     0
100
AcDbLine
 10
2851.905057
 20
4064.076101
 30
0.0
 11
2851.905057
 21
4144.076100999999
 31
0.0
  0
LINE
  5
7BD8
330
7BD4
100
AcDbEntity
  8
0
  6
ByBlock
 62
     0
100
AcDbLine
 10
2821.905057
 20
4134.076100999999
 30
0.0
 11
2801.905057
 21
4134.076100999999
 31
0.0
  0
LINE
  5
7BD9
330
7BD4
100
AcDbEntity
  8
0
  6
ByBlock
 62
     0
100
AcDbLine
 10
2871.905057
 20
4134.076100999999
 30
0.0
 11
2891.905057
 21
4134.076100999999
 31
0.0
  0
MTEXT
  5
7BDA
330
7BD4
100
AcDbEntity
  8
0
  6
ByBlock
 62
     0
100
AcDbMText
 10
2870.294703
 20
4156.576100999999
 30
0.0
 40
25.0
 41
0.0
 71
     5
 72
     1
  1
\A1;10
 73
     1
 44
1.0
1001
ACAD
1000
MTEXTBEGIN
1070
    73
1070
     1
1070
    44
1040
1.0
1070
    74
1070
     0
1000
MTEXTEND
  0
LINE
  5
7BDB
330
7BD4
100
AcDbEntity
  8
0
  6
ByBlock
 62
     0
100
AcDbLine
 10
2841.905057
 20
4134.076100999999
 30
0.0
 11
2851.905057
 21
4134.076100999999
 31
0.0
  0
LINE
  5
7BDC
330
7BD4
100
AcDbEntity
  8
0
  6
ByBlock
 62
     0
100
AcDbLine
 10
2841.905057
 20
4134.076100999999
 30
0.0
 11
2851.905057
 21
4134.076100999999
 31
0.0
  0
INSERT
  5
7BDD
330
7BD4
100
AcDbEntity
  8
0
  6
ByBlock
 62
     0
100
AcDbBlockReference
  2
_OPEN
 10
2841.905057
 20
4134.076100999999
 30
0.0
 41
20.0
 42
20.0
 43
20.0
  0
INSERT
  5
7BDE
330
7BD4
100
AcDbEntity
  8
0
  6
ByBlock
 62
     0
100
AcDbBlockReference
  2
_OPEN
 10
2851.905057
 20
4134.076100999999
 30
0.0
 41
20.0
 42
20.0
 43
20.0
 50
180.0
  0
POINT
  5
7BDF
330
7BD4
100
AcDbEntity
  8
DEFPOINTS
  6
ByBlock
 62
     0
100
AcDbPoint
 10
2841.905057
 20
4014.076100999999
 30
0.0
  0
POINT
  5
7BE0
330
7BD4
100
AcDbEntity
  8
DEFPOINTS
  6
ByBlock
 62
     0
100
AcDbPoint
 10
2851.905057
 20
4034.076100999999
 30
0.0
  0
POINT
  5
7BE1
330
7BD4
100
AcDbEntity
  8
DEFPOINTS
  6
ByBlock
 62
     0
100
AcDbPoint
 10
2851.905057
 20
4134.076100999999
 30
0.0
  0
ENDBLK
  5
7BE2
330
7BD4
100
AcDbEntity
  8
0
100
AcDbBlockEnd
  0
BLOCK
  5
7BE4
330
7BE3
100
AcDbEntity
  8
0
100
AcDbBlockBegin
  2
*D23
 70
     1
 10
0.0
 20
0.0
 30
0.0
  3
*D23
  1

  0
LINE
  5
7BE5
330
7BE3
100
AcDbEntity
  8
0
  6
ByBlock
 62
     0
100
AcDbLine
 10
2706.905057
 20
4044.076100999999
 30
0.0
 11
2706.905057
 21
4144.076100999999
 31
0.0
  0
LINE
  5
7BE6
330
7BE3
100
AcDbEntity
  8
0
  6
ByBlock
 62
     0
100
AcDbLine
 10
2696.905057
 20
4064.076101
 30
0.0
 11
2696.905057
 21
4144.076100999999
 31
0.0
  0
LINE
  5
7BE7
330
7BE3
100
AcDbEntity
  8
0
  6
ByBlock
 62
     0
100
AcDbLine
 10
2726.905057
 20
4134.076100999999
 30
0.0
 11
2746.905057
 21
4134.076100999999
 31
0.0
  0
LINE
  5
7BE8
330
7BE3
100
AcDbEntity
  8
0
  6
ByBlock
 62
     0
100
AcDbLine
 10
2676.905057
 20
4134.076100999999
 30
0.0
 11
2656.905057
 21
4134.076100999999
 31
0.0
  0
MTEXT
  5
7BE9
330
7BE3
100
AcDbEntity
  8
0
  6
ByBlock
 62
     0
100
AcDbMText
 10
2673.16652
 20
4156.576100999999
 30
0.0
 40
25.0
 41
0.0
 71
     5
 72
     1
  1
\A1;10
 73
     1
 44
1.0
1001
ACAD
1000
MTEXTBEGIN
1070
    73
1070
     1
1070
    44
1040
1.0
1070
    74
1070
     0
1000
MTEXTEND
  0
LINE
  5
7BEA
330
7BE3
100
AcDbEntity
  8
0
  6
ByBlock
 62
     0
100
AcDbLine
 10
2706.905057
 20
4134.076100999999
 30
0.0
 11
2696.905057
 21
4134.076100999999
 31
0.0
  0
LINE
  5
7BEB
330
7BE3
100
AcDbEntity
  8
0
  6
ByBlock
 62
     0
100
AcDbLine
 10
2706.905057
 20
4134.076100999999
 30
0.0
 11
2696.905057
 21
4134.076100999999
 31
0.0
  0
INSERT
  5
7BEC
330
7BE3
100
AcDbEntity
  8
0
  6
ByBlock
 62
     0
100
AcDbBlockReference
  2
_OPEN
 10
2706.905057
 20
4134.076100999999
 30
0.0
 41
20.0
 42
20.0
 43
20.0
 50
180.0
  0
INSERT
  5
7BED
330
7BE3
100
AcDbEntity
  8
0
  6
ByBlock
 62
     0
100
AcDbBlockReference
  2
_OPEN
 10
2696.905057
 20
4134.076100999999
 30
0.0
 41
20.0
 42
20.0
 43
20.0
  0
POINT
  5
7BEE
330
7BE3
100
AcDbEntity
  8
DEFPOINTS
  6
ByBlock
 62
     0
100
AcDbPoint
 10
2706.905057
 20
4014.076100999999
 30
0.0
  0
POINT
  5
7BEF
330
7BE3
100
AcDbEntity
  8
DEFPOINTS
  6
ByBlock
 62
     0
100
AcDbPoint
 10
2696.905057
 20
4034.076100999999
 30
0.0
  0
POINT
  5
7BF0
330
7BE3
100
AcDbEntity
  8
DEFPOINTS
  6
ByBlock
 62
     0
100
AcDbPoint
 10
2696.905057
 20
4134.076100999999
 30
0.0
  0
ENDBLK
  5
7BF1
330
7BE3
100
AcDbEntity
  8
0
100
AcDbBlockEnd
  0
BLOCK
  5
805C
330
7BF2
100
AcDbEntity
  8
0
100
AcDbBlockBegin
  2
*D24
 70
     1
 10
0.0
 20
0.0
 30
0.0
  3
*D24
  1

  0
LINE
  5
805D
330
7BF2
100
AcDbEntity
  8
0
  6
ByBlock
 62
     0
100
AcDbLine
 10
3836.905057
 20
4014.076100999999
 30
0.0
 11
3789.405057
 21
4014.076100999999
 31
0.0
  0
LINE
  5
805E
330
7BF2
100
AcDbEntity
  8
0
  6
ByBlock
 62
     0
100
AcDbLine
 10
3846.905057
 20
4034.076100999999
 30
0.0
 11
3789.405057
 21
4034.076100999999
 31
0.0
  0
LINE
  5
805F
330
7BF2
100
AcDbEntity
  8
0
  6
ByBlock
 62
     0
100
AcDbLine
 10
3799.405057
 20
3994.076101
 30
0.0
 11
3799.405057
 21
3974.076101
 31
0.0
  0
LINE
  5
8060
330
7BF2
100
AcDbEntity
  8
0
  6
ByBlock
 62
     0
100
AcDbLine
 10
3799.405057
 20
4054.076100999999
 30
0.0
 11
3799.405057
 21
4074.076101
 31
0.0
  0
MTEXT
  5
8061
330
7BF2
100
AcDbEntity
  8
0
  6
ByBlock
 62
     0
100
AcDbMText
 10
3776.116282
 20
4059.169821
 30
0.0
 40
25.0
 41
0.0
 71
     5
 72
     1
  1
\A1;20
 11
0.0
 21
1.0
 31
0.0
 73
     1
 44
1.0
1001
ACAD
1000
MTEXTBEGIN
1070
    73
1070
     1
1070
    44
1040
1.0
1070
    74
1070
     0
1000
MTEXTEND
  0
LINE
  5
8062
330
7BF2
100
AcDbEntity
  8
0
  6
ByBlock
 62
     0
100
AcDbLine
 10
3799.405057
 20
4014.076100999999
 30
0.0
 11
3799.405057
 21
4034.076100999999
 31
0.0
  0
LINE
  5
8063
330
7BF2
100
AcDbEntity
  8
0
  6
ByBlock
 62
     0
100
AcDbLine
 10
3799.405057
 20
4014.076100999999
 30
0.0
 11
3799.405057
 21
4034.076100999999
 31
0.0
  0
INSERT
  5
8064
330
7BF2
100
AcDbEntity
  8
0
  6
ByBlock
 62
     0
100
AcDbBlockReference
  2
_OPEN
 10
3799.405057
 20
4014.076100999999
 30
0.0
 41
20.0
 42
20.0
 43
20.0
 50
90.0
  0
INSERT
  5
8065
330
7BF2
100
AcDbEntity
  8
0
  6
ByBlock
 62
     0
100
AcDbBlockReference
  2
_OPEN
 10
3799.405057
 20
4034.076100999999
 30
0.0
 41
20.0
 42
20.0
 43
20.0
 50
270.0
  0
POINT
  5
8066
330
7BF2
100
AcDbEntity
  8
DEFPOINTS
  6
ByBlock
 62
     0
100
AcDbPoint
 10
3866.905057
 20
4014.076100999999
 30
0.0
  0
POINT
  5
8067
330
7BF2
100
AcDbEntity
  8
DEFPOINTS
  6
ByBlock
 62
     0
100
AcDbPoint
 10
3876.905057
 20
4034.076100999999
 30
0.0
  0
POINT
  5
8068
330
7BF2
100
AcDbEntity
  8
DEFPOINTS
  6
ByBlock
 62
     0
100
AcDbPoint
 10
3799.405057
 20
4034.076100999999
 30
0.0
  0
ENDBLK
  5
8069
330
7BF2
100
AcDbEntity
  8
0
100
AcDbBlockEnd
  0
BLOCK
  5
7E2C
330
7E01
100
AcDbEntity
  8
0
100
AcDbBlockBegin
  2
*D25
 70
     1
 10
0.0
 20
0.0
 30
0.0
  3
*D25
  1

  0
LINE
  5
7E2D
330
7E01
100
AcDbEntity
  8
0
  6
ByBlock
 62
     0
100
AcDbLine
 10
3598.405057
 20
4409.076100999999
 30
0.0
 11
3598.405057
 21
4329.076101
 31
0.0
  0
LINE
  5
7E2E
330
7E01
100
AcDbEntity
  8
0
  6
ByBlock
 62
     0
100
AcDbLine
 10
3649.405057
 20
4409.076100999999
 30
0.0
 11
3649.405057
 21
4329.076101
 31
0.0
  0
LINE
  5
7E2F
330
7E01
100
AcDbEntity
  8
0
  6
ByBlock
 62
     0
100
AcDbLine
 10
3598.405057
 20
4339.076100999999
 30
0.0
 11
3578.405057
 21
4339.076100999999
 31
0.0
  0
LINE
  5
7E30
330
7E01
100
AcDbEntity
  8
0
  6
ByBlock
 62
     0
100
AcDbLine
 10
3669.405057
 20
4339.076100999999
 30
0.0
 11
3689.405057
 21
4339.076100999999
 31
0.0
  0
MTEXT
  5
7E31
330
7E01
100
AcDbEntity
  8
0
  6
ByBlock
 62
     0
100
AcDbMText
 10
3623.905057
 20
4361.210988999999
 30
0.0
 40
25.0
 41
0.0
 71
     5
 72
     1
  1
\A1;51
 73
     1
 44
1.0
1001
ACAD
1000
MTEXTBEGIN
1070
    73
1070
     1
1070
    44
1040
1.0
1070
    74
1070
     0
1000
MTEXTEND
  0
LINE
  5
7E32
330
7E01
100
AcDbEntity
  8
0
  6
ByBlock
 62
     0
100
AcDbLine
 10
3598.405057
 20
4339.076100999999
 30
0.0
 11
3649.405057
 21
4339.076100999999
 31
0.0
  0
LINE
  5
7E33
330
7E01
100
AcDbEntity
  8
0
  6
ByBlock
 62
     0
100
AcDbLine
 10
3598.405057
 20
4339.076100999999
 30
0.0
 11
3649.405057
 21
4339.076100999999
 31
0.0
  0
INSERT
  5
7E34
330
7E01
100
AcDbEntity
  8
0
  6
ByBlock
 62
     0
100
AcDbBlockReference
  2
_DOTSMALL
 10
3598.405057
 20
4339.076100999999
 30
0.0
 41
20.0
 42
20.0
 43
20.0
  0
INSERT
  5
7E35
330
7E01
100
AcDbEntity
  8
0
  6
ByBlock
 62
     0
100
AcDbBlockReference
  2
_OPEN
 10
3649.405057
 20
4339.076100999999
 30
0.0
 41
20.0
 42
20.0
 43
20.0
 50
180.0
  0
POINT
  5
7E36
330
7E01
100
AcDbEntity
  8
DEFPOINTS
  6
ByBlock
 62
     0
100
AcDbPoint
 10
3598.405057
 20
4439.076101
 30
0.0
  0
POINT
  5
7E37
330
7E01
100
AcDbEntity
  8
DEFPOINTS
  6
ByBlock
 62
     0
100
AcDbPoint
 10
3649.405057
 20
4439.076101
 30
0.0
  0
POINT
  5
7E38
330
7E01
100
AcDbEntity
  8
DEFPOINTS
  6
ByBlock
 62
     0
100
AcDbPoint
 10
3649.405057
 20
4339.076100999999
 30
0.0
  0
ENDBLK
  5
7E39
330
7E01
100
AcDbEntity
  8
0
100
AcDbBlockEnd
  0
BLOCK
  5
7FCD
330
7FB0
100
AcDbEntity
  8
0
100
AcDbBlockBegin
  2
*D26
 70
     1
 10
0.0
 20
0.0
 30
0.0
  3
*D26
  1

  0
LINE
  5
7FCE
330
7FB0
100
AcDbEntity
  8
0
  6
ByBlock
 62
     0
100
AcDbLine
 10
4005.405056999999
 20
4504.076100999999
 30
0.0
 11
4005.405056999999
 21
4329.076101
 31
0.0
  0
LINE
  5
7FCF
330
7FB0
100
AcDbEntity
  8
0
  6
ByBlock
 62
     0
100
AcDbLine
 10
4000.405057
 20
4409.076100999999
 30
0.0
 11
4000.405057
 21
4329.076101
 31
0.0
  0
LINE
  5
7FD0
330
7FB0
100
AcDbEntity
  8
0
  6
ByBlock
 62
     0
100
AcDbLine
 10
4025.405056999999
 20
4339.076100999999
 30
0.0
 11
4045.405056999999
 21
4339.076100999999
 31
0.0
  0
LINE
  5
7FD1
330
7FB0
100
AcDbEntity
  8
0
  6
ByBlock
 62
     0
100
AcDbLine
 10
4000.405057
 20
4339.076100999999
 30
0.0
 11
3980.405057
 21
4339.076100999999
 31
0.0
  0
MTEXT
  5
7FD2
330
7FB0
100
AcDbEntity
  8
0
  6
ByBlock
 62
     0
100
AcDbMText
 10
4022.23721
 20
4361.576100999999
 30
0.0
 40
25.0
 41
0.0
 71
     5
 72
     1
  1
\A1;5
 73
     1
 44
1.0
1001
ACAD
1000
MTEXTBEGIN
1070
    73
1070
     1
1070
    44
1040
1.0
1070
    74
1070
     0
1000
MTEXTEND
  0
LINE
  5
7FD3
330
7FB0
100
AcDbEntity
  8
0
  6
ByBlock
 62
     0
100
AcDbLine
 10
4005.405056999999
 20
4339.076100999999
 30
0.0
 11
4000.405057
 21
4339.076100999999
 31
0.0
  0
LINE
  5
7FD4
330
7FB0
100
AcDbEntity
  8
0
  6
ByBlock
 62
     0
100
AcDbLine
 10
4005.405056999999
 20
4339.076100999999
 30
0.0
 11
4000.405057
 21
4339.076100999999
 31
0.0
  0
INSERT
  5
7FD5
330
7FB0
100
AcDbEntity
  8
0
  6
ByBlock
 62
     0
100
AcDbBlockReference
  2
_OPEN
 10
4005.405056999999
 20
4339.076100999999
 30
0.0
 41
20.0
 42
20.0
 43
20.0
 50
180.0
  0
POINT
  5
7FD6
330
7FB0
100
AcDbEntity
  8
DEFPOINTS
  6
ByBlock
 62
     0
100
AcDbPoint
 10
4005.405056999999
 20
4534.076100999999
 30
0.0
  0
POINT
  5
7FD7
330
7FB0
100
AcDbEntity
  8
DEFPOINTS
  6
ByBlock
 62
     0
100
AcDbPoint
 10
4000.405057
 20
4439.076101
 30
0.0
  0
POINT
  5
7FD8
330
7FB0
100
AcDbEntity
  8
DEFPOINTS
  6
ByBlock
 62
     0
100
AcDbPoint
 10
4000.405057
 20
4339.076100999999
 30
0.0
  0
ENDBLK
  5
7FD9
330
7FB0
100
AcDbEntity
  8
0
100
AcDbBlockEnd
  0
BLOCK
  5
7FDA
330
7FBE
100
AcDbEntity
  8
0
100
AcDbBlockBegin
  2
*D27
 70
     1
 10
0.0
 20
0.0
 30
0.0
  3
*D27
  1

  0
LINE
  5
7FDB
330
7FBE
100
AcDbEntity
  8
0
  6
ByBlock
 62
     0
100
AcDbLine
 10
4000.405057
 20
4409.076100999999
 30
0.0
 11
4000.405057
 21
4329.076101
 31
0.0
  0
LINE
  5
7FDC
330
7FBE
100
AcDbEntity
  8
0
  6
ByBlock
 62
     0
100
AcDbLine
 10
3949.405057
 20
4409.076100999999
 30
0.0
 11
3949.405057
 21
4329.076101
 31
0.0
  0
LINE
  5
7FDD
330
7FBE
100
AcDbEntity
  8
0
  6
ByBlock
 62
     0
100
AcDbLine
 10
4000.405057
 20
4339.076100999999
 30
0.0
 11
4020.405057
 21
4339.076100999999
 31
0.0
  0
LINE
  5
7FDE
330
7FBE
100
AcDbEntity
  8
0
  6
ByBlock
 62
     0
100
AcDbLine
 10
3929.405057
 20
4339.076100999999
 30
0.0
 11
3909.405057
 21
4339.076100999999
 31
0.0
  0
MTEXT
  5
7FDF
330
7FBE
100
AcDbEntity
  8
0
  6
ByBlock
 62
     0
100
AcDbMText
 10
3974.905057
 20
4361.210988999999
 30
0.0
 40
25.0
 41
0.0
 71
     5
 72
     1
  1
\A1;51
 73
     1
 44
1.0
1001
ACAD
1000
MTEXTBEGIN
1070
    73
1070
     1
1070
    44
1040
1.0
1070
    74
1070
     0
1000
MTEXTEND
  0
LINE
  5
7FE0
330
7FBE
100
AcDbEntity
  8
0
  6
ByBlock
 62
     0
100
AcDbLine
 10
4000.405057
 20
4339.076100999999
 30
0.0
 11
3949.405057
 21
4339.076100999999
 31
0.0
  0
LINE
  5
7FE1
330
7FBE
100
AcDbEntity
  8
0
  6
ByBlock
 62
     0
100
AcDbLine
 10
4000.405057
 20
4339.076100999999
 30
0.0
 11
3949.405057
 21
4339.076100999999
 31
0.0
  0
INSERT
  5
7FE2
330
7FBE
100
AcDbEntity
  8
0
  6
ByBlock
 62
     0
100
AcDbBlockReference
  2
_DOTSMALL
 10
4000.405057
 20
4339.076100999999
 30
0.0
 41
20.0
 42
20.0
 43
20.0
 50
180.0
  0
INSERT
  5
7FE3
330
7FBE
100
AcDbEntity
  8
0
  6
ByBlock
 62
     0
100
AcDbBlockReference
  2
_OPEN
 10
3949.405057
 20
4339.076100999999
 30
0.0
 41
20.0
 42
20.0
 43
20.0
  0
POINT
  5
7FE4
330
7FBE
100
AcDbEntity
  8
DEFPOINTS
  6
ByBlock
 62
     0
100
AcDbPoint
 10
4000.405057
 20
4439.076101
 30
0.0
  0
POINT
  5
7FE5
330
7FBE
100
AcDbEntity
  8
DEFPOINTS
  6
ByBlock
 62
     0
100
AcDbPoint
 10
3949.405057
 20
4439.076101
 30
0.0
  0
POINT
  5
7FE6
330
7FBE
100
AcDbEntity
  8
DEFPOINTS
  6
ByBlock
 62
     0
100
AcDbPoint
 10
3949.405057
 20
4339.076100999999
 30
0.0
  0
ENDBLK
  5
7FE7
330
7FBE
100
AcDbEntity
  8
0
100
AcDbBlockEnd
  0
BLOCK
  5
80CB
330
80CA
100
AcDbEntity
  8
0
100
AcDbBlockBegin
  2
*D28
 70
     1
 10
0.0
 20
0.0
 30
0.0
  3
*D28
  1

  0
LINE
  5
80CC
330
80CA
100
AcDbEntity
  8
0
  6
ByBlock
 62
     0
100
AcDbLine
 10
3866.905057
 20
4044.076100999999
 30
0.0
 11
3866.905057
 21
4144.076100999999
 31
0.0
  0
LINE
  5
80CD
330
80CA
100
AcDbEntity
  8
0
  6
ByBlock
 62
     0
100
AcDbLine
 10
3876.905057
 20
4064.076101
 30
0.0
 11
3876.905057
 21
4144.076100999999
 31
0.0
  0
LINE
  5
80CE
330
80CA
100
AcDbEntity
  8
0
  6
ByBlock
 62
     0
100
AcDbLine
 10
3846.905057
 20
4134.076100999999
 30
0.0
 11
3826.905057
 21
4134.076100999999
 31
0.0
  0
LINE
  5
80CF
330
80CA
100
AcDbEntity
  8
0
  6
ByBlock
 62
     0
100
AcDbLine
 10
3896.905057
 20
4134.076100999999
 30
0.0
 11
3916.905057000001
 21
4134.076100999999
 31
0.0
  0
MTEXT
  5
80D0
330
80CA
100
AcDbEntity
  8
0
  6
ByBlock
 62
     0
100
AcDbMText
 10
3895.294703000001
 20
4156.576100999999
 30
0.0
 40
25.0
 41
0.0
 71
     5
 72
     1
  1
\A1;10
 73
     1
 44
1.0
1001
ACAD
1000
MTEXTBEGIN
1070
    73
1070
     1
1070
    44
1040
1.0
1070
    74
1070
     0
1000
MTEXTEND
  0
LINE
  5
80D1
330
80CA
100
AcDbEntity
  8
0
  6
ByBlock
 62
     0
100
AcDbLine
 10
3866.905057
 20
4134.076100999999
 30
0.0
 11
3876.905057
 21
4134.076100999999
 31
0.0
  0
LINE
  5
80D2
330
80CA
100
AcDbEntity
  8
0
  6
ByBlock
 62
     0
100
AcDbLine
 10
3866.905057
 20
4134.076100999999
 30
0.0
 11
3876.905057
 21
4134.076100999999
 31
0.0
  0
INSERT
  5
80D3
330
80CA
100
AcDbEntity
  8
0
  6
ByBlock
 62
     0
100
AcDbBlockReference
  2
_OPEN
 10
3866.905057
 20
4134.076100999999
 30
0.0
 41
20.0
 42
20.0
 43
20.0
  0
INSERT
  5
80D4
330
80CA
100
AcDbEntity
  8
0
  6
ByBlock
 62
     0
100
AcDbBlockReference
  2
_OPEN
 10
3876.905057
 20
4134.076100999999
 30
0.0
 41
20.0
 42
20.0
 43
20.0
 50
180.0
  0
POINT
  5
80D5
330
80CA
100
AcDbEntity
  8
DEFPOINTS
  6
ByBlock
 62
     0
100
AcDbPoint
 10
3866.905057
 20
4014.076100999999
 30
0.0
  0
POINT
  5
80D6
330
80CA
100
AcDbEntity
  8
DEFPOINTS
  6
ByBlock
 62
     0
100
AcDbPoint
 10
3876.905057
 20
4034.076100999999
 30
0.0
  0
POINT
  5
80D7
330
80CA
100
AcDbEntity
  8
DEFPOINTS
  6
ByBlock
 62
     0
100
AcDbPoint
 10
3876.905057
 20
4134.076100999999
 30
0.0
  0
ENDBLK
  5
80D8
330
80CA
100
AcDbEntity
  8
0
100
AcDbBlockEnd
  0
BLOCK
  5
81C0
330
80D9
100
AcDbEntity
  8
0
100
AcDbBlockBegin
  2
*D29
 70
     1
 10
0.0
 20
0.0
 30
0.0
  3
*D29
  1

  0
LINE
  5
81C1
330
80D9
100
AcDbEntity
  8
0
  6
ByBlock
 62
     0
100
AcDbLine
 10
4593.405057
 20
4564.076101
 30
0.0
 11
4593.405057
 21
4644.076100999999
 31
0.0
  0
LINE
  5
81C2
330
80D9
100
AcDbEntity
  8
0
  6
ByBlock
 62
     0
100
AcDbLine
 10
5105.405057
 20
4564.076101
 30
0.0
 11
5105.405057
 21
4644.076100999999
 31
0.0
  0
LINE
  5
81C3
330
80D9
100
AcDbEntity
  8
0
  6
ByBlock
 62
     0
100
AcDbLine
 10
4613.405057
 20
4634.076100999999
 30
0.0
 11
5085.405057
 21
4634.076100999999
 31
0.0
  0
INSERT
  5
81C4
330
80D9
100
AcDbEntity
  8
0
  6
ByBlock
 62
     0
100
AcDbBlockReference
  2
_OPEN
 10
4593.405057
 20
4634.076100999999
 30
0.0
 41
20.0
 42
20.0
 43
20.0
 50
180.0
  0
INSERT
  5
81C5
330
80D9
100
AcDbEntity
  8
0
  6
ByBlock
 62
     0
100
AcDbBlockReference
  2
_OPEN
 10
5105.405057
 20
4634.076100999999
 30
0.0
 41
20.0
 42
20.0
 43
20.0
  0
MTEXT
  5
81C6
330
80D9
100
AcDbEntity
  8
0
  6
ByBlock
 62
     0
100
AcDbMText
 10
4849.405057
 20
4656.576100999999
 30
0.0
 40
25.0
 41
0.0
 71
     5
 72
     1
  1
\A1;512
 73
     1
 44
1.0
1001
ACAD
1000
MTEXTBEGIN
1070
    73
1070
     1
1070
    44
1040
1.0
1070
    74
1070
     0
1000
MTEXTEND
  0
POINT
  5
81C7
330
80D9
100
AcDbEntity
  8
DEFPOINTS
  6
ByBlock
 62
     0
100
AcDbPoint
 10
4593.405057
 20
4534.076100999999
 30
0.0
  0
POINT
  5
81C8
330
80D9
100
AcDbEntity
  8
DEFPOINTS
  6
ByBlock
 62
     0
100
AcDbPoint
 10
5105.405057
 20
4534.076100999999
 30
0.0
  0
POINT
  5
81C9
330
80D9
100
AcDbEntity
  8
DEFPOINTS
  6
ByBlock
 62
     0
100
AcDbPoint
 10
5105.405057
 20
4634.076100999999
 30
0.0
  0
ENDBLK
  5
81CA
330
80D9
100
AcDbEntity
  8
0
100
AcDbBlockEnd
  0
BLOCK
  5
80E6
330
80E5
100
AcDbEntity
  8
0
100
AcDbBlockBegin
  2
*D30
 70
     1
 10
0.0
 20
0.0
 30
0.0
  3
*D30
  1

  0
LINE
  5
80E7
330
80E5
100
AcDbEntity
  8
0
  6
ByBlock
 62
     0
100
AcDbLine
 10
3563.405057
 20
4034.076100999999
 30
0.0
 11
3483.405057000001
 21
4034.076100999999
 31
0.0
  0
LINE
  5
80E8
330
80E5
100
AcDbEntity
  8
0
  6
ByBlock
 62
     0
100
AcDbLine
 10
3563.405057
 20
3534.076101
 30
0.0
 11
3483.405057000001
 21
3534.076101
 31
0.0
  0
LINE
  5
80E9
330
80E5
100
AcDbEntity
  8
0
  6
ByBlock
 62
     0
100
AcDbLine
 10
3493.405057
 20
4014.076100999999
 30
0.0
 11
3493.405057
 21
3554.076101
 31
0.0
  0
INSERT
  5
80EA
330
80E5
100
AcDbEntity
  8
0
  6
ByBlock
 62
     0
100
AcDbBlockReference
  2
_OPEN
 10
3493.405057
 20
4034.076100999999
 30
0.0
 41
20.0
 42
20.0
 43
20.0
 50
90.0
  0
INSERT
  5
80EB
330
80E5
100
AcDbEntity
  8
0
  6
ByBlock
 62
     0
100
AcDbBlockReference
  2
_OPEN
 10
3493.405057
 20
3534.076101
 30
0.0
 41
20.0
 42
20.0
 43
20.0
 50
270.0
  0
MTEXT
  5
80EC
330
80E5
100
AcDbEntity
  8
0
  6
ByBlock
 62
     0
100
AcDbMText
 10
3470.905057
 20
3784.076101
 30
0.0
 40
25.0
 41
0.0
 71
     5
 72
     1
  1
\A1;500
 11
0.0
 21
1.0
 31
0.0
 73
     1
 44
1.0
1001
ACAD
1000
MTEXTBEGIN
1070
    73
1070
     1
1070
    44
1040
1.0
1070
    74
1070
     0
1000
MTEXTEND
  0
POINT
  5
80ED
330
80E5
100
AcDbEntity
  8
DEFPOINTS
  6
ByBlock
 62
     0
100
AcDbPoint
 10
3593.405057
 20
4034.076100999999
 30
0.0
  0
POINT
  5
80EE
330
80E5
100
AcDbEntity
  8
DEFPOINTS
  6
ByBlock
 62
     0
100
AcDbPoint
 10
3593.405057
 20
3534.076101
 30
0.0
  0
POINT
  5
80EF
330
80E5
100
AcDbEntity
  8
DEFPOINTS
  6
ByBlock
 62
     0
100
AcDbPoint
 10
3493.405057
 20
3534.076101
 30
0.0
  0
ENDBLK
  5
80F0
330
80E5
100
AcDbEntity
  8
0
100
AcDbBlockEnd
  0
BLOCK
  5
8254
330
810C
100
AcDbEntity
  8
0
100
AcDbBlockBegin
  2
*D31
 70
     1
 10
0.0
 20
0.0
 30
0.0
  3
*D31
  1

  0
LINE
  5
8255
330
810C
100
AcDbEntity
  8
0
  6
ByBlock
 62
     0
100
AcDbLine
 10
4593.405057
 20
4504.076100999999
 30
0.0
 11
4593.405057
 21
4314.076101
 31
0.0
  0
LINE
  5
8256
330
810C
100
AcDbEntity
  8
0
  6
ByBlock
 62
     0
100
AcDbLine
 10
4598.405056999999
 20
4394.076100999999
 30
0.0
 11
4598.405056999999
 21
4314.076101
 31
0.0
  0
LINE
  5
8257
330
810C
100
AcDbEntity
  8
0
  6
ByBlock
 62
     0
100
AcDbLine
 10
4573.405057
 20
4324.076101
 30
0.0
 11
4553.405056999999
 21
4324.076101
 31
0.0
  0
LINE
  5
8258
330
810C
100
AcDbEntity
  8
0
  6
ByBlock
 62
     0
100
AcDbLine
 10
4598.405056999999
 20
4324.076101
 30
0.0
 11
4618.405057
 21
4324.076101
 31
0.0
  0
MTEXT
  5
8259
330
810C
100
AcDbEntity
  8
0
  6
ByBlock
 62
     0
100
AcDbMText
 10
4576.572903999999
 20
4346.576100999999
 30
0.0
 40
25.0
 41
0.0
 71
     5
 72
     1
  1
\A1;5
 73
     1
 44
1.0
1001
ACAD
1000
MTEXTBEGIN
1070
    73
1070
     1
1070
    44
1040
1.0
1070
    74
1070
     0
1000
MTEXTEND
  0
LINE
  5
825A
330
810C
100
AcDbEntity
  8
0
  6
ByBlock
 62
     0
100
AcDbLine
 10
4593.405057
 20
4324.076101
 30
0.0
 11
4598.405056999999
 21
4324.076101
 31
0.0
  0
LINE
  5
825B
330
810C
100
AcDbEntity
  8
0
  6
ByBlock
 62
     0
100
AcDbLine
 10
4593.405057
 20
4324.076101
 30
0.0
 11
4598.405056999999
 21
4324.076101
 31
0.0
  0
INSERT
  5
825C
330
810C
100
AcDbEntity
  8
0
  6
ByBlock
 62
     0
100
AcDbBlockReference
  2
_OPEN
 10
4593.405057
 20
4324.076101
 30
0.0
 41
20.0
 42
20.0
 43
20.0
  0
POINT
  5
825D
330
810C
100
AcDbEntity
  8
DEFPOINTS
  6
ByBlock
 62
     0
100
AcDbPoint
 10
4593.405057
 20
4534.076100999999
 30
0.0
  0
POINT
  5
825E
330
810C
100
AcDbEntity
  8
DEFPOINTS
  6
ByBlock
 62
     0
100
AcDbPoint
 10
4598.405056999999
 20
4424.076100999999
 30
0.0
  0
POINT
  5
825F
330
810C
100
AcDbEntity
  8
DEFPOINTS
  6
ByBlock
 62
     0
100
AcDbPoint
 10
4598.405056999999
 20
4324.076101
 30
0.0
  0
ENDBLK
  5
8260
330
810C
100
AcDbEntity
  8
0
100
AcDbBlockEnd
  0
BLOCK
  5
81E7
330
811A
100
AcDbEntity
  8
0
100
AcDbBlockBegin
  2
*D32
 70
     1
 10
0.0
 20
0.0
 30
0.0
  3
*D32
  1

  0
LINE
  5
81E8
330
811A
100
AcDbEntity
  8
0
  6
ByBlock
 62
     0
100
AcDbLine
 10
4781.905057
 20
4044.076100999999
 30
0.0
 11
4781.905057
 21
4144.076100999999
 31
0.0
  0
LINE
  5
81E9
330
811A
100
AcDbEntity
  8
0
  6
ByBlock
 62
     0
100
AcDbLine
 10
4771.905057
 20
4064.076101
 30
0.0
 11
4771.905057
 21
4144.076100999999
 31
0.0
  0
LINE
  5
81EA
330
811A
100
AcDbEntity
  8
0
  6
ByBlock
 62
     0
100
AcDbLine
 10
4801.905056999999
 20
4134.076100999999
 30
0.0
 11
4821.905057
 21
4134.076100999999
 31
0.0
  0
LINE
  5
81EB
330
811A
100
AcDbEntity
  8
0
  6
ByBlock
 62
     0
100
AcDbLine
 10
4751.905057
 20
4134.076100999999
 30
0.0
 11
4731.905057
 21
4134.076100999999
 31
0.0
  0
MTEXT
  5
81EC
330
811A
100
AcDbEntity
  8
0
  6
ByBlock
 62
     0
100
AcDbMText
 10
4748.16652
 20
4156.576100999999
 30
0.0
 40
25.0
 41
0.0
 71
     5
 72
     1
  1
\A1;10
 73
     1
 44
1.0
1001
ACAD
1000
MTEXTBEGIN
1070
    73
1070
     1
1070
    44
1040
1.0
1070
    74
1070
     0
1000
MTEXTEND
  0
LINE
  5
81ED
330
811A
100
AcDbEntity
  8
0
  6
ByBlock
 62
     0
100
AcDbLine
 10
4781.905057
 20
4134.076100999999
 30
0.0
 11
4771.905057
 21
4134.076100999999
 31
0.0
  0
LINE
  5
81EE
330
811A
100
AcDbEntity
  8
0
  6
ByBlock
 62
     0
100
AcDbLine
 10
4781.905057
 20
4134.076100999999
 30
0.0
 11
4771.905057
 21
4134.076100999999
 31
0.0
  0
INSERT
  5
81EF
330
811A
100
AcDbEntity
  8
0
  6
ByBlock
 62
     0
100
AcDbBlockReference
  2
_OPEN
 10
4781.905057
 20
4134.076100999999
 30
0.0
 41
20.0
 42
20.0
 43
20.0
 50
180.0
  0
INSERT
  5
81F0
330
811A
100
AcDbEntity
  8
0
  6
ByBlock
 62
     0
100
AcDbBlockReference
  2
_OPEN
 10
4771.905057
 20
4134.076100999999
 30
0.0
 41
20.0
 42
20.0
 43
20.0
  0
POINT
  5
81F1
330
811A
100
AcDbEntity
  8
DEFPOINTS
  6
ByBlock
 62
     0
100
AcDbPoint
 10
4781.905057
 20
4014.076100999999
 30
0.0
  0
POINT
  5
81F2
330
811A
100
AcDbEntity
  8
DEFPOINTS
  6
ByBlock
 62
     0
100
AcDbPoint
 10
4771.905057
 20
4034.076100999999
 30
0.0
  0
POINT
  5
81F3
330
811A
100
AcDbEntity
  8
DEFPOINTS
  6
ByBlock
 62
     0
100
AcDbPoint
 10
4771.905057
 20
4134.076100999999
 30
0.0
  0
ENDBLK
  5
81F4
330
811A
100
AcDbEntity
  8
0
100
AcDbBlockEnd
  0
BLOCK
  5
812A
330
8129
100
AcDbEntity
  8
0
100
AcDbBlockBegin
  2
*D33
 70
     1
 10
0.0
 20
0.0
 30
0.0
  3
*D33
  1

  0
LINE
  5
812B
330
8129
100
AcDbEntity
  8
0
  6
ByBlock
 62
     0
100
AcDbLine
 10
3731.905057
 20
4044.076100999999
 30
0.0
 11
3731.905057
 21
4144.076100999999
 31
0.0
  0
LINE
  5
812C
330
8129
100
AcDbEntity
  8
0
  6
ByBlock
 62
     0
100
AcDbLine
 10
3866.905057
 20
4044.076100999999
 30
0.0
 11
3866.905057
 21
4144.076100999999
 31
0.0
  0
LINE
  5
812D
330
8129
100
AcDbEntity
  8
0
  6
ByBlock
 62
     0
100
AcDbLine
 10
3751.905057
 20
4134.076100999999
 30
0.0
 11
3846.905057
 21
4134.076100999999
 31
0.0
  0
INSERT
  5
812E
330
8129
100
AcDbEntity
  8
0
  6
ByBlock
 62
     0
100
AcDbBlockReference
  2
_OPEN
 10
3731.905057
 20
4134.076100999999
 30
0.0
 41
20.0
 42
20.0
 43
20.0
 50
180.0
  0
INSERT
  5
812F
330
8129
100
AcDbEntity
  8
0
  6
ByBlock
 62
     0
100
AcDbBlockReference
  2
_OPEN
 10
3866.905057
 20
4134.076100999999
 30
0.0
 41
20.0
 42
20.0
 43
20.0
  0
MTEXT
  5
8130
330
8129
100
AcDbEntity
  8
0
  6
ByBlock
 62
     0
100
AcDbMText
 10
3799.405057
 20
4156.576100999999
 30
0.0
 40
25.0
 41
0.0
 71
     5
 72
     1
  1
\A1;135
 73
     1
 44
1.0
1001
ACAD
1000
MTEXTBEGIN
1070
    73
1070
     1
1070
    44
1040
1.0
1070
    74
1070
     0
1000
MTEXTEND
  0
POINT
  5
8131
330
8129
100
AcDbEntity
  8
DEFPOINTS
  6
ByBlock
 62
     0
100
AcDbPoint
 10
3731.905057
 20
4014.076100999999
 30
0.0
  0
POINT
  5
8132
330
8129
100
AcDbEntity
  8
DEFPOINTS
  6
ByBlock
 62
     0
100
AcDbPoint
 10
3866.905057
 20
4014.076100999999
 30
0.0
  0
POINT
  5
8133
330
8129
100
AcDbEntity
  8
DEFPOINTS
  6
ByBlock
 62
     0
100
AcDbPoint
 10
3866.905057
 20
4134.076100999999
 30
0.0
  0
ENDBLK
  5
8134
330
8129
100
AcDbEntity
  8
0
100
AcDbBlockEnd
  0
BLOCK
  5
8136
330
8135
100
AcDbEntity
  8
0
100
AcDbBlockBegin
  2
*D34
 70
     1
 10
0.0
 20
0.0
 30
0.0
  3
*D34
  1

  0
LINE
  5
8137
330
8135
100
AcDbEntity
  8
0
  6
ByBlock
 62
     0
100
AcDbLine
 10
3836.905057
 20
4014.076100999999
 30
0.0
 11
3789.405057
 21
4014.076100999999
 31
0.0
  0
LINE
  5
8138
330
8135
100
AcDbEntity
  8
0
  6
ByBlock
 62
     0
100
AcDbLine
 10
3846.905057
 20
4034.076100999999
 30
0.0
 11
3789.405057
 21
4034.076100999999
 31
0.0
  0
LINE
  5
8139
330
8135
100
AcDbEntity
  8
0
  6
ByBlock
 62
     0
100
AcDbLine
 10
3799.405057
 20
3994.076101
 30
0.0
 11
3799.405057
 21
3974.076101
 31
0.0
  0
LINE
  5
813A
330
8135
100
AcDbEntity
  8
0
  6
ByBlock
 62
     0
100
AcDbLine
 10
3799.405057
 20
4054.076100999999
 30
0.0
 11
3799.405057
 21
4074.076101
 31
0.0
  0
MTEXT
  5
813B
330
8135
100
AcDbEntity
  8
0
  6
ByBlock
 62
     0
100
AcDbMText
 10
3776.116282
 20
4059.169821
 30
0.0
 40
25.0
 41
0.0
 71
     5
 72
     1
  1
\A1;20
 11
0.0
 21
1.0
 31
0.0
 73
     1
 44
1.0
1001
ACAD
1000
MTEXTBEGIN
1070
    73
1070
     1
1070
    44
1040
1.0
1070
    74
1070
     0
1000
MTEXTEND
  0
LINE
  5
813C
330
8135
100
AcDbEntity
  8
0
  6
ByBlock
 62
     0
100
AcDbLine
 10
3799.405057
 20
4014.076100999999
 30
0.0
 11
3799.405057
 21
4034.076100999999
 31
0.0
  0
LINE
  5
813D
330
8135
100
AcDbEntity
  8
0
  6
ByBlock
 62
     0
100
AcDbLine
 10
3799.405057
 20
4014.076100999999
 30
0.0
 11
3799.405057
 21
4034.076100999999
 31
0.0
  0
INSERT
  5
813E
330
8135
100
AcDbEntity
  8
0
  6
ByBlock
 62
     0
100
AcDbBlockReference
  2
_OPEN
 10
3799.405057
 20
4014.076100999999
 30
0.0
 41
20.0
 42
20.0
 43
20.0
 50
90.0
  0
INSERT
  5
813F
330
8135
100
AcDbEntity
  8
0
  6
ByBlock
 62
     0
100
AcDbBlockReference
  2
_OPEN
 10
3799.405057
 20
4034.076100999999
 30
0.0
 41
20.0
 42
20.0
 43
20.0
 50
270.0
  0
POINT
  5
8140
330
8135
100
AcDbEntity
  8
DEFPOINTS
  6
ByBlock
 62
     0
100
AcDbPoint
 10
3866.905057
 20
4014.076100999999
 30
0.0
  0
POINT
  5
8141
330
8135
100
AcDbEntity
  8
DEFPOINTS
  6
ByBlock
 62
     0
100
AcDbPoint
 10
3876.905057
 20
4034.076100999999
 30
0.0
  0
POINT
  5
8142
330
8135
100
AcDbEntity
  8
DEFPOINTS
  6
ByBlock
 62
     0
100
AcDbPoint
 10
3799.405057
 20
4034.076100999999
 30
0.0
  0
ENDBLK
  5
8143
330
8135
100
AcDbEntity
  8
0
100
AcDbBlockEnd
  0
BLOCK
  5
826C
330
8160
100
AcDbEntity
  8
0
100
AcDbBlockBegin
  2
*D35
 70
     1
 10
0.0
 20
0.0
 30
0.0
  3
*D35
  1

  0
LINE
  5
826D
330
8160
100
AcDbEntity
  8
0
  6
ByBlock
 62
     0
100
AcDbLine
 10
4563.405056999999
 20
4534.076100999999
 30
0.0
 11
4433.405057
 21
4534.076100999999
 31
0.0
  0
LINE
  5
826E
330
8160
100
AcDbEntity
  8
0
  6
ByBlock
 62
     0
100
AcDbLine
 10
4568.405057
 20
4424.076100999999
 30
0.0
 11
4433.405057
 21
4424.076100999999
 31
0.0
  0
LINE
  5
826F
330
8160
100
AcDbEntity
  8
0
  6
ByBlock
 62
     0
100
AcDbLine
 10
4443.405057
 20
4514.076100999999
 30
0.0
 11
4443.405057
 21
4444.076100999999
 31
0.0
  0
INSERT
  5
8270
330
8160
100
AcDbEntity
  8
0
  6
ByBlock
 62
     0
100
AcDbBlockReference
  2
_OPEN
 10
4443.405057
 20
4534.076100999999
 30
0.0
 41
20.0
 42
20.0
 43
20.0
 50
90.0
  0
INSERT
  5
8271
330
8160
100
AcDbEntity
  8
0
  6
ByBlock
 62
     0
100
AcDbBlockReference
  2
_OPEN
 10
4443.405057
 20
4424.076100999999
 30
0.0
 41
20.0
 42
20.0
 43
20.0
 50
270.0
  0
MTEXT
  5
8272
330
8160
100
AcDbEntity
  8
0
  6
ByBlock
 62
     0
100
AcDbMText
 10
4420.905057
 20
4479.076100999999
 30
0.0
 40
25.0
 41
0.0
 71
     5
 72
     1
  1
\A1;110
 11
0.0
 21
1.0
 31
0.0
 73
     1
 44
1.0
1001
ACAD
1000
MTEXTBEGIN
1070
    73
1070
     1
1070
    44
1040
1.0
1070
    74
1070
     0
1000
MTEXTEND
  0
POINT
  5
8273
330
8160
100
AcDbEntity
  8
DEFPOINTS
  6
ByBlock
 62
     0
100
AcDbPoint
 10
4593.405057
 20
4534.076100999999
 30
0.0
  0
POINT
  5
8274
330
8160
100
AcDbEntity
  8
DEFPOINTS
  6
ByBlock
 62
     0
100
AcDbPoint
 10
4598.405056999999
 20
4424.076100999999
 30
0.0
  0
POINT
  5
8275
330
8160
100
AcDbEntity
  8
DEFPOINTS
  6
ByBlock
 62
     0
100
AcDbPoint
 10
4443.405057
 20
4424.076100999999
 30
0.0
  0
ENDBLK
  5
8276
330
8160
100
AcDbEntity
  8
0
100
AcDbBlockEnd
  0
BLOCK
  5
816D
330
816C
100
AcDbEntity
  8
0
100
AcDbBlockBegin
  2
*D36
 70
     1
 10
0.0
 20
0.0
 30
0.0
  3
*D36
  1

  0
LINE
  5
816E
330
816C
100
AcDbEntity
  8
0
  6
ByBlock
 62
     0
100
AcDbLine
 10
3598.405057
 20
4409.076100999999
 30
0.0
 11
3598.405057
 21
4329.076101
 31
0.0
  0
LINE
  5
816F
330
816C
100
AcDbEntity
  8
0
  6
ByBlock
 62
     0
100
AcDbLine
 10
3649.405057
 20
4409.076100999999
 30
0.0
 11
3649.405057
 21
4329.076101
 31
0.0
  0
LINE
  5
8170
330
816C
100
AcDbEntity
  8
0
  6
ByBlock
 62
     0
100
AcDbLine
 10
3598.405057
 20
4339.076100999999
 30
0.0
 11
3578.405057
 21
4339.076100999999
 31
0.0
  0
LINE
  5
8171
330
816C
100
AcDbEntity
  8
0
  6
ByBlock
 62
     0
100
AcDbLine
 10
3669.405057
 20
4339.076100999999
 30
0.0
 11
3689.405057
 21
4339.076100999999
 31
0.0
  0
MTEXT
  5
8172
330
816C
100
AcDbEntity
  8
0
  6
ByBlock
 62
     0
100
AcDbMText
 10
3623.905057
 20
4361.210988999999
 30
0.0
 40
25.0
 41
0.0
 71
     5
 72
     1
  1
\A1;51
 73
     1
 44
1.0
1001
ACAD
1000
MTEXTBEGIN
1070
    73
1070
     1
1070
    44
1040
1.0
1070
    74
1070
     0
1000
MTEXTEND
  0
LINE
  5
8173
330
816C
100
AcDbEntity
  8
0
  6
ByBlock
 62
     0
100
AcDbLine
 10
3598.405057
 20
4339.076100999999
 30
0.0
 11
3649.405057
 21
4339.076100999999
 31
0.0
  0
LINE
  5
8174
330
816C
100
AcDbEntity
  8
0
  6
ByBlock
 62
     0
100
AcDbLine
 10
3598.405057
 20
4339.076100999999
 30
0.0
 11
3649.405057
 21
4339.076100999999
 31
0.0
  0
INSERT
  5
8175
330
816C
100
AcDbEntity
  8
0
  6
ByBlock
 62
     0
100
AcDbBlockReference
  2
_DOTSMALL
 10
3598.405057
 20
4339.076100999999
 30
0.0
 41
20.0
 42
20.0
 43
20.0
  0
INSERT
  5
8176
330
816C
100
AcDbEntity
  8
0
  6
ByBlock
 62
     0
100
AcDbBlockReference
  2
_OPEN
 10
3649.405057
 20
4339.076100999999
 30
0.0
 41
20.0
 42
20.0
 43
20.0
 50
180.0
  0
POINT
  5
8177
330
816C
100
AcDbEntity
  8
DEFPOINTS
  6
ByBlock
 62
     0
100
AcDbPoint
 10
3598.405057
 20
4439.076101
 30
0.0
  0
POINT
  5
8178
330
816C
100
AcDbEntity
  8
DEFPOINTS
  6
ByBlock
 62
     0
100
AcDbPoint
 10
3649.405057
 20
4439.076101
 30
0.0
  0
POINT
  5
8179
330
816C
100
AcDbEntity
  8
DEFPOINTS
  6
ByBlock
 62
     0
100
AcDbPoint
 10
3649.405057
 20
4339.076100999999
 30
0.0
  0
ENDBLK
  5
817A
330
816C
100
AcDbEntity
  8
0
100
AcDbBlockEnd
  0
BLOCK
  5
82CF
330
82A7
100
AcDbEntity
  8
0
100
AcDbBlockBegin
  2
*D37
 70
     1
 10
0.0
 20
0.0
 30
0.0
  3
*D37
  1

  0
LINE
  5
82D0
330
82A7
100
AcDbEntity
  8
0
  6
ByBlock
 62
     0
100
AcDbLine
 10
4563.405056999999
 20
4534.076100999999
 30
0.0
 11
4483.405057
 21
4534.076100999999
 31
0.0
  0
LINE
  5
82D1
330
82A7
100
AcDbEntity
  8
0
  6
ByBlock
 62
     0
100
AcDbLine
 10
4664.405056999999
 20
4469.076100999999
 30
0.0
 11
4483.405057
 21
4469.076100999999
 31
0.0
  0
LINE
  5
82D2
330
82A7
100
AcDbEntity
  8
0
  6
ByBlock
 62
     0
100
AcDbLine
 10
4493.405057
 20
4514.076100999999
 30
0.0
 11
4493.405057
 21
4489.076101
 31
0.0
  0
INSERT
  5
82D3
330
82A7
100
AcDbEntity
  8
0
  6
ByBlock
 62
     0
100
AcDbBlockReference
  2
_OPEN
 10
4493.405057
 20
4534.076100999999
 30
0.0
 41
20.0
 42
20.0
 43
20.0
 50
90.0
  0
INSERT
  5
82D4
330
82A7
100
AcDbEntity
  8
0
  6
ByBlock
 62
     0
100
AcDbBlockReference
  2
_OPEN
 10
4493.405057
 20
4469.076100999999
 30
0.0
 41
20.0
 42
20.0
 43
20.0
 50
270.0
  0
MTEXT
  5
82D5
330
82A7
100
AcDbEntity
  8
0
  6
ByBlock
 62
     0
100
AcDbMText
 10
4470.905057
 20
4501.576101
 30
0.0
 40
25.0
 41
0.0
 71
     5
 72
     1
  1
\A1;65
 11
0.0
 21
1.0
 31
0.0
 73
     1
 44
1.0
1001
ACAD
1000
MTEXTBEGIN
1070
    73
1070
     1
1070
    44
1040
1.0
1070
    74
1070
     0
1000
MTEXTEND
  0
POINT
  5
82D6
330
82A7
100
AcDbEntity
  8
DEFPOINTS
  6
ByBlock
 62
     0
100
AcDbPoint
 10
4593.405057
 20
4534.076100999999
 30
0.0
  0
POINT
  5
82D7
330
82A7
100
AcDbEntity
  8
DEFPOINTS
  6
ByBlock
 62
     0
100
AcDbPoint
 10
4694.405056999999
 20
4469.076100999999
 30
0.0
  0
POINT
  5
82D8
330
82A7
100
AcDbEntity
  8
DEFPOINTS
  6
ByBlock
 62
     0
100
AcDbPoint
 10
4493.405057
 20
4469.076100999999
 30
0.0
  0
ENDBLK
  5
82D9
330
82A7
100
AcDbEntity
  8
0
100
AcDbBlockEnd
  0
BLOCK
  5
82C3
330
82B4
100
AcDbEntity
  8
0
100
AcDbBlockBegin
  2
*D38
 70
     1
 10
0.0
 20
0.0
 30
0.0
  3
*D38
  1

  0
LINE
  5
82C4
330
82B4
100
AcDbEntity
  8
0
  6
ByBlock
 62
     0
100
AcDbLine
 10
4568.405057
 20
4424.076100999999
 30
0.0
 11
4483.405057
 21
4424.076100999999
 31
0.0
  0
LINE
  5
82C5
330
82B4
100
AcDbEntity
  8
0
  6
ByBlock
 62
     0
100
AcDbLine
 10
4493.405057
 20
4489.076101
 30
0.0
 11
4493.405057
 21
4509.076100999999
 31
0.0
  0
LINE
  5
82C6
330
82B4
100
AcDbEntity
  8
0
  6
ByBlock
 62
     0
100
AcDbLine
 10
4493.405057
 20
4404.076101
 30
0.0
 11
4493.405057
 21
4384.076100999999
 31
0.0
  0
LINE
  5
82C7
330
82B4
100
AcDbEntity
  8
0
  6
ByBlock
 62
     0
100
AcDbLine
 10
4493.405057
 20
4469.076100999999
 30
0.0
 11
4493.405057
 21
4424.076100999999
 31
0.0
  0
INSERT
  5
82C8
330
82B4
100
AcDbEntity
  8
0
  6
ByBlock
 62
     0
100
AcDbBlockReference
  2
_OPEN
 10
4493.405057
 20
4469.076100999999
 30
0.0
 41
20.0
 42
20.0
 43
20.0
 50
270.0
  0
INSERT
  5
82C9
330
82B4
100
AcDbEntity
  8
0
  6
ByBlock
 62
     0
100
AcDbBlockReference
  2
_OPEN
 10
4493.405057
 20
4424.076100999999
 30
0.0
 41
20.0
 42
20.0
 43
20.0
 50
90.0
  0
MTEXT
  5
82CA
330
82B4
100
AcDbEntity
  8
0
  6
ByBlock
 62
     0
100
AcDbMText
 10
4470.905057
 20
4446.576100999999
 30
0.0
 40
25.0
 41
0.0
 71
     5
 72
     1
  1
\A1;45
 11
0.0
 21
1.0
 31
0.0
 73
     1
 44
1.0
1001
ACAD
1000
MTEXTBEGIN
1070
    73
1070
     1
1070
    44
1040
1.0
1070
    74
1070
     0
1000
MTEXTEND
  0
POINT
  5
82CB
330
82B4
100
AcDbEntity
  8
DEFPOINTS
  6
ByBlock
 62
     0
100
AcDbPoint
 10
4694.405056999999
 20
4469.076100999999
 30
0.0
  0
POINT
  5
82CC
330
82B4
100
AcDbEntity
  8
DEFPOINTS
  6
ByBlock
 62
     0
100
AcDbPoint
 10
4598.405056999999
 20
4424.076100999999
 30
0.0
  0
POINT
  5
82CD
330
82B4
100
AcDbEntity
  8
DEFPOINTS
  6
ByBlock
 62
     0
100
AcDbPoint
 10
4493.405057
 20
4424.076100999999
 30
0.0
  0
ENDBLK
  5
82CE
330
82B4
100
AcDbEntity
  8
0
100
AcDbBlockEnd
  0
BLOCK
  5
82FF
330
82E2
100
AcDbEntity
  8
0
100
AcDbBlockBegin
  2
*D39
 70
     1
 10
0.0
 20
0.0
 30
0.0
  3
*D39
  1

  0
LINE
  5
8300
330
82E2
100
AcDbEntity
  8
0
  6
ByBlock
 62
     0
100
AcDbLine
 10
5100.405057
 20
4394.076100999999
 30
0.0
 11
5100.405057
 21
4314.076101
 31
0.0
  0
LINE
  5
8301
330
82E2
100
AcDbEntity
  8
0
  6
ByBlock
 62
     0
100
AcDbLine
 10
5049.405057
 20
4394.076100999999
 30
0.0
 11
5049.405057
 21
4314.076101
 31
0.0
  0
LINE
  5
8302
330
82E2
100
AcDbEntity
  8
0
  6
ByBlock
 62
     0
100
AcDbLine
 10
5100.405057
 20
4324.076101
 30
0.0
 11
5120.405057
 21
4324.076101
 31
0.0
  0
LINE
  5
8303
330
82E2
100
AcDbEntity
  8
0
  6
ByBlock
 62
     0
100
AcDbLine
 10
5029.405057
 20
4324.076101
 30
0.0
 11
5009.405057
 21
4324.076101
 31
0.0
  0
MTEXT
  5
8304
330
82E2
100
AcDbEntity
  8
0
  6
ByBlock
 62
     0
100
AcDbMText
 10
5074.905057
 20
4346.210989
 30
0.0
 40
25.0
 41
0.0
 71
     5
 72
     1
  1
\A1;51
 73
     1
 44
1.0
1001
ACAD
1000
MTEXTBEGIN
1070
    73
1070
     1
1070
    44
1040
1.0
1070
    74
1070
     0
1000
MTEXTEND
  0
LINE
  5
8305
330
82E2
100
AcDbEntity
  8
0
  6
ByBlock
 62
     0
100
AcDbLine
 10
5100.405057
 20
4324.076101
 30
0.0
 11
5049.405057
 21
4324.076101
 31
0.0
  0
LINE
  5
8306
330
82E2
100
AcDbEntity
  8
0
  6
ByBlock
 62
     0
100
AcDbLine
 10
5100.405057
 20
4324.076101
 30
0.0
 11
5049.405057
 21
4324.076101
 31
0.0
  0
INSERT
  5
8307
330
82E2
100
AcDbEntity
  8
0
  6
ByBlock
 62
     0
100
AcDbBlockReference
  2
_DOTSMALL
 10
5100.405057
 20
4324.076101
 30
0.0
 41
20.0
 42
20.0
 43
20.0
 50
180.0
  0
INSERT
  5
8308
330
82E2
100
AcDbEntity
  8
0
  6
ByBlock
 62
     0
100
AcDbBlockReference
  2
_OPEN
 10
5049.405057
 20
4324.076101
 30
0.0
 41
20.0
 42
20.0
 43
20.0
  0
POINT
  5
8309
330
82E2
100
AcDbEntity
  8
DEFPOINTS
  6
ByBlock
 62
     0
100
AcDbPoint
 10
5100.405057
 20
4424.076100999999
 30
0.0
  0
POINT
  5
830A
330
82E2
100
AcDbEntity
  8
DEFPOINTS
  6
ByBlock
 62
     0
100
AcDbPoint
 10
5049.405057
 20
4424.076100999999
 30
0.0
  0
POINT
  5
830B
330
82E2
100
AcDbEntity
  8
DEFPOINTS
  6
ByBlock
 62
     0
100
AcDbPoint
 10
5049.405057
 20
4324.076101
 30
0.0
  0
ENDBLK
  5
830C
330
82E2
100
AcDbEntity
  8
0
100
AcDbBlockEnd
  0
BLOCK
  5
830D
330
82F1
100
AcDbEntity
  8
0
100
AcDbBlockBegin
  2
*D40
 70
     1
 10
0.0
 20
0.0
 30
0.0
  3
*D40
  1

  0
LINE
  5
830E
330
82F1
100
AcDbEntity
  8
0
  6
ByBlock
 62
     0
100
AcDbLine
 10
5105.405057
 20
4504.076100999999
 30
0.0
 11
5105.405057
 21
4314.076101
 31
0.0
  0
LINE
  5
830F
330
82F1
100
AcDbEntity
  8
0
  6
ByBlock
 62
     0
100
AcDbLine
 10
5100.405057
 20
4394.076100999999
 30
0.0
 11
5100.405057
 21
4314.076101
 31
0.0
  0
LINE
  5
8310
330
82F1
100
AcDbEntity
  8
0
  6
ByBlock
 62
     0
100
AcDbLine
 10
5125.405057
 20
4324.076101
 30
0.0
 11
5145.405057
 21
4324.076101
 31
0.0
  0
LINE
  5
8311
330
82F1
100
AcDbEntity
  8
0
  6
ByBlock
 62
     0
100
AcDbLine
 10
5100.405057
 20
4324.076101
 30
0.0
 11
5080.405057
 21
4324.076101
 31
0.0
  0
MTEXT
  5
8312
330
82F1
100
AcDbEntity
  8
0
  6
ByBlock
 62
     0
100
AcDbMText
 10
5122.23721
 20
4346.576100999999
 30
0.0
 40
25.0
 41
0.0
 71
     5
 72
     1
  1
\A1;5
 73
     1
 44
1.0
1001
ACAD
1000
MTEXTBEGIN
1070
    73
1070
     1
1070
    44
1040
1.0
1070
    74
1070
     0
1000
MTEXTEND
  0
LINE
  5
8313
330
82F1
100
AcDbEntity
  8
0
  6
ByBlock
 62
     0
100
AcDbLine
 10
5105.405057
 20
4324.076101
 30
0.0
 11
5100.405057
 21
4324.076101
 31
0.0
  0
LINE
  5
8314
330
82F1
100
AcDbEntity
  8
0
  6
ByBlock
 62
     0
100
AcDbLine
 10
5105.405057
 20
4324.076101
 30
0.0
 11
5100.405057
 21
4324.076101
 31
0.0
  0
INSERT
  5
8315
330
82F1
100
AcDbEntity
  8
0
  6
ByBlock
 62
     0
100
AcDbBlockReference
  2
_OPEN
 10
5105.405057
 20
4324.076101
 30
0.0
 41
20.0
 42
20.0
 43
20.0
 50
180.0
  0
POINT
  5
8316
330
82F1
100
AcDbEntity
  8
DEFPOINTS
  6
ByBlock
 62
     0
100
AcDbPoint
 10
5105.405057
 20
4534.076100999999
 30
0.0
  0
POINT
  5
8317
330
82F1
100
AcDbEntity
  8
DEFPOINTS
  6
ByBlock
 62
     0
100
AcDbPoint
 10
5100.405057
 20
4424.076100999999
 30
0.0
  0
POINT
  5
8318
330
82F1
100
AcDbEntity
  8
DEFPOINTS
  6
ByBlock
 62
     0
100
AcDbPoint
 10
5100.405057
 20
4324.076101
 30
0.0
  0
ENDBLK
  5
8319
330
82F1
100
AcDbEntity
  8
0
100
AcDbBlockEnd
  0
BLOCK
  5
8348
330
8347
100
AcDbEntity
  8
0
100
AcDbBlockBegin
  2
*D41
 70
     1
 10
0.0
 20
0.0
 30
0.0
  3
*D41
  1

  0
LINE
  5
8349
330
8347
100
AcDbEntity
  8
0
  6
ByBlock
 62
     0
100
AcDbLine
 10
4563.405056999999
 20
4034.076100999999
 30
0.0
 11
4483.405057
 21
4034.076100999999
 31
0.0
  0
LINE
  5
834A
330
8347
100
AcDbEntity
  8
0
  6
ByBlock
 62
     0
100
AcDbLine
 10
4563.405056999999
 20
3534.076101
 30
0.0
 11
4483.405057
 21
3534.076101
 31
0.0
  0
LINE
  5
834B
330
8347
100
AcDbEntity
  8
0
  6
ByBlock
 62
     0
100
AcDbLine
 10
4493.405057
 20
4014.076100999999
 30
0.0
 11
4493.405057
 21
3554.076101
 31
0.0
  0
INSERT
  5
834C
330
8347
100
AcDbEntity
  8
0
  6
ByBlock
 62
     0
100
AcDbBlockReference
  2
_OPEN
 10
4493.405057
 20
4034.076100999999
 30
0.0
 41
20.0
 42
20.0
 43
20.0
 50
90.0
  0
INSERT
  5
834D
330
8347
100
AcDbEntity
  8
0
  6
ByBlock
 62
     0
100
AcDbBlockReference
  2
_OPEN
 10
4493.405057
 20
3534.076101
 30
0.0
 41
20.0
 42
20.0
 43
20.0
 50
270.0
  0
MTEXT
  5
834E
330
8347
100
AcDbEntity
  8
0
  6
ByBlock
 62
     0
100
AcDbMText
 10
4470.905057
 20
3784.076101
 30
0.0
 40
25.0
 41
0.0
 71
     5
 72
     1
  1
\A1;500
 11
0.0
 21
1.0
 31
0.0
 73
     1
 44
1.0
1001
ACAD
1000
MTEXTBEGIN
1070
    73
1070
     1
1070
    44
1040
1.0
1070
    74
1070
     0
1000
MTEXTEND
  0
POINT
  5
834F
330
8347
100
AcDbEntity
  8
DEFPOINTS
  6
ByBlock
 62
     0
100
AcDbPoint
 10
4593.405057
 20
4034.076100999999
 30
0.0
  0
POINT
  5
8350
330
8347
100
AcDbEntity
  8
DEFPOINTS
  6
ByBlock
 62
     0
100
AcDbPoint
 10
4593.405057
 20
3534.076101
 30
0.0
  0
POINT
  5
8351
330
8347
100
AcDbEntity
  8
DEFPOINTS
  6
ByBlock
 62
     0
100
AcDbPoint
 10
4493.405057
 20
3534.076101
 30
0.0
  0
ENDBLK
  5
8352
330
8347
100
AcDbEntity
  8
0
100
AcDbBlockEnd
  0
BLOCK
  5
84CE
330
838C
100
AcDbEntity
  8
0
100
AcDbBlockBegin
  2
*D42
 70
     1
 10
0.0
 20
0.0
 30
0.0
  3
*D42
  1

  0
LINE
  5
84CF
330
838C
100
AcDbEntity
  8
0
  6
ByBlock
 62
     0
100
AcDbLine
 10
5563.405057
 20
4534.076100999999
 30
0.0
 11
5433.405057
 21
4534.076100999999
 31
0.0
  0
LINE
  5
84D0
330
838C
100
AcDbEntity
  8
0
  6
ByBlock
 62
     0
100
AcDbLine
 10
5568.405057
 20
4409.076100999999
 30
0.0
 11
5433.405057
 21
4409.076100999999
 31
0.0
  0
LINE
  5
84D1
330
838C
100
AcDbEntity
  8
0
  6
ByBlock
 62
     0
100
AcDbLine
 10
5443.405057
 20
4514.076100999999
 30
0.0
 11
5443.405057
 21
4429.076100999999
 31
0.0
  0
INSERT
  5
84D2
330
838C
100
AcDbEntity
  8
0
  6
ByBlock
 62
     0
100
AcDbBlockReference
  2
_OPEN
 10
5443.405057
 20
4534.076100999999
 30
0.0
 41
20.0
 42
20.0
 43
20.0
 50
90.0
  0
INSERT
  5
84D3
330
838C
100
AcDbEntity
  8
0
  6
ByBlock
 62
     0
100
AcDbBlockReference
  2
_OPEN
 10
5443.405057
 20
4409.076100999999
 30
0.0
 41
20.0
 42
20.0
 43
20.0
 50
270.0
  0
MTEXT
  5
84D4
330
838C
100
AcDbEntity
  8
0
  6
ByBlock
 62
     0
100
AcDbMText
 10
5420.905057
 20
4471.576100999999
 30
0.0
 40
25.0
 41
0.0
 71
     5
 72
     1
  1
\A1;125
 11
0.0
 21
1.0
 31
0.0
 73
     1
 44
1.0
1001
ACAD
1000
MTEXTBEGIN
1070
    73
1070
     1
1070
    44
1040
1.0
1070
    74
1070
     0
1000
MTEXTEND
  0
POINT
  5
84D5
330
838C
100
AcDbEntity
  8
DEFPOINTS
  6
ByBlock
 62
     0
100
AcDbPoint
 10
5593.405057
 20
4534.076100999999
 30
0.0
  0
POINT
  5
84D6
330
838C
100
AcDbEntity
  8
DEFPOINTS
  6
ByBlock
 62
     0
100
AcDbPoint
 10
5598.405057
 20
4409.076100999999
 30
0.0
  0
POINT
  5
84D7
330
838C
100
AcDbEntity
  8
DEFPOINTS
  6
ByBlock
 62
     0
100
AcDbPoint
 10
5443.405057
 20
4409.076100999999
 30
0.0
  0
ENDBLK
  5
84D8
330
838C
100
AcDbEntity
  8
0
100
AcDbBlockEnd
  0
BLOCK
  5
84F3
330
8398
100
AcDbEntity
  8
0
100
AcDbBlockBegin
  2
*D43
 70
     1
 10
0.0
 20
0.0
 30
0.0
  3
*D43
  1

  0
LINE
  5
84F4
330
8398
100
AcDbEntity
  8
0
  6
ByBlock
 62
     0
100
AcDbLine
 10
5598.405057
 20
4379.076100999999
 30
0.0
 11
5598.405057
 21
4299.076100999999
 31
0.0
  0
LINE
  5
84F5
330
8398
100
AcDbEntity
  8
0
  6
ByBlock
 62
     0
100
AcDbLine
 10
5654.405057
 20
4379.076100999999
 30
0.0
 11
5654.405057
 21
4299.076100999999
 31
0.0
  0
LINE
  5
84F6
330
8398
100
AcDbEntity
  8
0
  6
ByBlock
 62
     0
100
AcDbLine
 10
5598.405057
 20
4309.076100999999
 30
0.0
 11
5578.405057
 21
4309.076100999999
 31
0.0
  0
LINE
  5
84F7
330
8398
100
AcDbEntity
  8
0
  6
ByBlock
 62
     0
100
AcDbLine
 10
5674.405057
 20
4309.076100999999
 30
0.0
 11
5694.405057
 21
4309.076100999999
 31
0.0
  0
MTEXT
  5
84F8
330
8398
100
AcDbEntity
  8
0
  6
ByBlock
 62
     0
100
AcDbMText
 10
5623.905057
 20
4331.210989
 30
0.0
 40
25.0
 41
0.0
 71
     5
 72
     1
  1
\A1;56
 73
     1
 44
1.0
1001
ACAD
1000
MTEXTBEGIN
1070
    73
1070
     1
1070
    44
1040
1.0
1070
    74
1070
     0
1000
MTEXTEND
  0
LINE
  5
84F9
330
8398
100
AcDbEntity
  8
0
  6
ByBlock
 62
     0
100
AcDbLine
 10
5598.405057
 20
4309.076100999999
 30
0.0
 11
5654.405057
 21
4309.076100999999
 31
0.0
  0
LINE
  5
84FA
330
8398
100
AcDbEntity
  8
0
  6
ByBlock
 62
     0
100
AcDbLine
 10
5598.405057
 20
4309.076100999999
 30
0.0
 11
5654.405057
 21
4309.076100999999
 31
0.0
  0
INSERT
  5
84FB
330
8398
100
AcDbEntity
  8
0
  6
ByBlock
 62
     0
100
AcDbBlockReference
  2
_DOTSMALL
 10
5598.405057
 20
4309.076100999999
 30
0.0
 41
20.0
 42
20.0
 43
20.0
  0
INSERT
  5
84FC
330
8398
100
AcDbEntity
  8
0
  6
ByBlock
 62
     0
100
AcDbBlockReference
  2
_OPEN
 10
5654.405057
 20
4309.076100999999
 30
0.0
 41
20.0
 42
20.0
 43
20.0
 50
180.0
  0
POINT
  5
84FD
330
8398
100
AcDbEntity
  8
DEFPOINTS
  6
ByBlock
 62
     0
100
AcDbPoint
 10
5598.405057
 20
4409.076100999999
 30
0.0
  0
POINT
  5
84FE
330
8398
100
AcDbEntity
  8
DEFPOINTS
  6
ByBlock
 62
     0
100
AcDbPoint
 10
5654.405057
 20
4409.076100999999
 30
0.0
  0
POINT
  5
84FF
330
8398
100
AcDbEntity
  8
DEFPOINTS
  6
ByBlock
 62
     0
100
AcDbPoint
 10
5654.405057
 20
4309.076100999999
 30
0.0
  0
ENDBLK
  5
8500
330
8398
100
AcDbEntity
  8
0
100
AcDbBlockEnd
  0
BLOCK
  5
84D9
330
83A7
100
AcDbEntity
  8
0
100
AcDbBlockBegin
  2
*D44
 70
     1
 10
0.0
 20
0.0
 30
0.0
  3
*D44
  1

  0
LINE
  5
84DA
330
83A7
100
AcDbEntity
  8
0
  6
ByBlock
 62
     0
100
AcDbLine
 10
5593.405057
 20
4504.076100999999
 30
0.0
 11
5593.405057
 21
4299.076100999999
 31
0.0
  0
LINE
  5
84DB
330
83A7
100
AcDbEntity
  8
0
  6
ByBlock
 62
     0
100
AcDbLine
 10
5598.405057
 20
4379.076100999999
 30
0.0
 11
5598.405057
 21
4299.076100999999
 31
0.0
  0
LINE
  5
84DC
330
83A7
100
AcDbEntity
  8
0
  6
ByBlock
 62
     0
100
AcDbLine
 10
5573.405057
 20
4309.076100999999
 30
0.0
 11
5553.405056999999
 21
4309.076100999999
 31
0.0
  0
LINE
  5
84DD
330
83A7
100
AcDbEntity
  8
0
  6
ByBlock
 62
     0
100
AcDbLine
 10
5598.405057
 20
4309.076100999999
 30
0.0
 11
5618.405057
 21
4309.076100999999
 31
0.0
  0
MTEXT
  5
84DE
330
83A7
100
AcDbEntity
  8
0
  6
ByBlock
 62
     0
100
AcDbMText
 10
5576.572903999999
 20
4331.576100999999
 30
0.0
 40
25.0
 41
0.0
 71
     5
 72
     1
  1
\A1;5
 73
     1
 44
1.0
1001
ACAD
1000
MTEXTBEGIN
1070
    73
1070
     1
1070
    44
1040
1.0
1070
    74
1070
     0
1000
MTEXTEND
  0
LINE
  5
84DF
330
83A7
100
AcDbEntity
  8
0
  6
ByBlock
 62
     0
100
AcDbLine
 10
5593.405057
 20
4309.076100999999
 30
0.0
 11
5598.405057
 21
4309.076100999999
 31
0.0
  0
LINE
  5
84E0
330
83A7
100
AcDbEntity
  8
0
  6
ByBlock
 62
     0
100
AcDbLine
 10
5593.405057
 20
4309.076100999999
 30
0.0
 11
5598.405057
 21
4309.076100999999
 31
0.0
  0
INSERT
  5
84E1
330
83A7
100
AcDbEntity
  8
0
  6
ByBlock
 62
     0
100
AcDbBlockReference
  2
_OPEN
 10
5593.405057
 20
4309.076100999999
 30
0.0
 41
20.0
 42
20.0
 43
20.0
  0
POINT
  5
84E2
330
83A7
100
AcDbEntity
  8
DEFPOINTS
  6
ByBlock
 62
     0
100
AcDbPoint
 10
5593.405057
 20
4534.076100999999
 30
0.0
  0
POINT
  5
84E3
330
83A7
100
AcDbEntity
  8
DEFPOINTS
  6
ByBlock
 62
     0
100
AcDbPoint
 10
5598.405057
 20
4409.076100999999
 30
0.0
  0
POINT
  5
84E4
330
83A7
100
AcDbEntity
  8
DEFPOINTS
  6
ByBlock
 62
     0
100
AcDbPoint
 10
5598.405057
 20
4309.076100999999
 30
0.0
  0
ENDBLK
  5
84E5
330
83A7
100
AcDbEntity
  8
0
100
AcDbBlockEnd
  0
BLOCK
  5
83B6
330
83B5
100
AcDbEntity
  8
0
100
AcDbBlockBegin
  2
*D45
 70
     1
 10
0.0
 20
0.0
 30
0.0
  3
*D45
  1

  0
LINE
  5
83B7
330
83B5
100
AcDbEntity
  8
0
  6
ByBlock
 62
     0
100
AcDbLine
 10
4886.905056999999
 20
4014.076100999999
 30
0.0
 11
4839.405057
 21
4014.076100999999
 31
0.0
  0
LINE
  5
83B8
330
83B5
100
AcDbEntity
  8
0
  6
ByBlock
 62
     0
100
AcDbLine
 10
4896.905057
 20
4034.076100999999
 30
0.0
 11
4839.405057
 21
4034.076100999999
 31
0.0
  0
LINE
  5
83B9
330
83B5
100
AcDbEntity
  8
0
  6
ByBlock
 62
     0
100
AcDbLine
 10
4849.405057
 20
3994.076101
 30
0.0
 11
4849.405057
 21
3974.076101
 31
0.0
  0
LINE
  5
83BA
330
83B5
100
AcDbEntity
  8
0
  6
ByBlock
 62
     0
100
AcDbLine
 10
4849.405057
 20
4054.076100999999
 30
0.0
 11
4849.405057
 21
4074.076101
 31
0.0
  0
MTEXT
  5
83BB
330
83B5
100
AcDbEntity
  8
0
  6
ByBlock
 62
     0
100
AcDbMText
 10
4826.116282
 20
4059.169821
 30
0.0
 40
25.0
 41
0.0
 71
     5
 72
     1
  1
\A1;20
 11
0.0
 21
1.0
 31
0.0
 73
     1
 44
1.0
1001
ACAD
1000
MTEXTBEGIN
1070
    73
1070
     1
1070
    44
1040
1.0
1070
    74
1070
     0
1000
MTEXTEND
  0
LINE
  5
83BC
330
83B5
100
AcDbEntity
  8
0
  6
ByBlock
 62
     0
100
AcDbLine
 10
4849.405057
 20
4014.076100999999
 30
0.0
 11
4849.405057
 21
4034.076100999999
 31
0.0
  0
LINE
  5
83BD
330
83B5
100
AcDbEntity
  8
0
  6
ByBlock
 62
     0
100
AcDbLine
 10
4849.405057
 20
4014.076100999999
 30
0.0
 11
4849.405057
 21
4034.076100999999
 31
0.0
  0
INSERT
  5
83BE
330
83B5
100
AcDbEntity
  8
0
  6
ByBlock
 62
     0
100
AcDbBlockReference
  2
_OPEN
 10
4849.405057
 20
4014.076100999999
 30
0.0
 41
20.0
 42
20.0
 43
20.0
 50
90.0
  0
INSERT
  5
83BF
330
83B5
100
AcDbEntity
  8
0
  6
ByBlock
 62
     0
100
AcDbBlockReference
  2
_OPEN
 10
4849.405057
 20
4034.076100999999
 30
0.0
 41
20.0
 42
20.0
 43
20.0
 50
270.0
  0
POINT
  5
83C0
330
83B5
100
AcDbEntity
  8
DEFPOINTS
  6
ByBlock
 62
     0
100
AcDbPoint
 10
4916.905057000001
 20
4014.076100999999
 30
0.0
  0
POINT
  5
83C1
330
83B5
100
AcDbEntity
  8
DEFPOINTS
  6
ByBlock
 62
     0
100
AcDbPoint
 10
4926.905056999999
 20
4034.076100999999
 30
0.0
  0
POINT
  5
83C2
330
83B5
100
AcDbEntity
  8
DEFPOINTS
  6
ByBlock
 62
     0
100
AcDbPoint
 10
4849.405057
 20
4034.076100999999
 30
0.0
  0
ENDBLK
  5
83C3
330
83B5
100
AcDbEntity
  8
0
100
AcDbBlockEnd
  0
BLOCK
  5
83C5
330
83C4
100
AcDbEntity
  8
0
100
AcDbBlockBegin
  2
*D46
 70
     1
 10
0.0
 20
0.0
 30
0.0
  3
*D46
  1

  0
LINE
  5
83C6
330
83C4
100
AcDbEntity
  8
0
  6
ByBlock
 62
     0
100
AcDbLine
 10
4916.905057000001
 20
4044.076100999999
 30
0.0
 11
4916.905057000001
 21
4144.076100999999
 31
0.0
  0
LINE
  5
83C7
330
83C4
100
AcDbEntity
  8
0
  6
ByBlock
 62
     0
100
AcDbLine
 10
4926.905056999999
 20
4064.076101
 30
0.0
 11
4926.905056999999
 21
4144.076100999999
 31
0.0
  0
LINE
  5
83C8
330
83C4
100
AcDbEntity
  8
0
  6
ByBlock
 62
     0
100
AcDbLine
 10
4896.905057
 20
4134.076100999999
 30
0.0
 11
4876.905057
 21
4134.076100999999
 31
0.0
  0
LINE
  5
83C9
330
83C4
100
AcDbEntity
  8
0
  6
ByBlock
 62
     0
100
AcDbLine
 10
4946.905057
 20
4134.076100999999
 30
0.0
 11
4966.905057
 21
4134.076100999999
 31
0.0
  0
MTEXT
  5
83CA
330
83C4
100
AcDbEntity
  8
0
  6
ByBlock
 62
     0
100
AcDbMText
 10
4945.294703
 20
4156.576100999999
 30
0.0
 40
25.0
 41
0.0
 71
     5
 72
     1
  1
\A1;10
 73
     1
 44
1.0
1001
ACAD
1000
MTEXTBEGIN
1070
    73
1070
     1
1070
    44
1040
1.0
1070
    74
1070
     0
1000
MTEXTEND
  0
LINE
  5
83CB
330
83C4
100
AcDbEntity
  8
0
  6
ByBlock
 62
     0
100
AcDbLine
 10
4916.905057000001
 20
4134.076100999999
 30
0.0
 11
4926.905056999999
 21
4134.076100999999
 31
0.0
  0
LINE
  5
83CC
330
83C4
100
AcDbEntity
  8
0
  6
ByBlock
 62
     0
100
AcDbLine
 10
4916.905057000001
 20
4134.076100999999
 30
0.0
 11
4926.905056999999
 21
4134.076100999999
 31
0.0
  0
INSERT
  5
83CD
330
83C4
100
AcDbEntity
  8
0
  6
ByBlock
 62
     0
100
AcDbBlockReference
  2
_OPEN
 10
4916.905057000001
 20
4134.076100999999
 30
0.0
 41
20.0
 42
20.0
 43
20.0
  0
INSERT
  5
83CE
330
83C4
100
AcDbEntity
  8
0
  6
ByBlock
 62
     0
100
AcDbBlockReference
  2
_OPEN
 10
4926.905056999999
 20
4134.076100999999
 30
0.0
 41
20.0
 42
20.0
 43
20.0
 50
180.0
  0
POINT
  5
83CF
330
83C4
100
AcDbEntity
  8
DEFPOINTS
  6
ByBlock
 62
     0
100
AcDbPoint
 10
4916.905057000001
 20
4014.076100999999
 30
0.0
  0
POINT
  5
83D0
330
83C4
100
AcDbEntity
  8
DEFPOINTS
  6
ByBlock
 62
     0
100
AcDbPoint
 10
4926.905056999999
 20
4034.076100999999
 30
0.0
  0
POINT
  5
83D1
330
83C4
100
AcDbEntity
  8
DEFPOINTS
  6
ByBlock
 62
     0
100
AcDbPoint
 10
4926.905056999999
 20
4134.076100999999
 30
0.0
  0
ENDBLK
  5
83D2
330
83C4
100
AcDbEntity
  8
0
100
AcDbBlockEnd
  0
BLOCK
  5
83D4
330
83D3
100
AcDbEntity
  8
0
100
AcDbBlockBegin
  2
*D47
 70
     1
 10
0.0
 20
0.0
 30
0.0
  3
*D47
  1

  0
LINE
  5
83D5
330
83D3
100
AcDbEntity
  8
0
  6
ByBlock
 62
     0
100
AcDbLine
 10
4781.905057
 20
4044.076100999999
 30
0.0
 11
4781.905057
 21
4144.076100999999
 31
0.0
  0
LINE
  5
83D6
330
83D3
100
AcDbEntity
  8
0
  6
ByBlock
 62
     0
100
AcDbLine
 10
4916.905057000001
 20
4044.076100999999
 30
0.0
 11
4916.905057000001
 21
4144.076100999999
 31
0.0
  0
LINE
  5
83D7
330
83D3
100
AcDbEntity
  8
0
  6
ByBlock
 62
     0
100
AcDbLine
 10
4801.905056999999
 20
4134.076100999999
 30
0.0
 11
4896.905057
 21
4134.076100999999
 31
0.0
  0
INSERT
  5
83D8
330
83D3
100
AcDbEntity
  8
0
  6
ByBlock
 62
     0
100
AcDbBlockReference
  2
_OPEN
 10
4781.905057
 20
4134.076100999999
 30
0.0
 41
20.0
 42
20.0
 43
20.0
 50
180.0
  0
INSERT
  5
83D9
330
83D3
100
AcDbEntity
  8
0
  6
ByBlock
 62
     0
100
AcDbBlockReference
  2
_OPEN
 10
4916.905057000001
 20
4134.076100999999
 30
0.0
 41
20.0
 42
20.0
 43
20.0
  0
MTEXT
  5
83DA
330
83D3
100
AcDbEntity
  8
0
  6
ByBlock
 62
     0
100
AcDbMText
 10
4849.405057
 20
4156.576100999999
 30
0.0
 40
25.0
 41
0.0
 71
     5
 72
     1
  1
\A1;135
 73
     1
 44
1.0
1001
ACAD
1000
MTEXTBEGIN
1070
    73
1070
     1
1070
    44
1040
1.0
1070
    74
1070
     0
1000
MTEXTEND
  0
POINT
  5
83DB
330
83D3
100
AcDbEntity
  8
DEFPOINTS
  6
ByBlock
 62
     0
100
AcDbPoint
 10
4781.905057
 20
4014.076100999999
 30
0.0
  0
POINT
  5
83DC
330
83D3
100
AcDbEntity
  8
DEFPOINTS
  6
ByBlock
 62
     0
100
AcDbPoint
 10
4916.905057000001
 20
4014.076100999999
 30
0.0
  0
POINT
  5
83DD
330
83D3
100
AcDbEntity
  8
DEFPOINTS
  6
ByBlock
 62
     0
100
AcDbPoint
 10
4916.905057000001
 20
4134.076100999999
 30
0.0
  0
ENDBLK
  5
83DE
330
83D3
100
AcDbEntity
  8
0
100
AcDbBlockEnd
  0
BLOCK
  5
83E0
330
83DF
100
AcDbEntity
  8
0
100
AcDbBlockBegin
  2
*D48
 70
     1
 10
0.0
 20
0.0
 30
0.0
  3
*D48
  1

  0
LINE
  5
83E1
330
83DF
100
AcDbEntity
  8
0
  6
ByBlock
 62
     0
100
AcDbLine
 10
4781.905057
 20
4044.076100999999
 30
0.0
 11
4781.905057
 21
4144.076100999999
 31
0.0
  0
LINE
  5
83E2
330
83DF
100
AcDbEntity
  8
0
  6
ByBlock
 62
     0
100
AcDbLine
 10
4771.905057
 20
4064.076101
 30
0.0
 11
4771.905057
 21
4144.076100999999
 31
0.0
  0
LINE
  5
83E3
330
83DF
100
AcDbEntity
  8
0
  6
ByBlock
 62
     0
100
AcDbLine
 10
4801.905056999999
 20
4134.076100999999
 30
0.0
 11
4821.905057
 21
4134.076100999999
 31
0.0
  0
LINE
  5
83E4
330
83DF
100
AcDbEntity
  8
0
  6
ByBlock
 62
     0
100
AcDbLine
 10
4751.905057
 20
4134.076100999999
 30
0.0
 11
4731.905057
 21
4134.076100999999
 31
0.0
  0
MTEXT
  5
83E5
330
83DF
100
AcDbEntity
  8
0
  6
ByBlock
 62
     0
100
AcDbMText
 10
4748.16652
 20
4156.576100999999
 30
0.0
 40
25.0
 41
0.0
 71
     5
 72
     1
  1
\A1;10
 73
     1
 44
1.0
1001
ACAD
1000
MTEXTBEGIN
1070
    73
1070
     1
1070
    44
1040
1.0
1070
    74
1070
     0
1000
MTEXTEND
  0
LINE
  5
83E6
330
83DF
100
AcDbEntity
  8
0
  6
ByBlock
 62
     0
100
AcDbLine
 10
4781.905057
 20
4134.076100999999
 30
0.0
 11
4771.905057
 21
4134.076100999999
 31
0.0
  0
LINE
  5
83E7
330
83DF
100
AcDbEntity
  8
0
  6
ByBlock
 62
     0
100
AcDbLine
 10
4781.905057
 20
4134.076100999999
 30
0.0
 11
4771.905057
 21
4134.076100999999
 31
0.0
  0
INSERT
  5
83E8
330
83DF
100
AcDbEntity
  8
0
  6
ByBlock
 62
     0
100
AcDbBlockReference
  2
_OPEN
 10
4781.905057
 20
4134.076100999999
 30
0.0
 41
20.0
 42
20.0
 43
20.0
 50
180.0
  0
INSERT
  5
83E9
330
83DF
100
AcDbEntity
  8
0
  6
ByBlock
 62
     0
100
AcDbBlockReference
  2
_OPEN
 10
4771.905057
 20
4134.076100999999
 30
0.0
 41
20.0
 42
20.0
 43
20.0
  0
POINT
  5
83EA
330
83DF
100
AcDbEntity
  8
DEFPOINTS
  6
ByBlock
 62
     0
100
AcDbPoint
 10
4781.905057
 20
4014.076100999999
 30
0.0
  0
POINT
  5
83EB
330
83DF
100
AcDbEntity
  8
DEFPOINTS
  6
ByBlock
 62
     0
100
AcDbPoint
 10
4771.905057
 20
4034.076100999999
 30
0.0
  0
POINT
  5
83EC
330
83DF
100
AcDbEntity
  8
DEFPOINTS
  6
ByBlock
 62
     0
100
AcDbPoint
 10
4771.905057
 20
4134.076100999999
 30
0.0
  0
ENDBLK
  5
83ED
330
83DF
100
AcDbEntity
  8
0
100
AcDbBlockEnd
  0
BLOCK
  5
843B
330
83EE
100
AcDbEntity
  8
0
100
AcDbBlockBegin
  2
*D49
 70
     1
 10
0.0
 20
0.0
 30
0.0
  3
*D49
  1

  0
LINE
  5
843C
330
83EE
100
AcDbEntity
  8
0
  6
ByBlock
 62
     0
100
AcDbLine
 10
5593.405057
 20
4564.076101
 30
0.0
 11
5593.405057
 21
4644.076100999999
 31
0.0
  0
LINE
  5
843D
330
83EE
100
AcDbEntity
  8
0
  6
ByBlock
 62
     0
100
AcDbLine
 10
6215.405057
 20
4564.076101
 30
0.0
 11
6215.405057
 21
4644.076100999999
 31
0.0
  0
LINE
  5
843E
330
83EE
100
AcDbEntity
  8
0
  6
ByBlock
 62
     0
100
AcDbLine
 10
5613.405057
 20
4634.076100999999
 30
0.0
 11
6195.405057
 21
4634.076100999999
 31
0.0
  0
INSERT
  5
843F
330
83EE
100
AcDbEntity
  8
0
  6
ByBlock
 62
     0
100
AcDbBlockReference
  2
_OPEN
 10
5593.405057
 20
4634.076100999999
 30
0.0
 41
20.0
 42
20.0
 43
20.0
 50
180.0
  0
INSERT
  5
8440
330
83EE
100
AcDbEntity
  8
0
  6
ByBlock
 62
     0
100
AcDbBlockReference
  2
_OPEN
 10
6215.405057
 20
4634.076100999999
 30
0.0
 41
20.0
 42
20.0
 43
20.0
  0
MTEXT
  5
8441
330
83EE
100
AcDbEntity
  8
0
  6
ByBlock
 62
     0
100
AcDbMText
 10
5904.405057
 20
4656.576100999999
 30
0.0
 40
25.0
 41
0.0
 71
     5
 72
     1
  1
\A1;622
 73
     1
 44
1.0
1001
ACAD
1000
MTEXTBEGIN
1070
    73
1070
     1
1070
    44
1040
1.0
1070
    74
1070
     0
1000
MTEXTEND
  0
POINT
  5
8442
330
83EE
100
AcDbEntity
  8
DEFPOINTS
  6
ByBlock
 62
     0
100
AcDbPoint
 10
5593.405057
 20
4534.076100999999
 30
0.0
  0
POINT
  5
8443
330
83EE
100
AcDbEntity
  8
DEFPOINTS
  6
ByBlock
 62
     0
100
AcDbPoint
 10
6215.405057
 20
4534.076100999999
 30
0.0
  0
POINT
  5
8444
330
83EE
100
AcDbEntity
  8
DEFPOINTS
  6
ByBlock
 62
     0
100
AcDbPoint
 10
6215.405057
 20
4634.076100999999
 30
0.0
  0
ENDBLK
  5
8445
330
83EE
100
AcDbEntity
  8
0
100
AcDbBlockEnd
  0
BLOCK
  5
851C
330
83FA
100
AcDbEntity
  8
0
100
AcDbBlockBegin
  2
*D50
 70
     1
 10
0.0
 20
0.0
 30
0.0
  3
*D50
  1

  0
LINE
  5
851D
330
83FA
100
AcDbEntity
  8
0
  6
ByBlock
 62
     0
100
AcDbLine
 10
5563.405057
 20
4534.076100999999
 30
0.0
 11
5483.405057
 21
4534.076100999999
 31
0.0
  0
LINE
  5
851E
330
83FA
100
AcDbEntity
  8
0
  6
ByBlock
 62
     0
100
AcDbLine
 10
5674.405057
 20
4459.076100999999
 30
0.0
 11
5483.405057
 21
4459.076100999999
 31
0.0
  0
LINE
  5
851F
330
83FA
100
AcDbEntity
  8
0
  6
ByBlock
 62
     0
100
AcDbLine
 10
5493.405057
 20
4514.076100999999
 30
0.0
 11
5493.405057
 21
4479.076100999999
 31
0.0
  0
INSERT
  5
8520
330
83FA
100
AcDbEntity
  8
0
  6
ByBlock
 62
     0
100
AcDbBlockReference
  2
_OPEN
 10
5493.405057
 20
4534.076100999999
 30
0.0
 41
20.0
 42
20.0
 43
20.0
 50
90.0
  0
INSERT
  5
8521
330
83FA
100
AcDbEntity
  8
0
  6
ByBlock
 62
     0
100
AcDbBlockReference
  2
_OPEN
 10
5493.405057
 20
4459.076100999999
 30
0.0
 41
20.0
 42
20.0
 43
20.0
 50
270.0
  0
MTEXT
  5
8522
330
83FA
100
AcDbEntity
  8
0
  6
ByBlock
 62
     0
100
AcDbMText
 10
5470.905057
 20
4496.576100999999
 30
0.0
 40
25.0
 41
0.0
 71
     5
 72
     1
  1
\A1;75
 11
0.0
 21
1.0
 31
0.0
 73
     1
 44
1.0
1001
ACAD
1000
MTEXTBEGIN
1070
    73
1070
     1
1070
    44
1040
1.0
1070
    74
1070
     0
1000
MTEXTEND
  0
POINT
  5
8523
330
83FA
100
AcDbEntity
  8
DEFPOINTS
  6
ByBlock
 62
     0
100
AcDbPoint
 10
5593.405057
 20
4534.076100999999
 30
0.0
  0
POINT
  5
8524
330
83FA
100
AcDbEntity
  8
DEFPOINTS
  6
ByBlock
 62
     0
100
AcDbPoint
 10
5704.405057
 20
4459.076100999999
 30
0.0
  0
POINT
  5
8525
330
83FA
100
AcDbEntity
  8
DEFPOINTS
  6
ByBlock
 62
     0
100
AcDbPoint
 10
5493.405057
 20
4459.076100999999
 30
0.0
  0
ENDBLK
  5
8526
330
83FA
100
AcDbEntity
  8
0
100
AcDbBlockEnd
  0
BLOCK
  5
8510
330
8406
100
AcDbEntity
  8
0
100
AcDbBlockBegin
  2
*D51
 70
     1
 10
0.0
 20
0.0
 30
0.0
  3
*D51
  1

  0
LINE
  5
8511
330
8406
100
AcDbEntity
  8
0
  6
ByBlock
 62
     0
100
AcDbLine
 10
5568.405057
 20
4409.076100999999
 30
0.0
 11
5483.405057
 21
4409.076100999999
 31
0.0
  0
LINE
  5
8512
330
8406
100
AcDbEntity
  8
0
  6
ByBlock
 62
     0
100
AcDbLine
 10
5493.405057
 20
4479.076100999999
 30
0.0
 11
5493.405057
 21
4499.076100999999
 31
0.0
  0
LINE
  5
8513
330
8406
100
AcDbEntity
  8
0
  6
ByBlock
 62
     0
100
AcDbLine
 10
5493.405057
 20
4389.076100999999
 30
0.0
 11
5493.405057
 21
4369.076101
 31
0.0
  0
LINE
  5
8514
330
8406
100
AcDbEntity
  8
0
  6
ByBlock
 62
     0
100
AcDbLine
 10
5493.405057
 20
4459.076100999999
 30
0.0
 11
5493.405057
 21
4409.076100999999
 31
0.0
  0
INSERT
  5
8515
330
8406
100
AcDbEntity
  8
0
  6
ByBlock
 62
     0
100
AcDbBlockReference
  2
_OPEN
 10
5493.405057
 20
4459.076100999999
 30
0.0
 41
20.0
 42
20.0
 43
20.0
 50
270.0
  0
INSERT
  5
8516
330
8406
100
AcDbEntity
  8
0
  6
ByBlock
 62
     0
100
AcDbBlockReference
  2
_OPEN
 10
5493.405057
 20
4409.076100999999
 30
0.0
 41
20.0
 42
20.0
 43
20.0
 50
90.0
  0
MTEXT
  5
8517
330
8406
100
AcDbEntity
  8
0
  6
ByBlock
 62
     0
100
AcDbMText
 10
5470.905057
 20
4434.076100999999
 30
0.0
 40
25.0
 41
0.0
 71
     5
 72
     1
  1
\A1;50
 11
0.0
 21
1.0
 31
0.0
 73
     1
 44
1.0
1001
ACAD
1000
MTEXTBEGIN
1070
    73
1070
     1
1070
    44
1040
1.0
1070
    74
1070
     0
1000
MTEXTEND
  0
POINT
  5
8518
330
8406
100
AcDbEntity
  8
DEFPOINTS
  6
ByBlock
 62
     0
100
AcDbPoint
 10
5704.405057
 20
4459.076100999999
 30
0.0
  0
POINT
  5
8519
330
8406
100
AcDbEntity
  8
DEFPOINTS
  6
ByBlock
 62
     0
100
AcDbPoint
 10
5598.405057
 20
4409.076100999999
 30
0.0
  0
POINT
  5
851A
330
8406
100
AcDbEntity
  8
DEFPOINTS
  6
ByBlock
 62
     0
100
AcDbPoint
 10
5493.405057
 20
4409.076100999999
 30
0.0
  0
ENDBLK
  5
851B
330
8406
100
AcDbEntity
  8
0
100
AcDbBlockEnd
  0
BLOCK
  5
8501
330
8413
100
AcDbEntity
  8
0
100
AcDbBlockBegin
  2
*D52
 70
     1
 10
0.0
 20
0.0
 30
0.0
  3
*D52
  1

  0
LINE
  5
8502
330
8413
100
AcDbEntity
  8
0
  6
ByBlock
 62
     0
100
AcDbLine
 10
6210.405057
 20
4379.076100999999
 30
0.0
 11
6210.405057
 21
4299.076100999999
 31
0.0
  0
LINE
  5
8503
330
8413
100
AcDbEntity
  8
0
  6
ByBlock
 62
     0
100
AcDbLine
 10
6154.405057
 20
4379.076100999999
 30
0.0
 11
6154.405057
 21
4299.076100999999
 31
0.0
  0
LINE
  5
8504
330
8413
100
AcDbEntity
  8
0
  6
ByBlock
 62
     0
100
AcDbLine
 10
6210.405057
 20
4309.076100999999
 30
0.0
 11
6230.405057
 21
4309.076100999999
 31
0.0
  0
LINE
  5
8505
330
8413
100
AcDbEntity
  8
0
  6
ByBlock
 62
     0
100
AcDbLine
 10
6134.405057
 20
4309.076100999999
 30
0.0
 11
6114.405056999999
 21
4309.076100999999
 31
0.0
  0
MTEXT
  5
8506
330
8413
100
AcDbEntity
  8
0
  6
ByBlock
 62
     0
100
AcDbMText
 10
6184.905057
 20
4331.210989
 30
0.0
 40
25.0
 41
0.0
 71
     5
 72
     1
  1
\A1;56
 73
     1
 44
1.0
1001
ACAD
1000
MTEXTBEGIN
1070
    73
1070
     1
1070
    44
1040
1.0
1070
    74
1070
     0
1000
MTEXTEND
  0
LINE
  5
8507
330
8413
100
AcDbEntity
  8
0
  6
ByBlock
 62
     0
100
AcDbLine
 10
6210.405057
 20
4309.076100999999
 30
0.0
 11
6154.405057
 21
4309.076100999999
 31
0.0
  0
LINE
  5
8508
330
8413
100
AcDbEntity
  8
0
  6
ByBlock
 62
     0
100
AcDbLine
 10
6210.405057
 20
4309.076100999999
 30
0.0
 11
6154.405057
 21
4309.076100999999
 31
0.0
  0
INSERT
  5
8509
330
8413
100
AcDbEntity
  8
0
  6
ByBlock
 62
     0
100
AcDbBlockReference
  2
_DOTSMALL
 10
6210.405057
 20
4309.076100999999
 30
0.0
 41
20.0
 42
20.0
 43
20.0
 50
180.0
  0
INSERT
  5
850A
330
8413
100
AcDbEntity
  8
0
  6
ByBlock
 62
     0
100
AcDbBlockReference
  2
_OPEN
 10
6154.405057
 20
4309.076100999999
 30
0.0
 41
20.0
 42
20.0
 43
20.0
  0
POINT
  5
850B
330
8413
100
AcDbEntity
  8
DEFPOINTS
  6
ByBlock
 62
     0
100
AcDbPoint
 10
6210.405057
 20
4409.076100999999
 30
0.0
  0
POINT
  5
850C
330
8413
100
AcDbEntity
  8
DEFPOINTS
  6
ByBlock
 62
     0
100
AcDbPoint
 10
6154.405057
 20
4409.076100999999
 30
0.0
  0
POINT
  5
850D
330
8413
100
AcDbEntity
  8
DEFPOINTS
  6
ByBlock
 62
     0
100
AcDbPoint
 10
6154.405057
 20
4309.076100999999
 30
0.0
  0
ENDBLK
  5
850E
330
8413
100
AcDbEntity
  8
0
100
AcDbBlockEnd
  0
BLOCK
  5
84E6
330
8422
100
AcDbEntity
  8
0
100
AcDbBlockBegin
  2
*D53
 70
     1
 10
0.0
 20
0.0
 30
0.0
  3
*D53
  1

  0
LINE
  5
84E7
330
8422
100
AcDbEntity
  8
0
  6
ByBlock
 62
     0
100
AcDbLine
 10
6215.405057
 20
4504.076100999999
 30
0.0
 11
6215.405057
 21
4299.076100999999
 31
0.0
  0
LINE
  5
84E8
330
8422
100
AcDbEntity
  8
0
  6
ByBlock
 62
     0
100
AcDbLine
 10
6210.405057
 20
4379.076100999999
 30
0.0
 11
6210.405057
 21
4299.076100999999
 31
0.0
  0
LINE
  5
84E9
330
8422
100
AcDbEntity
  8
0
  6
ByBlock
 62
     0
100
AcDbLine
 10
6235.405057
 20
4309.076100999999
 30
0.0
 11
6255.405057
 21
4309.076100999999
 31
0.0
  0
LINE
  5
84EA
330
8422
100
AcDbEntity
  8
0
  6
ByBlock
 62
     0
100
AcDbLine
 10
6210.405057
 20
4309.076100999999
 30
0.0
 11
6190.405057
 21
4309.076100999999
 31
0.0
  0
MTEXT
  5
84EB
330
8422
100
AcDbEntity
  8
0
  6
ByBlock
 62
     0
100
AcDbMText
 10
6232.23721
 20
4331.576100999999
 30
0.0
 40
25.0
 41
0.0
 71
     5
 72
     1
  1
\A1;5
 73
     1
 44
1.0
1001
ACAD
1000
MTEXTBEGIN
1070
    73
1070
     1
1070
    44
1040
1.0
1070
    74
1070
     0
1000
MTEXTEND
  0
LINE
  5
84EC
330
8422
100
AcDbEntity
  8
0
  6
ByBlock
 62
     0
100
AcDbLine
 10
6215.405057
 20
4309.076100999999
 30
0.0
 11
6210.405057
 21
4309.076100999999
 31
0.0
  0
LINE
  5
84ED
330
8422
100
AcDbEntity
  8
0
  6
ByBlock
 62
     0
100
AcDbLine
 10
6215.405057
 20
4309.076100999999
 30
0.0
 11
6210.405057
 21
4309.076100999999
 31
0.0
  0
INSERT
  5
84EE
330
8422
100
AcDbEntity
  8
0
  6
ByBlock
 62
     0
100
AcDbBlockReference
  2
_OPEN
 10
6215.405057
 20
4309.076100999999
 30
0.0
 41
20.0
 42
20.0
 43
20.0
 50
180.0
  0
POINT
  5
84EF
330
8422
100
AcDbEntity
  8
DEFPOINTS
  6
ByBlock
 62
     0
100
AcDbPoint
 10
6215.405057
 20
4534.076100999999
 30
0.0
  0
POINT
  5
84F0
330
8422
100
AcDbEntity
  8
DEFPOINTS
  6
ByBlock
 62
     0
100
AcDbPoint
 10
6210.405057
 20
4409.076100999999
 30
0.0
  0
POINT
  5
84F1
330
8422
100
AcDbEntity
  8
DEFPOINTS
  6
ByBlock
 62
     0
100
AcDbPoint
 10
6210.405057
 20
4309.076100999999
 30
0.0
  0
ENDBLK
  5
84F2
330
8422
100
AcDbEntity
  8
0
100
AcDbBlockEnd
  0
BLOCK
  5
8EE6
330
8EE5
100
AcDbEntity
  8
0
100
AcDbBlockBegin
  2
*D54
 70
     1
 10
0.0
 20
0.0
 30
0.0
  3
*D54
  1

  0
LINE
  5
8EE7
330
8EE5
100
AcDbEntity
  8
0
  6
ByBlock
 62
     0
100
AcDbLine
 10
2563.405057
 20
4034.076100999999
 30
0.0
 11
2483.405057
 21
4034.076100999999
 31
0.0
  0
LINE
  5
8EE8
330
8EE5
100
AcDbEntity
  8
0
  6
ByBlock
 62
     0
100
AcDbLine
 10
2563.405057
 20
3534.076101
 30
0.0
 11
2483.405057
 21
3534.076101
 31
0.0
  0
LINE
  5
8EE9
330
8EE5
100
AcDbEntity
  8
0
  6
ByBlock
 62
     0
100
AcDbLine
 10
2493.405057
 20
4014.076100999999
 30
0.0
 11
2493.405057
 21
3554.076101
 31
0.0
  0
INSERT
  5
8EEA
330
8EE5
100
AcDbEntity
  8
0
  6
ByBlock
 62
     0
100
AcDbBlockReference
  2
_OPEN
 10
2493.405057
 20
4034.076100999999
 30
0.0
 41
20.0
 42
20.0
 43
20.0
 50
90.0
  0
INSERT
  5
8EEB
330
8EE5
100
AcDbEntity
  8
0
  6
ByBlock
 62
     0
100
AcDbBlockReference
  2
_OPEN
 10
2493.405057
 20
3534.076101
 30
0.0
 41
20.0
 42
20.0
 43
20.0
 50
270.0
  0
MTEXT
  5
8EEC
330
8EE5
100
AcDbEntity
  8
0
  6
ByBlock
 62
     0
100
AcDbMText
 10
2470.905057
 20
3784.076101
 30
0.0
 40
25.0
 41
0.0
 71
     5
 72
     1
  1
\A1;500
 11
0.0
 21
1.0
 31
0.0
 73
     1
 44
1.0
1001
ACAD
1000
MTEXTBEGIN
1070
    73
1070
     1
1070
    44
1040
1.0
1070
    74
1070
     0
1000
MTEXTEND
  0
POINT
  5
8EED
330
8EE5
100
AcDbEntity
  8
DEFPOINTS
  6
ByBlock
 62
     0
100
AcDbPoint
 10
2593.405057
 20
4034.076100999999
 30
0.0
  0
POINT
  5
8EEE
330
8EE5
100
AcDbEntity
  8
DEFPOINTS
  6
ByBlock
 62
     0
100
AcDbPoint
 10
2593.405057
 20
3534.076101
 30
0.0
  0
POINT
  5
8EEF
330
8EE5
100
AcDbEntity
  8
DEFPOINTS
  6
ByBlock
 62
     0
100
AcDbPoint
 10
2493.405057
 20
3534.076101
 30
0.0
  0
ENDBLK
  5
8EF0
330
8EE5
100
AcDbEntity
  8
0
100
AcDbBlockEnd
  0
BLOCK
  5
8F01
330
8F00
100
AcDbEntity
  8
0
100
AcDbBlockBegin
  2
*D55
 70
     1
 10
0.0
 20
0.0
 30
0.0
  3
*D55
  1

  0
LINE
  5
8F02
330
8F00
100
AcDbEntity
  8
0
  6
ByBlock
 62
     0
100
AcDbLine
 10
2706.905057
 20
4044.076100999999
 30
0.0
 11
2706.905057
 21
4144.076100999999
 31
0.0
  0
LINE
  5
8F03
330
8F00
100
AcDbEntity
  8
0
  6
ByBlock
 62
     0
100
AcDbLine
 10
2841.905057
 20
4044.076100999999
 30
0.0
 11
2841.905057
 21
4144.076100999999
 31
0.0
  0
LINE
  5
8F04
330
8F00
100
AcDbEntity
  8
0
  6
ByBlock
 62
     0
100
AcDbLine
 10
2726.905057
 20
4134.076100999999
 30
0.0
 11
2821.905057
 21
4134.076100999999
 31
0.0
  0
INSERT
  5
8F05
330
8F00
100
AcDbEntity
  8
0
  6
ByBlock
 62
     0
100
AcDbBlockReference
  2
_OPEN
 10
2706.905057
 20
4134.076100999999
 30
0.0
 41
20.0
 42
20.0
 43
20.0
 50
180.0
  0
INSERT
  5
8F06
330
8F00
100
AcDbEntity
  8
0
  6
ByBlock
 62
     0
100
AcDbBlockReference
  2
_OPEN
 10
2841.905057
 20
4134.076100999999
 30
0.0
 41
20.0
 42
20.0
 43
20.0
  0
MTEXT
  5
8F07
330
8F00
100
AcDbEntity
  8
0
  6
ByBlock
 62
     0
100
AcDbMText
 10
2774.405057
 20
4156.576100999999
 30
0.0
 40
25.0
 41
0.0
 71
     5
 72
     1
  1
\A1;135
 73
     1
 44
1.0
1001
ACAD
1000
MTEXTBEGIN
1070
    73
1070
     1
1070
    44
1040
1.0
1070
    74
1070
     0
1000
MTEXTEND
  0
POINT
  5
8F08
330
8F00
100
AcDbEntity
  8
DEFPOINTS
  6
ByBlock
 62
     0
100
AcDbPoint
 10
2706.905057
 20
4014.076100999999
 30
0.0
  0
POINT
  5
8F09
330
8F00
100
AcDbEntity
  8
DEFPOINTS
  6
ByBlock
 62
     0
100
AcDbPoint
 10
2841.905057
 20
4014.076100999999
 30
0.0
  0
POINT
  5
8F0A
330
8F00
100
AcDbEntity
  8
DEFPOINTS
  6
ByBlock
 62
     0
100
AcDbPoint
 10
2841.905057
 20
4134.076100999999
 30
0.0
  0
ENDBLK
  5
8F0B
330
8F00
100
AcDbEntity
  8
0
100
AcDbBlockEnd
  0
BLOCK
  5
8F0D
330
8F0C
100
AcDbEntity
  8
0
100
AcDbBlockBegin
  2
*D56
 70
     1
 10
0.0
 20
0.0
 30
0.0
  3
*D56
  1

  0
LINE
  5
8F0E
330
8F0C
100
AcDbEntity
  8
0
  6
ByBlock
 62
     0
100
AcDbLine
 10
2593.405057
 20
4564.076101
 30
0.0
 11
2593.405057
 21
4644.076100999999
 31
0.0
  0
LINE
  5
8F0F
330
8F0C
100
AcDbEntity
  8
0
  6
ByBlock
 62
     0
100
AcDbLine
 10
2955.405057
 20
4564.076101
 30
0.0
 11
2955.405057
 21
4644.076100999999
 31
0.0
  0
LINE
  5
8F10
330
8F0C
100
AcDbEntity
  8
0
  6
ByBlock
 62
     0
100
AcDbLine
 10
2613.405057
 20
4634.076100999999
 30
0.0
 11
2935.405057
 21
4634.076100999999
 31
0.0
  0
INSERT
  5
8F11
330
8F0C
100
AcDbEntity
  8
0
  6
ByBlock
 62
     0
100
AcDbBlockReference
  2
_OPEN
 10
2593.405057
 20
4634.076100999999
 30
0.0
 41
20.0
 42
20.0
 43
20.0
 50
180.0
  0
INSERT
  5
8F12
330
8F0C
100
AcDbEntity
  8
0
  6
ByBlock
 62
     0
100
AcDbBlockReference
  2
_OPEN
 10
2955.405057
 20
4634.076100999999
 30
0.0
 41
20.0
 42
20.0
 43
20.0
  0
MTEXT
  5
8F13
330
8F0C
100
AcDbEntity
  8
0
  6
ByBlock
 62
     0
100
AcDbMText
 10
2774.405057
 20
4656.576100999999
 30
0.0
 40
25.0
 41
0.0
 71
     5
 72
     1
  1
\A1;362
 73
     1
 44
1.0
1001
ACAD
1000
MTEXTBEGIN
1070
    73
1070
     1
1070
    44
1040
1.0
1070
    74
1070
     0
1000
MTEXTEND
  0
POINT
  5
8F14
330
8F0C
100
AcDbEntity
  8
DEFPOINTS
  6
ByBlock
 62
     0
100
AcDbPoint
 10
2593.405057
 20
4534.076100999999
 30
0.0
  0
POINT
  5
8F15
330
8F0C
100
AcDbEntity
  8
DEFPOINTS
  6
ByBlock
 62
     0
100
AcDbPoint
 10
2955.405057
 20
4534.076100999999
 30
0.0
  0
POINT
  5
8F16
330
8F0C
100
AcDbEntity
  8
DEFPOINTS
  6
ByBlock
 62
     0
100
AcDbPoint
 10
2955.405057
 20
4634.076100999999
 30
0.0
  0
ENDBLK
  5
8F17
330
8F0C
100
AcDbEntity
  8
0
100
AcDbBlockEnd
  0
BLOCK
  5
928D
330
8F18
100
AcDbEntity
  8
0
100
AcDbBlockBegin
  2
*D57
 70
     1
 10
0.0
 20
0.0
 30
0.0
  3
*D57
  1

  0
LINE
  5
928E
330
8F18
100
AcDbEntity
  8
0
  6
ByBlock
 62
     0
100
AcDbLine
 10
2563.405057
 20
2034.076101
 30
0.0
 11
2483.405057
 21
2034.076101
 31
0.0
  0
LINE
  5
928F
330
8F18
100
AcDbEntity
  8
0
  6
ByBlock
 62
     0
100
AcDbLine
 10
2568.405057
 20
1944.076101
 30
0.0
 11
2483.405057
 21
1944.076101
 31
0.0
  0
LINE
  5
9290
330
8F18
100
AcDbEntity
  8
0
  6
ByBlock
 62
     0
100
AcDbLine
 10
2493.405057
 20
2014.076101
 30
0.0
 11
2493.405057
 21
1964.076101
 31
0.0
  0
INSERT
  5
9291
330
8F18
100
AcDbEntity
  8
0
  6
ByBlock
 62
     0
100
AcDbBlockReference
  2
_OPEN
 10
2493.405057
 20
2034.076101
 30
0.0
 41
20.0
 42
20.0
 43
20.0
 50
90.0
  0
INSERT
  5
9292
330
8F18
100
AcDbEntity
  8
0
  6
ByBlock
 62
     0
100
AcDbBlockReference
  2
_OPEN
 10
2493.405057
 20
1944.076101
 30
0.0
 41
20.0
 42
20.0
 43
20.0
 50
270.0
  0
MTEXT
  5
9293
330
8F18
100
AcDbEntity
  8
0
  6
ByBlock
 62
     0
100
AcDbMText
 10
2470.905057
 20
1989.076101
 30
0.0
 40
25.0
 41
0.0
 71
     5
 72
     1
  1
\A1;90
 11
0.0
 21
1.0
 31
0.0
 73
     1
 44
1.0
1001
ACAD
1000
MTEXTBEGIN
1070
    73
1070
     1
1070
    44
1040
1.0
1070
    74
1070
     0
1000
MTEXTEND
  0
POINT
  5
9294
330
8F18
100
AcDbEntity
  8
DEFPOINTS
  6
ByBlock
 62
     0
100
AcDbPoint
 10
2593.405057
 20
2034.076101
 30
0.0
  0
POINT
  5
9295
330
8F18
100
AcDbEntity
  8
DEFPOINTS
  6
ByBlock
 62
     0
100
AcDbPoint
 10
2598.405057
 20
1944.076101
 30
0.0
  0
POINT
  5
9296
330
8F18
100
AcDbEntity
  8
DEFPOINTS
  6
ByBlock
 62
     0
100
AcDbPoint
 10
2493.405057
 20
1944.076101
 30
0.0
  0
ENDBLK
  5
9297
330
8F18
100
AcDbEntity
  8
0
100
AcDbBlockEnd
  0
BLOCK
  5
8F32
330
8F31
100
AcDbEntity
  8
0
100
AcDbBlockBegin
  2
*D58
 70
     1
 10
0.0
 20
0.0
 30
0.0
  3
*D58
  1

  0
LINE
  5
8F33
330
8F31
100
AcDbEntity
  8
0
  6
ByBlock
 62
     0
100
AcDbLine
 10
2593.405057
 20
4504.076100999999
 30
0.0
 11
2593.405057
 21
4334.076100999999
 31
0.0
  0
LINE
  5
8F34
330
8F31
100
AcDbEntity
  8
0
  6
ByBlock
 62
     0
100
AcDbLine
 10
2598.405057
 20
4414.076101
 30
0.0
 11
2598.405057
 21
4334.076100999999
 31
0.0
  0
LINE
  5
8F35
330
8F31
100
AcDbEntity
  8
0
  6
ByBlock
 62
     0
100
AcDbLine
 10
2573.405057
 20
4344.076100999999
 30
0.0
 11
2553.405057
 21
4344.076100999999
 31
0.0
  0
LINE
  5
8F36
330
8F31
100
AcDbEntity
  8
0
  6
ByBlock
 62
     0
100
AcDbLine
 10
2598.405057
 20
4344.076100999999
 30
0.0
 11
2618.405057
 21
4344.076100999999
 31
0.0
  0
MTEXT
  5
8F37
330
8F31
100
AcDbEntity
  8
0
  6
ByBlock
 62
     0
100
AcDbMText
 10
2576.572904
 20
4366.576100999999
 30
0.0
 40
25.0
 41
0.0
 71
     5
 72
     1
  1
\A1;5
 73
     1
 44
1.0
1001
ACAD
1000
MTEXTBEGIN
1070
    73
1070
     1
1070
    44
1040
1.0
1070
    74
1070
     0
1000
MTEXTEND
  0
LINE
  5
8F38
330
8F31
100
AcDbEntity
  8
0
  6
ByBlock
 62
     0
100
AcDbLine
 10
2593.405057
 20
4344.076100999999
 30
0.0
 11
2598.405057
 21
4344.076100999999
 31
0.0
  0
LINE
  5
8F39
330
8F31
100
AcDbEntity
  8
0
  6
ByBlock
 62
     0
100
AcDbLine
 10
2593.405057
 20
4344.076100999999
 30
0.0
 11
2598.405057
 21
4344.076100999999
 31
0.0
  0
INSERT
  5
8F3A
330
8F31
100
AcDbEntity
  8
0
  6
ByBlock
 62
     0
100
AcDbBlockReference
  2
_OPEN
 10
2593.405057
 20
4344.076100999999
 30
0.0
 41
20.0
 42
20.0
 43
20.0
  0
POINT
  5
8F3B
330
8F31
100
AcDbEntity
  8
DEFPOINTS
  6
ByBlock
 62
     0
100
AcDbPoint
 10
2593.405057
 20
4534.076100999999
 30
0.0
  0
POINT
  5
8F3C
330
8F31
100
AcDbEntity
  8
DEFPOINTS
  6
ByBlock
 62
     0
100
AcDbPoint
 10
2598.405057
 20
4444.076100999999
 30
0.0
  0
POINT
  5
8F3D
330
8F31
100
AcDbEntity
  8
DEFPOINTS
  6
ByBlock
 62
     0
100
AcDbPoint
 10
2598.405057
 20
4344.076100999999
 30
0.0
  0
ENDBLK
  5
8F3E
330
8F31
100
AcDbEntity
  8
0
100
AcDbBlockEnd
  0
BLOCK
  5
8F4E
330
8F4D
100
AcDbEntity
  8
0
100
AcDbBlockBegin
  2
*D59
 70
     1
 10
0.0
 20
0.0
 30
0.0
  3
*D59
  1

  0
LINE
  5
8F4F
330
8F4D
100
AcDbEntity
  8
0
  6
ByBlock
 62
     0
100
AcDbLine
 10
2955.405057
 20
4504.076100999999
 30
0.0
 11
2955.405057
 21
4334.076100999999
 31
0.0
  0
LINE
  5
8F50
330
8F4D
100
AcDbEntity
  8
0
  6
ByBlock
 62
     0
100
AcDbLine
 10
2950.405057
 20
4414.076101
 30
0.0
 11
2950.405057
 21
4334.076100999999
 31
0.0
  0
LINE
  5
8F51
330
8F4D
100
AcDbEntity
  8
0
  6
ByBlock
 62
     0
100
AcDbLine
 10
2975.405057
 20
4344.076100999999
 30
0.0
 11
2995.405057
 21
4344.076100999999
 31
0.0
  0
LINE
  5
8F52
330
8F4D
100
AcDbEntity
  8
0
  6
ByBlock
 62
     0
100
AcDbLine
 10
2950.405057
 20
4344.076100999999
 30
0.0
 11
2930.405057
 21
4344.076100999999
 31
0.0
  0
MTEXT
  5
8F53
330
8F4D
100
AcDbEntity
  8
0
  6
ByBlock
 62
     0
100
AcDbMText
 10
2972.23721
 20
4366.576100999999
 30
0.0
 40
25.0
 41
0.0
 71
     5
 72
     1
  1
\A1;5
 73
     1
 44
1.0
1001
ACAD
1000
MTEXTBEGIN
1070
    73
1070
     1
1070
    44
1040
1.0
1070
    74
1070
     0
1000
MTEXTEND
  0
LINE
  5
8F54
330
8F4D
100
AcDbEntity
  8
0
  6
ByBlock
 62
     0
100
AcDbLine
 10
2955.405057
 20
4344.076100999999
 30
0.0
 11
2950.405057
 21
4344.076100999999
 31
0.0
  0
LINE
  5
8F55
330
8F4D
100
AcDbEntity
  8
0
  6
ByBlock
 62
     0
100
AcDbLine
 10
2955.405057
 20
4344.076100999999
 30
0.0
 11
2950.405057
 21
4344.076100999999
 31
0.0
  0
INSERT
  5
8F56
330
8F4D
100
AcDbEntity
  8
0
  6
ByBlock
 62
     0
100
AcDbBlockReference
  2
_OPEN
 10
2955.405057
 20
4344.076100999999
 30
0.0
 41
20.0
 42
20.0
 43
20.0
 50
180.0
  0
POINT
  5
8F57
330
8F4D
100
AcDbEntity
  8
DEFPOINTS
  6
ByBlock
 62
     0
100
AcDbPoint
 10
2955.405057
 20
4534.076100999999
 30
0.0
  0
POINT
  5
8F58
330
8F4D
100
AcDbEntity
  8
DEFPOINTS
  6
ByBlock
 62
     0
100
AcDbPoint
 10
2950.405057
 20
4444.076100999999
 30
0.0
  0
POINT
  5
8F59
330
8F4D
100
AcDbEntity
  8
DEFPOINTS
  6
ByBlock
 62
     0
100
AcDbPoint
 10
2950.405057
 20
4344.076100999999
 30
0.0
  0
ENDBLK
  5
8F5A
330
8F4D
100
AcDbEntity
  8
0
100
AcDbBlockEnd
  0
BLOCK
  5
8F6A
330
8F69
100
AcDbEntity
  8
0
100
AcDbBlockBegin
  2
*D60
 70
     1
 10
0.0
 20
0.0
 30
0.0
  3
*D60
  1

  0
LINE
  5
8F6B
330
8F69
100
AcDbEntity
  8
0
  6
ByBlock
 62
     0
100
AcDbLine
 10
2841.905057
 20
4044.076100999999
 30
0.0
 11
2841.905057
 21
4144.076100999999
 31
0.0
  0
LINE
  5
8F6C
330
8F69
100
AcDbEntity
  8
0
  6
ByBlock
 62
     0
100
AcDbLine
 10
2851.905057
 20
4064.076101
 30
0.0
 11
2851.905057
 21
4144.076100999999
 31
0.0
  0
LINE
  5
8F6D
330
8F69
100
AcDbEntity
  8
0
  6
ByBlock
 62
     0
100
AcDbLine
 10
2821.905057
 20
4134.076100999999
 30
0.0
 11
2801.905057
 21
4134.076100999999
 31
0.0
  0
LINE
  5
8F6E
330
8F69
100
AcDbEntity
  8
0
  6
ByBlock
 62
     0
100
AcDbLine
 10
2871.905057
 20
4134.076100999999
 30
0.0
 11
2891.905057
 21
4134.076100999999
 31
0.0
  0
MTEXT
  5
8F6F
330
8F69
100
AcDbEntity
  8
0
  6
ByBlock
 62
     0
100
AcDbMText
 10
2870.294703
 20
4156.576100999999
 30
0.0
 40
25.0
 41
0.0
 71
     5
 72
     1
  1
\A1;10
 73
     1
 44
1.0
1001
ACAD
1000
MTEXTBEGIN
1070
    73
1070
     1
1070
    44
1040
1.0
1070
    74
1070
     0
1000
MTEXTEND
  0
LINE
  5
8F70
330
8F69
100
AcDbEntity
  8
0
  6
ByBlock
 62
     0
100
AcDbLine
 10
2841.905057
 20
4134.076100999999
 30
0.0
 11
2851.905057
 21
4134.076100999999
 31
0.0
  0
LINE
  5
8F71
330
8F69
100
AcDbEntity
  8
0
  6
ByBlock
 62
     0
100
AcDbLine
 10
2841.905057
 20
4134.076100999999
 30
0.0
 11
2851.905057
 21
4134.076100999999
 31
0.0
  0
INSERT
  5
8F72
330
8F69
100
AcDbEntity
  8
0
  6
ByBlock
 62
     0
100
AcDbBlockReference
  2
_OPEN
 10
2841.905057
 20
4134.076100999999
 30
0.0
 41
20.0
 42
20.0
 43
20.0
  0
INSERT
  5
8F73
330
8F69
100
AcDbEntity
  8
0
  6
ByBlock
 62
     0
100
AcDbBlockReference
  2
_OPEN
 10
2851.905057
 20
4134.076100999999
 30
0.0
 41
20.0
 42
20.0
 43
20.0
 50
180.0
  0
POINT
  5
8F74
330
8F69
100
AcDbEntity
  8
DEFPOINTS
  6
ByBlock
 62
     0
100
AcDbPoint
 10
2841.905057
 20
4014.076100999999
 30
0.0
  0
POINT
  5
8F75
330
8F69
100
AcDbEntity
  8
DEFPOINTS
  6
ByBlock
 62
     0
100
AcDbPoint
 10
2851.905057
 20
4034.076100999999
 30
0.0
  0
POINT
  5
8F76
330
8F69
100
AcDbEntity
  8
DEFPOINTS
  6
ByBlock
 62
     0
100
AcDbPoint
 10
2851.905057
 20
4134.076100999999
 30
0.0
  0
ENDBLK
  5
8F77
330
8F69
100
AcDbEntity
  8
0
100
AcDbBlockEnd
  0
BLOCK
  5
8F79
330
8F78
100
AcDbEntity
  8
0
100
AcDbBlockBegin
  2
*D61
 70
     1
 10
0.0
 20
0.0
 30
0.0
  3
*D61
  1

  0
LINE
  5
8F7A
330
8F78
100
AcDbEntity
  8
0
  6
ByBlock
 62
     0
100
AcDbLine
 10
2706.905057
 20
4044.076100999999
 30
0.0
 11
2706.905057
 21
4144.076100999999
 31
0.0
  0
LINE
  5
8F7B
330
8F78
100
AcDbEntity
  8
0
  6
ByBlock
 62
     0
100
AcDbLine
 10
2696.905057
 20
4064.076101
 30
0.0
 11
2696.905057
 21
4144.076100999999
 31
0.0
  0
LINE
  5
8F7C
330
8F78
100
AcDbEntity
  8
0
  6
ByBlock
 62
     0
100
AcDbLine
 10
2726.905057
 20
4134.076100999999
 30
0.0
 11
2746.905057
 21
4134.076100999999
 31
0.0
  0
LINE
  5
8F7D
330
8F78
100
AcDbEntity
  8
0
  6
ByBlock
 62
     0
100
AcDbLine
 10
2676.905057
 20
4134.076100999999
 30
0.0
 11
2656.905057
 21
4134.076100999999
 31
0.0
  0
MTEXT
  5
8F7E
330
8F78
100
AcDbEntity
  8
0
  6
ByBlock
 62
     0
100
AcDbMText
 10
2673.16652
 20
4156.576100999999
 30
0.0
 40
25.0
 41
0.0
 71
     5
 72
     1
  1
\A1;10
 73
     1
 44
1.0
1001
ACAD
1000
MTEXTBEGIN
1070
    73
1070
     1
1070
    44
1040
1.0
1070
    74
1070
     0
1000
MTEXTEND
  0
LINE
  5
8F7F
330
8F78
100
AcDbEntity
  8
0
  6
ByBlock
 62
     0
100
AcDbLine
 10
2706.905057
 20
4134.076100999999
 30
0.0
 11
2696.905057
 21
4134.076100999999
 31
0.0
  0
LINE
  5
8F80
330
8F78
100
AcDbEntity
  8
0
  6
ByBlock
 62
     0
100
AcDbLine
 10
2706.905057
 20
4134.076100999999
 30
0.0
 11
2696.905057
 21
4134.076100999999
 31
0.0
  0
INSERT
  5
8F81
330
8F78
100
AcDbEntity
  8
0
  6
ByBlock
 62
     0
100
AcDbBlockReference
  2
_OPEN
 10
2706.905057
 20
4134.076100999999
 30
0.0
 41
20.0
 42
20.0
 43
20.0
 50
180.0
  0
INSERT
  5
8F82
330
8F78
100
AcDbEntity
  8
0
  6
ByBlock
 62
     0
100
AcDbBlockReference
  2
_OPEN
 10
2696.905057
 20
4134.076100999999
 30
0.0
 41
20.0
 42
20.0
 43
20.0
  0
POINT
  5
8F83
330
8F78
100
AcDbEntity
  8
DEFPOINTS
  6
ByBlock
 62
     0
100
AcDbPoint
 10
2706.905057
 20
4014.076100999999
 30
0.0
  0
POINT
  5
8F84
330
8F78
100
AcDbEntity
  8
DEFPOINTS
  6
ByBlock
 62
     0
100
AcDbPoint
 10
2696.905057
 20
4034.076100999999
 30
0.0
  0
POINT
  5
8F85
330
8F78
100
AcDbEntity
  8
DEFPOINTS
  6
ByBlock
 62
     0
100
AcDbPoint
 10
2696.905057
 20
4134.076100999999
 30
0.0
  0
ENDBLK
  5
8F86
330
8F78
100
AcDbEntity
  8
0
100
AcDbBlockEnd
  0
BLOCK
  5
8F88
330
8F87
100
AcDbEntity
  8
0
100
AcDbBlockBegin
  2
*D62
 70
     1
 10
0.0
 20
0.0
 30
0.0
  3
*D62
  1

  0
LINE
  5
8F89
330
8F87
100
AcDbEntity
  8
0
  6
ByBlock
 62
     0
100
AcDbLine
 10
2811.905057
 20
4014.076100999999
 30
0.0
 11
2764.405057
 21
4014.076100999999
 31
0.0
  0
LINE
  5
8F8A
330
8F87
100
AcDbEntity
  8
0
  6
ByBlock
 62
     0
100
AcDbLine
 10
2821.905057
 20
4034.076100999999
 30
0.0
 11
2764.405057
 21
4034.076100999999
 31
0.0
  0
LINE
  5
8F8B
330
8F87
100
AcDbEntity
  8
0
  6
ByBlock
 62
     0
100
AcDbLine
 10
2774.405057
 20
3994.076101
 30
0.0
 11
2774.405057
 21
3974.076101
 31
0.0
  0
LINE
  5
8F8C
330
8F87
100
AcDbEntity
  8
0
  6
ByBlock
 62
     0
100
AcDbLine
 10
2774.405057
 20
4054.076100999999
 30
0.0
 11
2774.405057
 21
4074.076101
 31
0.0
  0
MTEXT
  5
8F8D
330
8F87
100
AcDbEntity
  8
0
  6
ByBlock
 62
     0
100
AcDbMText
 10
2751.905057
 20
4059.169821
 30
0.0
 40
25.0
 41
0.0
 71
     5
 72
     1
  1
\A1;20
 11
0.0
 21
1.0
 31
0.0
 73
     1
 44
1.0
1001
ACAD
1000
MTEXTBEGIN
1070
    73
1070
     1
1070
    44
1040
1.0
1070
    74
1070
     0
1000
MTEXTEND
  0
LINE
  5
8F8E
330
8F87
100
AcDbEntity
  8
0
  6
ByBlock
 62
     0
100
AcDbLine
 10
2774.405057
 20
4014.076100999999
 30
0.0
 11
2774.405057
 21
4034.076100999999
 31
0.0
  0
LINE
  5
8F8F
330
8F87
100
AcDbEntity
  8
0
  6
ByBlock
 62
     0
100
AcDbLine
 10
2774.405057
 20
4014.076100999999
 30
0.0
 11
2774.405057
 21
4034.076100999999
 31
0.0
  0
INSERT
  5
8F90
330
8F87
100
AcDbEntity
  8
0
  6
ByBlock
 62
     0
100
AcDbBlockReference
  2
_OPEN
 10
2774.405057
 20
4014.076100999999
 30
0.0
 41
20.0
 42
20.0
 43
20.0
 50
90.0
  0
INSERT
  5
8F91
330
8F87
100
AcDbEntity
  8
0
  6
ByBlock
 62
     0
100
AcDbBlockReference
  2
_OPEN
 10
2774.405057
 20
4034.076100999999
 30
0.0
 41
20.0
 42
20.0
 43
20.0
 50
270.0
  0
POINT
  5
8F92
330
8F87
100
AcDbEntity
  8
DEFPOINTS
  6
ByBlock
 62
     0
100
AcDbPoint
 10
2841.905057
 20
4014.076100999999
 30
0.0
  0
POINT
  5
8F93
330
8F87
100
AcDbEntity
  8
DEFPOINTS
  6
ByBlock
 62
     0
100
AcDbPoint
 10
2851.905057
 20
4034.076100999999
 30
0.0
  0
POINT
  5
8F94
330
8F87
100
AcDbEntity
  8
DEFPOINTS
  6
ByBlock
 62
     0
100
AcDbPoint
 10
2774.405057
 20
4034.076100999999
 30
0.0
  0
ENDBLK
  5
8F95
330
8F87
100
AcDbEntity
  8
0
100
AcDbBlockEnd
  0
BLOCK
  5
8FDF
330
8FDE
100
AcDbEntity
  8
0
100
AcDbBlockBegin
  2
*D63
 70
     1
 10
0.0
 20
0.0
 30
0.0
  3
*D63
  1

  0
LINE
  5
8FE0
330
8FDE
100
AcDbEntity
  8
0
  6
ByBlock
 62
     0
100
AcDbLine
 10
3866.905057
 20
4044.076100999999
 30
0.0
 11
3866.905057
 21
4144.076100999999
 31
0.0
  0
LINE
  5
8FE1
330
8FDE
100
AcDbEntity
  8
0
  6
ByBlock
 62
     0
100
AcDbLine
 10
3876.905057
 20
4064.076101
 30
0.0
 11
3876.905057
 21
4144.076100999999
 31
0.0
  0
LINE
  5
8FE2
330
8FDE
100
AcDbEntity
  8
0
  6
ByBlock
 62
     0
100
AcDbLine
 10
3846.905057
 20
4134.076100999999
 30
0.0
 11
3826.905057
 21
4134.076100999999
 31
0.0
  0
LINE
  5
8FE3
330
8FDE
100
AcDbEntity
  8
0
  6
ByBlock
 62
     0
100
AcDbLine
 10
3896.905057
 20
4134.076100999999
 30
0.0
 11
3916.905057000001
 21
4134.076100999999
 31
0.0
  0
MTEXT
  5
8FE4
330
8FDE
100
AcDbEntity
  8
0
  6
ByBlock
 62
     0
100
AcDbMText
 10
3895.294703000001
 20
4156.576100999999
 30
0.0
 40
25.0
 41
0.0
 71
     5
 72
     1
  1
\A1;10
 73
     1
 44
1.0
1001
ACAD
1000
MTEXTBEGIN
1070
    73
1070
     1
1070
    44
1040
1.0
1070
    74
1070
     0
1000
MTEXTEND
  0
LINE
  5
8FE5
330
8FDE
100
AcDbEntity
  8
0
  6
ByBlock
 62
     0
100
AcDbLine
 10
3866.905057
 20
4134.076100999999
 30
0.0
 11
3876.905057
 21
4134.076100999999
 31
0.0
  0
LINE
  5
8FE6
330
8FDE
100
AcDbEntity
  8
0
  6
ByBlock
 62
     0
100
AcDbLine
 10
3866.905057
 20
4134.076100999999
 30
0.0
 11
3876.905057
 21
4134.076100999999
 31
0.0
  0
INSERT
  5
8FE7
330
8FDE
100
AcDbEntity
  8
0
  6
ByBlock
 62
     0
100
AcDbBlockReference
  2
_OPEN
 10
3866.905057
 20
4134.076100999999
 30
0.0
 41
20.0
 42
20.0
 43
20.0
  0
INSERT
  5
8FE8
330
8FDE
100
AcDbEntity
  8
0
  6
ByBlock
 62
     0
100
AcDbBlockReference
  2
_OPEN
 10
3876.905057
 20
4134.076100999999
 30
0.0
 41
20.0
 42
20.0
 43
20.0
 50
180.0
  0
POINT
  5
8FE9
330
8FDE
100
AcDbEntity
  8
DEFPOINTS
  6
ByBlock
 62
     0
100
AcDbPoint
 10
3866.905057
 20
4014.076100999999
 30
0.0
  0
POINT
  5
8FEA
330
8FDE
100
AcDbEntity
  8
DEFPOINTS
  6
ByBlock
 62
     0
100
AcDbPoint
 10
3876.905057
 20
4034.076100999999
 30
0.0
  0
POINT
  5
8FEB
330
8FDE
100
AcDbEntity
  8
DEFPOINTS
  6
ByBlock
 62
     0
100
AcDbPoint
 10
3876.905057
 20
4134.076100999999
 30
0.0
  0
ENDBLK
  5
8FEC
330
8FDE
100
AcDbEntity
  8
0
100
AcDbBlockEnd
  0
BLOCK
  5
8FEE
330
8FED
100
AcDbEntity
  8
0
100
AcDbBlockBegin
  2
*D64
 70
     1
 10
0.0
 20
0.0
 30
0.0
  3
*D64
  1

  0
LINE
  5
8FEF
330
8FED
100
AcDbEntity
  8
0
  6
ByBlock
 62
     0
100
AcDbLine
 10
3593.405057
 20
4564.076101
 30
0.0
 11
3593.405057
 21
4644.076100999999
 31
0.0
  0
LINE
  5
8FF0
330
8FED
100
AcDbEntity
  8
0
  6
ByBlock
 62
     0
100
AcDbLine
 10
4005.405056999999
 20
4564.076101
 30
0.0
 11
4005.405056999999
 21
4644.076100999999
 31
0.0
  0
LINE
  5
8FF1
330
8FED
100
AcDbEntity
  8
0
  6
ByBlock
 62
     0
100
AcDbLine
 10
3613.405057
 20
4634.076100999999
 30
0.0
 11
3985.405057
 21
4634.076100999999
 31
0.0
  0
INSERT
  5
8FF2
330
8FED
100
AcDbEntity
  8
0
  6
ByBlock
 62
     0
100
AcDbBlockReference
  2
_OPEN
 10
3593.405057
 20
4634.076100999999
 30
0.0
 41
20.0
 42
20.0
 43
20.0
 50
180.0
  0
INSERT
  5
8FF3
330
8FED
100
AcDbEntity
  8
0
  6
ByBlock
 62
     0
100
AcDbBlockReference
  2
_OPEN
 10
4005.405056999999
 20
4634.076100999999
 30
0.0
 41
20.0
 42
20.0
 43
20.0
  0
MTEXT
  5
8FF4
330
8FED
100
AcDbEntity
  8
0
  6
ByBlock
 62
     0
100
AcDbMText
 10
3799.405057
 20
4656.576100999999
 30
0.0
 40
25.0
 41
0.0
 71
     5
 72
     1
  1
\A1;412
 73
     1
 44
1.0
1001
ACAD
1000
MTEXTBEGIN
1070
    73
1070
     1
1070
    44
1040
1.0
1070
    74
1070
     0
1000
MTEXTEND
  0
POINT
  5
8FF5
330
8FED
100
AcDbEntity
  8
DEFPOINTS
  6
ByBlock
 62
     0
100
AcDbPoint
 10
3593.405057
 20
4534.076100999999
 30
0.0
  0
POINT
  5
8FF6
330
8FED
100
AcDbEntity
  8
DEFPOINTS
  6
ByBlock
 62
     0
100
AcDbPoint
 10
4005.405056999999
 20
4534.076100999999
 30
0.0
  0
POINT
  5
8FF7
330
8FED
100
AcDbEntity
  8
DEFPOINTS
  6
ByBlock
 62
     0
100
AcDbPoint
 10
4005.405056999999
 20
4634.076100999999
 30
0.0
  0
ENDBLK
  5
8FF8
330
8FED
100
AcDbEntity
  8
0
100
AcDbBlockEnd
  0
BLOCK
  5
8FFA
330
8FF9
100
AcDbEntity
  8
0
100
AcDbBlockBegin
  2
*D65
 70
     1
 10
0.0
 20
0.0
 30
0.0
  3
*D65
  1

  0
LINE
  5
8FFB
330
8FF9
100
AcDbEntity
  8
0
  6
ByBlock
 62
     0
100
AcDbLine
 10
3563.405057
 20
4034.076100999999
 30
0.0
 11
3483.405057000001
 21
4034.076100999999
 31
0.0
  0
LINE
  5
8FFC
330
8FF9
100
AcDbEntity
  8
0
  6
ByBlock
 62
     0
100
AcDbLine
 10
3563.405057
 20
3534.076101
 30
0.0
 11
3483.405057000001
 21
3534.076101
 31
0.0
  0
LINE
  5
8FFD
330
8FF9
100
AcDbEntity
  8
0
  6
ByBlock
 62
     0
100
AcDbLine
 10
3493.405057
 20
4014.076100999999
 30
0.0
 11
3493.405057
 21
3554.076101
 31
0.0
  0
INSERT
  5
8FFE
330
8FF9
100
AcDbEntity
  8
0
  6
ByBlock
 62
     0
100
AcDbBlockReference
  2
_OPEN
 10
3493.405057
 20
4034.076100999999
 30
0.0
 41
20.0
 42
20.0
 43
20.0
 50
90.0
  0
INSERT
  5
8FFF
330
8FF9
100
AcDbEntity
  8
0
  6
ByBlock
 62
     0
100
AcDbBlockReference
  2
_OPEN
 10
3493.405057
 20
3534.076101
 30
0.0
 41
20.0
 42
20.0
 43
20.0
 50
270.0
  0
MTEXT
  5
9000
330
8FF9
100
AcDbEntity
  8
0
  6
ByBlock
 62
     0
100
AcDbMText
 10
3470.905057
 20
3784.076101
 30
0.0
 40
25.0
 41
0.0
 71
     5
 72
     1
  1
\A1;500
 11
0.0
 21
1.0
 31
0.0
 73
     1
 44
1.0
1001
ACAD
1000
MTEXTBEGIN
1070
    73
1070
     1
1070
    44
1040
1.0
1070
    74
1070
     0
1000
MTEXTEND
  0
POINT
  5
9001
330
8FF9
100
AcDbEntity
  8
DEFPOINTS
  6
ByBlock
 62
     0
100
AcDbPoint
 10
3593.405057
 20
4034.076100999999
 30
0.0
  0
POINT
  5
9002
330
8FF9
100
AcDbEntity
  8
DEFPOINTS
  6
ByBlock
 62
     0
100
AcDbPoint
 10
3593.405057
 20
3534.076101
 30
0.0
  0
POINT
  5
9003
330
8FF9
100
AcDbEntity
  8
DEFPOINTS
  6
ByBlock
 62
     0
100
AcDbPoint
 10
3493.405057
 20
3534.076101
 30
0.0
  0
ENDBLK
  5
9004
330
8FF9
100
AcDbEntity
  8
0
100
AcDbBlockEnd
  0
BLOCK
  5
9021
330
9020
100
AcDbEntity
  8
0
100
AcDbBlockBegin
  2
*D66
 70
     1
 10
0.0
 20
0.0
 30
0.0
  3
*D66
  1

  0
LINE
  5
9022
330
9020
100
AcDbEntity
  8
0
  6
ByBlock
 62
     0
100
AcDbLine
 10
3593.405057
 20
4504.076100999999
 30
0.0
 11
3593.405057
 21
4329.076101
 31
0.0
  0
LINE
  5
9023
330
9020
100
AcDbEntity
  8
0
  6
ByBlock
 62
     0
100
AcDbLine
 10
3598.405057
 20
4409.076100999999
 30
0.0
 11
3598.405057
 21
4329.076101
 31
0.0
  0
LINE
  5
9024
330
9020
100
AcDbEntity
  8
0
  6
ByBlock
 62
     0
100
AcDbLine
 10
3573.405057
 20
4339.076100999999
 30
0.0
 11
3553.405057
 21
4339.076100999999
 31
0.0
  0
LINE
  5
9025
330
9020
100
AcDbEntity
  8
0
  6
ByBlock
 62
     0
100
AcDbLine
 10
3598.405057
 20
4339.076100999999
 30
0.0
 11
3618.405057
 21
4339.076100999999
 31
0.0
  0
MTEXT
  5
9026
330
9020
100
AcDbEntity
  8
0
  6
ByBlock
 62
     0
100
AcDbMText
 10
3576.572904000001
 20
4361.576100999999
 30
0.0
 40
25.0
 41
0.0
 71
     5
 72
     1
  1
\A1;5
 73
     1
 44
1.0
1001
ACAD
1000
MTEXTBEGIN
1070
    73
1070
     1
1070
    44
1040
1.0
1070
    74
1070
     0
1000
MTEXTEND
  0
LINE
  5
9027
330
9020
100
AcDbEntity
  8
0
  6
ByBlock
 62
     0
100
AcDbLine
 10
3593.405057
 20
4339.076100999999
 30
0.0
 11
3598.405057
 21
4339.076100999999
 31
0.0
  0
LINE
  5
9028
330
9020
100
AcDbEntity
  8
0
  6
ByBlock
 62
     0
100
AcDbLine
 10
3593.405057
 20
4339.076100999999
 30
0.0
 11
3598.405057
 21
4339.076100999999
 31
0.0
  0
INSERT
  5
9029
330
9020
100
AcDbEntity
  8
0
  6
ByBlock
 62
     0
100
AcDbBlockReference
  2
_OPEN
 10
3593.405057
 20
4339.076100999999
 30
0.0
 41
20.0
 42
20.0
 43
20.0
  0
POINT
  5
902A
330
9020
100
AcDbEntity
  8
DEFPOINTS
  6
ByBlock
 62
     0
100
AcDbPoint
 10
3593.405057
 20
4534.076100999999
 30
0.0
  0
POINT
  5
902B
330
9020
100
AcDbEntity
  8
DEFPOINTS
  6
ByBlock
 62
     0
100
AcDbPoint
 10
3598.405057
 20
4439.076101
 30
0.0
  0
POINT
  5
902C
330
9020
100
AcDbEntity
  8
DEFPOINTS
  6
ByBlock
 62
     0
100
AcDbPoint
 10
3598.405057
 20
4339.076100999999
 30
0.0
  0
ENDBLK
  5
902D
330
9020
100
AcDbEntity
  8
0
100
AcDbBlockEnd
  0
BLOCK
  5
902F
330
902E
100
AcDbEntity
  8
0
100
AcDbBlockBegin
  2
*D67
 70
     1
 10
0.0
 20
0.0
 30
0.0
  3
*D67
  1

  0
LINE
  5
9030
330
902E
100
AcDbEntity
  8
0
  6
ByBlock
 62
     0
100
AcDbLine
 10
3731.905057
 20
4044.076100999999
 30
0.0
 11
3731.905057
 21
4144.076100999999
 31
0.0
  0
LINE
  5
9031
330
902E
100
AcDbEntity
  8
0
  6
ByBlock
 62
     0
100
AcDbLine
 10
3721.905057
 20
4064.076101
 30
0.0
 11
3721.905057
 21
4144.076100999999
 31
0.0
  0
LINE
  5
9032
330
902E
100
AcDbEntity
  8
0
  6
ByBlock
 62
     0
100
AcDbLine
 10
3751.905057
 20
4134.076100999999
 30
0.0
 11
3771.905057
 21
4134.076100999999
 31
0.0
  0
LINE
  5
9033
330
902E
100
AcDbEntity
  8
0
  6
ByBlock
 62
     0
100
AcDbLine
 10
3701.905057
 20
4134.076100999999
 30
0.0
 11
3681.905057
 21
4134.076100999999
 31
0.0
  0
MTEXT
  5
9034
330
902E
100
AcDbEntity
  8
0
  6
ByBlock
 62
     0
100
AcDbMText
 10
3698.16652
 20
4156.576100999999
 30
0.0
 40
25.0
 41
0.0
 71
     5
 72
     1
  1
\A1;10
 73
     1
 44
1.0
1001
ACAD
1000
MTEXTBEGIN
1070
    73
1070
     1
1070
    44
1040
1.0
1070
    74
1070
     0
1000
MTEXTEND
  0
LINE
  5
9035
330
902E
100
AcDbEntity
  8
0
  6
ByBlock
 62
     0
100
AcDbLine
 10
3731.905057
 20
4134.076100999999
 30
0.0
 11
3721.905057
 21
4134.076100999999
 31
0.0
  0
LINE
  5
9036
330
902E
100
AcDbEntity
  8
0
  6
ByBlock
 62
     0
100
AcDbLine
 10
3731.905057
 20
4134.076100999999
 30
0.0
 11
3721.905057
 21
4134.076100999999
 31
0.0
  0
INSERT
  5
9037
330
902E
100
AcDbEntity
  8
0
  6
ByBlock
 62
     0
100
AcDbBlockReference
  2
_OPEN
 10
3731.905057
 20
4134.076100999999
 30
0.0
 41
20.0
 42
20.0
 43
20.0
 50
180.0
  0
INSERT
  5
9038
330
902E
100
AcDbEntity
  8
0
  6
ByBlock
 62
     0
100
AcDbBlockReference
  2
_OPEN
 10
3721.905057
 20
4134.076100999999
 30
0.0
 41
20.0
 42
20.0
 43
20.0
  0
POINT
  5
9039
330
902E
100
AcDbEntity
  8
DEFPOINTS
  6
ByBlock
 62
     0
100
AcDbPoint
 10
3731.905057
 20
4014.076100999999
 30
0.0
  0
POINT
  5
903A
330
902E
100
AcDbEntity
  8
DEFPOINTS
  6
ByBlock
 62
     0
100
AcDbPoint
 10
3721.905057
 20
4034.076100999999
 30
0.0
  0
POINT
  5
903B
330
902E
100
AcDbEntity
  8
DEFPOINTS
  6
ByBlock
 62
     0
100
AcDbPoint
 10
3721.905057
 20
4134.076100999999
 30
0.0
  0
ENDBLK
  5
903C
330
902E
100
AcDbEntity
  8
0
100
AcDbBlockEnd
  0
BLOCK
  5
903E
330
903D
100
AcDbEntity
  8
0
100
AcDbBlockBegin
  2
*D68
 70
     1
 10
0.0
 20
0.0
 30
0.0
  3
*D68
  1

  0
LINE
  5
903F
330
903D
100
AcDbEntity
  8
0
  6
ByBlock
 62
     0
100
AcDbLine
 10
3731.905057
 20
4044.076100999999
 30
0.0
 11
3731.905057
 21
4144.076100999999
 31
0.0
  0
LINE
  5
9040
330
903D
100
AcDbEntity
  8
0
  6
ByBlock
 62
     0
100
AcDbLine
 10
3866.905057
 20
4044.076100999999
 30
0.0
 11
3866.905057
 21
4144.076100999999
 31
0.0
  0
LINE
  5
9041
330
903D
100
AcDbEntity
  8
0
  6
ByBlock
 62
     0
100
AcDbLine
 10
3751.905057
 20
4134.076100999999
 30
0.0
 11
3846.905057
 21
4134.076100999999
 31
0.0
  0
INSERT
  5
9042
330
903D
100
AcDbEntity
  8
0
  6
ByBlock
 62
     0
100
AcDbBlockReference
  2
_OPEN
 10
3731.905057
 20
4134.076100999999
 30
0.0
 41
20.0
 42
20.0
 43
20.0
 50
180.0
  0
INSERT
  5
9043
330
903D
100
AcDbEntity
  8
0
  6
ByBlock
 62
     0
100
AcDbBlockReference
  2
_OPEN
 10
3866.905057
 20
4134.076100999999
 30
0.0
 41
20.0
 42
20.0
 43
20.0
  0
MTEXT
  5
9044
330
903D
100
AcDbEntity
  8
0
  6
ByBlock
 62
     0
100
AcDbMText
 10
3799.405057
 20
4156.576100999999
 30
0.0
 40
25.0
 41
0.0
 71
     5
 72
     1
  1
\A1;135
 73
     1
 44
1.0
1001
ACAD
1000
MTEXTBEGIN
1070
    73
1070
     1
1070
    44
1040
1.0
1070
    74
1070
     0
1000
MTEXTEND
  0
POINT
  5
9045
330
903D
100
AcDbEntity
  8
DEFPOINTS
  6
ByBlock
 62
     0
100
AcDbPoint
 10
3731.905057
 20
4014.076100999999
 30
0.0
  0
POINT
  5
9046
330
903D
100
AcDbEntity
  8
DEFPOINTS
  6
ByBlock
 62
     0
100
AcDbPoint
 10
3866.905057
 20
4014.076100999999
 30
0.0
  0
POINT
  5
9047
330
903D
100
AcDbEntity
  8
DEFPOINTS
  6
ByBlock
 62
     0
100
AcDbPoint
 10
3866.905057
 20
4134.076100999999
 30
0.0
  0
ENDBLK
  5
9048
330
903D
100
AcDbEntity
  8
0
100
AcDbBlockEnd
  0
BLOCK
  5
904A
330
9049
100
AcDbEntity
  8
0
100
AcDbBlockBegin
  2
*D69
 70
     1
 10
0.0
 20
0.0
 30
0.0
  3
*D69
  1

  0
LINE
  5
904B
330
9049
100
AcDbEntity
  8
0
  6
ByBlock
 62
     0
100
AcDbLine
 10
3836.905057
 20
4014.076100999999
 30
0.0
 11
3789.405057
 21
4014.076100999999
 31
0.0
  0
LINE
  5
904C
330
9049
100
AcDbEntity
  8
0
  6
ByBlock
 62
     0
100
AcDbLine
 10
3846.905057
 20
4034.076100999999
 30
0.0
 11
3789.405057
 21
4034.076100999999
 31
0.0
  0
LINE
  5
904D
330
9049
100
AcDbEntity
  8
0
  6
ByBlock
 62
     0
100
AcDbLine
 10
3799.405057
 20
3994.076101
 30
0.0
 11
3799.405057
 21
3974.076101
 31
0.0
  0
LINE
  5
904E
330
9049
100
AcDbEntity
  8
0
  6
ByBlock
 62
     0
100
AcDbLine
 10
3799.405057
 20
4054.076100999999
 30
0.0
 11
3799.405057
 21
4074.076101
 31
0.0
  0
MTEXT
  5
904F
330
9049
100
AcDbEntity
  8
0
  6
ByBlock
 62
     0
100
AcDbMText
 10
3776.116282
 20
4059.169821
 30
0.0
 40
25.0
 41
0.0
 71
     5
 72
     1
  1
\A1;20
 11
0.0
 21
1.0
 31
0.0
 73
     1
 44
1.0
1001
ACAD
1000
MTEXTBEGIN
1070
    73
1070
     1
1070
    44
1040
1.0
1070
    74
1070
     0
1000
MTEXTEND
  0
LINE
  5
9050
330
9049
100
AcDbEntity
  8
0
  6
ByBlock
 62
     0
100
AcDbLine
 10
3799.405057
 20
4014.076100999999
 30
0.0
 11
3799.405057
 21
4034.076100999999
 31
0.0
  0
LINE
  5
9051
330
9049
100
AcDbEntity
  8
0
  6
ByBlock
 62
     0
100
AcDbLine
 10
3799.405057
 20
4014.076100999999
 30
0.0
 11
3799.405057
 21
4034.076100999999
 31
0.0
  0
INSERT
  5
9052
330
9049
100
AcDbEntity
  8
0
  6
ByBlock
 62
     0
100
AcDbBlockReference
  2
_OPEN
 10
3799.405057
 20
4014.076100999999
 30
0.0
 41
20.0
 42
20.0
 43
20.0
 50
90.0
  0
INSERT
  5
9053
330
9049
100
AcDbEntity
  8
0
  6
ByBlock
 62
     0
100
AcDbBlockReference
  2
_OPEN
 10
3799.405057
 20
4034.076100999999
 30
0.0
 41
20.0
 42
20.0
 43
20.0
 50
270.0
  0
POINT
  5
9054
330
9049
100
AcDbEntity
  8
DEFPOINTS
  6
ByBlock
 62
     0
100
AcDbPoint
 10
3866.905057
 20
4014.076100999999
 30
0.0
  0
POINT
  5
9055
330
9049
100
AcDbEntity
  8
DEFPOINTS
  6
ByBlock
 62
     0
100
AcDbPoint
 10
3876.905057
 20
4034.076100999999
 30
0.0
  0
POINT
  5
9056
330
9049
100
AcDbEntity
  8
DEFPOINTS
  6
ByBlock
 62
     0
100
AcDbPoint
 10
3799.405057
 20
4034.076100999999
 30
0.0
  0
ENDBLK
  5
9057
330
9049
100
AcDbEntity
  8
0
100
AcDbBlockEnd
  0
BLOCK
  5
92A7
330
9074
100
AcDbEntity
  8
0
100
AcDbBlockBegin
  2
*D70
 70
     1
 10
0.0
 20
0.0
 30
0.0
  3
*D70
  1

  0
LINE
  5
92A8
330
9074
100
AcDbEntity
  8
0
  6
ByBlock
 62
     0
100
AcDbLine
 10
3563.405057
 20
2034.076101
 30
0.0
 11
3483.405057000001
 21
2034.076101
 31
0.0
  0
LINE
  5
92A9
330
9074
100
AcDbEntity
  8
0
  6
ByBlock
 62
     0
100
AcDbLine
 10
3568.405057
 20
1939.076101
 30
0.0
 11
3483.405057000001
 21
1939.076101
 31
0.0
  0
LINE
  5
92AA
330
9074
100
AcDbEntity
  8
0
  6
ByBlock
 62
     0
100
AcDbLine
 10
3493.405057
 20
2014.076101
 30
0.0
 11
3493.405057
 21
1959.076101
 31
0.0
  0
INSERT
  5
92AB
330
9074
100
AcDbEntity
  8
0
  6
ByBlock
 62
     0
100
AcDbBlockReference
  2
_OPEN
 10
3493.405057
 20
2034.076101
 30
0.0
 41
20.0
 42
20.0
 43
20.0
 50
90.0
  0
INSERT
  5
92AC
330
9074
100
AcDbEntity
  8
0
  6
ByBlock
 62
     0
100
AcDbBlockReference
  2
_OPEN
 10
3493.405057
 20
1939.076101
 30
0.0
 41
20.0
 42
20.0
 43
20.0
 50
270.0
  0
MTEXT
  5
92AD
330
9074
100
AcDbEntity
  8
0
  6
ByBlock
 62
     0
100
AcDbMText
 10
3470.905057
 20
1986.576101
 30
0.0
 40
25.0
 41
0.0
 71
     5
 72
     1
  1
\A1;95
 11
0.0
 21
1.0
 31
0.0
 73
     1
 44
1.0
1001
ACAD
1000
MTEXTBEGIN
1070
    73
1070
     1
1070
    44
1040
1.0
1070
    74
1070
     0
1000
MTEXTEND
  0
POINT
  5
92AE
330
9074
100
AcDbEntity
  8
DEFPOINTS
  6
ByBlock
 62
     0
100
AcDbPoint
 10
3593.405057
 20
2034.076101
 30
0.0
  0
POINT
  5
92AF
330
9074
100
AcDbEntity
  8
DEFPOINTS
  6
ByBlock
 62
     0
100
AcDbPoint
 10
3598.405057
 20
1939.076101
 30
0.0
  0
POINT
  5
92B0
330
9074
100
AcDbEntity
  8
DEFPOINTS
  6
ByBlock
 62
     0
100
AcDbPoint
 10
3493.405057
 20
1939.076101
 30
0.0
  0
ENDBLK
  5
92B1
330
9074
100
AcDbEntity
  8
0
100
AcDbBlockEnd
  0
BLOCK
  5
909F
330
909E
100
AcDbEntity
  8
0
100
AcDbBlockBegin
  2
*D71
 70
     1
 10
0.0
 20
0.0
 30
0.0
  3
*D71
  1

  0
LINE
  5
90A0
330
909E
100
AcDbEntity
  8
0
  6
ByBlock
 62
     0
100
AcDbLine
 10
4005.405056999999
 20
4504.076100999999
 30
0.0
 11
4005.405056999999
 21
4329.076101
 31
0.0
  0
LINE
  5
90A1
330
909E
100
AcDbEntity
  8
0
  6
ByBlock
 62
     0
100
AcDbLine
 10
4000.405057
 20
4409.076100999999
 30
0.0
 11
4000.405057
 21
4329.076101
 31
0.0
  0
LINE
  5
90A2
330
909E
100
AcDbEntity
  8
0
  6
ByBlock
 62
     0
100
AcDbLine
 10
4025.405056999999
 20
4339.076100999999
 30
0.0
 11
4045.405056999999
 21
4339.076100999999
 31
0.0
  0
LINE
  5
90A3
330
909E
100
AcDbEntity
  8
0
  6
ByBlock
 62
     0
100
AcDbLine
 10
4000.405057
 20
4339.076100999999
 30
0.0
 11
3980.405057
 21
4339.076100999999
 31
0.0
  0
MTEXT
  5
90A4
330
909E
100
AcDbEntity
  8
0
  6
ByBlock
 62
     0
100
AcDbMText
 10
4022.23721
 20
4361.576100999999
 30
0.0
 40
25.0
 41
0.0
 71
     5
 72
     1
  1
\A1;5
 73
     1
 44
1.0
1001
ACAD
1000
MTEXTBEGIN
1070
    73
1070
     1
1070
    44
1040
1.0
1070
    74
1070
     0
1000
MTEXTEND
  0
LINE
  5
90A5
330
909E
100
AcDbEntity
  8
0
  6
ByBlock
 62
     0
100
AcDbLine
 10
4005.405056999999
 20
4339.076100999999
 30
0.0
 11
4000.405057
 21
4339.076100999999
 31
0.0
  0
LINE
  5
90A6
330
909E
100
AcDbEntity
  8
0
  6
ByBlock
 62
     0
100
AcDbLine
 10
4005.405056999999
 20
4339.076100999999
 30
0.0
 11
4000.405057
 21
4339.076100999999
 31
0.0
  0
INSERT
  5
90A7
330
909E
100
AcDbEntity
  8
0
  6
ByBlock
 62
     0
100
AcDbBlockReference
  2
_OPEN
 10
4005.405056999999
 20
4339.076100999999
 30
0.0
 41
20.0
 42
20.0
 43
20.0
 50
180.0
  0
POINT
  5
90A8
330
909E
100
AcDbEntity
  8
DEFPOINTS
  6
ByBlock
 62
     0
100
AcDbPoint
 10
4005.405056999999
 20
4534.076100999999
 30
0.0
  0
POINT
  5
90A9
330
909E
100
AcDbEntity
  8
DEFPOINTS
  6
ByBlock
 62
     0
100
AcDbPoint
 10
4000.405057
 20
4439.076101
 30
0.0
  0
POINT
  5
90AA
330
909E
100
AcDbEntity
  8
DEFPOINTS
  6
ByBlock
 62
     0
100
AcDbPoint
 10
4000.405057
 20
4339.076100999999
 30
0.0
  0
ENDBLK
  5
90AB
330
909E
100
AcDbEntity
  8
0
100
AcDbBlockEnd
  0
BLOCK
  5
90BC
330
90BB
100
AcDbEntity
  8
0
100
AcDbBlockBegin
  2
*D72
 70
     1
 10
0.0
 20
0.0
 30
0.0
  3
*D72
  1

  0
LINE
  5
90BD
330
90BB
100
AcDbEntity
  8
0
  6
ByBlock
 62
     0
100
AcDbLine
 10
4563.405056999999
 20
4034.076100999999
 30
0.0
 11
4483.405057
 21
4034.076100999999
 31
0.0
  0
LINE
  5
90BE
330
90BB
100
AcDbEntity
  8
0
  6
ByBlock
 62
     0
100
AcDbLine
 10
4563.405056999999
 20
3534.076101
 30
0.0
 11
4483.405057
 21
3534.076101
 31
0.0
  0
LINE
  5
90BF
330
90BB
100
AcDbEntity
  8
0
  6
ByBlock
 62
     0
100
AcDbLine
 10
4493.405057
 20
4014.076100999999
 30
0.0
 11
4493.405057
 21
3554.076101
 31
0.0
  0
INSERT
  5
90C0
330
90BB
100
AcDbEntity
  8
0
  6
ByBlock
 62
     0
100
AcDbBlockReference
  2
_OPEN
 10
4493.405057
 20
4034.076100999999
 30
0.0
 41
20.0
 42
20.0
 43
20.0
 50
90.0
  0
INSERT
  5
90C1
330
90BB
100
AcDbEntity
  8
0
  6
ByBlock
 62
     0
100
AcDbBlockReference
  2
_OPEN
 10
4493.405057
 20
3534.076101
 30
0.0
 41
20.0
 42
20.0
 43
20.0
 50
270.0
  0
MTEXT
  5
90C2
330
90BB
100
AcDbEntity
  8
0
  6
ByBlock
 62
     0
100
AcDbMText
 10
4470.905057
 20
3784.076101
 30
0.0
 40
25.0
 41
0.0
 71
     5
 72
     1
  1
\A1;500
 11
0.0
 21
1.0
 31
0.0
 73
     1
 44
1.0
1001
ACAD
1000
MTEXTBEGIN
1070
    73
1070
     1
1070
    44
1040
1.0
1070
    74
1070
     0
1000
MTEXTEND
  0
POINT
  5
90C3
330
90BB
100
AcDbEntity
  8
DEFPOINTS
  6
ByBlock
 62
     0
100
AcDbPoint
 10
4593.405057
 20
4034.076100999999
 30
0.0
  0
POINT
  5
90C4
330
90BB
100
AcDbEntity
  8
DEFPOINTS
  6
ByBlock
 62
     0
100
AcDbPoint
 10
4593.405057
 20
3534.076101
 30
0.0
  0
POINT
  5
90C5
330
90BB
100
AcDbEntity
  8
DEFPOINTS
  6
ByBlock
 62
     0
100
AcDbPoint
 10
4493.405057
 20
3534.076101
 30
0.0
  0
ENDBLK
  5
90C6
330
90BB
100
AcDbEntity
  8
0
100
AcDbBlockEnd
  0
BLOCK
  5
92CE
330
9100
100
AcDbEntity
  8
0
100
AcDbBlockBegin
  2
*D73
 70
     1
 10
0.0
 20
0.0
 30
0.0
  3
*D73
  1

  0
LINE
  5
92CF
330
9100
100
AcDbEntity
  8
0
  6
ByBlock
 62
     0
100
AcDbLine
 10
4563.405056999999
 20
2034.076101
 30
0.0
 11
4483.405057
 21
2034.076101
 31
0.0
  0
LINE
  5
92D0
330
9100
100
AcDbEntity
  8
0
  6
ByBlock
 62
     0
100
AcDbLine
 10
4568.405057
 20
1924.076101
 30
0.0
 11
4483.405057
 21
1924.076101
 31
0.0
  0
LINE
  5
92D1
330
9100
100
AcDbEntity
  8
0
  6
ByBlock
 62
     0
100
AcDbLine
 10
4493.405057
 20
2014.076101
 30
0.0
 11
4493.405057
 21
1944.076101
 31
0.0
  0
INSERT
  5
92D2
330
9100
100
AcDbEntity
  8
0
  6
ByBlock
 62
     0
100
AcDbBlockReference
  2
_OPEN
 10
4493.405057
 20
2034.076101
 30
0.0
 41
20.0
 42
20.0
 43
20.0
 50
90.0
  0
INSERT
  5
92D3
330
9100
100
AcDbEntity
  8
0
  6
ByBlock
 62
     0
100
AcDbBlockReference
  2
_OPEN
 10
4493.405057
 20
1924.076101
 30
0.0
 41
20.0
 42
20.0
 43
20.0
 50
270.0
  0
MTEXT
  5
92D4
330
9100
100
AcDbEntity
  8
0
  6
ByBlock
 62
     0
100
AcDbMText
 10
4470.905057
 20
1979.076101
 30
0.0
 40
25.0
 41
0.0
 71
     5
 72
     1
  1
\A1;110
 11
0.0
 21
1.0
 31
0.0
 73
     1
 44
1.0
1001
ACAD
1000
MTEXTBEGIN
1070
    73
1070
     1
1070
    44
1040
1.0
1070
    74
1070
     0
1000
MTEXTEND
  0
POINT
  5
92D5
330
9100
100
AcDbEntity
  8
DEFPOINTS
  6
ByBlock
 62
     0
100
AcDbPoint
 10
4593.405057
 20
2034.076101
 30
0.0
  0
POINT
  5
92D6
330
9100
100
AcDbEntity
  8
DEFPOINTS
  6
ByBlock
 62
     0
100
AcDbPoint
 10
4598.405056999999
 20
1924.076101
 30
0.0
  0
POINT
  5
92D7
330
9100
100
AcDbEntity
  8
DEFPOINTS
  6
ByBlock
 62
     0
100
AcDbPoint
 10
4493.405057
 20
1924.076101
 30
0.0
  0
ENDBLK
  5
92D8
330
9100
100
AcDbEntity
  8
0
100
AcDbBlockEnd
  0
BLOCK
  5
911C
330
911B
100
AcDbEntity
  8
0
100
AcDbBlockBegin
  2
*D74
 70
     1
 10
0.0
 20
0.0
 30
0.0
  3
*D74
  1

  0
LINE
  5
911D
330
911B
100
AcDbEntity
  8
0
  6
ByBlock
 62
     0
100
AcDbLine
 10
4593.405057
 20
4504.076100999999
 30
0.0
 11
4593.405057
 21
4314.076101
 31
0.0
  0
LINE
  5
911E
330
911B
100
AcDbEntity
  8
0
  6
ByBlock
 62
     0
100
AcDbLine
 10
4598.405056999999
 20
4394.076100999999
 30
0.0
 11
4598.405056999999
 21
4314.076101
 31
0.0
  0
LINE
  5
911F
330
911B
100
AcDbEntity
  8
0
  6
ByBlock
 62
     0
100
AcDbLine
 10
4573.405057
 20
4324.076101
 30
0.0
 11
4553.405056999999
 21
4324.076101
 31
0.0
  0
LINE
  5
9120
330
911B
100
AcDbEntity
  8
0
  6
ByBlock
 62
     0
100
AcDbLine
 10
4598.405056999999
 20
4324.076101
 30
0.0
 11
4618.405057
 21
4324.076101
 31
0.0
  0
MTEXT
  5
9121
330
911B
100
AcDbEntity
  8
0
  6
ByBlock
 62
     0
100
AcDbMText
 10
4576.572903999999
 20
4346.576100999999
 30
0.0
 40
25.0
 41
0.0
 71
     5
 72
     1
  1
\A1;5
 73
     1
 44
1.0
1001
ACAD
1000
MTEXTBEGIN
1070
    73
1070
     1
1070
    44
1040
1.0
1070
    74
1070
     0
1000
MTEXTEND
  0
LINE
  5
9122
330
911B
100
AcDbEntity
  8
0
  6
ByBlock
 62
     0
100
AcDbLine
 10
4593.405057
 20
4324.076101
 30
0.0
 11
4598.405056999999
 21
4324.076101
 31
0.0
  0
LINE
  5
9123
330
911B
100
AcDbEntity
  8
0
  6
ByBlock
 62
     0
100
AcDbLine
 10
4593.405057
 20
4324.076101
 30
0.0
 11
4598.405056999999
 21
4324.076101
 31
0.0
  0
INSERT
  5
9124
330
911B
100
AcDbEntity
  8
0
  6
ByBlock
 62
     0
100
AcDbBlockReference
  2
_OPEN
 10
4593.405057
 20
4324.076101
 30
0.0
 41
20.0
 42
20.0
 43
20.0
  0
POINT
  5
9125
330
911B
100
AcDbEntity
  8
DEFPOINTS
  6
ByBlock
 62
     0
100
AcDbPoint
 10
4593.405057
 20
4534.076100999999
 30
0.0
  0
POINT
  5
9126
330
911B
100
AcDbEntity
  8
DEFPOINTS
  6
ByBlock
 62
     0
100
AcDbPoint
 10
4598.405056999999
 20
4424.076100999999
 30
0.0
  0
POINT
  5
9127
330
911B
100
AcDbEntity
  8
DEFPOINTS
  6
ByBlock
 62
     0
100
AcDbPoint
 10
4598.405056999999
 20
4324.076101
 30
0.0
  0
ENDBLK
  5
9128
330
911B
100
AcDbEntity
  8
0
100
AcDbBlockEnd
  0
BLOCK
  5
912A
330
9129
100
AcDbEntity
  8
0
100
AcDbBlockBegin
  2
*D75
 70
     1
 10
0.0
 20
0.0
 30
0.0
  3
*D75
  1

  0
LINE
  5
912B
330
9129
100
AcDbEntity
  8
0
  6
ByBlock
 62
     0
100
AcDbLine
 10
4886.905056999999
 20
4014.076100999999
 30
0.0
 11
4839.405057
 21
4014.076100999999
 31
0.0
  0
LINE
  5
912C
330
9129
100
AcDbEntity
  8
0
  6
ByBlock
 62
     0
100
AcDbLine
 10
4896.905057
 20
4034.076100999999
 30
0.0
 11
4839.405057
 21
4034.076100999999
 31
0.0
  0
LINE
  5
912D
330
9129
100
AcDbEntity
  8
0
  6
ByBlock
 62
     0
100
AcDbLine
 10
4849.405057
 20
3994.076101
 30
0.0
 11
4849.405057
 21
3974.076101
 31
0.0
  0
LINE
  5
912E
330
9129
100
AcDbEntity
  8
0
  6
ByBlock
 62
     0
100
AcDbLine
 10
4849.405057
 20
4054.076100999999
 30
0.0
 11
4849.405057
 21
4074.076101
 31
0.0
  0
MTEXT
  5
912F
330
9129
100
AcDbEntity
  8
0
  6
ByBlock
 62
     0
100
AcDbMText
 10
4826.116282
 20
4059.169821
 30
0.0
 40
25.0
 41
0.0
 71
     5
 72
     1
  1
\A1;20
 11
0.0
 21
1.0
 31
0.0
 73
     1
 44
1.0
1001
ACAD
1000
MTEXTBEGIN
1070
    73
1070
     1
1070
    44
1040
1.0
1070
    74
1070
     0
1000
MTEXTEND
  0
LINE
  5
9130
330
9129
100
AcDbEntity
  8
0
  6
ByBlock
 62
     0
100
AcDbLine
 10
4849.405057
 20
4014.076100999999
 30
0.0
 11
4849.405057
 21
4034.076100999999
 31
0.0
  0
LINE
  5
9131
330
9129
100
AcDbEntity
  8
0
  6
ByBlock
 62
     0
100
AcDbLine
 10
4849.405057
 20
4014.076100999999
 30
0.0
 11
4849.405057
 21
4034.076100999999
 31
0.0
  0
INSERT
  5
9132
330
9129
100
AcDbEntity
  8
0
  6
ByBlock
 62
     0
100
AcDbBlockReference
  2
_OPEN
 10
4849.405057
 20
4014.076100999999
 30
0.0
 41
20.0
 42
20.0
 43
20.0
 50
90.0
  0
INSERT
  5
9133
330
9129
100
AcDbEntity
  8
0
  6
ByBlock
 62
     0
100
AcDbBlockReference
  2
_OPEN
 10
4849.405057
 20
4034.076100999999
 30
0.0
 41
20.0
 42
20.0
 43
20.0
 50
270.0
  0
POINT
  5
9134
330
9129
100
AcDbEntity
  8
DEFPOINTS
  6
ByBlock
 62
     0
100
AcDbPoint
 10
4916.905057000001
 20
4014.076100999999
 30
0.0
  0
POINT
  5
9135
330
9129
100
AcDbEntity
  8
DEFPOINTS
  6
ByBlock
 62
     0
100
AcDbPoint
 10
4926.905056999999
 20
4034.076100999999
 30
0.0
  0
POINT
  5
9136
330
9129
100
AcDbEntity
  8
DEFPOINTS
  6
ByBlock
 62
     0
100
AcDbPoint
 10
4849.405057
 20
4034.076100999999
 30
0.0
  0
ENDBLK
  5
9137
330
9129
100
AcDbEntity
  8
0
100
AcDbBlockEnd
  0
BLOCK
  5
9139
330
9138
100
AcDbEntity
  8
0
100
AcDbBlockBegin
  2
*D76
 70
     1
 10
0.0
 20
0.0
 30
0.0
  3
*D76
  1

  0
LINE
  5
913A
330
9138
100
AcDbEntity
  8
0
  6
ByBlock
 62
     0
100
AcDbLine
 10
4916.905057000001
 20
4044.076100999999
 30
0.0
 11
4916.905057000001
 21
4144.076100999999
 31
0.0
  0
LINE
  5
913B
330
9138
100
AcDbEntity
  8
0
  6
ByBlock
 62
     0
100
AcDbLine
 10
4926.905056999999
 20
4064.076101
 30
0.0
 11
4926.905056999999
 21
4144.076100999999
 31
0.0
  0
LINE
  5
913C
330
9138
100
AcDbEntity
  8
0
  6
ByBlock
 62
     0
100
AcDbLine
 10
4896.905057
 20
4134.076100999999
 30
0.0
 11
4876.905057
 21
4134.076100999999
 31
0.0
  0
LINE
  5
913D
330
9138
100
AcDbEntity
  8
0
  6
ByBlock
 62
     0
100
AcDbLine
 10
4946.905057
 20
4134.076100999999
 30
0.0
 11
4966.905057
 21
4134.076100999999
 31
0.0
  0
MTEXT
  5
913E
330
9138
100
AcDbEntity
  8
0
  6
ByBlock
 62
     0
100
AcDbMText
 10
4945.294703
 20
4156.576100999999
 30
0.0
 40
25.0
 41
0.0
 71
     5
 72
     1
  1
\A1;10
 73
     1
 44
1.0
1001
ACAD
1000
MTEXTBEGIN
1070
    73
1070
     1
1070
    44
1040
1.0
1070
    74
1070
     0
1000
MTEXTEND
  0
LINE
  5
913F
330
9138
100
AcDbEntity
  8
0
  6
ByBlock
 62
     0
100
AcDbLine
 10
4916.905057000001
 20
4134.076100999999
 30
0.0
 11
4926.905056999999
 21
4134.076100999999
 31
0.0
  0
LINE
  5
9140
330
9138
100
AcDbEntity
  8
0
  6
ByBlock
 62
     0
100
AcDbLine
 10
4916.905057000001
 20
4134.076100999999
 30
0.0
 11
4926.905056999999
 21
4134.076100999999
 31
0.0
  0
INSERT
  5
9141
330
9138
100
AcDbEntity
  8
0
  6
ByBlock
 62
     0
100
AcDbBlockReference
  2
_OPEN
 10
4916.905057000001
 20
4134.076100999999
 30
0.0
 41
20.0
 42
20.0
 43
20.0
  0
INSERT
  5
9142
330
9138
100
AcDbEntity
  8
0
  6
ByBlock
 62
     0
100
AcDbBlockReference
  2
_OPEN
 10
4926.905056999999
 20
4134.076100999999
 30
0.0
 41
20.0
 42
20.0
 43
20.0
 50
180.0
  0
POINT
  5
9143
330
9138
100
AcDbEntity
  8
DEFPOINTS
  6
ByBlock
 62
     0
100
AcDbPoint
 10
4916.905057000001
 20
4014.076100999999
 30
0.0
  0
POINT
  5
9144
330
9138
100
AcDbEntity
  8
DEFPOINTS
  6
ByBlock
 62
     0
100
AcDbPoint
 10
4926.905056999999
 20
4034.076100999999
 30
0.0
  0
POINT
  5
9145
330
9138
100
AcDbEntity
  8
DEFPOINTS
  6
ByBlock
 62
     0
100
AcDbPoint
 10
4926.905056999999
 20
4134.076100999999
 30
0.0
  0
ENDBLK
  5
9146
330
9138
100
AcDbEntity
  8
0
100
AcDbBlockEnd
  0
BLOCK
  5
9148
330
9147
100
AcDbEntity
  8
0
100
AcDbBlockBegin
  2
*D77
 70
     1
 10
0.0
 20
0.0
 30
0.0
  3
*D77
  1

  0
LINE
  5
9149
330
9147
100
AcDbEntity
  8
0
  6
ByBlock
 62
     0
100
AcDbLine
 10
4781.905057
 20
4044.076100999999
 30
0.0
 11
4781.905057
 21
4144.076100999999
 31
0.0
  0
LINE
  5
914A
330
9147
100
AcDbEntity
  8
0
  6
ByBlock
 62
     0
100
AcDbLine
 10
4916.905057000001
 20
4044.076100999999
 30
0.0
 11
4916.905057000001
 21
4144.076100999999
 31
0.0
  0
LINE
  5
914B
330
9147
100
AcDbEntity
  8
0
  6
ByBlock
 62
     0
100
AcDbLine
 10
4801.905056999999
 20
4134.076100999999
 30
0.0
 11
4896.905057
 21
4134.076100999999
 31
0.0
  0
INSERT
  5
914C
330
9147
100
AcDbEntity
  8
0
  6
ByBlock
 62
     0
100
AcDbBlockReference
  2
_OPEN
 10
4781.905057
 20
4134.076100999999
 30
0.0
 41
20.0
 42
20.0
 43
20.0
 50
180.0
  0
INSERT
  5
914D
330
9147
100
AcDbEntity
  8
0
  6
ByBlock
 62
     0
100
AcDbBlockReference
  2
_OPEN
 10
4916.905057000001
 20
4134.076100999999
 30
0.0
 41
20.0
 42
20.0
 43
20.0
  0
MTEXT
  5
914E
330
9147
100
AcDbEntity
  8
0
  6
ByBlock
 62
     0
100
AcDbMText
 10
4849.405057
 20
4156.576100999999
 30
0.0
 40
25.0
 41
0.0
 71
     5
 72
     1
  1
\A1;135
 73
     1
 44
1.0
1001
ACAD
1000
MTEXTBEGIN
1070
    73
1070
     1
1070
    44
1040
1.0
1070
    74
1070
     0
1000
MTEXTEND
  0
POINT
  5
914F
330
9147
100
AcDbEntity
  8
DEFPOINTS
  6
ByBlock
 62
     0
100
AcDbPoint
 10
4781.905057
 20
4014.076100999999
 30
0.0
  0
POINT
  5
9150
330
9147
100
AcDbEntity
  8
DEFPOINTS
  6
ByBlock
 62
     0
100
AcDbPoint
 10
4916.905057000001
 20
4014.076100999999
 30
0.0
  0
POINT
  5
9151
330
9147
100
AcDbEntity
  8
DEFPOINTS
  6
ByBlock
 62
     0
100
AcDbPoint
 10
4916.905057000001
 20
4134.076100999999
 30
0.0
  0
ENDBLK
  5
9152
330
9147
100
AcDbEntity
  8
0
100
AcDbBlockEnd
  0
BLOCK
  5
9154
330
9153
100
AcDbEntity
  8
0
100
AcDbBlockBegin
  2
*D78
 70
     1
 10
0.0
 20
0.0
 30
0.0
  3
*D78
  1

  0
LINE
  5
9155
330
9153
100
AcDbEntity
  8
0
  6
ByBlock
 62
     0
100
AcDbLine
 10
4781.905057
 20
4044.076100999999
 30
0.0
 11
4781.905057
 21
4144.076100999999
 31
0.0
  0
LINE
  5
9156
330
9153
100
AcDbEntity
  8
0
  6
ByBlock
 62
     0
100
AcDbLine
 10
4771.905057
 20
4064.076101
 30
0.0
 11
4771.905057
 21
4144.076100999999
 31
0.0
  0
LINE
  5
9157
330
9153
100
AcDbEntity
  8
0
  6
ByBlock
 62
     0
100
AcDbLine
 10
4801.905056999999
 20
4134.076100999999
 30
0.0
 11
4821.905057
 21
4134.076100999999
 31
0.0
  0
LINE
  5
9158
330
9153
100
AcDbEntity
  8
0
  6
ByBlock
 62
     0
100
AcDbLine
 10
4751.905057
 20
4134.076100999999
 30
0.0
 11
4731.905057
 21
4134.076100999999
 31
0.0
  0
MTEXT
  5
9159
330
9153
100
AcDbEntity
  8
0
  6
ByBlock
 62
     0
100
AcDbMText
 10
4748.16652
 20
4156.576100999999
 30
0.0
 40
25.0
 41
0.0
 71
     5
 72
     1
  1
\A1;10
 73
     1
 44
1.0
1001
ACAD
1000
MTEXTBEGIN
1070
    73
1070
     1
1070
    44
1040
1.0
1070
    74
1070
     0
1000
MTEXTEND
  0
LINE
  5
915A
330
9153
100
AcDbEntity
  8
0
  6
ByBlock
 62
     0
100
AcDbLine
 10
4781.905057
 20
4134.076100999999
 30
0.0
 11
4771.905057
 21
4134.076100999999
 31
0.0
  0
LINE
  5
915B
330
9153
100
AcDbEntity
  8
0
  6
ByBlock
 62
     0
100
AcDbLine
 10
4781.905057
 20
4134.076100999999
 30
0.0
 11
4771.905057
 21
4134.076100999999
 31
0.0
  0
INSERT
  5
915C
330
9153
100
AcDbEntity
  8
0
  6
ByBlock
 62
     0
100
AcDbBlockReference
  2
_OPEN
 10
4781.905057
 20
4134.076100999999
 30
0.0
 41
20.0
 42
20.0
 43
20.0
 50
180.0
  0
INSERT
  5
915D
330
9153
100
AcDbEntity
  8
0
  6
ByBlock
 62
     0
100
AcDbBlockReference
  2
_OPEN
 10
4771.905057
 20
4134.076100999999
 30
0.0
 41
20.0
 42
20.0
 43
20.0
  0
POINT
  5
915E
330
9153
100
AcDbEntity
  8
DEFPOINTS
  6
ByBlock
 62
     0
100
AcDbPoint
 10
4781.905057
 20
4014.076100999999
 30
0.0
  0
POINT
  5
915F
330
9153
100
AcDbEntity
  8
DEFPOINTS
  6
ByBlock
 62
     0
100
AcDbPoint
 10
4771.905057
 20
4034.076100999999
 30
0.0
  0
POINT
  5
9160
330
9153
100
AcDbEntity
  8
DEFPOINTS
  6
ByBlock
 62
     0
100
AcDbPoint
 10
4771.905057
 20
4134.076100999999
 30
0.0
  0
ENDBLK
  5
9161
330
9153
100
AcDbEntity
  8
0
100
AcDbBlockEnd
  0
BLOCK
  5
9163
330
9162
100
AcDbEntity
  8
0
100
AcDbBlockBegin
  2
*D79
 70
     1
 10
0.0
 20
0.0
 30
0.0
  3
*D79
  1

  0
LINE
  5
9164
330
9162
100
AcDbEntity
  8
0
  6
ByBlock
 62
     0
100
AcDbLine
 10
4593.405057
 20
4564.076101
 30
0.0
 11
4593.405057
 21
4644.076100999999
 31
0.0
  0
LINE
  5
9165
330
9162
100
AcDbEntity
  8
0
  6
ByBlock
 62
     0
100
AcDbLine
 10
5105.405057
 20
4564.076101
 30
0.0
 11
5105.405057
 21
4644.076100999999
 31
0.0
  0
LINE
  5
9166
330
9162
100
AcDbEntity
  8
0
  6
ByBlock
 62
     0
100
AcDbLine
 10
4613.405057
 20
4634.076100999999
 30
0.0
 11
5085.405057
 21
4634.076100999999
 31
0.0
  0
INSERT
  5
9167
330
9162
100
AcDbEntity
  8
0
  6
ByBlock
 62
     0
100
AcDbBlockReference
  2
_OPEN
 10
4593.405057
 20
4634.076100999999
 30
0.0
 41
20.0
 42
20.0
 43
20.0
 50
180.0
  0
INSERT
  5
9168
330
9162
100
AcDbEntity
  8
0
  6
ByBlock
 62
     0
100
AcDbBlockReference
  2
_OPEN
 10
5105.405057
 20
4634.076100999999
 30
0.0
 41
20.0
 42
20.0
 43
20.0
  0
MTEXT
  5
9169
330
9162
100
AcDbEntity
  8
0
  6
ByBlock
 62
     0
100
AcDbMText
 10
4849.405057
 20
4656.576100999999
 30
0.0
 40
25.0
 41
0.0
 71
     5
 72
     1
  1
\A1;512
 73
     1
 44
1.0
1001
ACAD
1000
MTEXTBEGIN
1070
    73
1070
     1
1070
    44
1040
1.0
1070
    74
1070
     0
1000
MTEXTEND
  0
POINT
  5
916A
330
9162
100
AcDbEntity
  8
DEFPOINTS
  6
ByBlock
 62
     0
100
AcDbPoint
 10
4593.405057
 20
4534.076100999999
 30
0.0
  0
POINT
  5
916B
330
9162
100
AcDbEntity
  8
DEFPOINTS
  6
ByBlock
 62
     0
100
AcDbPoint
 10
5105.405057
 20
4534.076100999999
 30
0.0
  0
POINT
  5
916C
330
9162
100
AcDbEntity
  8
DEFPOINTS
  6
ByBlock
 62
     0
100
AcDbPoint
 10
5105.405057
 20
4634.076100999999
 30
0.0
  0
ENDBLK
  5
916D
330
9162
100
AcDbEntity
  8
0
100
AcDbBlockEnd
  0
BLOCK
  5
9197
330
9196
100
AcDbEntity
  8
0
100
AcDbBlockBegin
  2
*D80
 70
     1
 10
0.0
 20
0.0
 30
0.0
  3
*D80
  1

  0
LINE
  5
9198
330
9196
100
AcDbEntity
  8
0
  6
ByBlock
 62
     0
100
AcDbLine
 10
5105.405057
 20
4504.076100999999
 30
0.0
 11
5105.405057
 21
4314.076101
 31
0.0
  0
LINE
  5
9199
330
9196
100
AcDbEntity
  8
0
  6
ByBlock
 62
     0
100
AcDbLine
 10
5100.405057
 20
4394.076100999999
 30
0.0
 11
5100.405057
 21
4314.076101
 31
0.0
  0
LINE
  5
919A
330
9196
100
AcDbEntity
  8
0
  6
ByBlock
 62
     0
100
AcDbLine
 10
5125.405057
 20
4324.076101
 30
0.0
 11
5145.405057
 21
4324.076101
 31
0.0
  0
LINE
  5
919B
330
9196
100
AcDbEntity
  8
0
  6
ByBlock
 62
     0
100
AcDbLine
 10
5100.405057
 20
4324.076101
 30
0.0
 11
5080.405057
 21
4324.076101
 31
0.0
  0
MTEXT
  5
919C
330
9196
100
AcDbEntity
  8
0
  6
ByBlock
 62
     0
100
AcDbMText
 10
5122.23721
 20
4346.576100999999
 30
0.0
 40
25.0
 41
0.0
 71
     5
 72
     1
  1
\A1;5
 73
     1
 44
1.0
1001
ACAD
1000
MTEXTBEGIN
1070
    73
1070
     1
1070
    44
1040
1.0
1070
    74
1070
     0
1000
MTEXTEND
  0
LINE
  5
919D
330
9196
100
AcDbEntity
  8
0
  6
ByBlock
 62
     0
100
AcDbLine
 10
5105.405057
 20
4324.076101
 30
0.0
 11
5100.405057
 21
4324.076101
 31
0.0
  0
LINE
  5
919E
330
9196
100
AcDbEntity
  8
0
  6
ByBlock
 62
     0
100
AcDbLine
 10
5105.405057
 20
4324.076101
 30
0.0
 11
5100.405057
 21
4324.076101
 31
0.0
  0
INSERT
  5
919F
330
9196
100
AcDbEntity
  8
0
  6
ByBlock
 62
     0
100
AcDbBlockReference
  2
_OPEN
 10
5105.405057
 20
4324.076101
 30
0.0
 41
20.0
 42
20.0
 43
20.0
 50
180.0
  0
POINT
  5
91A0
330
9196
100
AcDbEntity
  8
DEFPOINTS
  6
ByBlock
 62
     0
100
AcDbPoint
 10
5105.405057
 20
4534.076100999999
 30
0.0
  0
POINT
  5
91A1
330
9196
100
AcDbEntity
  8
DEFPOINTS
  6
ByBlock
 62
     0
100
AcDbPoint
 10
5100.405057
 20
4424.076100999999
 30
0.0
  0
POINT
  5
91A2
330
9196
100
AcDbEntity
  8
DEFPOINTS
  6
ByBlock
 62
     0
100
AcDbPoint
 10
5100.405057
 20
4324.076101
 30
0.0
  0
ENDBLK
  5
91A3
330
9196
100
AcDbEntity
  8
0
100
AcDbBlockEnd
  0
BLOCK
  5
91A5
330
91A4
100
AcDbEntity
  8
0
100
AcDbBlockBegin
  2
*D81
 70
     1
 10
0.0
 20
0.0
 30
0.0
  3
*D81
  1

  0
LINE
  5
91A6
330
91A4
100
AcDbEntity
  8
0
  6
ByBlock
 62
     0
100
AcDbLine
 10
5563.405057
 20
4034.076100999999
 30
0.0
 11
5483.405057
 21
4034.076100999999
 31
0.0
  0
LINE
  5
91A7
330
91A4
100
AcDbEntity
  8
0
  6
ByBlock
 62
     0
100
AcDbLine
 10
5563.405057
 20
3534.076101
 30
0.0
 11
5483.405057
 21
3534.076101
 31
0.0
  0
LINE
  5
91A8
330
91A4
100
AcDbEntity
  8
0
  6
ByBlock
 62
     0
100
AcDbLine
 10
5493.405057
 20
4014.076100999999
 30
0.0
 11
5493.405057
 21
3554.076101
 31
0.0
  0
INSERT
  5
91A9
330
91A4
100
AcDbEntity
  8
0
  6
ByBlock
 62
     0
100
AcDbBlockReference
  2
_OPEN
 10
5493.405057
 20
4034.076100999999
 30
0.0
 41
20.0
 42
20.0
 43
20.0
 50
90.0
  0
INSERT
  5
91AA
330
91A4
100
AcDbEntity
  8
0
  6
ByBlock
 62
     0
100
AcDbBlockReference
  2
_OPEN
 10
5493.405057
 20
3534.076101
 30
0.0
 41
20.0
 42
20.0
 43
20.0
 50
270.0
  0
MTEXT
  5
91AB
330
91A4
100
AcDbEntity
  8
0
  6
ByBlock
 62
     0
100
AcDbMText
 10
5470.905057
 20
3784.076101
 30
0.0
 40
25.0
 41
0.0
 71
     5
 72
     1
  1
\A1;500
 11
0.0
 21
1.0
 31
0.0
 73
     1
 44
1.0
1001
ACAD
1000
MTEXTBEGIN
1070
    73
1070
     1
1070
    44
1040
1.0
1070
    74
1070
     0
1000
MTEXTEND
  0
POINT
  5
91AC
330
91A4
100
AcDbEntity
  8
DEFPOINTS
  6
ByBlock
 62
     0
100
AcDbPoint
 10
5593.405057
 20
4034.076100999999
 30
0.0
  0
POINT
  5
91AD
330
91A4
100
AcDbEntity
  8
DEFPOINTS
  6
ByBlock
 62
     0
100
AcDbPoint
 10
5593.405057
 20
3534.076101
 30
0.0
  0
POINT
  5
91AE
330
91A4
100
AcDbEntity
  8
DEFPOINTS
  6
ByBlock
 62
     0
100
AcDbPoint
 10
5493.405057
 20
3534.076101
 30
0.0
  0
ENDBLK
  5
91AF
330
91A4
100
AcDbEntity
  8
0
100
AcDbBlockEnd
  0
BLOCK
  5
91EA
330
91E9
100
AcDbEntity
  8
0
100
AcDbBlockBegin
  2
*D82
 70
     1
 10
0.0
 20
0.0
 30
0.0
  3
*D82
  1

  0
LINE
  5
91EB
330
91E9
100
AcDbEntity
  8
0
  6
ByBlock
 62
     0
100
AcDbLine
 10
5941.905057
 20
4014.076100999999
 30
0.0
 11
5894.405057
 21
4014.076100999999
 31
0.0
  0
LINE
  5
91EC
330
91E9
100
AcDbEntity
  8
0
  6
ByBlock
 62
     0
100
AcDbLine
 10
5951.905057
 20
4034.076100999999
 30
0.0
 11
5894.405057
 21
4034.076100999999
 31
0.0
  0
LINE
  5
91ED
330
91E9
100
AcDbEntity
  8
0
  6
ByBlock
 62
     0
100
AcDbLine
 10
5904.405057
 20
3994.076101
 30
0.0
 11
5904.405057
 21
3974.076101
 31
0.0
  0
LINE
  5
91EE
330
91E9
100
AcDbEntity
  8
0
  6
ByBlock
 62
     0
100
AcDbLine
 10
5904.405057
 20
4054.076100999999
 30
0.0
 11
5904.405057
 21
4074.076101
 31
0.0
  0
MTEXT
  5
91EF
330
91E9
100
AcDbEntity
  8
0
  6
ByBlock
 62
     0
100
AcDbMText
 10
5881.116282
 20
4059.169821
 30
0.0
 40
25.0
 41
0.0
 71
     5
 72
     1
  1
\A1;20
 11
0.0
 21
1.0
 31
0.0
 73
     1
 44
1.0
1001
ACAD
1000
MTEXTBEGIN
1070
    73
1070
     1
1070
    44
1040
1.0
1070
    74
1070
     0
1000
MTEXTEND
  0
LINE
  5
91F0
330
91E9
100
AcDbEntity
  8
0
  6
ByBlock
 62
     0
100
AcDbLine
 10
5904.405057
 20
4014.076100999999
 30
0.0
 11
5904.405057
 21
4034.076100999999
 31
0.0
  0
LINE
  5
91F1
330
91E9
100
AcDbEntity
  8
0
  6
ByBlock
 62
     0
100
AcDbLine
 10
5904.405057
 20
4014.076100999999
 30
0.0
 11
5904.405057
 21
4034.076100999999
 31
0.0
  0
INSERT
  5
91F2
330
91E9
100
AcDbEntity
  8
0
  6
ByBlock
 62
     0
100
AcDbBlockReference
  2
_OPEN
 10
5904.405057
 20
4014.076100999999
 30
0.0
 41
20.0
 42
20.0
 43
20.0
 50
90.0
  0
INSERT
  5
91F3
330
91E9
100
AcDbEntity
  8
0
  6
ByBlock
 62
     0
100
AcDbBlockReference
  2
_OPEN
 10
5904.405057
 20
4034.076100999999
 30
0.0
 41
20.0
 42
20.0
 43
20.0
 50
270.0
  0
POINT
  5
91F4
330
91E9
100
AcDbEntity
  8
DEFPOINTS
  6
ByBlock
 62
     0
100
AcDbPoint
 10
5971.905057
 20
4014.076100999999
 30
0.0
  0
POINT
  5
91F5
330
91E9
100
AcDbEntity
  8
DEFPOINTS
  6
ByBlock
 62
     0
100
AcDbPoint
 10
5981.905057
 20
4034.076100999999
 30
0.0
  0
POINT
  5
91F6
330
91E9
100
AcDbEntity
  8
DEFPOINTS
  6
ByBlock
 62
     0
100
AcDbPoint
 10
5904.405057
 20
4034.076100999999
 30
0.0
  0
ENDBLK
  5
91F7
330
91E9
100
AcDbEntity
  8
0
100
AcDbBlockEnd
  0
BLOCK
  5
91F9
330
91F8
100
AcDbEntity
  8
0
100
AcDbBlockBegin
  2
*D83
 70
     1
 10
0.0
 20
0.0
 30
0.0
  3
*D83
  1

  0
LINE
  5
91FA
330
91F8
100
AcDbEntity
  8
0
  6
ByBlock
 62
     0
100
AcDbLine
 10
5836.905057
 20
4044.076100999999
 30
0.0
 11
5836.905057
 21
4144.076100999999
 31
0.0
  0
LINE
  5
91FB
330
91F8
100
AcDbEntity
  8
0
  6
ByBlock
 62
     0
100
AcDbLine
 10
5971.905057
 20
4044.076100999999
 30
0.0
 11
5971.905057
 21
4144.076100999999
 31
0.0
  0
LINE
  5
91FC
330
91F8
100
AcDbEntity
  8
0
  6
ByBlock
 62
     0
100
AcDbLine
 10
5856.905057
 20
4134.076100999999
 30
0.0
 11
5951.905057
 21
4134.076100999999
 31
0.0
  0
INSERT
  5
91FD
330
91F8
100
AcDbEntity
  8
0
  6
ByBlock
 62
     0
100
AcDbBlockReference
  2
_OPEN
 10
5836.905057
 20
4134.076100999999
 30
0.0
 41
20.0
 42
20.0
 43
20.0
 50
180.0
  0
INSERT
  5
91FE
330
91F8
100
AcDbEntity
  8
0
  6
ByBlock
 62
     0
100
AcDbBlockReference
  2
_OPEN
 10
5971.905057
 20
4134.076100999999
 30
0.0
 41
20.0
 42
20.0
 43
20.0
  0
MTEXT
  5
91FF
330
91F8
100
AcDbEntity
  8
0
  6
ByBlock
 62
     0
100
AcDbMText
 10
5904.405057
 20
4156.576100999999
 30
0.0
 40
25.0
 41
0.0
 71
     5
 72
     1
  1
\A1;135
 73
     1
 44
1.0
1001
ACAD
1000
MTEXTBEGIN
1070
    73
1070
     1
1070
    44
1040
1.0
1070
    74
1070
     0
1000
MTEXTEND
  0
POINT
  5
9200
330
91F8
100
AcDbEntity
  8
DEFPOINTS
  6
ByBlock
 62
     0
100
AcDbPoint
 10
5836.905057
 20
4014.076100999999
 30
0.0
  0
POINT
  5
9201
330
91F8
100
AcDbEntity
  8
DEFPOINTS
  6
ByBlock
 62
     0
100
AcDbPoint
 10
5971.905057
 20
4014.076100999999
 30
0.0
  0
POINT
  5
9202
330
91F8
100
AcDbEntity
  8
DEFPOINTS
  6
ByBlock
 62
     0
100
AcDbPoint
 10
5971.905057
 20
4134.076100999999
 30
0.0
  0
ENDBLK
  5
9203
330
91F8
100
AcDbEntity
  8
0
100
AcDbBlockEnd
  0
BLOCK
  5
9205
330
9204
100
AcDbEntity
  8
0
100
AcDbBlockBegin
  2
*D84
 70
     1
 10
0.0
 20
0.0
 30
0.0
  3
*D84
  1

  0
LINE
  5
9206
330
9204
100
AcDbEntity
  8
0
  6
ByBlock
 62
     0
100
AcDbLine
 10
5593.405057
 20
4564.076101
 30
0.0
 11
5593.405057
 21
4644.076100999999
 31
0.0
  0
LINE
  5
9207
330
9204
100
AcDbEntity
  8
0
  6
ByBlock
 62
     0
100
AcDbLine
 10
6215.405057
 20
4564.076101
 30
0.0
 11
6215.405057
 21
4644.076100999999
 31
0.0
  0
LINE
  5
9208
330
9204
100
AcDbEntity
  8
0
  6
ByBlock
 62
     0
100
AcDbLine
 10
5613.405057
 20
4634.076100999999
 30
0.0
 11
6195.405057
 21
4634.076100999999
 31
0.0
  0
INSERT
  5
9209
330
9204
100
AcDbEntity
  8
0
  6
ByBlock
 62
     0
100
AcDbBlockReference
  2
_OPEN
 10
5593.405057
 20
4634.076100999999
 30
0.0
 41
20.0
 42
20.0
 43
20.0
 50
180.0
  0
INSERT
  5
920A
330
9204
100
AcDbEntity
  8
0
  6
ByBlock
 62
     0
100
AcDbBlockReference
  2
_OPEN
 10
6215.405057
 20
4634.076100999999
 30
0.0
 41
20.0
 42
20.0
 43
20.0
  0
MTEXT
  5
920B
330
9204
100
AcDbEntity
  8
0
  6
ByBlock
 62
     0
100
AcDbMText
 10
5904.405057
 20
4656.576100999999
 30
0.0
 40
25.0
 41
0.0
 71
     5
 72
     1
  1
\A1;622
 73
     1
 44
1.0
1001
ACAD
1000
MTEXTBEGIN
1070
    73
1070
     1
1070
    44
1040
1.0
1070
    74
1070
     0
1000
MTEXTEND
  0
POINT
  5
920C
330
9204
100
AcDbEntity
  8
DEFPOINTS
  6
ByBlock
 62
     0
100
AcDbPoint
 10
5593.405057
 20
4534.076100999999
 30
0.0
  0
POINT
  5
920D
330
9204
100
AcDbEntity
  8
DEFPOINTS
  6
ByBlock
 62
     0
100
AcDbPoint
 10
6215.405057
 20
4534.076100999999
 30
0.0
  0
POINT
  5
920E
330
9204
100
AcDbEntity
  8
DEFPOINTS
  6
ByBlock
 62
     0
100
AcDbPoint
 10
6215.405057
 20
4634.076100999999
 30
0.0
  0
ENDBLK
  5
920F
330
9204
100
AcDbEntity
  8
0
100
AcDbBlockEnd
  0
BLOCK
  5
9211
330
9210
100
AcDbEntity
  8
0
100
AcDbBlockBegin
  2
*D85
 70
     1
 10
0.0
 20
0.0
 30
0.0
  3
*D85
  1

  0
LINE
  5
9212
330
9210
100
AcDbEntity
  8
0
  6
ByBlock
 62
     0
100
AcDbLine
 10
5593.405057
 20
4504.076100999999
 30
0.0
 11
5593.405057
 21
4299.076100999999
 31
0.0
  0
LINE
  5
9213
330
9210
100
AcDbEntity
  8
0
  6
ByBlock
 62
     0
100
AcDbLine
 10
5598.405057
 20
4379.076100999999
 30
0.0
 11
5598.405057
 21
4299.076100999999
 31
0.0
  0
LINE
  5
9214
330
9210
100
AcDbEntity
  8
0
  6
ByBlock
 62
     0
100
AcDbLine
 10
5573.405057
 20
4309.076100999999
 30
0.0
 11
5553.405056999999
 21
4309.076100999999
 31
0.0
  0
LINE
  5
9215
330
9210
100
AcDbEntity
  8
0
  6
ByBlock
 62
     0
100
AcDbLine
 10
5598.405057
 20
4309.076100999999
 30
0.0
 11
5618.405057
 21
4309.076100999999
 31
0.0
  0
MTEXT
  5
9216
330
9210
100
AcDbEntity
  8
0
  6
ByBlock
 62
     0
100
AcDbMText
 10
5576.572903999999
 20
4331.576100999999
 30
0.0
 40
25.0
 41
0.0
 71
     5
 72
     1
  1
\A1;5
 73
     1
 44
1.0
1001
ACAD
1000
MTEXTBEGIN
1070
    73
1070
     1
1070
    44
1040
1.0
1070
    74
1070
     0
1000
MTEXTEND
  0
LINE
  5
9217
330
9210
100
AcDbEntity
  8
0
  6
ByBlock
 62
     0
100
AcDbLine
 10
5593.405057
 20
4309.076100999999
 30
0.0
 11
5598.405057
 21
4309.076100999999
 31
0.0
  0
LINE
  5
9218
330
9210
100
AcDbEntity
  8
0
  6
ByBlock
 62
     0
100
AcDbLine
 10
5593.405057
 20
4309.076100999999
 30
0.0
 11
5598.405057
 21
4309.076100999999
 31
0.0
  0
INSERT
  5
9219
330
9210
100
AcDbEntity
  8
0
  6
ByBlock
 62
     0
100
AcDbBlockReference
  2
_OPEN
 10
5593.405057
 20
4309.076100999999
 30
0.0
 41
20.0
 42
20.0
 43
20.0
  0
POINT
  5
921A
330
9210
100
AcDbEntity
  8
DEFPOINTS
  6
ByBlock
 62
     0
100
AcDbPoint
 10
5593.405057
 20
4534.076100999999
 30
0.0
  0
POINT
  5
921B
330
9210
100
AcDbEntity
  8
DEFPOINTS
  6
ByBlock
 62
     0
100
AcDbPoint
 10
5598.405057
 20
4409.076100999999
 30
0.0
  0
POINT
  5
921C
330
9210
100
AcDbEntity
  8
DEFPOINTS
  6
ByBlock
 62
     0
100
AcDbPoint
 10
5598.405057
 20
4309.076100999999
 30
0.0
  0
ENDBLK
  5
921D
330
9210
100
AcDbEntity
  8
0
100
AcDbBlockEnd
  0
BLOCK
  5
922E
330
922D
100
AcDbEntity
  8
0
100
AcDbBlockBegin
  2
*D86
 70
     1
 10
0.0
 20
0.0
 30
0.0
  3
*D86
  1

  0
LINE
  5
922F
330
922D
100
AcDbEntity
  8
0
  6
ByBlock
 62
     0
100
AcDbLine
 10
5836.905057
 20
4044.076100999999
 30
0.0
 11
5836.905057
 21
4144.076100999999
 31
0.0
  0
LINE
  5
9230
330
922D
100
AcDbEntity
  8
0
  6
ByBlock
 62
     0
100
AcDbLine
 10
5826.905057
 20
4064.076101
 30
0.0
 11
5826.905057
 21
4144.076100999999
 31
0.0
  0
LINE
  5
9231
330
922D
100
AcDbEntity
  8
0
  6
ByBlock
 62
     0
100
AcDbLine
 10
5856.905057
 20
4134.076100999999
 30
0.0
 11
5876.905057
 21
4134.076100999999
 31
0.0
  0
LINE
  5
9232
330
922D
100
AcDbEntity
  8
0
  6
ByBlock
 62
     0
100
AcDbLine
 10
5806.905057
 20
4134.076100999999
 30
0.0
 11
5786.905057
 21
4134.076100999999
 31
0.0
  0
MTEXT
  5
9233
330
922D
100
AcDbEntity
  8
0
  6
ByBlock
 62
     0
100
AcDbMText
 10
5803.166520000001
 20
4156.576100999999
 30
0.0
 40
25.0
 41
0.0
 71
     5
 72
     1
  1
\A1;10
 73
     1
 44
1.0
1001
ACAD
1000
MTEXTBEGIN
1070
    73
1070
     1
1070
    44
1040
1.0
1070
    74
1070
     0
1000
MTEXTEND
  0
LINE
  5
9234
330
922D
100
AcDbEntity
  8
0
  6
ByBlock
 62
     0
100
AcDbLine
 10
5836.905057
 20
4134.076100999999
 30
0.0
 11
5826.905057
 21
4134.076100999999
 31
0.0
  0
LINE
  5
9235
330
922D
100
AcDbEntity
  8
0
  6
ByBlock
 62
     0
100
AcDbLine
 10
5836.905057
 20
4134.076100999999
 30
0.0
 11
5826.905057
 21
4134.076100999999
 31
0.0
  0
INSERT
  5
9236
330
922D
100
AcDbEntity
  8
0
  6
ByBlock
 62
     0
100
AcDbBlockReference
  2
_OPEN
 10
5836.905057
 20
4134.076100999999
 30
0.0
 41
20.0
 42
20.0
 43
20.0
 50
180.0
  0
INSERT
  5
9237
330
922D
100
AcDbEntity
  8
0
  6
ByBlock
 62
     0
100
AcDbBlockReference
  2
_OPEN
 10
5826.905057
 20
4134.076100999999
 30
0.0
 41
20.0
 42
20.0
 43
20.0
  0
POINT
  5
9238
330
922D
100
AcDbEntity
  8
DEFPOINTS
  6
ByBlock
 62
     0
100
AcDbPoint
 10
5836.905057
 20
4014.076100999999
 30
0.0
  0
POINT
  5
9239
330
922D
100
AcDbEntity
  8
DEFPOINTS
  6
ByBlock
 62
     0
100
AcDbPoint
 10
5826.905057
 20
4034.076100999999
 30
0.0
  0
POINT
  5
923A
330
922D
100
AcDbEntity
  8
DEFPOINTS
  6
ByBlock
 62
     0
100
AcDbPoint
 10
5826.905057
 20
4134.076100999999
 30
0.0
  0
ENDBLK
  5
923B
330
922D
100
AcDbEntity
  8
0
100
AcDbBlockEnd
  0
BLOCK
  5
92E7
330
9255
100
AcDbEntity
  8
0
100
AcDbBlockBegin
  2
*D87
 70
     1
 10
0.0
 20
0.0
 30
0.0
  3
*D87
  1

  0
LINE
  5
92E8
330
9255
100
AcDbEntity
  8
0
  6
ByBlock
 62
     0
100
AcDbLine
 10
5563.405057
 20
2034.076101
 30
0.0
 11
5483.405057
 21
2034.076101
 31
0.0
  0
LINE
  5
92E9
330
9255
100
AcDbEntity
  8
0
  6
ByBlock
 62
     0
100
AcDbLine
 10
5568.405057
 20
1909.076101
 30
0.0
 11
5483.405057
 21
1909.076101
 31
0.0
  0
LINE
  5
92EA
330
9255
100
AcDbEntity
  8
0
  6
ByBlock
 62
     0
100
AcDbLine
 10
5493.405057
 20
2014.076101
 30
0.0
 11
5493.405057
 21
1929.076101
 31
0.0
  0
INSERT
  5
92EB
330
9255
100
AcDbEntity
  8
0
  6
ByBlock
 62
     0
100
AcDbBlockReference
  2
_OPEN
 10
5493.405057
 20
2034.076101
 30
0.0
 41
20.0
 42
20.0
 43
20.0
 50
90.0
  0
INSERT
  5
92EC
330
9255
100
AcDbEntity
  8
0
  6
ByBlock
 62
     0
100
AcDbBlockReference
  2
_OPEN
 10
5493.405057
 20
1909.076101
 30
0.0
 41
20.0
 42
20.0
 43
20.0
 50
270.0
  0
MTEXT
  5
92ED
330
9255
100
AcDbEntity
  8
0
  6
ByBlock
 62
     0
100
AcDbMText
 10
5470.905057
 20
1971.576101
 30
0.0
 40
25.0
 41
0.0
 71
     5
 72
     1
  1
\A1;125
 11
0.0
 21
1.0
 31
0.0
 73
     1
 44
1.0
1001
ACAD
1000
MTEXTBEGIN
1070
    73
1070
     1
1070
    44
1040
1.0
1070
    74
1070
     0
1000
MTEXTEND
  0
POINT
  5
92EE
330
9255
100
AcDbEntity
  8
DEFPOINTS
  6
ByBlock
 62
     0
100
AcDbPoint
 10
5593.405057
 20
2034.076101
 30
0.0
  0
POINT
  5
92EF
330
9255
100
AcDbEntity
  8
DEFPOINTS
  6
ByBlock
 62
     0
100
AcDbPoint
 10
5598.405057
 20
1909.076101
 30
0.0
  0
POINT
  5
92F0
330
9255
100
AcDbEntity
  8
DEFPOINTS
  6
ByBlock
 62
     0
100
AcDbPoint
 10
5493.405057
 20
1909.076101
 30
0.0
  0
ENDBLK
  5
92F1
330
9255
100
AcDbEntity
  8
0
100
AcDbBlockEnd
  0
BLOCK
  5
9262
330
9261
100
AcDbEntity
  8
0
100
AcDbBlockBegin
  2
*D88
 70
     1
 10
0.0
 20
0.0
 30
0.0
  3
*D88
  1

  0
LINE
  5
9263
330
9261
100
AcDbEntity
  8
0
  6
ByBlock
 62
     0
100
AcDbLine
 10
6215.405057
 20
4504.076100999999
 30
0.0
 11
6215.405057
 21
4299.076100999999
 31
0.0
  0
LINE
  5
9264
330
9261
100
AcDbEntity
  8
0
  6
ByBlock
 62
     0
100
AcDbLine
 10
6210.405057
 20
4379.076100999999
 30
0.0
 11
6210.405057
 21
4299.076100999999
 31
0.0
  0
LINE
  5
9265
330
9261
100
AcDbEntity
  8
0
  6
ByBlock
 62
     0
100
AcDbLine
 10
6235.405057
 20
4309.076100999999
 30
0.0
 11
6255.405057
 21
4309.076100999999
 31
0.0
  0
LINE
  5
9266
330
9261
100
AcDbEntity
  8
0
  6
ByBlock
 62
     0
100
AcDbLine
 10
6210.405057
 20
4309.076100999999
 30
0.0
 11
6190.405057
 21
4309.076100999999
 31
0.0
  0
MTEXT
  5
9267
330
9261
100
AcDbEntity
  8
0
  6
ByBlock
 62
     0
100
AcDbMText
 10
6232.23721
 20
4331.576100999999
 30
0.0
 40
25.0
 41
0.0
 71
     5
 72
     1
  1
\A1;5
 73
     1
 44
1.0
1001
ACAD
1000
MTEXTBEGIN
1070
    73
1070
     1
1070
    44
1040
1.0
1070
    74
1070
     0
1000
MTEXTEND
  0
LINE
  5
9268
330
9261
100
AcDbEntity
  8
0
  6
ByBlock
 62
     0
100
AcDbLine
 10
6215.405057
 20
4309.076100999999
 30
0.0
 11
6210.405057
 21
4309.076100999999
 31
0.0
  0
LINE
  5
9269
330
9261
100
AcDbEntity
  8
0
  6
ByBlock
 62
     0
100
AcDbLine
 10
6215.405057
 20
4309.076100999999
 30
0.0
 11
6210.405057
 21
4309.076100999999
 31
0.0
  0
INSERT
  5
926A
330
9261
100
AcDbEntity
  8
0
  6
ByBlock
 62
     0
100
AcDbBlockReference
  2
_OPEN
 10
6215.405057
 20
4309.076100999999
 30
0.0
 41
20.0
 42
20.0
 43
20.0
 50
180.0
  0
POINT
  5
926B
330
9261
100
AcDbEntity
  8
DEFPOINTS
  6
ByBlock
 62
     0
100
AcDbPoint
 10
6215.405057
 20
4534.076100999999
 30
0.0
  0
POINT
  5
926C
330
9261
100
AcDbEntity
  8
DEFPOINTS
  6
ByBlock
 62
     0
100
AcDbPoint
 10
6210.405057
 20
4409.076100999999
 30
0.0
  0
POINT
  5
926D
330
9261
100
AcDbEntity
  8
DEFPOINTS
  6
ByBlock
 62
     0
100
AcDbPoint
 10
6210.405057
 20
4309.076100999999
 30
0.0
  0
ENDBLK
  5
926E
330
9261
100
AcDbEntity
  8
0
100
AcDbBlockEnd
  0
BLOCK
  5
927F
330
927E
100
AcDbEntity
  8
0
100
AcDbBlockBegin
  2
*D89
 70
     1
 10
0.0
 20
0.0
 30
0.0
  3
*D89
  1

  0
LINE
  5
9280
330
927E
100
AcDbEntity
  8
0
  6
ByBlock
 62
     0
100
AcDbLine
 10
5971.905057
 20
4044.076100999999
 30
0.0
 11
5971.905057
 21
4144.076100999999
 31
0.0
  0
LINE
  5
9281
330
927E
100
AcDbEntity
  8
0
  6
ByBlock
 62
     0
100
AcDbLine
 10
5981.905057
 20
4064.076101
 30
0.0
 11
5981.905057
 21
4144.076100999999
 31
0.0
  0
LINE
  5
9282
330
927E
100
AcDbEntity
  8
0
  6
ByBlock
 62
     0
100
AcDbLine
 10
5951.905057
 20
4134.076100999999
 30
0.0
 11
5931.905057
 21
4134.076100999999
 31
0.0
  0
LINE
  5
9283
330
927E
100
AcDbEntity
  8
0
  6
ByBlock
 62
     0
100
AcDbLine
 10
6001.905057
 20
4134.076100999999
 30
0.0
 11
6021.905057
 21
4134.076100999999
 31
0.0
  0
MTEXT
  5
9284
330
927E
100
AcDbEntity
  8
0
  6
ByBlock
 62
     0
100
AcDbMText
 10
6000.294703000001
 20
4156.576100999999
 30
0.0
 40
25.0
 41
0.0
 71
     5
 72
     1
  1
\A1;10
 73
     1
 44
1.0
1001
ACAD
1000
MTEXTBEGIN
1070
    73
1070
     1
1070
    44
1040
1.0
1070
    74
1070
     0
1000
MTEXTEND
  0
LINE
  5
9285
330
927E
100
AcDbEntity
  8
0
  6
ByBlock
 62
     0
100
AcDbLine
 10
5971.905057
 20
4134.076100999999
 30
0.0
 11
5981.905057
 21
4134.076100999999
 31
0.0
  0
LINE
  5
9286
330
927E
100
AcDbEntity
  8
0
  6
ByBlock
 62
     0
100
AcDbLine
 10
5971.905057
 20
4134.076100999999
 30
0.0
 11
5981.905057
 21
4134.076100999999
 31
0.0
  0
INSERT
  5
9287
330
927E
100
AcDbEntity
  8
0
  6
ByBlock
 62
     0
100
AcDbBlockReference
  2
_OPEN
 10
5971.905057
 20
4134.076100999999
 30
0.0
 41
20.0
 42
20.0
 43
20.0
  0
INSERT
  5
9288
330
927E
100
AcDbEntity
  8
0
  6
ByBlock
 62
     0
100
AcDbBlockReference
  2
_OPEN
 10
5981.905057
 20
4134.076100999999
 30
0.0
 41
20.0
 42
20.0
 43
20.0
 50
180.0
  0
POINT
  5
9289
330
927E
100
AcDbEntity
  8
DEFPOINTS
  6
ByBlock
 62
     0
100
AcDbPoint
 10
5971.905057
 20
4014.076100999999
 30
0.0
  0
POINT
  5
928A
330
927E
100
AcDbEntity
  8
DEFPOINTS
  6
ByBlock
 62
     0
100
AcDbPoint
 10
5981.905057
 20
4034.076100999999
 30
0.0
  0
POINT
  5
928B
330
927E
100
AcDbEntity
  8
DEFPOINTS
  6
ByBlock
 62
     0
100
AcDbPoint
 10
5981.905057
 20
4134.076100999999
 30
0.0
  0
ENDBLK
  5
928C
330
927E
100
AcDbEntity
  8
0
100
AcDbBlockEnd
  0
BLOCK
  5
929A
330
9299
100
AcDbEntity
  8
0
100
AcDbBlockBegin
  2
*D90
 70
     1
 10
0.0
 20
0.0
 30
0.0
  3
*D90
  1

  0
LINE
  5
929B
330
9299
100
AcDbEntity
  8
0
  6
ByBlock
 62
     0
100
AcDbLine
 10
2598.405057
 20
1914.076101
 30
0.0
 11
2598.405057
 21
1834.076101
 31
0.0
  0
LINE
  5
929C
330
9299
100
AcDbEntity
  8
0
  6
ByBlock
 62
     0
100
AcDbLine
 10
2950.405057
 20
1914.076101
 30
0.0
 11
2950.405057
 21
1834.076101
 31
0.0
  0
LINE
  5
929D
330
9299
100
AcDbEntity
  8
0
  6
ByBlock
 62
     0
100
AcDbLine
 10
2618.405057
 20
1844.076101
 30
0.0
 11
2930.405057
 21
1844.076101
 31
0.0
  0
INSERT
  5
929E
330
9299
100
AcDbEntity
  8
0
  6
ByBlock
 62
     0
100
AcDbBlockReference
  2
_OPEN
 10
2598.405057
 20
1844.076101
 30
0.0
 41
20.0
 42
20.0
 43
20.0
 50
180.0
  0
INSERT
  5
929F
330
9299
100
AcDbEntity
  8
0
  6
ByBlock
 62
     0
100
AcDbBlockReference
  2
_OPEN
 10
2950.405057
 20
1844.076101
 30
0.0
 41
20.0
 42
20.0
 43
20.0
  0
MTEXT
  5
92A0
330
9299
100
AcDbEntity
  8
0
  6
ByBlock
 62
     0
100
AcDbMText
 10
2774.405057
 20
1866.576101
 30
0.0
 40
25.0
 41
0.0
 71
     5
 72
     1
  1
\A1;352
 73
     1
 44
1.0
1001
ACAD
1000
MTEXTBEGIN
1070
    73
1070
     1
1070
    44
1040
1.0
1070
    74
1070
     0
1000
MTEXTEND
  0
POINT
  5
92A1
330
9299
100
AcDbEntity
  8
DEFPOINTS
  6
ByBlock
 62
     0
100
AcDbPoint
 10
2598.405057
 20
1944.076101
 30
0.0
  0
POINT
  5
92A2
330
9299
100
AcDbEntity
  8
DEFPOINTS
  6
ByBlock
 62
     0
100
AcDbPoint
 10
2950.405057
 20
1944.076101
 30
0.0
  0
POINT
  5
92A3
330
9299
100
AcDbEntity
  8
DEFPOINTS
  6
ByBlock
 62
     0
100
AcDbPoint
 10
2950.405057
 20
1844.076101
 30
0.0
  0
ENDBLK
  5
92A4
330
9299
100
AcDbEntity
  8
0
100
AcDbBlockEnd
  0
BLOCK
  5
92C0
330
92BF
100
AcDbEntity
  8
0
100
AcDbBlockBegin
  2
*D91
 70
     1
 10
0.0
 20
0.0
 30
0.0
  3
*D91
  1

  0
LINE
  5
92C1
330
92BF
100
AcDbEntity
  8
0
  6
ByBlock
 62
     0
100
AcDbLine
 10
3598.405057
 20
1909.076101
 30
0.0
 11
3598.405057
 21
1829.076101
 31
0.0
  0
LINE
  5
92C2
330
92BF
100
AcDbEntity
  8
0
  6
ByBlock
 62
     0
100
AcDbLine
 10
4000.405057
 20
1909.076101
 30
0.0
 11
4000.405057
 21
1829.076101
 31
0.0
  0
LINE
  5
92C3
330
92BF
100
AcDbEntity
  8
0
  6
ByBlock
 62
     0
100
AcDbLine
 10
3618.405057
 20
1839.076101
 30
0.0
 11
3980.405057
 21
1839.076101
 31
0.0
  0
INSERT
  5
92C4
330
92BF
100
AcDbEntity
  8
0
  6
ByBlock
 62
     0
100
AcDbBlockReference
  2
_OPEN
 10
3598.405057
 20
1839.076101
 30
0.0
 41
20.0
 42
20.0
 43
20.0
 50
180.0
  0
INSERT
  5
92C5
330
92BF
100
AcDbEntity
  8
0
  6
ByBlock
 62
     0
100
AcDbBlockReference
  2
_OPEN
 10
4000.405057
 20
1839.076101
 30
0.0
 41
20.0
 42
20.0
 43
20.0
  0
MTEXT
  5
92C6
330
92BF
100
AcDbEntity
  8
0
  6
ByBlock
 62
     0
100
AcDbMText
 10
3799.405057
 20
1861.576101
 30
0.0
 40
25.0
 41
0.0
 71
     5
 72
     1
  1
\A1;402
 73
     1
 44
1.0
1001
ACAD
1000
MTEXTBEGIN
1070
    73
1070
     1
1070
    44
1040
1.0
1070
    74
1070
     0
1000
MTEXTEND
  0
POINT
  5
92C7
330
92BF
100
AcDbEntity
  8
DEFPOINTS
  6
ByBlock
 62
     0
100
AcDbPoint
 10
3598.405057
 20
1939.076101
 30
0.0
  0
POINT
  5
92C8
330
92BF
100
AcDbEntity
  8
DEFPOINTS
  6
ByBlock
 62
     0
100
AcDbPoint
 10
4000.405057
 20
1939.076101
 30
0.0
  0
POINT
  5
92C9
330
92BF
100
AcDbEntity
  8
DEFPOINTS
  6
ByBlock
 62
     0
100
AcDbPoint
 10
4000.405057
 20
1839.076101
 30
0.0
  0
ENDBLK
  5
92CA
330
92BF
100
AcDbEntity
  8
0
100
AcDbBlockEnd
  0
BLOCK
  5
92DB
330
92DA
100
AcDbEntity
  8
0
100
AcDbBlockBegin
  2
*D92
 70
     1
 10
0.0
 20
0.0
 30
0.0
  3
*D92
  1

  0
LINE
  5
92DC
330
92DA
100
AcDbEntity
  8
0
  6
ByBlock
 62
     0
100
AcDbLine
 10
4598.405056999999
 20
1894.076101
 30
0.0
 11
4598.405056999999
 21
1814.076101
 31
0.0
  0
LINE
  5
92DD
330
92DA
100
AcDbEntity
  8
0
  6
ByBlock
 62
     0
100
AcDbLine
 10
5100.405057
 20
1894.076101
 30
0.0
 11
5100.405057
 21
1814.076101
 31
0.0
  0
LINE
  5
92DE
330
92DA
100
AcDbEntity
  8
0
  6
ByBlock
 62
     0
100
AcDbLine
 10
4618.405057
 20
1824.076101
 30
0.0
 11
5080.405057
 21
1824.076101
 31
0.0
  0
INSERT
  5
92DF
330
92DA
100
AcDbEntity
  8
0
  6
ByBlock
 62
     0
100
AcDbBlockReference
  2
_OPEN
 10
4598.405056999999
 20
1824.076101
 30
0.0
 41
20.0
 42
20.0
 43
20.0
 50
180.0
  0
INSERT
  5
92E0
330
92DA
100
AcDbEntity
  8
0
  6
ByBlock
 62
     0
100
AcDbBlockReference
  2
_OPEN
 10
5100.405057
 20
1824.076101
 30
0.0
 41
20.0
 42
20.0
 43
20.0
  0
MTEXT
  5
92E1
330
92DA
100
AcDbEntity
  8
0
  6
ByBlock
 62
     0
100
AcDbMText
 10
4849.405057
 20
1846.576101
 30
0.0
 40
25.0
 41
0.0
 71
     5
 72
     1
  1
\A1;502
 73
     1
 44
1.0
1001
ACAD
1000
MTEXTBEGIN
1070
    73
1070
     1
1070
    44
1040
1.0
1070
    74
1070
     0
1000
MTEXTEND
  0
POINT
  5
92E2
330
92DA
100
AcDbEntity
  8
DEFPOINTS
  6
ByBlock
 62
     0
100
AcDbPoint
 10
4598.405056999999
 20
1924.076101
 30
0.0
  0
POINT
  5
92E3
330
92DA
100
AcDbEntity
  8
DEFPOINTS
  6
ByBlock
 62
     0
100
AcDbPoint
 10
5100.405057
 20
1924.076101
 30
0.0
  0
POINT
  5
92E4
330
92DA
100
AcDbEntity
  8
DEFPOINTS
  6
ByBlock
 62
     0
100
AcDbPoint
 10
5100.405057
 20
1824.076101
 30
0.0
  0
ENDBLK
  5
92E5
330
92DA
100
AcDbEntity
  8
0
100
AcDbBlockEnd
  0
BLOCK
  5
92F4
330
92F3
100
AcDbEntity
  8
0
100
AcDbBlockBegin
  2
*D93
 70
     1
 10
0.0
 20
0.0
 30
0.0
  3
*D93
  1

  0
LINE
  5
92F5
330
92F3
100
AcDbEntity
  8
0
  6
ByBlock
 62
     0
100
AcDbLine
 10
5598.405057
 20
1879.076101
 30
0.0
 11
5598.405057
 21
1799.076101
 31
0.0
  0
LINE
  5
92F6
330
92F3
100
AcDbEntity
  8
0
  6
ByBlock
 62
     0
100
AcDbLine
 10
6210.405057
 20
1879.076101
 30
0.0
 11
6210.405057
 21
1799.076101
 31
0.0
  0
LINE
  5
92F7
330
92F3
100
AcDbEntity
  8
0
  6
ByBlock
 62
     0
100
AcDbLine
 10
5618.405057
 20
1809.076101
 30
0.0
 11
6190.405057
 21
1809.076101
 31
0.0
  0
INSERT
  5
92F8
330
92F3
100
AcDbEntity
  8
0
  6
ByBlock
 62
     0
100
AcDbBlockReference
  2
_OPEN
 10
5598.405057
 20
1809.076101
 30
0.0
 41
20.0
 42
20.0
 43
20.0
 50
180.0
  0
INSERT
  5
92F9
330
92F3
100
AcDbEntity
  8
0
  6
ByBlock
 62
     0
100
AcDbBlockReference
  2
_OPEN
 10
6210.405057
 20
1809.076101
 30
0.0
 41
20.0
 42
20.0
 43
20.0
  0
MTEXT
  5
92FA
330
92F3
100
AcDbEntity
  8
0
  6
ByBlock
 62
     0
100
AcDbMText
 10
5904.405057
 20
1831.576101
 30
0.0
 40
25.0
 41
0.0
 71
     5
 72
     1
  1
\A1;612
 73
     1
 44
1.0
1001
ACAD
1000
MTEXTBEGIN
1070
    73
1070
     1
1070
    44
1040
1.0
1070
    74
1070
     0
1000
MTEXTEND
  0
POINT
  5
92FB
330
92F3
100
AcDbEntity
  8
DEFPOINTS
  6
ByBlock
 62
     0
100
AcDbPoint
 10
5598.405057
 20
1909.076101
 30
0.0
  0
POINT
  5
92FC
330
92F3
100
AcDbEntity
  8
DEFPOINTS
  6
ByBlock
 62
     0
100
AcDbPoint
 10
6210.405057
 20
1909.076101
 30
0.0
  0
POINT
  5
92FD
330
92F3
100
AcDbEntity
  8
DEFPOINTS
  6
ByBlock
 62
     0
100
AcDbPoint
 10
6210.405057
 20
1809.076101
 30
0.0
  0
ENDBLK
  5
92FE
330
92F3
100
AcDbEntity
  8
0
100
AcDbBlockEnd
  0
ENDSEC
  0
SECTION
  2
ENTITIES
  0
MTEXT
  5
CA
330
67
100
AcDbEntity
  8
1-構造
  6
Continuous
 62
     7
100
AcDbMText
 10
34848.0
 20
72131.0
 30
0.0
 40
320.0
 41
0.0
 71
     7
 72
     5
  1

  7
DIM
 73
     1
 44
1.0
1001
ACAD
1000
MTEXTBEGIN
1070
    73
1070
     1
1070
    44
1040
1.0
1070
    74
1070
     0
1000
MTEXTEND
  0
LINE
  5
770
330
67
100
AcDbEntity
  8
DEFPOINTS
 48
10.0
100
AcDbLine
 10
0.0
 20
5940.0
 30
0.0
 11
0.0
 21
0.0
 31
0.0
  0
LINE
  5
772
330
67
100
AcDbEntity
  8
DEFPOINTS
 48
10.0
100
AcDbLine
 10
0.0
 20
0.0
 30
0.0
 11
8410.0
 21
0.0
 31
0.0
  0
LINE
  5
78C
330
67
100
AcDbEntity
  8
DEFPOINTS
 48
10.0
100
AcDbLine
 10
8410.0
 20
5940.0
 30
0.0
 11
8410.0
 21
0.0
 31
0.0
  0
LINE
  5
78D
330
67
100
AcDbEntity
  8
DEFPOINTS
 48
10.0
100
AcDbLine
 10
0.0
 20
5940.0
 30
0.0
 11
8410.0
 21
5940.0
 31
0.0
  0
LINE
  5
792
330
67
100
AcDbEntity
  8
DEFPOINTS
 48
10.0
100
AcDbLine
 10
8210.0
 20
5740.0
 30
0.0
 11
8210.0
 21
200.0
 31
0.0
  0
LINE
  5
793
330
67
100
AcDbEntity
  8
DEFPOINTS
 48
10.0
100
AcDbLine
 10
200.0
 20
200.0
 30
0.0
 11
8210.0
 21
200.0
 31
0.0
  0
LINE
  5
794
330
67
100
AcDbEntity
  8
DEFPOINTS
 48
10.0
100
AcDbLine
 10
200.0
 20
5740.0
 30
0.0
 11
200.0
 21
200.0
 31
0.0
  0
LINE
  5
795
330
67
100
AcDbEntity
  8
DEFPOINTS
 48
10.0
100
AcDbLine
 10
200.0
 20
5740.0
 30
0.0
 11
8210.0
 21
5740.0
 31
0.0
  0
LINE
  5
B7D
330
67
100
AcDbEntity
  8
7-文字
100
AcDbLine
 10
3012.737118314321
 20
5271.768834999998
 30
0.0
 11
5398.270113238179
 21
5271.768835000001
 31
0.0
  0
LINE
  5
47BF
330
67
100
AcDbEntity
  8
7-文字
100
AcDbLine
 10
2002.744386
 20
4898.805161000001
 30
0.0
 11
2129.144661874017
 21
4898.805161000001
 31
0.0
  0
ARC
  5
5B3D
330
67
100
AcDbEntity
  8
1-構造
100
AcDbCircle
 10
0.0
 20
0.0
 30
0.0
 40
5.0
100
AcDbArc
 50
0.0
 51
0.0
  0
DIMENSION
  5
5F18
330
67
100
AcDbEntity
  8
6-寸法
100
AcDbDimension
  2
*D2
 10
2093.405057
 20
3534.076101
 30
0.0
 11
2070.905057
 21
3784.076101
 31
0.0
 12
500.0
 22
-593.7290599999999
 32
0.0
 70
    32
 71
     5
 42
-1.0
  3
STANDARD
100
AcDbAlignedDimension
 13
2193.405057
 23
4034.076100999999
 33
0.0
 14
2193.405057
 24
3534.076101
 34
0.0
 50
90.0
100
AcDbRotatedDimension
1001
ACAD
1000
DSTYLE
1002
{
1070
    77
1070
     3
1070
    40
1040
10.0
1070
   173
1070
     1
1070
   147
1040
1.0
1070
    42
1040
3.0
1070
     7
1000
_OPEN
1070
     6
1000
_OPEN
1070
    41
1040
2.0
1002
}
  0
DIMENSION
  5
5F19
330
67
100
AcDbEntity
  8
6-寸法
100
AcDbDimension
  2
*D3
 10
2093.405057
 20
4479.076100999999
 30
0.0
 11
2070.905057
 21
4417.939072999999
 31
0.0
 12
-400.0
 22
0.0
 32
0.0
 70
   160
 71
     5
 42
-1.0
  3
STANDARD
100
AcDbAlignedDimension
 13
2198.405057
 23
4444.076100999999
 33
0.0
 14
2283.227636
 24
4479.076100999999
 34
0.0
 50
90.0
100
AcDbRotatedDimension
1001
ACAD
1000
DSTYLE
1002
{
1070
    77
1070
     3
1070
    40
1040
10.0
1070
   173
1070
     1
1070
   147
1040
1.0
1070
    42
1040
3.0
1070
     7
1000
_DOTSMALL
1070
     6
1000
_OPEN
1070
    41
1040
2.0
1002
}
  0
LINE
  5
5F1B
330
67
100
AcDbEntity
  8
1-構造
100
AcDbLine
 10
2555.405057
 20
4034.076100999999
 30
0.0
 11
2555.405057
 21
3534.076101
 31
0.0
  0
LINE
  5
5F1C
330
67
100
AcDbEntity
  8
1-構造
100
AcDbLine
 10
2193.405057
 20
4034.076100999999
 30
0.0
 11
2193.405057
 21
3534.076101
 31
0.0
  0
LINE
  5
5F23
330
67
100
AcDbEntity
  8
1-構造
100
AcDbLine
 10
2451.905057
 20
4034.076100999999
 30
0.0
 11
2555.405057
 21
4034.076100999999
 31
0.0
  0
LINE
  5
5F25
330
67
100
AcDbEntity
  8
1-構造
100
AcDbLine
 10
2193.405057
 20
4034.076100999999
 30
0.0
 11
2296.905057
 21
4034.076100999999
 31
0.0
  0
DIMENSION
  5
5F26
330
67
100
AcDbEntity
  8
6-寸法
100
AcDbDimension
  2
*D5
 10
2441.905057
 20
4134.076100999999
 30
0.0
 11
2374.405057
 21
4156.576100999999
 31
0.0
 12
-400.0
 22
0.0
 32
0.0
 70
    32
 71
     5
 42
-1.0
  3
STANDARD
100
AcDbAlignedDimension
 13
2306.905057
 23
4014.076100999999
 33
0.0
 14
2441.905057
 24
4014.076100999999
 34
0.0
100
AcDbRotatedDimension
1001
ACAD
1000
DSTYLE
1002
{
1070
    77
1070
     3
1070
    40
1040
10.0
1070
   173
1070
     1
1070
   147
1040
1.0
1070
    42
1040
3.0
1070
     7
1000
_OPEN
1070
     6
1000
_OPEN
1070
    41
1040
2.0
1002
}
  0
LINE
  5
5F32
330
67
100
AcDbEntity
  8
1-構造
100
AcDbLine
 10
2193.405057
 20
4534.076100999999
 30
0.0
 11
2555.405057
 21
4534.076100999999
 31
0.0
  0
DIMENSION
  5
5F33
330
67
100
AcDbEntity
  8
6-寸法
100
AcDbDimension
  2
*D4
 10
2555.405057
 20
4634.076100999999
 30
0.0
 11
2374.405057
 21
4656.576100999999
 31
0.0
 12
-400.0
 22
0.0
 32
0.0
 70
    32
 71
     5
 42
-1.0
  3
STANDARD
100
AcDbAlignedDimension
 13
2193.405057
 23
4534.076100999999
 33
0.0
 14
2555.405057
 24
4534.076100999999
 34
0.0
100
AcDbRotatedDimension
1001
ACAD
1000
DSTYLE
1002
{
1070
    77
1070
     3
1070
    40
1040
10.0
1070
   173
1070
     1
1070
   147
1040
1.0
1070
    42
1040
3.0
1070
     7
1000
_OPEN
1070
     6
1000
_OPEN
1070
    41
1040
2.0
1002
}
  0
LINE
  5
786E
330
67
100
AcDbEntity
  8
1-構造
100
AcDbLine
 10
2555.405057
 20
4534.076100999999
 30
0.0
 11
2550.405057
 21
4444.076100999999
 31
0.0
  0
LINE
  5
786F
330
67
100
AcDbEntity
  8
1-構造
100
AcDbLine
 10
2550.405057
 20
4444.076100999999
 30
0.0
 11
2500.405057
 21
4444.076100999999
 31
0.0
  0
LINE
  5
7870
330
67
100
AcDbEntity
  8
1-構造
100
AcDbLine
 10
2500.279601
 20
4444.378977999999
 30
0.0
 11
2465.582478
 21
4479.076100999999
 31
0.0
  0
LINE
  5
7871
330
67
100
AcDbEntity
  8
1-構造
100
AcDbLine
 10
2283.227636
 20
4479.076100999999
 30
0.0
 11
2465.582478
 21
4479.076100999999
 31
0.0
  0
LINE
  5
7874
330
67
100
AcDbEntity
  8
1-構造
100
AcDbLine
 10
2193.405057
 20
4534.076100999999
 30
0.0
 11
2198.405057
 21
4444.076100999999
 31
0.0
  0
LINE
  5
7875
330
67
100
AcDbEntity
  8
1-構造
100
AcDbLine
 10
2198.405057
 20
4444.076100999999
 30
0.0
 11
2248.405057
 21
4444.076100999999
 31
0.0
  0
LINE
  5
7876
330
67
100
AcDbEntity
  8
1-構造
100
AcDbLine
 10
2248.530513
 20
4444.378977999999
 30
0.0
 11
2283.227636
 21
4479.076100999999
 31
0.0
  0
DIMENSION
  5
78C3
330
67
100
AcDbEntity
  8
6-寸法
100
AcDbDimension
  2
*D6
 10
2043.405057
 20
4444.076100999999
 30
0.0
 11
2020.905057
 21
4489.076101
 31
0.0
 12
-400.0
 22
0.0
 32
0.0
 70
    32
 71
     5
 42
-1.0
  3
STANDARD
100
AcDbAlignedDimension
 13
2193.405057
 23
4534.076100999999
 33
0.0
 14
2198.405057
 24
4444.076100999999
 34
0.0
 50
90.0
100
AcDbRotatedDimension
1001
ACAD
1000
DSTYLE
1002
{
1070
    77
1070
     3
1070
    40
1040
10.0
1070
   173
1070
     1
1070
   147
1040
1.0
1070
    42
1040
3.0
1070
     7
1000
_OPEN
1070
     6
1000
_OPEN
1070
     5
1000

1070
    41
1040
2.0
1002
}
  0
DIMENSION
  5
791C
330
67
100
AcDbEntity
  8
6-寸法
100
AcDbDimension
  2
*D7
 10
2093.405057
 20
4479.076100999999
 30
0.0
 11
2070.905057
 21
4506.576100999999
 31
0.0
 12
-400.0
 22
0.0
 32
0.0
 70
    32
 71
     5
 42
-1.0
  3
STANDARD
100
AcDbAlignedDimension
 13
2193.405057
 23
4534.076100999999
 33
0.0
 14
2283.227636
 24
4479.076100999999
 34
0.0
 50
90.0
100
AcDbRotatedDimension
1001
ACAD
1000
DSTYLE
1002
{
1070
    77
1070
     3
1070
    40
1040
10.0
1070
   173
1070
     1
1070
   147
1040
1.0
1070
    42
1040
3.0
1070
     7
1000
_NONE
1070
     6
1000
_OPEN
1070
     5
1000

1070
    41
1040
2.0
1002
}
  0
DIMENSION
  5
7955
330
67
100
AcDbEntity
  8
6-寸法
100
AcDbDimension
  2
*D8
 10
2198.405057
 20
4344.076100999999
 30
0.0
 11
2176.572904
 21
4366.576100999999
 31
0.0
 12
-400.0
 22
0.0
 32
0.0
 70
   160
 71
     5
 42
-1.0
  3
STANDARD
100
AcDbAlignedDimension
 13
2193.405057
 23
4534.076100999999
 33
0.0
 14
2198.405057
 24
4444.076100999999
 34
0.0
100
AcDbRotatedDimension
1001
ACAD
1000
DSTYLE
1002
{
1070
    77
1070
     3
1070
    40
1040
10.0
1070
   173
1070
     1
1070
   147
1040
1.0
1070
    42
1040
3.0
1070
     7
1000
_NONE
1070
     6
1000
_OPEN
1070
     5
1000

1070
    41
1040
2.0
1002
}
  0
DIMENSION
  5
7964
330
67
100
AcDbEntity
  8
6-寸法
100
AcDbDimension
  2
*D9
 10
2248.405057
 20
4344.076100999999
 30
0.0
 11
2223.405057
 21
4366.576100999999
 31
0.0
 12
-400.0
 22
0.0
 32
0.0
 70
    32
 71
     5
 42
-1.0
  3
STANDARD
100
AcDbAlignedDimension
 13
2198.405057
 23
4444.076100999999
 33
0.0
 14
2248.405057
 24
4444.076100999999
 34
0.0
100
AcDbRotatedDimension
1001
ACAD
1000
DSTYLE
1002
{
1070
    77
1070
     3
1070
    40
1040
10.0
1070
   173
1070
     1
1070
   147
1040
1.0
1070
    42
1040
3.0
1070
     7
1000
_OPEN
1070
     6
1000
_DOTSMALL
1070
     5
1000

1070
    41
1040
2.0
1002
}
  0
DIMENSION
  5
7973
330
67
100
AcDbEntity
  8
6-寸法
100
AcDbDimension
  2
*D10
 10
2550.405057
 20
4344.076100999999
 30
0.0
 11
2572.23721
 21
4366.576100999999
 31
0.0
 12
-400.0
 22
0.0
 32
0.0
 70
   160
 71
     5
 42
-1.0
  3
STANDARD
100
AcDbAlignedDimension
 13
2555.405057
 23
4534.076100999999
 33
0.0
 14
2550.405057
 24
4444.076100999999
 34
0.0
100
AcDbRotatedDimension
1001
ACAD
1000
DSTYLE
1002
{
1070
    77
1070
     3
1070
    40
1040
10.0
1070
   173
1070
     1
1070
   147
1040
1.0
1070
    42
1040
3.0
1070
     7
1000
_NONE
1070
     6
1000
_OPEN
1070
     5
1000

1070
    41
1040
2.0
1002
}
  0
DIMENSION
  5
7974
330
67
100
AcDbEntity
  8
6-寸法
100
AcDbDimension
  2
*D11
 10
2500.405057
 20
4344.076100999999
 30
0.0
 11
2525.405057
 21
4366.576100999999
 31
0.0
 12
-400.0
 22
0.0
 32
0.0
 70
    32
 71
     5
 42
-1.0
  3
STANDARD
100
AcDbAlignedDimension
 13
2550.405057
 23
4444.076100999999
 33
0.0
 14
2500.405057
 24
4444.076100999999
 34
0.0
100
AcDbRotatedDimension
1001
ACAD
1000
DSTYLE
1002
{
1070
    77
1070
     3
1070
    40
1040
10.0
1070
   173
1070
     1
1070
   147
1040
1.0
1070
    42
1040
3.0
1070
     7
1000
_OPEN
1070
     6
1000
_DOTSMALL
1070
     5
1000

1070
    41
1040
2.0
1002
}
  0
LINE
  5
79D5
330
67
100
AcDbEntity
  8
0
  6
ByBlock
 62
     0
100
AcDbLine
 10
2278.405057
 20
4444.076100999999
 30
0.0
 11
2305.235508
 21
4444.076100999999
 31
0.0
  0
INSERT
  5
79D7
330
67
100
AcDbEntity
  8
0
  6
ByBlock
 62
     0
100
AcDbBlockReference
  2
_OPEN
 10
2295.235508
 20
4444.076100999999
 30
0.0
 41
20.0
 42
20.0
 43
20.0
 50
282.282405
  0
INSERT
  5
79D8
330
67
100
AcDbEntity
  8
0
  6
ByBlock
 62
     0
100
AcDbBlockReference
  2
_OPEN
 10
2281.467221
 20
4477.315685999999
 30
0.0
 41
20.0
 42
20.0
 43
20.0
 50
122.7175949999999
  0
MTEXT
  5
79D9
330
67
100
AcDbEntity
  8
0
  6
ByBlock
 62
     0
100
AcDbMText
 10
2329.36509
 20
4436.778374000001
 30
0.0
 40
25.0
 41
0.0
 71
     5
 72
     1
  1
\A1;45°
 11
0.3826828980362602
 21
-0.9238797538373535
 31
0.0
 73
     1
 44
1.0
1001
ACAD
1000
MTEXTBEGIN
1070
    73
1070
     1
1070
    44
1040
1.0
1070
    74
1070
     0
1000
MTEXTEND
  0
POINT
  5
79DB
330
67
100
AcDbEntity
  8
DEFPOINTS
  6
ByBlock
 62
     0
100
AcDbPoint
 10
2198.405057
 20
4444.076100999999
 30
0.0
  0
POINT
  5
79DC
330
67
100
AcDbEntity
  8
DEFPOINTS
  6
ByBlock
 62
     0
100
AcDbPoint
 10
2248.530513
 20
4444.378977999999
 30
0.0
  0
POINT
  5
79DD
330
67
100
AcDbEntity
  8
DEFPOINTS
  6
ByBlock
 62
     0
100
AcDbPoint
 10
2283.227636
 20
4479.076100999999
 30
0.0
  0
POINT
  5
79DE
330
67
100
AcDbEntity
  8
DEFPOINTS
  6
ByBlock
 62
     0
100
AcDbPoint
 10
2248.405057
 20
4444.076100999999
 30
0.0
  0
LINE
  5
79E3
330
67
100
AcDbEntity
  8
1-構造
100
AcDbLine
 10
2306.905057
 20
4014.076100999999
 30
0.0
 11
2441.905057
 21
4014.076100999999
 31
0.0
  0
LINE
  5
79FC
330
67
100
AcDbEntity
  8
1-構造
100
AcDbLine
 10
2296.905057
 20
4034.076100999999
 30
0.0
 11
2306.905057
 21
4014.076100999999
 31
0.0
  0
LINE
  5
79FD
330
67
100
AcDbEntity
  8
1-構造
100
AcDbLine
 10
2441.905057
 20
4014.076100999999
 30
0.0
 11
2451.905057
 21
4034.076100999999
 31
0.0
  0
DIMENSION
  5
7A38
330
67
100
AcDbEntity
  8
6-寸法
100
AcDbDimension
  2
*D12
 10
2451.905057
 20
4134.076100999999
 30
0.0
 11
2470.294703
 21
4156.576100999999
 31
0.0
 12
-400.0
 22
0.0
 32
0.0
 70
   160
 71
     5
 42
-1.0
  3
STANDARD
100
AcDbAlignedDimension
 13
2441.905057
 23
4014.076100999999
 33
0.0
 14
2451.905057
 24
4034.076100999999
 34
0.0
100
AcDbRotatedDimension
1001
ACAD
1000
DSTYLE
1002
{
1070
    77
1070
     3
1070
    40
1040
10.0
1070
   173
1070
     1
1070
   147
1040
1.0
1070
    42
1040
3.0
1070
     7
1000
_OPEN
1070
     6
1000
_OPEN
1070
     5
1000

1070
    41
1040
2.0
1002
}
  0
DIMENSION
  5
7A47
330
67
100
AcDbEntity
  8
6-寸法
100
AcDbDimension
  2
*D13
 10
2296.905057
 20
4134.076100999999
 30
0.0
 11
2273.16652
 21
4156.576100999999
 31
0.0
 12
-400.0
 22
0.0
 32
0.0
 70
   160
 71
     5
 42
-1.0
  3
STANDARD
100
AcDbAlignedDimension
 13
2306.905057
 23
4014.076100999999
 33
0.0
 14
2296.905057
 24
4034.076100999999
 34
0.0
100
AcDbRotatedDimension
1001
ACAD
1000
DSTYLE
1002
{
1070
    77
1070
     3
1070
    40
1040
10.0
1070
   173
1070
     1
1070
   147
1040
1.0
1070
    42
1040
3.0
1070
     7
1000
_OPEN
1070
     6
1000
_OPEN
1070
     5
1000

1070
    41
1040
2.0
1002
}
  0
DIMENSION
  5
7A81
330
67
100
AcDbEntity
  8
6-寸法
100
AcDbDimension
  2
*D14
 10
2374.405057
 20
4034.076100999999
 30
0.0
 11
2351.905057
 21
4059.169821
 31
0.0
 12
-400.0
 22
0.0
 32
0.0
 70
   160
 71
     5
 42
-1.0
  3
STANDARD
100
AcDbAlignedDimension
 13
2441.905057
 23
4014.076100999999
 33
0.0
 14
2451.905057
 24
4034.076100999999
 34
0.0
 50
90.0
100
AcDbRotatedDimension
1001
ACAD
1000
DSTYLE
1002
{
1070
    77
1070
     3
1070
    40
1040
10.0
1070
   173
1070
     1
1070
   147
1040
1.0
1070
    42
1040
3.0
1070
     7
1000
_OPEN
1070
     6
1000
_OPEN
1070
     5
1000

1070
    41
1040
2.0
1002
}
  0
LINE
  5
7AA0
330
67
100
AcDbEntity
  8
1-構造
100
AcDbLine
 10
2451.905057
 20
3534.076101
 30
0.0
 11
2555.405057
 21
3534.076101
 31
0.0
  0
LINE
  5
7AA3
330
67
100
AcDbEntity
  8
1-構造
100
AcDbLine
 10
2306.905057
 20
3554.076101
 30
0.0
 11
2441.905057
 21
3554.076101
 31
0.0
  0
LINE
  5
7AA4
330
67
100
AcDbEntity
  8
1-構造
100
AcDbLine
 10
2296.905057
 20
3534.076101
 30
0.0
 11
2306.905057
 21
3554.076101
 31
0.0
  0
LINE
  5
7AA5
330
67
100
AcDbEntity
  8
1-構造
100
AcDbLine
 10
2193.405057
 20
3534.076101
 30
0.0
 11
2296.905057
 21
3534.076101
 31
0.0
  0
LINE
  5
7AA7
330
67
100
AcDbEntity
  8
1-構造
100
AcDbLine
 10
2441.905057
 20
3554.076101
 30
0.0
 11
2451.905057
 21
3534.076101
 31
0.0
  0
LINE
  5
7B20
330
67
100
AcDbEntity
  8
1-構造
100
AcDbLine
 10
3676.905057
 20
3534.076101
 30
0.0
 11
3805.405057
 21
3534.076101
 31
0.0
  0
DIMENSION
  5
7B22
330
67
100
AcDbEntity
  8
6-寸法
100
AcDbDimension
  2
*D22
 10
3676.905057
 20
4134.076100999999
 30
0.0
 11
3695.294703
 21
4156.576100999999
 31
0.0
 12
825.0
 22
0.0
 32
0.0
 70
   160
 71
     5
 42
-1.0
  3
STANDARD
100
AcDbAlignedDimension
 13
3666.905057000001
 23
4014.076100999999
 33
0.0
 14
3676.905057
 24
4034.076100999999
 34
0.0
100
AcDbRotatedDimension
1001
ACAD
1000
DSTYLE
1002
{
1070
    77
1070
     3
1070
    40
1040
10.0
1070
   173
1070
     1
1070
   147
1040
1.0
1070
    42
1040
3.0
1070
     7
1000
_OPEN
1070
     6
1000
_OPEN
1070
     5
1000

1070
    41
1040
2.0
1002
}
  0
LINE
  5
7B23
330
67
100
AcDbEntity
  8
1-構造
100
AcDbLine
 10
3676.905057
 20
4034.076100999999
 30
0.0
 11
3805.405057
 21
4034.076100999999
 31
0.0
  0
LINE
  5
7B26
330
67
100
AcDbEntity
  8
1-構造
100
AcDbLine
 10
3393.405057
 20
4534.076100999999
 30
0.0
 11
3805.405057
 21
4534.076100999999
 31
0.0
  0
DIMENSION
  5
7B27
330
67
100
AcDbEntity
  8
6-寸法
100
AcDbDimension
  2
*D18
 10
3805.405057
 20
4634.076100999999
 30
0.0
 11
3599.405057
 21
4656.576100999999
 31
0.0
 12
-200.0
 22
0.0
 32
0.0
 70
    32
 71
     5
 42
-1.0
  3
STANDARD
100
AcDbAlignedDimension
 13
3393.405057
 23
4534.076100999999
 33
0.0
 14
3805.405057
 24
4534.076100999999
 34
0.0
100
AcDbRotatedDimension
1001
ACAD
1000
DSTYLE
1002
{
1070
    77
1070
     3
1070
    40
1040
10.0
1070
   173
1070
     1
1070
   147
1040
1.0
1070
    42
1040
3.0
1070
     7
1000
_OPEN
1070
     6
1000
_OPEN
1070
    41
1040
2.0
1002
}
  0
LINE
  5
7B28
330
67
100
AcDbEntity
  8
1-構造
100
AcDbLine
 10
3393.405057
 20
4034.076100999999
 30
0.0
 11
3393.405057
 21
3534.076101
 31
0.0
  0
DIMENSION
  5
7B29
330
67
100
AcDbEntity
  8
6-寸法
100
AcDbDimension
  2
*D15
 10
3293.405057
 20
3534.076101
 30
0.0
 11
3270.905057
 21
3784.076101
 31
0.0
 12
800.0
 22
0.0
 32
0.0
 70
    32
 71
     5
 42
-1.0
  3
STANDARD
100
AcDbAlignedDimension
 13
3393.405057
 23
4034.076100999999
 33
0.0
 14
3393.405057
 24
3534.076101
 34
0.0
 50
90.0
100
AcDbRotatedDimension
1001
ACAD
1000
DSTYLE
1002
{
1070
    77
1070
     3
1070
    40
1040
10.0
1070
   173
1070
     1
1070
   147
1040
1.0
1070
    42
1040
3.0
1070
     7
1000
_OPEN
1070
     6
1000
_OPEN
1070
    41
1040
2.0
1002
}
  0
LINE
  5
7B2C
330
67
100
AcDbEntity
  8
1-構造
100
AcDbLine
 10
3531.905057
 20
3554.076101
 30
0.0
 11
3666.905057000001
 21
3554.076101
 31
0.0
  0
LINE
  5
7B2D
330
67
100
AcDbEntity
  8
1-構造
100
AcDbLine
 10
3521.905057
 20
3534.076101
 30
0.0
 11
3531.905057
 21
3554.076101
 31
0.0
  0
LINE
  5
7B2E
330
67
100
AcDbEntity
  8
1-構造
100
AcDbLine
 10
3393.405057
 20
3534.076101
 30
0.0
 11
3521.905057
 21
3534.076101
 31
0.0
  0
LINE
  5
7B2F
330
67
100
AcDbEntity
  8
1-構造
100
AcDbLine
 10
3666.905057000001
 20
3554.076101
 30
0.0
 11
3676.905057
 21
3534.076101
 31
0.0
  0
DIMENSION
  5
7B31
330
67
100
AcDbEntity
  8
6-寸法
100
AcDbDimension
  2
*D21
 10
3398.405057
 20
4339.076100999999
 30
0.0
 11
3376.572904
 21
4361.576100999999
 31
0.0
 12
-200.0
 22
0.0
 32
0.0
 70
   160
 71
     5
 42
-1.0
  3
STANDARD
100
AcDbAlignedDimension
 13
3393.405057
 23
4534.076100999999
 33
0.0
 14
3398.405057
 24
4439.076101
 34
0.0
100
AcDbRotatedDimension
1001
ACAD
1000
DSTYLE
1002
{
1070
    77
1070
     3
1070
    40
1040
10.0
1070
   173
1070
     1
1070
   147
1040
1.0
1070
    42
1040
3.0
1070
     7
1000
_NONE
1070
     6
1000
_OPEN
1070
     5
1000

1070
    41
1040
2.0
1002
}
  0
DIMENSION
  5
7B33
330
67
100
AcDbEntity
  8
6-寸法
100
AcDbDimension
  2
*D23
 10
3521.905057
 20
4134.076100999999
 30
0.0
 11
3498.16652
 21
4156.576100999999
 31
0.0
 12
825.0
 22
0.0
 32
0.0
 70
   160
 71
     5
 42
-1.0
  3
STANDARD
100
AcDbAlignedDimension
 13
3531.905057
 23
4014.076100999999
 33
0.0
 14
3521.905057
 24
4034.076100999999
 34
0.0
100
AcDbRotatedDimension
1001
ACAD
1000
DSTYLE
1002
{
1070
    77
1070
     3
1070
    40
1040
10.0
1070
   173
1070
     1
1070
   147
1040
1.0
1070
    42
1040
3.0
1070
     7
1000
_OPEN
1070
     6
1000
_OPEN
1070
     5
1000

1070
    41
1040
2.0
1002
}
  0
DIMENSION
  5
7B34
330
67
100
AcDbEntity
  8
6-寸法
100
AcDbDimension
  2
*D17
 10
3666.905057000001
 20
4134.076100999999
 30
0.0
 11
3599.405057
 21
4156.576100999999
 31
0.0
 12
-200.0
 22
0.0
 32
0.0
 70
    32
 71
     5
 42
-1.0
  3
STANDARD
100
AcDbAlignedDimension
 13
3531.905057
 23
4014.076100999999
 33
0.0
 14
3666.905057000001
 24
4014.076100999999
 34
0.0
100
AcDbRotatedDimension
1001
ACAD
1000
DSTYLE
1002
{
1070
    77
1070
     3
1070
    40
1040
10.0
1070
   173
1070
     1
1070
   147
1040
1.0
1070
    42
1040
3.0
1070
     7
1000
_OPEN
1070
     6
1000
_OPEN
1070
    41
1040
2.0
1002
}
  0
LINE
  5
7B35
330
67
100
AcDbEntity
  8
1-構造
100
AcDbLine
 10
3531.905057
 20
4014.076100999999
 30
0.0
 11
3666.905057000001
 21
4014.076100999999
 31
0.0
  0
LINE
  5
7B36
330
67
100
AcDbEntity
  8
1-構造
100
AcDbLine
 10
3521.905057
 20
4034.076100999999
 30
0.0
 11
3531.905057
 21
4014.076100999999
 31
0.0
  0
LINE
  5
7B37
330
67
100
AcDbEntity
  8
1-構造
100
AcDbLine
 10
3393.405057
 20
4034.076100999999
 30
0.0
 11
3521.905057
 21
4034.076100999999
 31
0.0
  0
DIMENSION
  5
7B38
330
67
100
AcDbEntity
  8
6-寸法
100
AcDbDimension
  2
*D24
 10
3599.405057
 20
4034.076100999999
 30
0.0
 11
3576.116282
 21
4059.169821
 31
0.0
 12
-200.0
 22
0.0
 32
0.0
 70
   160
 71
     5
 42
-1.0
  3
STANDARD
100
AcDbAlignedDimension
 13
3666.905057000001
 23
4014.076100999999
 33
0.0
 14
3676.905057
 24
4034.076100999999
 34
0.0
 50
90.0
100
AcDbRotatedDimension
1001
ACAD
1000
DSTYLE
1002
{
1070
    77
1070
     3
1070
    40
1040
10.0
1070
   173
1070
     1
1070
   147
1040
1.0
1070
    42
1040
3.0
1070
     7
1000
_OPEN
1070
     6
1000
_OPEN
1070
     5
1000

1070
    41
1040
2.0
1002
}
  0
LINE
  5
7B39
330
67
100
AcDbEntity
  8
1-構造
100
AcDbLine
 10
3666.905057000001
 20
4014.076100999999
 30
0.0
 11
3676.905057
 21
4034.076100999999
 31
0.0
  0
DIMENSION
  5
7B3A
330
67
100
AcDbEntity
  8
6-寸法
100
AcDbDimension
  2
*D16
 10
3293.405057
 20
4479.076100999999
 30
0.0
 11
3270.905057
 21
4412.939072999999
 31
0.0
 12
-200.0
 22
0.0
 32
0.0
 70
   160
 71
     5
 42
-1.0
  3
STANDARD
100
AcDbAlignedDimension
 13
3398.405057
 23
4439.076101
 33
0.0
 14
3489.405057
 24
4479.076100999999
 34
0.0
 50
90.0
100
AcDbRotatedDimension
1001
ACAD
1000
DSTYLE
1002
{
1070
    77
1070
     3
1070
    40
1040
10.0
1070
   173
1070
     1
1070
   147
1040
1.0
1070
    42
1040
3.0
1070
     7
1000
_DOTSMALL
1070
     6
1000
_OPEN
1070
    41
1040
2.0
1002
}
  0
DIMENSION
  5
7B3B
330
67
100
AcDbEntity
  8
6-寸法
100
AcDbDimension
  2
*D20
 10
3293.405057
 20
4479.076100999999
 30
0.0
 11
3270.905057
 21
4506.576100999999
 31
0.0
 12
-200.0
 22
0.0
 32
0.0
 70
    32
 71
     5
 42
-1.0
  3
STANDARD
100
AcDbAlignedDimension
 13
3393.405057
 23
4534.076100999999
 33
0.0
 14
3283.405057
 24
4479.076100999999
 34
0.0
 50
90.0
100
AcDbRotatedDimension
1001
ACAD
1000
DSTYLE
1002
{
1070
    77
1070
     3
1070
    40
1040
10.0
1070
   173
1070
     1
1070
   147
1040
1.0
1070
    42
1040
3.0
1070
     7
1000
_NONE
1070
     6
1000
_OPEN
1070
     5
1000

1070
    41
1040
2.0
1002
}
  0
DIMENSION
  5
7B3C
330
67
100
AcDbEntity
  8
6-寸法
100
AcDbDimension
  2
*D19
 10
3243.405057
 20
4439.076101
 30
0.0
 11
3220.905057
 21
4486.576100999999
 31
0.0
 12
-200.0
 22
0.0
 32
0.0
 70
    32
 71
     5
 42
-1.0
  3
STANDARD
100
AcDbAlignedDimension
 13
3393.405057
 23
4534.076100999999
 33
0.0
 14
3398.405057
 24
4439.076101
 34
0.0
 50
90.0
100
AcDbRotatedDimension
1001
ACAD
1000
DSTYLE
1002
{
1070
    77
1070
     3
1070
    40
1040
10.0
1070
   173
1070
     1
1070
   147
1040
1.0
1070
    42
1040
3.0
1070
     7
1000
_OPEN
1070
     6
1000
_OPEN
1070
     5
1000

1070
    41
1040
2.0
1002
}
  0
LINE
  5
7B3E
330
67
100
AcDbEntity
  8
1-構造
100
AcDbLine
 10
3489.405057
 20
4479.076100999999
 30
0.0
 11
3709.405057
 21
4479.076100999999
 31
0.0
  0
LINE
  5
7B40
330
67
100
AcDbEntity
  8
1-構造
100
AcDbLine
 10
3393.405057
 20
4534.076100999999
 30
0.0
 11
3398.405057
 21
4439.076101
 31
0.0
  0
POINT
  5
7B42
330
67
100
AcDbEntity
  8
DEFPOINTS
  6
ByBlock
 62
     0
100
AcDbPoint
 10
3398.405057
 20
4439.076101
 30
0.0
  0
LINE
  5
7B4A
330
67
100
AcDbEntity
  8
1-構造
100
AcDbLine
 10
3805.405057
 20
4034.076100999999
 30
0.0
 11
3805.405057
 21
3534.076101
 31
0.0
  0
LINE
  5
7B4E
330
67
100
AcDbEntity
  8
7-文字
100
AcDbLine
 10
3202.744386
 20
4898.805161000001
 30
0.0
 11
3329.398468980616
 21
4898.805161000001
 31
0.0
  0
LINE
  5
7D69
330
67
100
AcDbEntity
  8
1-構造
100
AcDbLine
 10
3398.405057
 20
4439.076101
 30
0.0
 11
3449.405057
 21
4439.076101
 31
0.0
  0
LINE
  5
7D6C
330
67
100
AcDbEntity
  8
1-構造
100
AcDbLine
 10
3449.405057
 20
4439.076101
 30
0.0
 11
3489.405057
 21
4479.076100999999
 31
0.0
  0
DIMENSION
  5
7E0F
330
67
100
AcDbEntity
  8
6-寸法
100
AcDbDimension
  2
*D25
 10
3449.405057
 20
4339.076100999999
 30
0.0
 11
3423.905057000001
 21
4361.210988999999
 31
0.0
 12
-200.0
 22
0.0
 32
0.0
 70
   160
 71
     5
 42
-1.0
  3
STANDARD
100
AcDbAlignedDimension
 13
3398.405057
 23
4439.076101
 33
0.0
 14
3449.405057
 24
4439.076101
 34
0.0
100
AcDbRotatedDimension
1001
ACAD
1000
DSTYLE
1002
{
1070
    77
1070
     3
1070
    40
1040
10.0
1070
   173
1070
     1
1070
   147
1040
2.0
1070
    42
1040
3.0
1070
     7
1000
_OPEN
1070
     6
1000
_DOTSMALL
1070
    41
1040
2.0
1002
}
  0
LINE
  5
7FA0
330
67
100
AcDbEntity
  8
0
  6
ByBlock
 62
     0
100
AcDbLine
 10
3479.405057000001
 20
4439.076101
 30
0.0
 11
3513.052291
 21
4439.076101
 31
0.0
  0
ARC
  5
7FA1
330
67
100
AcDbEntity
  8
0
  6
ByBlock
 62
     0
100
AcDbCircle
 10
3449.405057
 20
4439.076101
 30
0.0
 40
53.64723399999999
100
AcDbArc
 50
21.485871
 51
23.514129
  0
INSERT
  5
7FA2
330
67
100
AcDbEntity
  8
0
  6
ByBlock
 62
     0
100
AcDbBlockReference
  2
_OPEN
 10
3503.052290999999
 20
4439.076101
 30
0.0
 41
20.0
 42
20.0
 43
20.0
 50
280.742935
  0
INSERT
  5
7FA3
330
67
100
AcDbEntity
  8
0
  6
ByBlock
 62
     0
100
AcDbBlockReference
  2
_OPEN
 10
3487.33938
 20
4477.010424
 30
0.0
 41
20.0
 42
20.0
 43
20.0
 50
124.257065
  0
MTEXT
  5
7FA4
330
67
100
AcDbEntity
  8
0
  6
ByBlock
 62
     0
100
AcDbMText
 10
3535.953767
 20
4437.804498
 30
0.0
 40
25.0
 41
0.0
 71
     5
 72
     1
  1
\A1;45°
 11
0.3826828980362602
 21
-0.9238797538373535
 31
0.0
 73
     1
 44
1.0
1001
ACAD
1000
MTEXTBEGIN
1070
    73
1070
     1
1070
    44
1040
1.0
1070
    74
1070
     0
1000
MTEXTEND
  0
POINT
  5
7FA5
330
67
100
AcDbEntity
  8
DEFPOINTS
  6
ByBlock
 62
     0
100
AcDbPoint
 10
3501.224306000001
 20
4452.961027
 30
0.0
  0
POINT
  5
7FA6
330
67
100
AcDbEntity
  8
DEFPOINTS
  6
ByBlock
 62
     0
100
AcDbPoint
 10
3398.405057
 20
4439.076101
 30
0.0
  0
POINT
  5
7FA7
330
67
100
AcDbEntity
  8
DEFPOINTS
  6
ByBlock
 62
     0
100
AcDbPoint
 10
3449.405057
 20
4439.076101
 30
0.0
  0
POINT
  5
7FA8
330
67
100
AcDbEntity
  8
DEFPOINTS
  6
ByBlock
 62
     0
100
AcDbPoint
 10
3489.405057
 20
4479.076100999999
 30
0.0
  0
POINT
  5
7FA9
330
67
100
AcDbEntity
  8
DEFPOINTS
  6
ByBlock
 62
     0
100
AcDbPoint
 10
3449.405057
 20
4439.076101
 30
0.0
  0
LINE
  5
7FAB
330
67
100
AcDbEntity
  8
1-構造
100
AcDbLine
 10
3749.405057
 20
4439.076101
 30
0.0
 11
3709.405057
 21
4479.076100999999
 31
0.0
  0
LINE
  5
7FAC
330
67
100
AcDbEntity
  8
1-構造
100
AcDbLine
 10
3800.405057
 20
4439.076101
 30
0.0
 11
3749.405057
 21
4439.076101
 31
0.0
  0
LINE
  5
7FAD
330
67
100
AcDbEntity
  8
1-構造
100
AcDbLine
 10
3805.405057
 20
4534.076100999999
 30
0.0
 11
3800.405057
 21
4439.076101
 31
0.0
  0
DIMENSION
  5
7FAE
330
67
100
AcDbEntity
  8
6-寸法
100
AcDbDimension
  2
*D27
 10
3749.405057
 20
4339.076100999999
 30
0.0
 11
3774.905057
 21
4361.210988999999
 31
0.0
 12
-200.0
 22
0.0
 32
0.0
 70
   160
 71
     5
 42
-1.0
  3
STANDARD
100
AcDbAlignedDimension
 13
3800.405057
 23
4439.076101
 33
0.0
 14
3749.405057
 24
4439.076101
 34
0.0
100
AcDbRotatedDimension
1001
ACAD
1000
DSTYLE
1002
{
1070
    77
1070
     3
1070
    40
1040
10.0
1070
   173
1070
     1
1070
   147
1040
2.0
1070
    42
1040
3.0
1070
     7
1000
_OPEN
1070
     6
1000
_DOTSMALL
1070
    41
1040
2.0
1002
}
  0
DIMENSION
  5
7FAF
330
67
100
AcDbEntity
  8
6-寸法
100
AcDbDimension
  2
*D26
 10
3800.405057
 20
4339.076100999999
 30
0.0
 11
3822.23721
 21
4361.576100999999
 31
0.0
 12
-200.0
 22
0.0
 32
0.0
 70
   160
 71
     5
 42
-1.0
  3
STANDARD
100
AcDbAlignedDimension
 13
3805.405057
 23
4534.076100999999
 33
0.0
 14
3800.405057
 24
4439.076101
 34
0.0
100
AcDbRotatedDimension
1001
ACAD
1000
DSTYLE
1002
{
1070
    77
1070
     3
1070
    40
1040
10.0
1070
   173
1070
     1
1070
   147
1040
1.0
1070
    42
1040
3.0
1070
     7
1000
_NONE
1070
     6
1000
_OPEN
1070
     5
1000

1070
    41
1040
2.0
1002
}
  0
LINE
  5
8089
330
67
100
AcDbEntity
  8
1-構造
100
AcDbLine
 10
5105.405057
 20
4034.076100999999
 30
0.0
 11
5105.405057
 21
3534.076101
 31
0.0
  0
DIMENSION
  5
808A
330
67
100
AcDbEntity
  8
6-寸法
100
AcDbDimension
  2
*D30
 10
4493.405057
 20
3534.076101
 30
0.0
 11
4470.905057
 21
3784.076101
 31
0.0
 12
1000.0
 22
0.0
 32
0.0
 70
    32
 71
     5
 42
-1.0
  3
STANDARD
100
AcDbAlignedDimension
 13
4593.405057
 23
4034.076100999999
 33
0.0
 14
4593.405057
 24
3534.076101
 34
0.0
 50
90.0
100
AcDbRotatedDimension
1001
ACAD
1000
DSTYLE
1002
{
1070
    77
1070
     3
1070
    40
1040
10.0
1070
   173
1070
     1
1070
   147
1040
1.0
1070
    42
1040
3.0
1070
     7
1000
_OPEN
1070
     6
1000
_OPEN
1070
    41
1040
2.0
1002
}
  0
LINE
  5
808B
330
67
100
AcDbEntity
  8
1-構造
100
AcDbLine
 10
4593.405057
 20
4034.076100999999
 30
0.0
 11
4593.405057
 21
3534.076101
 31
0.0
  0
LINE
  5
8090
330
67
100
AcDbEntity
  8
1-構造
100
AcDbLine
 10
4916.905057000001
 20
3554.076101
 30
0.0
 11
4926.905056999999
 21
3534.076101
 31
0.0
  0
LINE
  5
8091
330
67
100
AcDbEntity
  8
1-構造
100
AcDbLine
 10
4593.405057
 20
3534.076101
 30
0.0
 11
4771.905057
 21
3534.076101
 31
0.0
  0
LINE
  5
8092
330
67
100
AcDbEntity
  8
1-構造
100
AcDbLine
 10
4771.905057
 20
3534.076101
 30
0.0
 11
4781.905057
 21
3554.076101
 31
0.0
  0
LINE
  5
8093
330
67
100
AcDbEntity
  8
1-構造
100
AcDbLine
 10
4781.905057
 20
3554.076101
 30
0.0
 11
4916.905057000001
 21
3554.076101
 31
0.0
  0
LINE
  5
8094
330
67
100
AcDbEntity
  8
1-構造
100
AcDbLine
 10
4926.905056999999
 20
3534.076101
 30
0.0
 11
5105.405057
 21
3534.076101
 31
0.0
  0
DIMENSION
  5
8097
330
67
100
AcDbEntity
  8
6-寸法
100
AcDbDimension
  2
*D35
 10
4443.405057
 20
4424.076100999999
 30
0.0
 11
4420.905057
 21
4479.076100999999
 31
0.0
 70
    32
 71
     5
 42
-1.0
  3
STANDARD
100
AcDbAlignedDimension
 13
4593.405057
 23
4534.076100999999
 33
0.0
 14
4598.405056999999
 24
4424.076100999999
 34
0.0
 50
90.0
100
AcDbRotatedDimension
1001
ACAD
1000
DSTYLE
1002
{
1070
    77
1070
     3
1070
    40
1040
10.0
1070
   173
1070
     1
1070
   147
1040
1.0
1070
    42
1040
3.0
1070
     7
1000
_OPEN
1070
     6
1000
_OPEN
1070
     5
1000

1070
    41
1040
2.0
1002
}
  0
DIMENSION
  5
809A
330
67
100
AcDbEntity
  8
6-寸法
100
AcDbDimension
  2
*D36
 10
4649.405057
 20
4324.076101
 30
0.0
 11
4623.905057
 21
4346.210989
 31
0.0
 12
1000.0
 22
-15.0
 32
0.0
 70
   160
 71
     5
 42
-1.0
  3
STANDARD
100
AcDbAlignedDimension
 13
4598.405056999999
 23
4424.076100999999
 33
0.0
 14
4649.405057
 24
4424.076100999999
 34
0.0
100
AcDbRotatedDimension
1001
ACAD
1000
DSTYLE
1002
{
1070
    77
1070
     3
1070
    40
1040
10.0
1070
   173
1070
     1
1070
   147
1040
2.0
1070
    42
1040
3.0
1070
     7
1000
_OPEN
1070
     6
1000
_DOTSMALL
1070
    41
1040
2.0
1002
}
  0
DIMENSION
  5
809B
330
67
100
AcDbEntity
  8
6-寸法
100
AcDbDimension
  2
*D31
 10
4598.405056999999
 20
4324.076101
 30
0.0
 11
4576.572903999999
 21
4346.576100999999
 31
0.0
 70
   160
 71
     5
 42
-1.0
  3
STANDARD
100
AcDbAlignedDimension
 13
4593.405057
 23
4534.076100999999
 33
0.0
 14
4598.405056999999
 24
4424.076100999999
 34
0.0
100
AcDbRotatedDimension
1001
ACAD
1000
DSTYLE
1002
{
1070
    77
1070
     3
1070
    40
1040
10.0
1070
   173
1070
     1
1070
   147
1040
1.0
1070
    42
1040
3.0
1070
     7
1000
_NONE
1070
     6
1000
_OPEN
1070
     5
1000

1070
    41
1040
2.0
1002
}
  0
DIMENSION
  5
809C
330
67
100
AcDbEntity
  8
6-寸法
100
AcDbDimension
  2
*D34
 10
4849.405057
 20
4034.076100999999
 30
0.0
 11
4826.116282
 21
4059.169821
 31
0.0
 12
1050.0
 22
0.0
 32
0.0
 70
   160
 71
     5
 42
-1.0
  3
STANDARD
100
AcDbAlignedDimension
 13
4916.905057000001
 23
4014.076100999999
 33
0.0
 14
4926.905056999999
 24
4034.076100999999
 34
0.0
 50
90.0
100
AcDbRotatedDimension
1001
ACAD
1000
DSTYLE
1002
{
1070
    77
1070
     3
1070
    40
1040
10.0
1070
   173
1070
     1
1070
   147
1040
1.0
1070
    42
1040
3.0
1070
     7
1000
_OPEN
1070
     6
1000
_OPEN
1070
     5
1000

1070
    41
1040
2.0
1002
}
  0
LINE
  5
809D
330
67
100
AcDbEntity
  8
1-構造
100
AcDbLine
 10
4916.905057000001
 20
4014.076100999999
 30
0.0
 11
4926.905056999999
 21
4034.076100999999
 31
0.0
  0
DIMENSION
  5
809E
330
67
100
AcDbEntity
  8
6-寸法
100
AcDbDimension
  2
*D28
 10
4926.905056999999
 20
4134.076100999999
 30
0.0
 11
4945.294703
 21
4156.576100999999
 31
0.0
 12
1050.0
 22
0.0
 32
0.0
 70
   160
 71
     5
 42
-1.0
  3
STANDARD
100
AcDbAlignedDimension
 13
4916.905057000001
 23
4014.076100999999
 33
0.0
 14
4926.905056999999
 24
4034.076100999999
 34
0.0
100
AcDbRotatedDimension
1001
ACAD
1000
DSTYLE
1002
{
1070
    77
1070
     3
1070
    40
1040
10.0
1070
   173
1070
     1
1070
   147
1040
1.0
1070
    42
1040
3.0
1070
     7
1000
_OPEN
1070
     6
1000
_OPEN
1070
     5
1000

1070
    41
1040
2.0
1002
}
  0
DIMENSION
  5
809F
330
67
100
AcDbEntity
  8
6-寸法
100
AcDbDimension
  2
*D33
 10
4916.905057000001
 20
4134.076100999999
 30
0.0
 11
4799.405057
 21
4156.576100999999
 31
0.0
 12
1050.0
 22
0.0
 32
0.0
 70
    32
 71
     5
 42
-1.0
  3
STANDARD
100
AcDbAlignedDimension
 13
4781.905057
 23
4014.076100999999
 33
0.0
 14
4916.905057000001
 24
4014.076100999999
 34
0.0
100
AcDbRotatedDimension
1001
ACAD
1000
DSTYLE
1002
{
1070
    77
1070
     3
1070
    40
1040
10.0
1070
   173
1070
     1
1070
   147
1040
1.0
1070
    42
1040
3.0
1070
     7
1000
_OPEN
1070
     6
1000
_OPEN
1070
    41
1040
2.0
1002
}
  0
DIMENSION
  5
80A0
330
67
100
AcDbEntity
  8
6-寸法
100
AcDbDimension
  2
*D32
 10
4771.905057
 20
4134.076100999999
 30
0.0
 11
4748.16652
 21
4156.576100999999
 31
0.0
 70
   160
 71
     5
 42
-1.0
  3
STANDARD
100
AcDbAlignedDimension
 13
4781.905057
 23
4014.076100999999
 33
0.0
 14
4771.905057
 24
4034.076100999999
 34
0.0
100
AcDbRotatedDimension
1001
ACAD
1000
DSTYLE
1002
{
1070
    77
1070
     3
1070
    40
1040
10.0
1070
   173
1070
     1
1070
   147
1040
1.0
1070
    42
1040
3.0
1070
     7
1000
_OPEN
1070
     6
1000
_OPEN
1070
     5
1000

1070
    41
1040
2.0
1002
}
  0
LINE
  5
80A1
330
67
100
AcDbEntity
  8
1-構造
100
AcDbLine
 10
4593.405057
 20
4034.076100999999
 30
0.0
 11
4771.905057
 21
4034.076100999999
 31
0.0
  0
LINE
  5
80A2
330
67
100
AcDbEntity
  8
1-構造
100
AcDbLine
 10
4771.905057
 20
4034.076100999999
 30
0.0
 11
4781.905057
 21
4014.076100999999
 31
0.0
  0
LINE
  5
80A3
330
67
100
AcDbEntity
  8
1-構造
100
AcDbLine
 10
4781.905057
 20
4014.076100999999
 30
0.0
 11
4916.905057000001
 21
4014.076100999999
 31
0.0
  0
LINE
  5
80A4
330
67
100
AcDbEntity
  8
1-構造
100
AcDbLine
 10
4926.905056999999
 20
4034.076100999999
 30
0.0
 11
5105.405057
 21
4034.076100999999
 31
0.0
  0
LINE
  5
80A5
330
67
100
AcDbEntity
  8
1-構造
100
AcDbLine
 10
4694.405056999999
 20
4469.076100999999
 30
0.0
 11
5004.405057
 21
4469.076100999999
 31
0.0
  0
LINE
  5
80A6
330
67
100
AcDbEntity
  8
1-構造
100
AcDbLine
 10
4593.405057
 20
4534.076100999999
 30
0.0
 11
5105.405057
 21
4534.076100999999
 31
0.0
  0
DIMENSION
  5
80A7
330
67
100
AcDbEntity
  8
6-寸法
100
AcDbDimension
  2
*D29
 10
5105.405057
 20
4634.076100999999
 30
0.0
 11
4849.405057
 21
4656.576100999999
 31
0.0
 70
    32
 71
     5
 42
-1.0
  3
STANDARD
100
AcDbAlignedDimension
 13
4593.405057
 23
4534.076100999999
 33
0.0
 14
5105.405057
 24
4534.076100999999
 34
0.0
100
AcDbRotatedDimension
1001
ACAD
1000
DSTYLE
1002
{
1070
    77
1070
     3
1070
    40
1040
10.0
1070
   173
1070
     1
1070
   147
1040
1.0
1070
    42
1040
3.0
1070
     7
1000
_OPEN
1070
     6
1000
_OPEN
1070
    41
1040
2.0
1002
}
  0
LINE
  5
80AA
330
67
100
AcDbEntity
  8
1-構造
100
AcDbLine
 10
4593.405057
 20
4534.076100999999
 30
0.0
 11
4598.405056999999
 21
4424.076100999999
 31
0.0
  0
LINE
  5
80AB
330
67
100
AcDbEntity
  8
1-構造
100
AcDbLine
 10
4598.405056999999
 20
4424.076100999999
 30
0.0
 11
4649.405057
 21
4424.076100999999
 31
0.0
  0
POINT
  5
80AC
330
67
100
AcDbEntity
  8
DEFPOINTS
  6
ByBlock
 62
     0
100
AcDbPoint
 10
4598.405056999999
 20
4424.076100999999
 30
0.0
  0
POINT
  5
80AD
330
67
100
AcDbEntity
  8
DEFPOINTS
  6
ByBlock
 62
     0
100
AcDbPoint
 10
4598.405056999999
 20
4424.076100999999
 30
0.0
  0
POINT
  5
80AE
330
67
100
AcDbEntity
  8
DEFPOINTS
  6
ByBlock
 62
     0
100
AcDbPoint
 10
4649.405057
 20
4424.076100999999
 30
0.0
  0
POINT
  5
80AF
330
67
100
AcDbEntity
  8
DEFPOINTS
  6
ByBlock
 62
     0
100
AcDbPoint
 10
4649.405057
 20
4424.076100999999
 30
0.0
  0
LINE
  5
80BA
330
67
100
AcDbEntity
  8
7-文字
100
AcDbLine
 10
4402.744386000001
 20
4898.805161000001
 30
0.0
 11
4530.159890300413
 21
4898.805161000001
 31
0.0
  0
DIMENSION
  5
82B3
330
67
100
AcDbEntity
  8
6-寸法
100
AcDbDimension
  2
*D37
 10
4493.405057
 20
4469.076100999999
 30
0.0
 11
4470.905057
 21
4501.576101
 31
0.0
 70
    32
 71
     5
 42
-1.0
  3
STANDARD
100
AcDbAlignedDimension
 13
4593.405057
 23
4534.076100999999
 33
0.0
 14
4694.405056999999
 24
4469.076100999999
 34
0.0
 50
90.0
100
AcDbRotatedDimension
1001
ACAD
1000
DSTYLE
1002
{
1070
    77
1070
     3
1070
    40
1040
10.0
1070
   173
1070
     1
1070
   147
1040
1.0
1070
    42
1040
3.0
1070
     7
1000
_OPEN
1070
     6
1000
_OPEN
1070
    41
1040
2.0
1002
}
  0
DIMENSION
  5
82C1
330
67
100
AcDbEntity
  8
6-寸法
100
AcDbDimension
  2
*D38
 10
4493.405057
 20
4424.076100999999
 30
0.0
 11
4470.905057
 21
4446.576100999999
 31
0.0
 70
    32
 71
     5
 42
-1.0
  3
STANDARD
100
AcDbAlignedDimension
 13
4694.405056999999
 23
4469.076100999999
 33
0.0
 14
4598.405056999999
 24
4424.076100999999
 34
0.0
 50
90.0
100
AcDbRotatedDimension
1001
ACAD
1000
DSTYLE
1002
{
1070
    77
1070
     3
1070
    75
1070
     1
1070
    40
1040
10.0
1070
   173
1070
     1
1070
   147
1040
1.0
1070
    42
1040
3.0
1070
     7
1000
_OPEN
1070
     6
1000
_OPEN
1070
    41
1040
2.0
1002
}
  0
LINE
  5
82C2
330
67
100
AcDbEntity
  8
1-構造
100
AcDbLine
 10
4649.405057
 20
4424.076100999999
 30
0.0
 11
4694.405056999999
 21
4469.076100999999
 31
0.0
  0
DIMENSION
  5
82DB
330
67
100
AcDbEntity
  8
6-寸法
100
AcDbDimension
  2
*D39
 10
5049.405057
 20
4324.076101
 30
0.0
 11
5074.905057
 21
4346.210989
 31
0.0
 70
   160
 71
     5
 42
-1.0
  3
STANDARD
100
AcDbAlignedDimension
 13
5100.405057
 23
4424.076100999999
 33
0.0
 14
5049.405057
 24
4424.076100999999
 34
0.0
100
AcDbRotatedDimension
1001
ACAD
1000
DSTYLE
1002
{
1070
    77
1070
     3
1070
    40
1040
10.0
1070
   173
1070
     1
1070
   147
1040
2.0
1070
    42
1040
3.0
1070
     7
1000
_OPEN
1070
     6
1000
_DOTSMALL
1070
    41
1040
2.0
1002
}
  0
LINE
  5
82DC
330
67
100
AcDbEntity
  8
1-構造
100
AcDbLine
 10
5100.405057
 20
4424.076100999999
 30
0.0
 11
5049.405057
 21
4424.076100999999
 31
0.0
  0
LINE
  5
82DD
330
67
100
AcDbEntity
  8
1-構造
100
AcDbLine
 10
5049.405057
 20
4424.076100999999
 30
0.0
 11
5004.405057
 21
4469.076100999999
 31
0.0
  0
POINT
  5
82DE
330
67
100
AcDbEntity
  8
DEFPOINTS
  6
ByBlock
 62
     0
100
AcDbPoint
 10
5049.405057
 20
4424.076100999999
 30
0.0
  0
POINT
  5
82DF
330
67
100
AcDbEntity
  8
DEFPOINTS
  6
ByBlock
 62
     0
100
AcDbPoint
 10
5049.405057
 20
4424.076100999999
 30
0.0
  0
LINE
  5
82E0
330
67
100
AcDbEntity
  8
1-構造
100
AcDbLine
 10
5105.405057
 20
4534.076100999999
 30
0.0
 11
5100.405057
 21
4424.076100999999
 31
0.0
  0
DIMENSION
  5
82E1
330
67
100
AcDbEntity
  8
6-寸法
100
AcDbDimension
  2
*D40
 10
5100.405057
 20
4324.076101
 30
0.0
 11
5122.23721
 21
4346.576100999999
 31
0.0
 70
   160
 71
     5
 42
-1.0
  3
STANDARD
100
AcDbAlignedDimension
 13
5105.405057
 23
4534.076100999999
 33
0.0
 14
5100.405057
 24
4424.076100999999
 34
0.0
100
AcDbRotatedDimension
1001
ACAD
1000
DSTYLE
1002
{
1070
    77
1070
     3
1070
    40
1040
10.0
1070
   173
1070
     1
1070
   147
1040
1.0
1070
    42
1040
3.0
1070
     7
1000
_NONE
1070
     6
1000
_OPEN
1070
     5
1000

1070
    41
1040
2.0
1002
}
  0
LINE
  5
831A
330
67
100
AcDbEntity
  8
1-構造
100
AcDbLine
 10
6415.405057
 20
4034.076100999999
 30
0.0
 11
6415.405057
 21
3534.076101
 31
0.0
  0
LINE
  5
831B
330
67
100
AcDbEntity
  8
1-構造
100
AcDbLine
 10
5793.405057000001
 20
4034.076100999999
 30
0.0
 11
5793.405057000001
 21
3534.076101
 31
0.0
  0
DIMENSION
  5
831C
330
67
100
AcDbEntity
  8
6-寸法
100
AcDbDimension
  2
*D41
 10
5693.405057
 20
3534.076101
 30
0.0
 11
5670.905057
 21
3784.076101
 31
0.0
 12
1200.0
 22
0.0
 32
0.0
 70
    32
 71
     5
 42
-1.0
  3
STANDARD
100
AcDbAlignedDimension
 13
5793.405057000001
 23
4034.076100999999
 33
0.0
 14
5793.405057000001
 24
3534.076101
 34
0.0
 50
90.0
100
AcDbRotatedDimension
1001
ACAD
1000
DSTYLE
1002
{
1070
    77
1070
     3
1070
    40
1040
10.0
1070
   173
1070
     1
1070
   147
1040
1.0
1070
    42
1040
3.0
1070
     7
1000
_OPEN
1070
     6
1000
_OPEN
1070
    41
1040
2.0
1002
}
  0
LINE
  5
831F
330
67
100
AcDbEntity
  8
1-構造
100
AcDbLine
 10
6036.905057
 20
3554.076101
 30
0.0
 11
6171.905057
 21
3554.076101
 31
0.0
  0
LINE
  5
8321
330
67
100
AcDbEntity
  8
1-構造
100
AcDbLine
 10
5793.405057000001
 20
3534.076101
 30
0.0
 11
6026.905057
 21
3534.076101
 31
0.0
  0
LINE
  5
8322
330
67
100
AcDbEntity
  8
1-構造
100
AcDbLine
 10
6026.905057
 20
3534.076101
 30
0.0
 11
6036.905057
 21
3554.076101
 31
0.0
  0
LINE
  5
8324
330
67
100
AcDbEntity
  8
1-構造
100
AcDbLine
 10
6181.905057
 20
3534.076101
 30
0.0
 11
6415.405057
 21
3534.076101
 31
0.0
  0
LINE
  5
8325
330
67
100
AcDbEntity
  8
1-構造
100
AcDbLine
 10
6171.905057
 20
3554.076101
 30
0.0
 11
6181.905057
 21
3534.076101
 31
0.0
  0
LINE
  5
8326
330
67
100
AcDbEntity
  8
1-構造
100
AcDbLine
 10
5904.405057
 20
4459.076100999999
 30
0.0
 11
6304.405057
 21
4459.076100999999
 31
0.0
  0
DIMENSION
  5
8327
330
67
100
AcDbEntity
  8
6-寸法
100
AcDbDimension
  2
*D45
 10
6104.405057000001
 20
4034.076100999999
 30
0.0
 11
6081.116281999999
 21
4059.169821
 31
0.0
 12
1255.0
 22
0.0
 32
0.0
 70
   160
 71
     5
 42
-1.0
  3
STANDARD
100
AcDbAlignedDimension
 13
6171.905057
 23
4014.076100999999
 33
0.0
 14
6181.905057
 24
4034.076100999999
 34
0.0
 50
90.0
100
AcDbRotatedDimension
1001
ACAD
1000
DSTYLE
1002
{
1070
    77
1070
     3
1070
    40
1040
10.0
1070
   173
1070
     1
1070
   147
1040
1.0
1070
    42
1040
3.0
1070
     7
1000
_OPEN
1070
     6
1000
_OPEN
1070
     5
1000

1070
    41
1040
2.0
1002
}
  0
DIMENSION
  5
8328
330
67
100
AcDbEntity
  8
6-寸法
100
AcDbDimension
  2
*D47
 10
6171.905057
 20
4134.076100999999
 30
0.0
 11
6049.405057
 21
4156.576100999999
 31
0.0
 12
1255.0
 22
0.0
 32
0.0
 70
    32
 71
     5
 42
-1.0
  3
STANDARD
100
AcDbAlignedDimension
 13
6036.905057
 23
4014.076100999999
 33
0.0
 14
6171.905057
 24
4014.076100999999
 34
0.0
100
AcDbRotatedDimension
1001
ACAD
1000
DSTYLE
1002
{
1070
    77
1070
     3
1070
    40
1040
10.0
1070
   173
1070
     1
1070
   147
1040
1.0
1070
    42
1040
3.0
1070
     7
1000
_OPEN
1070
     6
1000
_OPEN
1070
    41
1040
2.0
1002
}
  0
LINE
  5
8329
330
67
100
AcDbEntity
  8
1-構造
100
AcDbLine
 10
6036.905057
 20
4014.076100999999
 30
0.0
 11
6171.905057
 21
4014.076100999999
 31
0.0
  0
DIMENSION
  5
832A
330
67
100
AcDbEntity
  8
6-寸法
100
AcDbDimension
  2
*D49
 10
6415.405057
 20
4634.076100999999
 30
0.0
 11
6104.405057000001
 21
4656.576100999999
 31
0.0
 12
200.0
 22
0.0
 32
0.0
 70
    32
 71
     5
 42
-1.0
  3
STANDARD
100
AcDbAlignedDimension
 13
5793.405057000001
 23
4534.076100999999
 33
0.0
 14
6415.405057
 24
4534.076100999999
 34
0.0
100
AcDbRotatedDimension
1001
ACAD
1000
DSTYLE
1002
{
1070
    77
1070
     3
1070
    40
1040
10.0
1070
   173
1070
     1
1070
   147
1040
1.0
1070
    42
1040
3.0
1070
     7
1000
_OPEN
1070
     6
1000
_OPEN
1070
    41
1040
2.0
1002
}
  0
LINE
  5
832B
330
67
100
AcDbEntity
  8
1-構造
100
AcDbLine
 10
5793.405057000001
 20
4534.076100999999
 30
0.0
 11
6415.405057
 21
4534.076100999999
 31
0.0
  0
DIMENSION
  5
832C
330
67
100
AcDbEntity
  8
6-寸法
100
AcDbDimension
  2
*D44
 10
5798.405057
 20
4309.076100999999
 30
0.0
 11
5776.572904
 21
4331.576100999999
 31
0.0
 12
200.0
 22
0.0
 32
0.0
 70
   160
 71
     5
 42
-1.0
  3
STANDARD
100
AcDbAlignedDimension
 13
5793.405057000001
 23
4534.076100999999
 33
0.0
 14
5798.405057
 24
4409.076100999999
 34
0.0
100
AcDbRotatedDimension
1001
ACAD
1000
DSTYLE
1002
{
1070
    77
1070
     3
1070
    40
1040
10.0
1070
   173
1070
     1
1070
   147
1040
1.0
1070
    42
1040
3.0
1070
     7
1000
_NONE
1070
     6
1000
_OPEN
1070
     5
1000

1070
    41
1040
2.0
1002
}
  0
DIMENSION
  5
832D
330
67
100
AcDbEntity
  8
6-寸法
100
AcDbDimension
  2
*D43
 10
5854.405057000001
 20
4309.076100999999
 30
0.0
 11
5823.905057000001
 21
4331.210989
 31
0.0
 12
200.0
 22
0.0
 32
0.0
 70
   160
 71
     5
 42
-1.0
  3
STANDARD
100
AcDbAlignedDimension
 13
5798.405057
 23
4409.076100999999
 33
0.0
 14
5854.405057000001
 24
4409.076100999999
 34
0.0
100
AcDbRotatedDimension
1001
ACAD
1000
DSTYLE
1002
{
1070
    77
1070
     3
1070
    40
1040
10.0
1070
   173
1070
     1
1070
   147
1040
2.0
1070
    42
1040
3.0
1070
     7
1000
_OPEN
1070
     6
1000
_DOTSMALL
1070
    41
1040
2.0
1002
}
  0
DIMENSION
  5
832E
330
67
100
AcDbEntity
  8
6-寸法
100
AcDbDimension
  2
*D48
 10
6026.905057
 20
4134.076100999999
 30
0.0
 11
6003.16652
 21
4156.576100999999
 31
0.0
 12
1255.0
 22
0.0
 32
0.0
 70
   160
 71
     5
 42
-1.0
  3
STANDARD
100
AcDbAlignedDimension
 13
6036.905057
 23
4014.076100999999
 33
0.0
 14
6026.905057
 24
4034.076100999999
 34
0.0
100
AcDbRotatedDimension
1001
ACAD
1000
DSTYLE
1002
{
1070
    77
1070
     3
1070
    40
1040
10.0
1070
   173
1070
     1
1070
   147
1040
1.0
1070
    42
1040
3.0
1070
     7
1000
_OPEN
1070
     6
1000
_OPEN
1070
     5
1000

1070
    41
1040
2.0
1002
}
  0
LINE
  5
832F
330
67
100
AcDbEntity
  8
1-構造
100
AcDbLine
 10
5793.405057000001
 20
4034.076100999999
 30
0.0
 11
6026.905057
 21
4034.076100999999
 31
0.0
  0
LINE
  5
8330
330
67
100
AcDbEntity
  8
1-構造
100
AcDbLine
 10
6026.905057
 20
4034.076100999999
 30
0.0
 11
6036.905057
 21
4014.076100999999
 31
0.0
  0
DIMENSION
  5
8331
330
67
100
AcDbEntity
  8
6-寸法
100
AcDbDimension
  2
*D50
 10
5693.405057
 20
4459.076100999999
 30
0.0
 11
5670.905057
 21
4496.576100999999
 31
0.0
 12
200.0
 22
0.0
 32
0.0
 70
    32
 71
     5
 42
-1.0
  3
STANDARD
100
AcDbAlignedDimension
 13
5793.405057000001
 23
4534.076100999999
 33
0.0
 14
5904.405057
 24
4459.076100999999
 34
0.0
 50
90.0
100
AcDbRotatedDimension
1001
ACAD
1000
DSTYLE
1002
{
1070
    77
1070
     3
1070
    40
1040
10.0
1070
   173
1070
     1
1070
   147
1040
1.0
1070
    42
1040
3.0
1070
     7
1000
_OPEN
1070
     6
1000
_OPEN
1070
    41
1040
2.0
1002
}
  0
DIMENSION
  5
8332
330
67
100
AcDbEntity
  8
6-寸法
100
AcDbDimension
  2
*D51
 10
5693.405057
 20
4409.076100999999
 30
0.0
 11
5670.905057
 21
4434.076100999999
 31
0.0
 12
200.0
 22
0.0
 32
0.0
 70
    32
 71
     5
 42
-1.0
  3
STANDARD
100
AcDbAlignedDimension
 13
5904.405057
 23
4459.076100999999
 33
0.0
 14
5798.405057
 24
4409.076100999999
 34
0.0
 50
90.0
100
AcDbRotatedDimension
1001
ACAD
1000
DSTYLE
1002
{
1070
    77
1070
     3
1070
    75
1070
     1
1070
    40
1040
10.0
1070
   173
1070
     1
1070
   147
1040
1.0
1070
    42
1040
3.0
1070
     7
1000
_OPEN
1070
     6
1000
_OPEN
1070
    41
1040
2.0
1002
}
  0
DIMENSION
  5
8333
330
67
100
AcDbEntity
  8
6-寸法
100
AcDbDimension
  2
*D42
 10
5643.405057
 20
4409.076100999999
 30
0.0
 11
5620.905057
 21
4471.576100999999
 31
0.0
 12
200.0
 22
0.0
 32
0.0
 70
    32
 71
     5
 42
-1.0
  3
STANDARD
100
AcDbAlignedDimension
 13
5793.405057000001
 23
4534.076100999999
 33
0.0
 14
5798.405057
 24
4409.076100999999
 34
0.0
 50
90.0
100
AcDbRotatedDimension
1001
ACAD
1000
DSTYLE
1002
{
1070
    77
1070
     3
1070
    40
1040
10.0
1070
   173
1070
     1
1070
   147
1040
1.0
1070
    42
1040
3.0
1070
     7
1000
_OPEN
1070
     6
1000
_OPEN
1070
     5
1000

1070
    41
1040
2.0
1002
}
  0
LINE
  5
8334
330
67
100
AcDbEntity
  8
1-構造
100
AcDbLine
 10
5793.405057000001
 20
4534.076100999999
 30
0.0
 11
5798.405057
 21
4409.076100999999
 31
0.0
  0
LINE
  5
8335
330
67
100
AcDbEntity
  8
1-構造
100
AcDbLine
 10
5798.405057
 20
4409.076100999999
 30
0.0
 11
5854.405057000001
 21
4409.076100999999
 31
0.0
  0
POINT
  5
8336
330
67
100
AcDbEntity
  8
DEFPOINTS
  6
ByBlock
 62
     0
100
AcDbPoint
 10
5798.405057
 20
4409.076100999999
 30
0.0
  0
POINT
  5
8337
330
67
100
AcDbEntity
  8
DEFPOINTS
  6
ByBlock
 62
     0
100
AcDbPoint
 10
5798.405057
 20
4409.076100999999
 30
0.0
  0
POINT
  5
8339
330
67
100
AcDbEntity
  8
DEFPOINTS
  6
ByBlock
 62
     0
100
AcDbPoint
 10
5854.405057000001
 20
4409.076100999999
 30
0.0
  0
POINT
  5
833A
330
67
100
AcDbEntity
  8
DEFPOINTS
  6
ByBlock
 62
     0
100
AcDbPoint
 10
5854.405057000001
 20
4409.076100999999
 30
0.0
  0
DIMENSION
  5
833B
330
67
100
AcDbEntity
  8
6-寸法
100
AcDbDimension
  2
*D53
 10
6410.405057
 20
4309.076100999999
 30
0.0
 11
6432.237210000001
 21
4331.576100999999
 31
0.0
 12
200.0
 22
0.0
 32
0.0
 70
   160
 71
     5
 42
-1.0
  3
STANDARD
100
AcDbAlignedDimension
 13
6415.405057
 23
4534.076100999999
 33
0.0
 14
6410.405057
 24
4409.076100999999
 34
0.0
100
AcDbRotatedDimension
1001
ACAD
1000
DSTYLE
1002
{
1070
    77
1070
     3
1070
    40
1040
10.0
1070
   173
1070
     1
1070
   147
1040
1.0
1070
    42
1040
3.0
1070
     7
1000
_NONE
1070
     6
1000
_OPEN
1070
     5
1000

1070
    41
1040
2.0
1002
}
  0
DIMENSION
  5
833C
330
67
100
AcDbEntity
  8
6-寸法
100
AcDbDimension
  2
*D52
 10
6354.405057000001
 20
4309.076100999999
 30
0.0
 11
6384.905057
 21
4331.210989
 31
0.0
 12
200.0
 22
0.0
 32
0.0
 70
   160
 71
     5
 42
-1.0
  3
STANDARD
100
AcDbAlignedDimension
 13
6410.405057
 23
4409.076100999999
 33
0.0
 14
6354.405057000001
 24
4409.076100999999
 34
0.0
100
AcDbRotatedDimension
1001
ACAD
1000
DSTYLE
1002
{
1070
    77
1070
     3
1070
    40
1040
10.0
1070
   173
1070
     1
1070
   147
1040
2.0
1070
    42
1040
3.0
1070
     7
1000
_OPEN
1070
     6
1000
_DOTSMALL
1070
    41
1040
2.0
1002
}
  0
DIMENSION
  5
833D
330
67
100
AcDbEntity
  8
6-寸法
100
AcDbDimension
  2
*D46
 10
6181.905057
 20
4134.076100999999
 30
0.0
 11
6200.294703
 21
4156.576100999999
 31
0.0
 12
1255.0
 22
0.0
 32
0.0
 70
   160
 71
     5
 42
-1.0
  3
STANDARD
100
AcDbAlignedDimension
 13
6171.905057
 23
4014.076100999999
 33
0.0
 14
6181.905057
 24
4034.076100999999
 34
0.0
100
AcDbRotatedDimension
1001
ACAD
1000
DSTYLE
1002
{
1070
    77
1070
     3
1070
    40
1040
10.0
1070
   173
1070
     1
1070
   147
1040
1.0
1070
    42
1040
3.0
1070
     7
1000
_OPEN
1070
     6
1000
_OPEN
1070
     5
1000

1070
    41
1040
2.0
1002
}
  0
LINE
  5
833E
330
67
100
AcDbEntity
  8
1-構造
100
AcDbLine
 10
6181.905057
 20
4034.076100999999
 30
0.0
 11
6415.405057
 21
4034.076100999999
 31
0.0
  0
LINE
  5
833F
330
67
100
AcDbEntity
  8
1-構造
100
AcDbLine
 10
6171.905057
 20
4014.076100999999
 30
0.0
 11
6181.905057
 21
4034.076100999999
 31
0.0
  0
LINE
  5
8341
330
67
100
AcDbEntity
  8
1-構造
100
AcDbLine
 10
6415.405057
 20
4534.076100999999
 30
0.0
 11
6410.405057
 21
4409.076100999999
 31
0.0
  0
POINT
  5
8342
330
67
100
AcDbEntity
  8
DEFPOINTS
  6
ByBlock
 62
     0
100
AcDbPoint
 10
6354.405057000001
 20
4409.076100999999
 30
0.0
  0
POINT
  5
8343
330
67
100
AcDbEntity
  8
DEFPOINTS
  6
ByBlock
 62
     0
100
AcDbPoint
 10
6354.405057000001
 20
4409.076100999999
 30
0.0
  0
LINE
  5
8344
330
67
100
AcDbEntity
  8
1-構造
100
AcDbLine
 10
6410.405057
 20
4409.076100999999
 30
0.0
 11
6354.405057000001
 21
4409.076100999999
 31
0.0
  0
LINE
  5
8345
330
67
100
AcDbEntity
  8
7-文字
100
AcDbLine
 10
5602.744386000001
 20
4898.805161000001
 30
0.0
 11
5729.398468980615
 21
4898.805161000001
 31
0.0
  0
LINE
  5
8488
330
67
100
AcDbEntity
  8
0
  6
ByBlock
 62
     0
100
AcDbLine
 10
4679.405057
 20
4424.076100999999
 30
0.0
 11
4717.360490999999
 21
4424.076100999999
 31
0.0
  0
ARC
  5
8489
330
67
100
AcDbEntity
  8
0
  6
ByBlock
 62
     0
100
AcDbCircle
 10
4649.405057
 20
4424.076100999999
 30
0.0
 40
57.95543399999999
100
AcDbArc
 50
19.871807
 51
25.128193
  0
INSERT
  5
848A
330
67
100
AcDbEntity
  8
0
  6
ByBlock
 62
     0
100
AcDbBlockReference
  2
_OPEN
 10
4707.360490999999
 20
4424.076100999999
 30
0.0
 41
20.0
 42
20.0
 43
20.0
 50
279.935904
  0
INSERT
  5
848B
330
67
100
AcDbEntity
  8
0
  6
ByBlock
 62
     0
100
AcDbBlockReference
  2
_OPEN
 10
4690.385737999999
 20
4465.056781
 30
0.0
 41
20.0
 42
20.0
 43
20.0
 50
125.064096
  0
MTEXT
  5
848C
330
67
100
AcDbEntity
  8
0
  6
ByBlock
 62
     0
100
AcDbMText
 10
4735.636161000001
 20
4427.110573
 30
0.0
 40
25.0
 41
0.0
 71
     5
 72
     1
  1
\A1;45°
 11
0.3826828980362602
 21
-0.9238797538373535
 31
0.0
 73
     1
 44
1.0
1001
ACAD
1000
MTEXTBEGIN
1070
    73
1070
     1
1070
    44
1040
1.0
1070
    74
1070
     0
1000
MTEXTEND
  0
POINT
  5
848D
330
67
100
AcDbEntity
  8
DEFPOINTS
  6
ByBlock
 62
     0
100
AcDbPoint
 10
4705.385708
 20
4439.076071
 30
0.0
  0
POINT
  5
848E
330
67
100
AcDbEntity
  8
DEFPOINTS
  6
ByBlock
 62
     0
100
AcDbPoint
 10
4598.405056999999
 20
4424.076100999999
 30
0.0
  0
POINT
  5
848F
330
67
100
AcDbEntity
  8
DEFPOINTS
  6
ByBlock
 62
     0
100
AcDbPoint
 10
4649.405057
 20
4424.076100999999
 30
0.0
  0
POINT
  5
8490
330
67
100
AcDbEntity
  8
DEFPOINTS
  6
ByBlock
 62
     0
100
AcDbPoint
 10
4694.405056999999
 20
4469.076100999999
 30
0.0
  0
POINT
  5
8491
330
67
100
AcDbEntity
  8
DEFPOINTS
  6
ByBlock
 62
     0
100
AcDbPoint
 10
4649.405057
 20
4424.076100999999
 30
0.0
  0
LINE
  5
850F
330
67
100
AcDbEntity
  8
1-構造
100
AcDbLine
 10
5854.405057000001
 20
4409.076100999999
 30
0.0
 11
5904.405057
 21
4459.076100999999
 31
0.0
  0
LINE
  5
8528
330
67
100
AcDbEntity
  8
1-構造
100
AcDbLine
 10
6354.405057000001
 20
4409.076100999999
 30
0.0
 11
6304.405057
 21
4459.076100999999
 31
0.0
  0
INSERT
  5
852A
330
67
100
AcDbEntity
  8
0
  6
ByBlock
 62
     0
100
AcDbBlockReference
  2
_OPEN
 10
5895.385738
 20
4450.056780999999
 30
0.0
 41
20.0
 42
20.0
 43
20.0
 50
125.064096
  0
LINE
  5
852B
330
67
100
AcDbEntity
  8
0
  6
ByBlock
 62
     0
100
AcDbLine
 10
5884.405057
 20
4409.076100999999
 30
0.0
 11
5922.360491
 21
4409.076100999999
 31
0.0
  0
MTEXT
  5
852C
330
67
100
AcDbEntity
  8
0
  6
ByBlock
 62
     0
100
AcDbMText
 10
5940.636161
 20
4417.534587
 30
0.0
 40
25.0
 41
0.0
 71
     5
 72
     1
  1
\A1;45°
 11
0.3826828980362602
 21
-0.9238797538373535
 31
0.0
 73
     1
 44
1.0
1001
ACAD
1000
MTEXTBEGIN
1070
    73
1070
     1
1070
    44
1040
1.0
1070
    74
1070
     0
1000
MTEXTEND
  0
POINT
  5
852D
330
67
100
AcDbEntity
  8
DEFPOINTS
  6
ByBlock
 62
     0
100
AcDbPoint
 10
5910.385707999999
 20
4424.076071
 30
0.0
  0
INSERT
  5
852E
330
67
100
AcDbEntity
  8
0
  6
ByBlock
 62
     0
100
AcDbBlockReference
  2
_OPEN
 10
5912.360491
 20
4409.076100999999
 30
0.0
 41
20.0
 42
20.0
 43
20.0
 50
279.935904
  0
ARC
  5
852F
330
67
100
AcDbEntity
  8
0
  6
ByBlock
 62
     0
100
AcDbCircle
 10
5854.405057000001
 20
4409.076100999999
 30
0.0
 40
57.95543399999999
100
AcDbArc
 50
19.871807
 51
25.128193
  0
LINE
  5
8E19
330
67
100
AcDbEntity
  8
1-構造
100
AcDbLine
 10
2451.905057
 20
1034.076101
 30
0.0
 11
2555.405057
 21
1034.076101
 31
0.0
  0
DIMENSION
  5
8E1B
330
67
100
AcDbEntity
  8
6-寸法
100
AcDbDimension
  2
*D60
 10
2451.905057
 20
1634.076100999999
 30
0.0
 11
2470.294703
 21
1656.576101
 31
0.0
 12
-400.0
 22
-2500.0
 32
0.0
 70
   160
 71
     5
 42
-1.0
  3
STANDARD
100
AcDbAlignedDimension
 13
2441.905057
 23
1514.076101
 33
0.0
 14
2451.905057
 24
1534.076101
 34
0.0
100
AcDbRotatedDimension
1001
ACAD
1000
DSTYLE
1002
{
1070
    77
1070
     3
1070
    40
1040
10.0
1070
   173
1070
     1
1070
   147
1040
1.0
1070
    42
1040
3.0
1070
     7
1000
_OPEN
1070
     6
1000
_OPEN
1070
     5
1000

1070
    41
1040
2.0
1002
}
  0
LINE
  5
8E1C
330
67
100
AcDbEntity
  8
1-構造
100
AcDbLine
 10
2451.905057
 20
1534.076101
 30
0.0
 11
2555.405057
 21
1534.076101
 31
0.0
  0
LINE
  5
8E1F
330
67
100
AcDbEntity
  8
1-構造
100
AcDbLine
 10
2193.405057
 20
2034.076101
 30
0.0
 11
2555.405057
 21
2034.076101
 31
0.0
  0
DIMENSION
  5
8E20
330
67
100
AcDbEntity
  8
6-寸法
100
AcDbDimension
  2
*D56
 10
2555.405057
 20
2134.076101
 30
0.0
 11
2374.405057
 21
2156.576101
 31
0.0
 12
-400.0
 22
-2500.0
 32
0.0
 70
    32
 71
     5
 42
-1.0
  3
STANDARD
100
AcDbAlignedDimension
 13
2193.405057
 23
2034.076101
 33
0.0
 14
2555.405057
 24
2034.076101
 34
0.0
100
AcDbRotatedDimension
1001
ACAD
1000
DSTYLE
1002
{
1070
    77
1070
     3
1070
    40
1040
10.0
1070
   173
1070
     1
1070
   147
1040
1.0
1070
    42
1040
3.0
1070
     7
1000
_OPEN
1070
     6
1000
_OPEN
1070
    41
1040
2.0
1002
}
  0
LINE
  5
8E21
330
67
100
AcDbEntity
  8
1-構造
100
AcDbLine
 10
2193.405057
 20
1534.076101
 30
0.0
 11
2193.405057
 21
1034.076101
 31
0.0
  0
DIMENSION
  5
8E22
330
67
100
AcDbEntity
  8
6-寸法
100
AcDbDimension
  2
*D54
 10
2093.405057
 20
1034.076101
 30
0.0
 11
2070.905057
 21
1284.076101
 31
0.0
 12
-400.0
 22
-2500.0
 32
0.0
 70
    32
 71
     5
 42
-1.0
  3
STANDARD
100
AcDbAlignedDimension
 13
2193.405057
 23
1534.076101
 33
0.0
 14
2193.405057
 24
1034.076101
 34
0.0
 50
90.0
100
AcDbRotatedDimension
1001
ACAD
1000
DSTYLE
1002
{
1070
    77
1070
     3
1070
    40
1040
10.0
1070
   173
1070
     1
1070
   147
1040
1.0
1070
    42
1040
3.0
1070
     7
1000
_OPEN
1070
     6
1000
_OPEN
1070
    41
1040
2.0
1002
}
  0
LINE
  5
8E25
330
67
100
AcDbEntity
  8
1-構造
100
AcDbLine
 10
2306.905057
 20
1054.076101
 30
0.0
 11
2441.905057
 21
1054.076101
 31
0.0
  0
LINE
  5
8E26
330
67
100
AcDbEntity
  8
1-構造
100
AcDbLine
 10
2296.905057
 20
1034.076101
 30
0.0
 11
2306.905057
 21
1054.076101
 31
0.0
  0
LINE
  5
8E27
330
67
100
AcDbEntity
  8
1-構造
100
AcDbLine
 10
2193.405057
 20
1034.076101
 30
0.0
 11
2296.905057
 21
1034.076101
 31
0.0
  0
LINE
  5
8E28
330
67
100
AcDbEntity
  8
1-構造
100
AcDbLine
 10
2441.905057
 20
1054.076101
 30
0.0
 11
2451.905057
 21
1034.076101
 31
0.0
  0
DIMENSION
  5
8E2A
330
67
100
AcDbEntity
  8
6-寸法
100
AcDbDimension
  2
*D58
 10
2198.405057
 20
1844.076101
 30
0.0
 11
2176.572904
 21
1866.576101
 31
0.0
 12
-400.0
 22
-2500.0
 32
0.0
 70
   160
 71
     5
 42
-1.0
  3
STANDARD
100
AcDbAlignedDimension
 13
2193.405057
 23
2034.076101
 33
0.0
 14
2198.405057
 24
1944.076101
 34
0.0
100
AcDbRotatedDimension
1001
ACAD
1000
DSTYLE
1002
{
1070
    77
1070
     3
1070
    40
1040
10.0
1070
   173
1070
     1
1070
   147
1040
1.0
1070
    42
1040
3.0
1070
     7
1000
_NONE
1070
     6
1000
_OPEN
1070
     5
1000

1070
    41
1040
2.0
1002
}
  0
DIMENSION
  5
8E2C
330
67
100
AcDbEntity
  8
6-寸法
100
AcDbDimension
  2
*D61
 10
2296.905057
 20
1634.076100999999
 30
0.0
 11
2273.16652
 21
1656.576101
 31
0.0
 12
-400.0
 22
-2500.0
 32
0.0
 70
   160
 71
     5
 42
-1.0
  3
STANDARD
100
AcDbAlignedDimension
 13
2306.905057
 23
1514.076101
 33
0.0
 14
2296.905057
 24
1534.076101
 34
0.0
100
AcDbRotatedDimension
1001
ACAD
1000
DSTYLE
1002
{
1070
    77
1070
     3
1070
    40
1040
10.0
1070
   173
1070
     1
1070
   147
1040
1.0
1070
    42
1040
3.0
1070
     7
1000
_OPEN
1070
     6
1000
_OPEN
1070
     5
1000

1070
    41
1040
2.0
1002
}
  0
DIMENSION
  5
8E2D
330
67
100
AcDbEntity
  8
6-寸法
100
AcDbDimension
  2
*D55
 10
2441.905057
 20
1634.076100999999
 30
0.0
 11
2374.405057
 21
1656.576101
 31
0.0
 12
-400.0
 22
-2500.0
 32
0.0
 70
    32
 71
     5
 42
-1.0
  3
STANDARD
100
AcDbAlignedDimension
 13
2306.905057
 23
1514.076101
 33
0.0
 14
2441.905057
 24
1514.076101
 34
0.0
100
AcDbRotatedDimension
1001
ACAD
1000
DSTYLE
1002
{
1070
    77
1070
     3
1070
    40
1040
10.0
1070
   173
1070
     1
1070
   147
1040
1.0
1070
    42
1040
3.0
1070
     7
1000
_OPEN
1070
     6
1000
_OPEN
1070
    41
1040
2.0
1002
}
  0
LINE
  5
8E2E
330
67
100
AcDbEntity
  8
1-構造
100
AcDbLine
 10
2306.905057
 20
1514.076101
 30
0.0
 11
2441.905057
 21
1514.076101
 31
0.0
  0
LINE
  5
8E2F
330
67
100
AcDbEntity
  8
1-構造
100
AcDbLine
 10
2296.905057
 20
1534.076101
 30
0.0
 11
2306.905057
 21
1514.076101
 31
0.0
  0
LINE
  5
8E30
330
67
100
AcDbEntity
  8
1-構造
100
AcDbLine
 10
2193.405057
 20
1534.076101
 30
0.0
 11
2296.905057
 21
1534.076101
 31
0.0
  0
DIMENSION
  5
8E31
330
67
100
AcDbEntity
  8
6-寸法
100
AcDbDimension
  2
*D62
 10
2374.405057
 20
1534.076101
 30
0.0
 11
2351.905057
 21
1559.169821
 31
0.0
 12
-400.0
 22
-2500.0
 32
0.0
 70
   160
 71
     5
 42
-1.0
  3
STANDARD
100
AcDbAlignedDimension
 13
2441.905057
 23
1514.076101
 33
0.0
 14
2451.905057
 24
1534.076101
 34
0.0
 50
90.0
100
AcDbRotatedDimension
1001
ACAD
1000
DSTYLE
1002
{
1070
    77
1070
     3
1070
    40
1040
10.0
1070
   173
1070
     1
1070
   147
1040
1.0
1070
    42
1040
3.0
1070
     7
1000
_OPEN
1070
     6
1000
_OPEN
1070
     5
1000

1070
    41
1040
2.0
1002
}
  0
LINE
  5
8E32
330
67
100
AcDbEntity
  8
1-構造
100
AcDbLine
 10
2441.905057
 20
1514.076101
 30
0.0
 11
2451.905057
 21
1534.076101
 31
0.0
  0
DIMENSION
  5
8E35
330
67
100
AcDbEntity
  8
6-寸法
100
AcDbDimension
  2
*D57
 10
2093.405057
 20
1944.076101
 30
0.0
 11
2070.905057
 21
1989.076101
 31
0.0
 12
-400.0
 22
0.0
 32
0.0
 70
    32
 71
     5
 42
-1.0
  3
STANDARD
100
AcDbAlignedDimension
 13
2193.405057
 23
2034.076101
 33
0.0
 14
2198.405057
 24
1944.076101
 34
0.0
 50
90.0
100
AcDbRotatedDimension
1001
ACAD
1000
DSTYLE
1002
{
1070
    77
1070
     3
1070
    40
1040
10.0
1070
   173
1070
     1
1070
   147
1040
1.0
1070
    42
1040
3.0
1070
     7
1000
_OPEN
1070
     6
1000
_OPEN
1070
     5
1000

1070
    41
1040
2.0
1002
}
  0
LINE
  5
8E39
330
67
100
AcDbEntity
  8
1-構造
100
AcDbLine
 10
2193.405057
 20
2034.076101
 30
0.0
 11
2198.405057
 21
1944.076101
 31
0.0
  0
POINT
  5
8E3B
330
67
100
AcDbEntity
  8
DEFPOINTS
  6
ByBlock
 62
     0
100
AcDbPoint
 10
2198.405057
 20
1944.076101
 30
0.0
  0
LINE
  5
8E43
330
67
100
AcDbEntity
  8
1-構造
100
AcDbLine
 10
3805.405057
 20
1534.076101
 30
0.0
 11
3805.405057
 21
1034.076101
 31
0.0
  0
DIMENSION
  5
8E44
330
67
100
AcDbEntity
  8
6-寸法
100
AcDbDimension
  2
*D65
 10
3293.405057
 20
1034.076101
 30
0.0
 11
3270.905057
 21
1284.076101
 31
0.0
 12
-200.0
 22
-2500.0
 32
0.0
 70
    32
 71
     5
 42
-1.0
  3
STANDARD
100
AcDbAlignedDimension
 13
3393.405057
 23
1534.076101
 33
0.0
 14
3393.405057
 24
1034.076101
 34
0.0
 50
90.0
100
AcDbRotatedDimension
1001
ACAD
1000
DSTYLE
1002
{
1070
    77
1070
     3
1070
    40
1040
10.0
1070
   173
1070
     1
1070
   147
1040
1.0
1070
    42
1040
3.0
1070
     7
1000
_OPEN
1070
     6
1000
_OPEN
1070
    41
1040
2.0
1002
}
  0
LINE
  5
8E45
330
67
100
AcDbEntity
  8
1-構造
100
AcDbLine
 10
3393.405057
 20
1534.076101
 30
0.0
 11
3393.405057
 21
1034.076101
 31
0.0
  0
LINE
  5
8E46
330
67
100
AcDbEntity
  8
1-構造
100
AcDbLine
 10
2555.405057
 20
1534.076101
 30
0.0
 11
2555.405057
 21
1034.076101
 31
0.0
  0
LINE
  5
8E4B
330
67
100
AcDbEntity
  8
1-構造
100
AcDbLine
 10
3666.905057000001
 20
1054.076101
 30
0.0
 11
3676.905057
 21
1034.076101
 31
0.0
  0
LINE
  5
8E4C
330
67
100
AcDbEntity
  8
1-構造
100
AcDbLine
 10
3393.405057
 20
1034.076101
 30
0.0
 11
3521.905057
 21
1034.076101
 31
0.0
  0
LINE
  5
8E4D
330
67
100
AcDbEntity
  8
1-構造
100
AcDbLine
 10
3521.905057
 20
1034.076101
 30
0.0
 11
3531.905057
 21
1054.076101
 31
0.0
  0
LINE
  5
8E4E
330
67
100
AcDbEntity
  8
1-構造
100
AcDbLine
 10
3531.905057
 20
1054.076101
 30
0.0
 11
3666.905057000001
 21
1054.076101
 31
0.0
  0
LINE
  5
8E4F
330
67
100
AcDbEntity
  8
1-構造
100
AcDbLine
 10
3676.905057
 20
1034.076101
 30
0.0
 11
3805.405057
 21
1034.076101
 31
0.0
  0
DIMENSION
  5
8E52
330
67
100
AcDbEntity
  8
6-寸法
100
AcDbDimension
  2
*D70
 10
3293.405057
 20
1939.076101
 30
0.0
 11
3270.905057
 21
1986.576101
 31
0.0
 12
-200.0
 22
0.0
 32
0.0
 70
    32
 71
     5
 42
-1.0
  3
STANDARD
100
AcDbAlignedDimension
 13
3393.405057
 23
2034.076101
 33
0.0
 14
3398.405057
 24
1939.076101
 34
0.0
 50
90.0
100
AcDbRotatedDimension
1001
ACAD
1000
DSTYLE
1002
{
1070
    77
1070
     3
1070
    40
1040
10.0
1070
   173
1070
     1
1070
   147
1040
1.0
1070
    42
1040
3.0
1070
     7
1000
_OPEN
1070
     6
1000
_OPEN
1070
     5
1000

1070
    41
1040
2.0
1002
}
  0
DIMENSION
  5
8E53
330
67
100
AcDbEntity
  8
6-寸法
100
AcDbDimension
  2
*D59
 10
2550.405057
 20
1844.076101
 30
0.0
 11
2572.23721
 21
1866.576101
 31
0.0
 12
-400.0
 22
-2500.0
 32
0.0
 70
   160
 71
     5
 42
-1.0
  3
STANDARD
100
AcDbAlignedDimension
 13
2555.405057
 23
2034.076101
 33
0.0
 14
2550.405057
 24
1944.076101
 34
0.0
100
AcDbRotatedDimension
1001
ACAD
1000
DSTYLE
1002
{
1070
    77
1070
     3
1070
    40
1040
10.0
1070
   173
1070
     1
1070
   147
1040
1.0
1070
    42
1040
3.0
1070
     7
1000
_NONE
1070
     6
1000
_OPEN
1070
     5
1000

1070
    41
1040
2.0
1002
}
  0
LINE
  5
8E54
330
67
100
AcDbEntity
  8
1-構造
100
AcDbLine
 10
2555.405057
 20
2034.076101
 30
0.0
 11
2550.405057
 21
1944.076101
 31
0.0
  0
DIMENSION
  5
8E56
330
67
100
AcDbEntity
  8
6-寸法
100
AcDbDimension
  2
*D71
 10
3800.405057
 20
1839.076101
 30
0.0
 11
3822.23721
 21
1861.576101
 31
0.0
 12
-200.0
 22
-2500.0
 32
0.0
 70
   160
 71
     5
 42
-1.0
  3
STANDARD
100
AcDbAlignedDimension
 13
3805.405057
 23
2034.076101
 33
0.0
 14
3800.405057
 24
1939.076101
 34
0.0
100
AcDbRotatedDimension
1001
ACAD
1000
DSTYLE
1002
{
1070
    77
1070
     3
1070
    40
1040
10.0
1070
   173
1070
     1
1070
   147
1040
1.0
1070
    42
1040
3.0
1070
     7
1000
_NONE
1070
     6
1000
_OPEN
1070
     5
1000

1070
    41
1040
2.0
1002
}
  0
DIMENSION
  5
8E59
330
67
100
AcDbEntity
  8
6-寸法
100
AcDbDimension
  2
*D66
 10
3398.405057
 20
1839.076101
 30
0.0
 11
3376.572904
 21
1861.576101
 31
0.0
 12
-200.0
 22
-2500.0
 32
0.0
 70
   160
 71
     5
 42
-1.0
  3
STANDARD
100
AcDbAlignedDimension
 13
3393.405057
 23
2034.076101
 33
0.0
 14
3398.405057
 24
1939.076101
 34
0.0
100
AcDbRotatedDimension
1001
ACAD
1000
DSTYLE
1002
{
1070
    77
1070
     3
1070
    40
1040
10.0
1070
   173
1070
     1
1070
   147
1040
1.0
1070
    42
1040
3.0
1070
     7
1000
_NONE
1070
     6
1000
_OPEN
1070
     5
1000

1070
    41
1040
2.0
1002
}
  0
DIMENSION
  5
8E5A
330
67
100
AcDbEntity
  8
6-寸法
100
AcDbDimension
  2
*D69
 10
3599.405057
 20
1534.076101
 30
0.0
 11
3576.116282
 21
1559.169821
 31
0.0
 12
-200.0
 22
-2500.0
 32
0.0
 70
   160
 71
     5
 42
-1.0
  3
STANDARD
100
AcDbAlignedDimension
 13
3666.905057000001
 23
1514.076101
 33
0.0
 14
3676.905057
 24
1534.076101
 34
0.0
 50
90.0
100
AcDbRotatedDimension
1001
ACAD
1000
DSTYLE
1002
{
1070
    77
1070
     3
1070
    40
1040
10.0
1070
   173
1070
     1
1070
   147
1040
1.0
1070
    42
1040
3.0
1070
     7
1000
_OPEN
1070
     6
1000
_OPEN
1070
     5
1000

1070
    41
1040
2.0
1002
}
  0
LINE
  5
8E5B
330
67
100
AcDbEntity
  8
1-構造
100
AcDbLine
 10
3666.905057000001
 20
1514.076101
 30
0.0
 11
3676.905057
 21
1534.076101
 31
0.0
  0
DIMENSION
  5
8E5C
330
67
100
AcDbEntity
  8
6-寸法
100
AcDbDimension
  2
*D63
 10
3676.905057
 20
1634.076100999999
 30
0.0
 11
3695.294703
 21
1656.576101
 31
0.0
 12
-200.0
 22
-2500.0
 32
0.0
 70
   160
 71
     5
 42
-1.0
  3
STANDARD
100
AcDbAlignedDimension
 13
3666.905057000001
 23
1514.076101
 33
0.0
 14
3676.905057
 24
1534.076101
 34
0.0
100
AcDbRotatedDimension
1001
ACAD
1000
DSTYLE
1002
{
1070
    77
1070
     3
1070
    40
1040
10.0
1070
   173
1070
     1
1070
   147
1040
1.0
1070
    42
1040
3.0
1070
     7
1000
_OPEN
1070
     6
1000
_OPEN
1070
     5
1000

1070
    41
1040
2.0
1002
}
  0
DIMENSION
  5
8E5D
330
67
100
AcDbEntity
  8
6-寸法
100
AcDbDimension
  2
*D68
 10
3666.905057000001
 20
1634.076100999999
 30
0.0
 11
3599.405057
 21
1656.576101
 31
0.0
 12
-200.0
 22
-2500.0
 32
0.0
 70
    32
 71
     5
 42
-1.0
  3
STANDARD
100
AcDbAlignedDimension
 13
3531.905057
 23
1514.076101
 33
0.0
 14
3666.905057000001
 24
1514.076101
 34
0.0
100
AcDbRotatedDimension
1001
ACAD
1000
DSTYLE
1002
{
1070
    77
1070
     3
1070
    40
1040
10.0
1070
   173
1070
     1
1070
   147
1040
1.0
1070
    42
1040
3.0
1070
     7
1000
_OPEN
1070
     6
1000
_OPEN
1070
    41
1040
2.0
1002
}
  0
DIMENSION
  5
8E5E
330
67
100
AcDbEntity
  8
6-寸法
100
AcDbDimension
  2
*D67
 10
3521.905057
 20
1634.076100999999
 30
0.0
 11
3498.16652
 21
1656.576101
 31
0.0
 12
-200.0
 22
-2500.0
 32
0.0
 70
   160
 71
     5
 42
-1.0
  3
STANDARD
100
AcDbAlignedDimension
 13
3531.905057
 23
1514.076101
 33
0.0
 14
3521.905057
 24
1534.076101
 34
0.0
100
AcDbRotatedDimension
1001
ACAD
1000
DSTYLE
1002
{
1070
    77
1070
     3
1070
    40
1040
10.0
1070
   173
1070
     1
1070
   147
1040
1.0
1070
    42
1040
3.0
1070
     7
1000
_OPEN
1070
     6
1000
_OPEN
1070
     5
1000

1070
    41
1040
2.0
1002
}
  0
LINE
  5
8E5F
330
67
100
AcDbEntity
  8
1-構造
100
AcDbLine
 10
3393.405057
 20
1534.076101
 30
0.0
 11
3521.905057
 21
1534.076101
 31
0.0
  0
LINE
  5
8E60
330
67
100
AcDbEntity
  8
1-構造
100
AcDbLine
 10
3521.905057
 20
1534.076101
 30
0.0
 11
3531.905057
 21
1514.076101
 31
0.0
  0
LINE
  5
8E61
330
67
100
AcDbEntity
  8
1-構造
100
AcDbLine
 10
3531.905057
 20
1514.076101
 30
0.0
 11
3666.905057000001
 21
1514.076101
 31
0.0
  0
LINE
  5
8E62
330
67
100
AcDbEntity
  8
1-構造
100
AcDbLine
 10
3676.905057
 20
1534.076101
 30
0.0
 11
3805.405057
 21
1534.076101
 31
0.0
  0
LINE
  5
8E64
330
67
100
AcDbEntity
  8
1-構造
100
AcDbLine
 10
3393.405057
 20
2034.076101
 30
0.0
 11
3805.405057
 21
2034.076101
 31
0.0
  0
DIMENSION
  5
8E65
330
67
100
AcDbEntity
  8
6-寸法
100
AcDbDimension
  2
*D64
 10
3805.405057
 20
2134.076101
 30
0.0
 11
3599.405057
 21
2156.576101
 31
0.0
 12
-200.0
 22
-2500.0
 32
0.0
 70
    32
 71
     5
 42
-1.0
  3
STANDARD
100
AcDbAlignedDimension
 13
3393.405057
 23
2034.076101
 33
0.0
 14
3805.405057
 24
2034.076101
 34
0.0
100
AcDbRotatedDimension
1001
ACAD
1000
DSTYLE
1002
{
1070
    77
1070
     3
1070
    40
1040
10.0
1070
   173
1070
     1
1070
   147
1040
1.0
1070
    42
1040
3.0
1070
     7
1000
_OPEN
1070
     6
1000
_OPEN
1070
    41
1040
2.0
1002
}
  0
LINE
  5
8E68
330
67
100
AcDbEntity
  8
1-構造
100
AcDbLine
 10
3393.405057
 20
2034.076101
 30
0.0
 11
3398.405057
 21
1939.076101
 31
0.0
  0
POINT
  5
8E6A
330
67
100
AcDbEntity
  8
DEFPOINTS
  6
ByBlock
 62
     0
100
AcDbPoint
 10
3398.405057
 20
1939.076101
 30
0.0
  0
POINT
  5
8E6B
330
67
100
AcDbEntity
  8
DEFPOINTS
  6
ByBlock
 62
     0
100
AcDbPoint
 10
3398.405057
 20
1939.076101
 30
0.0
  0
LINE
  5
8E74
330
67
100
AcDbEntity
  8
1-構造
100
AcDbLine
 10
3805.405057
 20
2034.076101
 30
0.0
 11
3800.405057
 21
1939.076101
 31
0.0
  0
DIMENSION
  5
8E7D
330
67
100
AcDbEntity
  8
6-寸法
100
AcDbDimension
  2
*D87
 10
5693.405057
 20
1909.076101
 30
0.0
 11
5670.905057
 21
1971.576101
 31
0.0
 12
200.0
 22
0.0
 32
0.0
 70
    32
 71
     5
 42
-1.0
  3
STANDARD
100
AcDbAlignedDimension
 13
5793.405057000001
 23
2034.076101
 33
0.0
 14
5798.405057
 24
1909.076101
 34
0.0
 50
90.0
100
AcDbRotatedDimension
1001
ACAD
1000
DSTYLE
1002
{
1070
    77
1070
     3
1070
    40
1040
10.0
1070
   173
1070
     1
1070
   147
1040
1.0
1070
    42
1040
3.0
1070
     7
1000
_OPEN
1070
     6
1000
_OPEN
1070
     5
1000

1070
    41
1040
2.0
1002
}
  0
DIMENSION
  5
8E7E
330
67
100
AcDbEntity
  8
6-寸法
100
AcDbDimension
  2
*D81
 10
5693.405057
 20
1034.076101
 30
0.0
 11
5670.905057
 21
1284.076101
 31
0.0
 12
200.0
 22
-2500.0
 32
0.0
 70
    32
 71
     5
 42
-1.0
  3
STANDARD
100
AcDbAlignedDimension
 13
5793.405057000001
 23
1534.076101
 33
0.0
 14
5793.405057000001
 24
1034.076101
 34
0.0
 50
90.0
100
AcDbRotatedDimension
1001
ACAD
1000
DSTYLE
1002
{
1070
    77
1070
     3
1070
    40
1040
10.0
1070
   173
1070
     1
1070
   147
1040
1.0
1070
    42
1040
3.0
1070
     7
1000
_OPEN
1070
     6
1000
_OPEN
1070
    41
1040
2.0
1002
}
  0
LINE
  5
8E7F
330
67
100
AcDbEntity
  8
1-構造
100
AcDbLine
 10
5105.405057
 20
1534.076101
 30
0.0
 11
5105.405057
 21
1034.076101
 31
0.0
  0
LINE
  5
8E80
330
67
100
AcDbEntity
  8
1-構造
100
AcDbLine
 10
4593.405057
 20
1534.076101
 30
0.0
 11
4593.405057
 21
1034.076101
 31
0.0
  0
DIMENSION
  5
8E81
330
67
100
AcDbEntity
  8
6-寸法
100
AcDbDimension
  2
*D72
 10
4493.405057
 20
1034.076101
 30
0.0
 11
4470.905057
 21
1284.076101
 31
0.0
 12
0.0
 22
-2500.0
 32
0.0
 70
    32
 71
     5
 42
-1.0
  3
STANDARD
100
AcDbAlignedDimension
 13
4593.405057
 23
1534.076101
 33
0.0
 14
4593.405057
 24
1034.076101
 34
0.0
 50
90.0
100
AcDbRotatedDimension
1001
ACAD
1000
DSTYLE
1002
{
1070
    77
1070
     3
1070
    40
1040
10.0
1070
   173
1070
     1
1070
   147
1040
1.0
1070
    42
1040
3.0
1070
     7
1000
_OPEN
1070
     6
1000
_OPEN
1070
    41
1040
2.0
1002
}
  0
LINE
  5
8E84
330
67
100
AcDbEntity
  8
1-構造
100
AcDbLine
 10
4781.905057
 20
1054.076101
 30
0.0
 11
4916.905057000001
 21
1054.076101
 31
0.0
  0
LINE
  5
8E86
330
67
100
AcDbEntity
  8
1-構造
100
AcDbLine
 10
4593.405057
 20
1034.076101
 30
0.0
 11
4771.905057
 21
1034.076101
 31
0.0
  0
LINE
  5
8E87
330
67
100
AcDbEntity
  8
1-構造
100
AcDbLine
 10
4771.905057
 20
1034.076101
 30
0.0
 11
4781.905057
 21
1054.076101
 31
0.0
  0
LINE
  5
8E89
330
67
100
AcDbEntity
  8
1-構造
100
AcDbLine
 10
4926.905056999999
 20
1034.076101
 30
0.0
 11
5105.405057
 21
1034.076101
 31
0.0
  0
LINE
  5
8E8A
330
67
100
AcDbEntity
  8
1-構造
100
AcDbLine
 10
4916.905057000001
 20
1054.076101
 30
0.0
 11
4926.905056999999
 21
1034.076101
 31
0.0
  0
DIMENSION
  5
8E8C
330
67
100
AcDbEntity
  8
6-寸法
100
AcDbDimension
  2
*D75
 10
4849.405057
 20
1534.076101
 30
0.0
 11
4826.116282
 21
1559.169821
 31
0.0
 12
0.0
 22
-2500.0
 32
0.0
 70
   160
 71
     5
 42
-1.0
  3
STANDARD
100
AcDbAlignedDimension
 13
4916.905057000001
 23
1514.076101
 33
0.0
 14
4926.905056999999
 24
1534.076101
 34
0.0
 50
90.0
100
AcDbRotatedDimension
1001
ACAD
1000
DSTYLE
1002
{
1070
    77
1070
     3
1070
    40
1040
10.0
1070
   173
1070
     1
1070
   147
1040
1.0
1070
    42
1040
3.0
1070
     7
1000
_OPEN
1070
     6
1000
_OPEN
1070
     5
1000

1070
    41
1040
2.0
1002
}
  0
DIMENSION
  5
8E8D
330
67
100
AcDbEntity
  8
6-寸法
100
AcDbDimension
  2
*D77
 10
4916.905057000001
 20
1634.076100999999
 30
0.0
 11
4849.405057
 21
1656.576101
 31
0.0
 12
0.0
 22
-2500.0
 32
0.0
 70
    32
 71
     5
 42
-1.0
  3
STANDARD
100
AcDbAlignedDimension
 13
4781.905057
 23
1514.076101
 33
0.0
 14
4916.905057000001
 24
1514.076101
 34
0.0
100
AcDbRotatedDimension
1001
ACAD
1000
DSTYLE
1002
{
1070
    77
1070
     3
1070
    40
1040
10.0
1070
   173
1070
     1
1070
   147
1040
1.0
1070
    42
1040
3.0
1070
     7
1000
_OPEN
1070
     6
1000
_OPEN
1070
    41
1040
2.0
1002
}
  0
LINE
  5
8E8E
330
67
100
AcDbEntity
  8
1-構造
100
AcDbLine
 10
4781.905057
 20
1514.076101
 30
0.0
 11
4916.905057000001
 21
1514.076101
 31
0.0
  0
DIMENSION
  5
8E8F
330
67
100
AcDbEntity
  8
6-寸法
100
AcDbDimension
  2
*D79
 10
5105.405057
 20
2134.076101
 30
0.0
 11
4849.405057
 21
2156.576101
 31
0.0
 12
0.0
 22
-2500.0
 32
0.0
 70
    32
 71
     5
 42
-1.0
  3
STANDARD
100
AcDbAlignedDimension
 13
4593.405057
 23
2034.076101
 33
0.0
 14
5105.405057
 24
2034.076101
 34
0.0
100
AcDbRotatedDimension
1001
ACAD
1000
DSTYLE
1002
{
1070
    77
1070
     3
1070
    40
1040
10.0
1070
   173
1070
     1
1070
   147
1040
1.0
1070
    42
1040
3.0
1070
     7
1000
_OPEN
1070
     6
1000
_OPEN
1070
    41
1040
2.0
1002
}
  0
LINE
  5
8E90
330
67
100
AcDbEntity
  8
1-構造
100
AcDbLine
 10
4593.405057
 20
2034.076101
 30
0.0
 11
5105.405057
 21
2034.076101
 31
0.0
  0
DIMENSION
  5
8E91
330
67
100
AcDbEntity
  8
6-寸法
100
AcDbDimension
  2
*D74
 10
4598.405056999999
 20
1824.076101
 30
0.0
 11
4576.572903999999
 21
1846.576101
 31
0.0
 12
0.0
 22
-2500.0
 32
0.0
 70
   160
 71
     5
 42
-1.0
  3
STANDARD
100
AcDbAlignedDimension
 13
4593.405057
 23
2034.076101
 33
0.0
 14
4598.405056999999
 24
1924.076101
 34
0.0
100
AcDbRotatedDimension
1001
ACAD
1000
DSTYLE
1002
{
1070
    77
1070
     3
1070
    40
1040
10.0
1070
   173
1070
     1
1070
   147
1040
1.0
1070
    42
1040
3.0
1070
     7
1000
_NONE
1070
     6
1000
_OPEN
1070
     5
1000

1070
    41
1040
2.0
1002
}
  0
DIMENSION
  5
8E93
330
67
100
AcDbEntity
  8
6-寸法
100
AcDbDimension
  2
*D78
 10
4771.905057
 20
1634.076100999999
 30
0.0
 11
4748.16652
 21
1656.576101
 31
0.0
 12
0.0
 22
-2500.0
 32
0.0
 70
   160
 71
     5
 42
-1.0
  3
STANDARD
100
AcDbAlignedDimension
 13
4781.905057
 23
1514.076101
 33
0.0
 14
4771.905057
 24
1534.076101
 34
0.0
100
AcDbRotatedDimension
1001
ACAD
1000
DSTYLE
1002
{
1070
    77
1070
     3
1070
    40
1040
10.0
1070
   173
1070
     1
1070
   147
1040
1.0
1070
    42
1040
3.0
1070
     7
1000
_OPEN
1070
     6
1000
_OPEN
1070
     5
1000

1070
    41
1040
2.0
1002
}
  0
LINE
  5
8E94
330
67
100
AcDbEntity
  8
1-構造
100
AcDbLine
 10
4593.405057
 20
1534.076101
 30
0.0
 11
4771.905057
 21
1534.076101
 31
0.0
  0
LINE
  5
8E95
330
67
100
AcDbEntity
  8
1-構造
100
AcDbLine
 10
4771.905057
 20
1534.076101
 30
0.0
 11
4781.905057
 21
1514.076101
 31
0.0
  0
DIMENSION
  5
8E98
330
67
100
AcDbEntity
  8
6-寸法
100
AcDbDimension
  2
*D73
 10
4493.405057
 20
1924.076101
 30
0.0
 11
4470.905057
 21
1979.076101
 31
0.0
 70
    32
 71
     5
 42
-1.0
  3
STANDARD
100
AcDbAlignedDimension
 13
4593.405057
 23
2034.076101
 33
0.0
 14
4598.405056999999
 24
1924.076101
 34
0.0
 50
90.0
100
AcDbRotatedDimension
1001
ACAD
1000
DSTYLE
1002
{
1070
    77
1070
     3
1070
    40
1040
10.0
1070
   173
1070
     1
1070
   147
1040
1.0
1070
    42
1040
3.0
1070
     7
1000
_OPEN
1070
     6
1000
_OPEN
1070
     5
1000

1070
    41
1040
2.0
1002
}
  0
LINE
  5
8E9B
330
67
100
AcDbEntity
  8
1-構造
100
AcDbLine
 10
4593.405057
 20
2034.076101
 30
0.0
 11
4598.405056999999
 21
1924.076101
 31
0.0
  0
POINT
  5
8E9D
330
67
100
AcDbEntity
  8
DEFPOINTS
  6
ByBlock
 62
     0
100
AcDbPoint
 10
4598.405056999999
 20
1924.076101
 30
0.0
  0
POINT
  5
8E9E
330
67
100
AcDbEntity
  8
DEFPOINTS
  6
ByBlock
 62
     0
100
AcDbPoint
 10
4598.405056999999
 20
1924.076101
 30
0.0
  0
POINT
  5
8E9F
330
67
100
AcDbEntity
  8
DEFPOINTS
  6
ByBlock
 62
     0
100
AcDbPoint
 10
4598.405056999999
 20
1924.076101
 30
0.0
  0
DIMENSION
  5
8EAA
330
67
100
AcDbEntity
  8
6-寸法
100
AcDbDimension
  2
*D80
 10
5100.405057
 20
1824.076101
 30
0.0
 11
5122.23721
 21
1846.576101
 31
0.0
 12
0.0
 22
-2500.0
 32
0.0
 70
   160
 71
     5
 42
-1.0
  3
STANDARD
100
AcDbAlignedDimension
 13
5105.405057
 23
2034.076101
 33
0.0
 14
5100.405057
 24
1924.076101
 34
0.0
100
AcDbRotatedDimension
1001
ACAD
1000
DSTYLE
1002
{
1070
    77
1070
     3
1070
    40
1040
10.0
1070
   173
1070
     1
1070
   147
1040
1.0
1070
    42
1040
3.0
1070
     7
1000
_NONE
1070
     6
1000
_OPEN
1070
     5
1000

1070
    41
1040
2.0
1002
}
  0
DIMENSION
  5
8EAC
330
67
100
AcDbEntity
  8
6-寸法
100
AcDbDimension
  2
*D76
 10
4926.905056999999
 20
1634.076100999999
 30
0.0
 11
4945.294703
 21
1656.576101
 31
0.0
 12
0.0
 22
-2500.0
 32
0.0
 70
   160
 71
     5
 42
-1.0
  3
STANDARD
100
AcDbAlignedDimension
 13
4916.905057000001
 23
1514.076101
 33
0.0
 14
4926.905056999999
 24
1534.076101
 34
0.0
100
AcDbRotatedDimension
1001
ACAD
1000
DSTYLE
1002
{
1070
    77
1070
     3
1070
    40
1040
10.0
1070
   173
1070
     1
1070
   147
1040
1.0
1070
    42
1040
3.0
1070
     7
1000
_OPEN
1070
     6
1000
_OPEN
1070
     5
1000

1070
    41
1040
2.0
1002
}
  0
LINE
  5
8EAD
330
67
100
AcDbEntity
  8
1-構造
100
AcDbLine
 10
4926.905056999999
 20
1534.076101
 30
0.0
 11
5105.405057
 21
1534.076101
 31
0.0
  0
LINE
  5
8EAE
330
67
100
AcDbEntity
  8
1-構造
100
AcDbLine
 10
4916.905057000001
 20
1514.076101
 30
0.0
 11
4926.905056999999
 21
1534.076101
 31
0.0
  0
LINE
  5
8EB0
330
67
100
AcDbEntity
  8
1-構造
100
AcDbLine
 10
5105.405057
 20
2034.076101
 30
0.0
 11
5100.405057
 21
1924.076101
 31
0.0
  0
LINE
  5
8EB4
330
67
100
AcDbEntity
  8
1-構造
100
AcDbLine
 10
6415.405057
 20
1534.076101
 30
0.0
 11
6415.405057
 21
1034.076101
 31
0.0
  0
LINE
  5
8EB5
330
67
100
AcDbEntity
  8
1-構造
100
AcDbLine
 10
5793.405057000001
 20
1534.076101
 30
0.0
 11
5793.405057000001
 21
1034.076101
 31
0.0
  0
LINE
  5
8EB6
330
67
100
AcDbEntity
  8
1-構造
100
AcDbLine
 10
6181.905057
 20
1034.076101
 30
0.0
 11
6415.405057
 21
1034.076101
 31
0.0
  0
LINE
  5
8EBA
330
67
100
AcDbEntity
  8
1-構造
100
AcDbLine
 10
6036.905057
 20
1054.076101
 30
0.0
 11
6171.905057
 21
1054.076101
 31
0.0
  0
LINE
  5
8EBB
330
67
100
AcDbEntity
  8
1-構造
100
AcDbLine
 10
5793.405057000001
 20
1034.076101
 30
0.0
 11
6026.905057
 21
1034.076101
 31
0.0
  0
LINE
  5
8EBC
330
67
100
AcDbEntity
  8
1-構造
100
AcDbLine
 10
6026.905057
 20
1034.076101
 30
0.0
 11
6036.905057
 21
1054.076101
 31
0.0
  0
LINE
  5
8EBD
330
67
100
AcDbEntity
  8
1-構造
100
AcDbLine
 10
6171.905057
 20
1054.076101
 30
0.0
 11
6181.905057
 21
1034.076101
 31
0.0
  0
LINE
  5
8EC1
330
67
100
AcDbEntity
  8
1-構造
100
AcDbLine
 10
5793.405057000001
 20
2034.076101
 30
0.0
 11
6415.405057
 21
2034.076101
 31
0.0
  0
DIMENSION
  5
8EC2
330
67
100
AcDbEntity
  8
6-寸法
100
AcDbDimension
  2
*D84
 10
6415.405057
 20
2134.076101
 30
0.0
 11
6104.405057000001
 21
2156.576101
 31
0.0
 12
200.0
 22
-2500.0
 32
0.0
 70
    32
 71
     5
 42
-1.0
  3
STANDARD
100
AcDbAlignedDimension
 13
5793.405057000001
 23
2034.076101
 33
0.0
 14
6415.405057
 24
2034.076101
 34
0.0
100
AcDbRotatedDimension
1001
ACAD
1000
DSTYLE
1002
{
1070
    77
1070
     3
1070
    40
1040
10.0
1070
   173
1070
     1
1070
   147
1040
1.0
1070
    42
1040
3.0
1070
     7
1000
_OPEN
1070
     6
1000
_OPEN
1070
    41
1040
2.0
1002
}
  0
LINE
  5
8EC3
330
67
100
AcDbEntity
  8
1-構造
100
AcDbLine
 10
6181.905057
 20
1534.076101
 30
0.0
 11
6415.405057
 21
1534.076101
 31
0.0
  0
DIMENSION
  5
8EC5
330
67
100
AcDbEntity
  8
6-寸法
100
AcDbDimension
  2
*D85
 10
5798.405057
 20
1809.076101
 30
0.0
 11
5776.572904
 21
1831.576101
 31
0.0
 12
200.0
 22
-2500.0
 32
0.0
 70
   160
 71
     5
 42
-1.0
  3
STANDARD
100
AcDbAlignedDimension
 13
5793.405057000001
 23
2034.076101
 33
0.0
 14
5798.405057
 24
1909.076101
 34
0.0
100
AcDbRotatedDimension
1001
ACAD
1000
DSTYLE
1002
{
1070
    77
1070
     3
1070
    40
1040
10.0
1070
   173
1070
     1
1070
   147
1040
1.0
1070
    42
1040
3.0
1070
     7
1000
_NONE
1070
     6
1000
_OPEN
1070
     5
1000

1070
    41
1040
2.0
1002
}
  0
DIMENSION
  5
8EC6
330
67
100
AcDbEntity
  8
6-寸法
100
AcDbDimension
  2
*D86
 10
6026.905057
 20
1634.076100999999
 30
0.0
 11
6003.16652
 21
1656.576101
 31
0.0
 12
200.0
 22
-2500.0
 32
0.0
 70
   160
 71
     5
 42
-1.0
  3
STANDARD
100
AcDbAlignedDimension
 13
6036.905057
 23
1514.076101
 33
0.0
 14
6026.905057
 24
1534.076101
 34
0.0
100
AcDbRotatedDimension
1001
ACAD
1000
DSTYLE
1002
{
1070
    77
1070
     3
1070
    40
1040
10.0
1070
   173
1070
     1
1070
   147
1040
1.0
1070
    42
1040
3.0
1070
     7
1000
_OPEN
1070
     6
1000
_OPEN
1070
     5
1000

1070
    41
1040
2.0
1002
}
  0
DIMENSION
  5
8EC7
330
67
100
AcDbEntity
  8
6-寸法
100
AcDbDimension
  2
*D83
 10
6171.905057
 20
1634.076100999999
 30
0.0
 11
6104.405057000001
 21
1656.576101
 31
0.0
 12
200.0
 22
-2500.0
 32
0.0
 70
    32
 71
     5
 42
-1.0
  3
STANDARD
100
AcDbAlignedDimension
 13
6036.905057
 23
1514.076101
 33
0.0
 14
6171.905057
 24
1514.076101
 34
0.0
100
AcDbRotatedDimension
1001
ACAD
1000
DSTYLE
1002
{
1070
    77
1070
     3
1070
    40
1040
10.0
1070
   173
1070
     1
1070
   147
1040
1.0
1070
    42
1040
3.0
1070
     7
1000
_OPEN
1070
     6
1000
_OPEN
1070
    41
1040
2.0
1002
}
  0
LINE
  5
8EC8
330
67
100
AcDbEntity
  8
1-構造
100
AcDbLine
 10
6036.905057
 20
1514.076101
 30
0.0
 11
6171.905057
 21
1514.076101
 31
0.0
  0
LINE
  5
8EC9
330
67
100
AcDbEntity
  8
1-構造
100
AcDbLine
 10
5793.405057000001
 20
1534.076101
 30
0.0
 11
6026.905057
 21
1534.076101
 31
0.0
  0
LINE
  5
8ECA
330
67
100
AcDbEntity
  8
1-構造
100
AcDbLine
 10
6026.905057
 20
1534.076101
 30
0.0
 11
6036.905057
 21
1514.076101
 31
0.0
  0
DIMENSION
  5
8ECB
330
67
100
AcDbEntity
  8
6-寸法
100
AcDbDimension
  2
*D89
 10
6181.905057
 20
1634.076100999999
 30
0.0
 11
6200.294703
 21
1656.576101
 31
0.0
 12
200.0
 22
-2500.0
 32
0.0
 70
   160
 71
     5
 42
-1.0
  3
STANDARD
100
AcDbAlignedDimension
 13
6171.905057
 23
1514.076101
 33
0.0
 14
6181.905057
 24
1534.076101
 34
0.0
100
AcDbRotatedDimension
1001
ACAD
1000
DSTYLE
1002
{
1070
    77
1070
     3
1070
    40
1040
10.0
1070
   173
1070
     1
1070
   147
1040
1.0
1070
    42
1040
3.0
1070
     7
1000
_OPEN
1070
     6
1000
_OPEN
1070
     5
1000

1070
    41
1040
2.0
1002
}
  0
LINE
  5
8ECC
330
67
100
AcDbEntity
  8
1-構造
100
AcDbLine
 10
6171.905057
 20
1514.076101
 30
0.0
 11
6181.905057
 21
1534.076101
 31
0.0
  0
DIMENSION
  5
8ECD
330
67
100
AcDbEntity
  8
6-寸法
100
AcDbDimension
  2
*D82
 10
6104.405057000001
 20
1534.076101
 30
0.0
 11
6081.116281999999
 21
1559.169821
 31
0.0
 12
200.0
 22
-2500.0
 32
0.0
 70
   160
 71
     5
 42
-1.0
  3
STANDARD
100
AcDbAlignedDimension
 13
6171.905057
 23
1514.076101
 33
0.0
 14
6181.905057
 24
1534.076101
 34
0.0
 50
90.0
100
AcDbRotatedDimension
1001
ACAD
1000
DSTYLE
1002
{
1070
    77
1070
     3
1070
    40
1040
10.0
1070
   173
1070
     1
1070
   147
1040
1.0
1070
    42
1040
3.0
1070
     7
1000
_OPEN
1070
     6
1000
_OPEN
1070
     5
1000

1070
    41
1040
2.0
1002
}
  0
LINE
  5
8ED0
330
67
100
AcDbEntity
  8
1-構造
100
AcDbLine
 10
5793.405057000001
 20
2034.076101
 30
0.0
 11
5798.405057
 21
1909.076101
 31
0.0
  0
POINT
  5
8ED2
330
67
100
AcDbEntity
  8
DEFPOINTS
  6
ByBlock
 62
     0
100
AcDbPoint
 10
5798.405057
 20
1909.076101
 30
0.0
  0
POINT
  5
8ED3
330
67
100
AcDbEntity
  8
DEFPOINTS
  6
ByBlock
 62
     0
100
AcDbPoint
 10
5798.405057
 20
1909.076101
 30
0.0
  0
DIMENSION
  5
8EDF
330
67
100
AcDbEntity
  8
6-寸法
100
AcDbDimension
  2
*D88
 10
6410.405057
 20
1809.076101
 30
0.0
 11
6432.237210000001
 21
1831.576101
 31
0.0
 12
200.0
 22
-2500.0
 32
0.0
 70
   160
 71
     5
 42
-1.0
  3
STANDARD
100
AcDbAlignedDimension
 13
6415.405057
 23
2034.076101
 33
0.0
 14
6410.405057
 24
1909.076101
 34
0.0
100
AcDbRotatedDimension
1001
ACAD
1000
DSTYLE
1002
{
1070
    77
1070
     3
1070
    40
1040
10.0
1070
   173
1070
     1
1070
   147
1040
1.0
1070
    42
1040
3.0
1070
     7
1000
_NONE
1070
     6
1000
_OPEN
1070
     5
1000

1070
    41
1040
2.0
1002
}
  0
LINE
  5
8EE0
330
67
100
AcDbEntity
  8
1-構造
100
AcDbLine
 10
6415.405057
 20
2034.076101
 30
0.0
 11
6410.405057
 21
1909.076101
 31
0.0
  0
LINE
  5
9298
330
67
100
AcDbEntity
  8
1-構造
100
AcDbLine
 10
2198.405057
 20
1944.076101
 30
0.0
 11
2550.405057
 21
1944.076101
 31
0.0
  0
DIMENSION
  5
92A5
330
67
100
AcDbEntity
  8
6-寸法
100
AcDbDimension
  2
*D90
 10
2550.405057
 20
1844.076101
 30
0.0
 11
2374.405057
 21
1866.576101
 31
0.0
 12
-400.0
 22
0.0
 32
0.0
 70
    32
 71
     5
 42
-1.0
  3
STANDARD
100
AcDbAlignedDimension
 13
2198.405057
 23
1944.076101
 33
0.0
 14
2550.405057
 24
1944.076101
 34
0.0
100
AcDbRotatedDimension
1001
ACAD
1000
DSTYLE
1002
{
1070
    77
1070
     3
1070
    40
1040
10.0
1070
   173
1070
     1
1070
   147
1040
1.0
1070
    42
1040
3.0
1070
     7
1000
_OPEN
1070
     6
1000
_OPEN
1070
    41
1040
2.0
1002
}
  0
LINE
  5
92A6
330
67
100
AcDbEntity
  8
1-構造
100
AcDbLine
 10
3398.405057
 20
1939.076101
 30
0.0
 11
3800.405057
 21
1939.076101
 31
0.0
  0
DIMENSION
  5
92CB
330
67
100
AcDbEntity
  8
6-寸法
100
AcDbDimension
  2
*D91
 10
3800.405057
 20
1839.076101
 30
0.0
 11
3599.405057
 21
1861.576101
 31
0.0
 12
-200.0
 22
0.0
 32
0.0
 70
    32
 71
     5
 42
-1.0
  3
STANDARD
100
AcDbAlignedDimension
 13
3398.405057
 23
1939.076101
 33
0.0
 14
3800.405057
 24
1939.076101
 34
0.0
100
AcDbRotatedDimension
1001
ACAD
1000
DSTYLE
1002
{
1070
    77
1070
     3
1070
    40
1040
10.0
1070
   173
1070
     1
1070
   147
1040
1.0
1070
    42
1040
3.0
1070
     7
1000
_OPEN
1070
     6
1000
_OPEN
1070
    41
1040
2.0
1002
}
  0
LINE
  5
92D9
330
67
100
AcDbEntity
  8
1-構造
100
AcDbLine
 10
4598.405056999999
 20
1924.076101
 30
0.0
 11
5100.405057
 21
1924.076101
 31
0.0
  0
DIMENSION
  5
92E6
330
67
100
AcDbEntity
  8
6-寸法
100
AcDbDimension
  2
*D92
 10
5100.405057
 20
1824.076101
 30
0.0
 11
4849.405057
 21
1846.576101
 31
0.0
 70
    32
 71
     5
 42
-1.0
  3
STANDARD
100
AcDbAlignedDimension
 13
4598.405056999999
 23
1924.076101
 33
0.0
 14
5100.405057
 24
1924.076101
 34
0.0
100
AcDbRotatedDimension
1001
ACAD
1000
DSTYLE
1002
{
1070
    77
1070
     3
1070
    40
1040
10.0
1070
   173
1070
     1
1070
   147
1040
1.0
1070
    42
1040
3.0
1070
     7
1000
_OPEN
1070
     6
1000
_OPEN
1070
    41
1040
2.0
1002
}
  0
LINE
  5
92F2
330
67
100
AcDbEntity
  8
1-構造
100
AcDbLine
 10
5798.405057
 20
1909.076101
 30
0.0
 11
6410.405057
 21
1909.076101
 31
0.0
  0
DIMENSION
  5
92FF
330
67
100
AcDbEntity
  8
6-寸法
100
AcDbDimension
  2
*D93
 10
6410.405057
 20
1809.076101
 30
0.0
 11
6104.405057000001
 21
1831.576101
 31
0.0
 12
200.0
 22
0.0
 32
0.0
 70
    32
 71
     5
 42
-1.0
  3
STANDARD
100
AcDbAlignedDimension
 13
5798.405057
 23
1909.076101
 33
0.0
 14
6410.405057
 24
1909.076101
 34
0.0
100
AcDbRotatedDimension
1001
ACAD
1000
DSTYLE
1002
{
1070
    77
1070
     3
1070
    40
1040
10.0
1070
   173
1070
     1
1070
   147
1040
1.0
1070
    42
1040
3.0
1070
     7
1000
_OPEN
1070
     6
1000
_OPEN
1070
    41
1040
2.0
1002
}
  0
LINE
  5
9303
330
67
100
AcDbEntity
  8
7-文字
100
AcDbLine
 10
3012.737118314321
 20
2771.768835
 30
0.0
 11
5398.270113238179
 21
2771.768835
 31
0.0
  0
LINE
  5
9306
330
67
100
AcDbEntity
  8
7-文字
100
AcDbLine
 10
2002.744386
 20
2398.805161
 30
0.0
 11
2129.144661874017
 21
2398.805161
 31
0.0
  0
LINE
  5
9307
330
67
100
AcDbEntity
  8
7-文字
100
AcDbLine
 10
3202.744386
 20
2398.805161
 30
0.0
 11
3329.398468980616
 21
2398.805161
 31
0.0
  0
LINE
  5
930A
330
67
100
AcDbEntity
  8
7-文字
100
AcDbLine
 10
4402.744386000001
 20
2398.805161
 30
0.0
 11
4530.159890300413
 21
2398.805160999999
 31
0.0
  0
LINE
  5
930C
330
67
100
AcDbEntity
  8
7-文字
100
AcDbLine
 10
5602.744386000001
 20
2398.805161
 30
0.0
 11
5729.398468980615
 21
2398.805160999999
 31
0.0
  0
LINE
  5
9310
330
67
100
AcDbEntity
  8
1-構造
100
AcDbLine
 10
2306.905057
 20
4479.076100999999
 30
0.0
 11
2306.905057
 21
4534.076100999999
 31
0.0
  0
LINE
  5
9311
330
67
100
AcDbEntity
  8
1-構造
100
AcDbLine
 10
2441.905057
 20
4479.076100999999
 30
0.0
 11
2441.905057
 21
4534.076100999999
 31
0.0
  0
LINE
  5
9312
330
67
100
AcDbEntity
  8
1-構造
100
AcDbLine
 10
2451.905057
 20
4479.076100999999
 30
0.0
 11
2451.905057
 21
4534.076100999999
 31
0.0
  0
LINE
  5
9313
330
67
100
AcDbEntity
  8
1-構造
100
AcDbLine
 10
2296.905057
 20
4479.076100999999
 30
0.0
 11
2296.905057
 21
4534.076100999999
 31
0.0
  0
LINE
  5
9314
330
67
100
AcDbEntity
  8
1-構造
100
AcDbLine
 10
3521.905057
 20
4479.076100999999
 30
0.0
 11
3521.905057
 21
4534.076100999999
 31
0.0
  0
LINE
  5
9315
330
67
100
AcDbEntity
  8
1-構造
100
AcDbLine
 10
3531.905057
 20
4479.076100999999
 30
0.0
 11
3531.905057
 21
4534.076100999999
 31
0.0
  0
LINE
  5
9316
330
67
100
AcDbEntity
  8
1-構造
100
AcDbLine
 10
3666.905057000001
 20
4479.076100999999
 30
0.0
 11
3666.905057000001
 21
4534.076100999999
 31
0.0
  0
LINE
  5
9317
330
67
100
AcDbEntity
  8
1-構造
100
AcDbLine
 10
3676.905057
 20
4479.076100999999
 30
0.0
 11
3676.905057
 21
4534.076100999999
 31
0.0
  0
LINE
  5
9318
330
67
100
AcDbEntity
  8
1-構造
100
AcDbLine
 10
4771.905057
 20
4469.076100999999
 30
0.0
 11
4771.905057
 21
4534.076100999999
 31
0.0
  0
LINE
  5
9319
330
67
100
AcDbEntity
  8
1-構造
100
AcDbLine
 10
4781.905057
 20
4469.076100999999
 30
0.0
 11
4781.905057
 21
4534.076100999999
 31
0.0
  0
LINE
  5
931A
330
67
100
AcDbEntity
  8
1-構造
100
AcDbLine
 10
4916.905057000001
 20
4469.076100999999
 30
0.0
 11
4916.905057000001
 21
4534.076100999999
 31
0.0
  0
LINE
  5
931B
330
67
100
AcDbEntity
  8
1-構造
100
AcDbLine
 10
4926.905056999999
 20
4469.076100999999
 30
0.0
 11
4926.905056999999
 21
4534.076100999999
 31
0.0
  0
LINE
  5
931C
330
67
100
AcDbEntity
  8
1-構造
100
AcDbLine
 10
6026.905057
 20
4459.076100999999
 30
0.0
 11
6026.905057
 21
4534.076100999999
 31
0.0
  0
LINE
  5
931D
330
67
100
AcDbEntity
  8
1-構造
100
AcDbLine
 10
6036.905057
 20
4459.076100999999
 30
0.0
 11
6036.905057
 21
4534.076100999999
 31
0.0
  0
LINE
  5
931E
330
67
100
AcDbEntity
  8
1-構造
100
AcDbLine
 10
6171.905057
 20
4459.076100999999
 30
0.0
 11
6171.905057
 21
4534.076100999999
 31
0.0
  0
LINE
  5
931F
330
67
100
AcDbEntity
  8
1-構造
100
AcDbLine
 10
6181.905057
 20
4459.076100999999
 30
0.0
 11
6181.905057
 21
4534.076100999999
 31
0.0
  0
LINE
  5
9320
330
67
100
AcDbEntity
  8
1-構造
100
AcDbLine
 10
2296.905057
 20
1944.076101
 30
0.0
 11
2296.905057
 21
2034.076101
 31
0.0
  0
LINE
  5
9321
330
67
100
AcDbEntity
  8
1-構造
100
AcDbLine
 10
2306.905057
 20
1944.076101
 30
0.0
 11
2306.905057
 21
2034.076101
 31
0.0
  0
LINE
  5
9322
330
67
100
AcDbEntity
  8
1-構造
100
AcDbLine
 10
2441.905057
 20
1944.076101
 30
0.0
 11
2441.905057
 21
2034.076101
 31
0.0
  0
LINE
  5
9323
330
67
100
AcDbEntity
  8
1-構造
100
AcDbLine
 10
2451.905057
 20
1944.076101
 30
0.0
 11
2451.905057
 21
2034.076101
 31
0.0
  0
LINE
  5
9324
330
67
100
AcDbEntity
  8
1-構造
100
AcDbLine
 10
3521.905057
 20
1939.076101
 30
0.0
 11
3521.905057
 21
2034.076101
 31
0.0
  0
LINE
  5
9325
330
67
100
AcDbEntity
  8
1-構造
100
AcDbLine
 10
3531.905057
 20
1939.076101
 30
0.0
 11
3531.905057
 21
2034.076101
 31
0.0
  0
LINE
  5
9326
330
67
100
AcDbEntity
  8
1-構造
100
AcDbLine
 10
3666.905057000001
 20
1939.076101
 30
0.0
 11
3666.905057000001
 21
2034.076101
 31
0.0
  0
LINE
  5
9327
330
67
100
AcDbEntity
  8
1-構造
100
AcDbLine
 10
3676.905057
 20
1939.076101
 30
0.0
 11
3676.905057
 21
2034.076101
 31
0.0
  0
LINE
  5
9328
330
67
100
AcDbEntity
  8
1-構造
100
AcDbLine
 10
4771.905057
 20
1924.076101
 30
0.0
 11
4771.905057
 21
2034.076101
 31
0.0
  0
LINE
  5
9329
330
67
100
AcDbEntity
  8
1-構造
100
AcDbLine
 10
4781.905057
 20
1924.076101
 30
0.0
 11
4781.905057
 21
2034.076101
 31
0.0
  0
LINE
  5
932A
330
67
100
AcDbEntity
  8
1-構造
100
AcDbLine
 10
4916.905057000001
 20
1924.076101
 30
0.0
 11
4916.905057000001
 21
2034.076101
 31
0.0
  0
LINE
  5
932B
330
67
100
AcDbEntity
  8
1-構造
100
AcDbLine
 10
4926.905056999999
 20
1924.076101
 30
0.0
 11
4926.905056999999
 21
2034.076101
 31
0.0
  0
LINE
  5
932C
330
67
100
AcDbEntity
  8
1-構造
100
AcDbLine
 10
6026.905057
 20
1909.076101
 30
0.0
 11
6026.905057
 21
2034.076101
 31
0.0
  0
LINE
  5
932D
330
67
100
AcDbEntity
  8
1-構造
100
AcDbLine
 10
6036.905057
 20
1909.076101
 30
0.0
 11
6036.905057
 21
2034.076101
 31
0.0
  0
LINE
  5
932E
330
67
100
AcDbEntity
  8
1-構造
100
AcDbLine
 10
6171.905057
 20
1909.076101
 30
0.0
 11
6171.905057
 21
2034.076101
 31
0.0
  0
LINE
  5
932F
330
67
100
AcDbEntity
  8
1-構造
100
AcDbLine
 10
6181.905057
 20
1909.076101
 30
0.0
 11
6181.905057
 21
2034.076101
 31
0.0
  0
TEXT
  5
9360
330
67
100
AcDbEntity
  8
7-文字
100
AcDbText
 10
3035.456852791878
 20
2799.755493000001
 30
0.0
 40
100.0
  1
道路用鉄筋コンクリート側溝　ふた２種
 72
     1
 11
4205.0
 21
2799.755493000001
 31
0.0
100
AcDbText
  0
TEXT
  5
9361
330
67
100
AcDbEntity
  8
7-文字
100
AcDbText
 10
3035.456852791878
 20
5299.755493
 30
0.0
 40
100.0
  1
道路用鉄筋コンクリート側溝　ふた１種
 72
     1
 11
4205.0
 21
5299.755493
 31
0.0
100
AcDbText
  0
TEXT
  5
9364
330
67
100
AcDbEntity
  8
7-文字
100
AcDbText
 10
2021.849338720812
 20
4903.557790999999
 30
0.0
 40
50.0
  1
250
100
AcDbText
  0
TEXT
  5
9365
330
67
100
AcDbEntity
  8
7-文字
100
AcDbText
 10
3222.103145827411
 20
4903.557790999999
 30
0.0
 40
50.0
  1
300
100
AcDbText
  0
TEXT
  5
9366
330
67
100
AcDbEntity
  8
7-文字
100
AcDbText
 10
4422.864567147208
 20
4903.557790999999
 30
0.0
 40
50.0
  1
400
100
AcDbText
  0
TEXT
  5
9367
330
67
100
AcDbEntity
  8
7-文字
100
AcDbText
 10
5622.103145827412
 20
4903.557790999999
 30
0.0
 40
50.0
  1
500
100
AcDbText
  0
TEXT
  5
9368
330
67
100
AcDbEntity
  8
7-文字
100
AcDbText
 10
2021.849338720812
 20
2403.557791
 30
0.0
 40
50.0
  1
250
100
AcDbText
  0
TEXT
  5
9369
330
67
100
AcDbEntity
  8
7-文字
100
AcDbText
 10
3222.103145827411
 20
2403.557791
 30
0.0
 40
50.0
  1
300
100
AcDbText
  0
TEXT
  5
936A
330
67
100
AcDbEntity
  8
7-文字
100
AcDbText
 10
4422.864567147208
 20
2403.557791
 30
0.0
 40
50.0
  1
400
100
AcDbText
  0
TEXT
  5
936B
330
67
100
AcDbEntity
  8
7-文字
100
AcDbText
 10
5622.103145827412
 20
2403.557791
 30
0.0
 40
50.0
  1
500
100
AcDbText
  0
ENDSEC
  0
SECTION
  2
OBJECTS
  0
DICTIONARY
  5
5B
330
0
100
AcDbDictionary
281
     1
  3
ACAD_COLOR
350
934D
  3
ACAD_GROUP
350
5C
  3
ACAD_LAYOUT
350
934E
  3
ACAD_MATERIAL
350
934C
  3
ACAD_MLINESTYLE
350
5D
  3
ACAD_PLOTSETTINGS
350
934F
  3
ACAD_PLOTSTYLENAME
350
934A
  3
ACDBHEADERROUNDTRIPXREC
350
9395
  3
ACDBVARIABLEDICTIONARY
350
5468
  3
CONTENTDICTIONARY
350
549E
  0
DICTIONARY
  5
934D
102
{ACAD_REACTORS
330
5B
102
}
330
5B
100
AcDbDictionary
281
     1
  0
DICTIONARY
  5
5C
102
{ACAD_REACTORS
330
5B
102
}
330
5B
100
AcDbDictionary
281
     1
  0
DICTIONARY
  5
934E
102
{ACAD_REACTORS
330
5B
102
}
330
5B
100
AcDbDictionary
281
     1
  3
Model
350
9350
  3
レイアウト1
350
9351
  0
DICTIONARY
  5
934C
102
{ACAD_REACTORS
330
5B
102
}
330
5B
100
AcDbDictionary
281
     1
  0
DICTIONARY
  5
5D
102
{ACAD_REACTORS
330
5B
102
}
330
5B
100
AcDbDictionary
281
     1
  3
STANDARD
350
6A
  0
DICTIONARY
  5
934F
102
{ACAD_REACTORS
330
5B
102
}
330
5B
100
AcDbDictionary
281
     1
  0
ACDBDICTIONARYWDFLT
  5
934A
102
{ACAD_REACTORS
330
5B
102
}
330
5B
100
AcDbDictionary
281
     1
  3
Normal
350
934B
100
AcDbDictionaryWithDefault
340
934B
  0
DICTIONARY
  5
9395
102
{ACAD_REACTORS
330
5B
102
}
330
5B
100
AcDbDictionary
281
     1
  3
COLORDICT
350
9397
  3
MATERIALDICT
350
9396
  0
DICTIONARY
  5
5468
102
{ACAD_REACTORS
330
5B
102
}
330
5B
100
AcDbDictionary
281
     1
  3
DIMASSOC
350
938A
  3
PROJECTNAME
350
938B
  3
SORTENTS
350
5469
  0
DICTIONARY
  5
549E
102
{ACAD_REACTORS
330
5B
102
}
330
5B
100
AcDbDictionary
281
     1
  0
LAYOUT
  5
9350
102
{ACAD_XDICTIONARY
360
9398
102
}
102
{ACAD_REACTORS
330
934E
102
}
330
934E
100
AcDbPlotSettings
  1

  2
EPSON LP-S5000
  4

  6

 40
0.0
 41
0.0
 42
0.0
 43
0.0
 44
0.0
 45
0.0
 46
0.0
 47
0.0
 48
0.0
 49
0.0
140
0.0
141
0.0
142
1.0
143
1.0
 70
  1712
 72
     0
 73
     0
 74
     0
  7

 75
     0
147
1.0
148
0.0
149
0.0
100
AcDbLayout
  1
Model
 70
     1
 71
     0
 10
0.0
 20
0.0
 11
12.0
 21
9.0
 12
0.0
 22
0.0
 32
0.0
 14
0.0
 24
0.0
 34
0.0
 15
0.0
 25
0.0
 35
0.0
146
0.0
 13
0.0
 23
0.0
 33
0.0
 16
1.0
 26
0.0
 36
0.0
 17
0.0
 27
1.0
 37
0.0
 76
     0
330
67
  0
LAYOUT
  5
9351
102
{ACAD_XDICTIONARY
360
939A
102
}
102
{ACAD_REACTORS
330
934E
102
}
330
934E
100
AcDbPlotSettings
  1

  2
EPSON LP-S5000
  4

  6

 40
0.0
 41
0.0
 42
0.0
 43
0.0
 44
0.0
 45
0.0
 46
0.0
 47
0.0
 48
0.0
 49
0.0
140
0.0
141
0.0
142
1.0
143
1.0
 70
   688
 72
     0
 73
     0
 74
     5
  7

 75
    16
147
1.0
148
0.0
149
0.0
100
AcDbLayout
  1
レイアウト1
 70
     0
 71
     1
 10
0.0
 20
0.0
 11
12.0
 21
9.0
 12
0.0
 22
0.0
 32
0.0
 14
1.000000000000000E+20
 24
1.000000000000000E+20
 34
1.000000000000000E+20
 15
-1.000000000000000E+20
 25
-1.000000000000000E+20
 35
-1.000000000000000E+20
146
0.0
 13
0.0
 23
0.0
 33
0.0
 16
1.0
 26
0.0
 36
0.0
 17
0.0
 27
1.0
 37
0.0
 76
     0
330
64
  0
MLINESTYLE
  5
6A
102
{ACAD_REACTORS
330
5D
102
}
330
5D
100
AcDbMlineStyle
  2
STANDARD
 70
     0
  3

 62
     0
 51
90.0
 52
90.0
 71
     2
 49
0.5
 62
   256
  6
BYLAYER
 49
-0.5
 62
   256
  6
BYLAYER
  0
ACDBPLACEHOLDER
  5
934B
102
{ACAD_REACTORS
330
934A
102
}
330
934A
  0
XRECORD
  5
9397
102
{ACAD_REACTORS
330
9395
102
}
330
9395
100
AcDbXrecord
280
     1
340
934D
  0
XRECORD
  5
9396
102
{ACAD_REACTORS
330
9395
102
}
330
9395
100
AcDbXrecord
280
     1
340
934C
  0
DICTIONARYVAR
  5
938A
102
{ACAD_REACTORS
330
5468
102
}
330
5468
100
DictionaryVariables
280
     0
  1
1
  0
DICTIONARYVAR
  5
938B
102
{ACAD_REACTORS
330
5468
102
}
330
5468
100
DictionaryVariables
280
     0
  1

  0
DICTIONARYVAR
  5
5469
102
{ACAD_REACTORS
330
5468
102
}
330
5468
100
DictionaryVariables
280
     0
  1
96
  0
DICTIONARY
  5
9398
330
9350
100
AcDbDictionary
280
     1
281
     1
  3
ACAD_XREC_ROUNDTRIP
360
9399
  0
DICTIONARY
  5
939A
330
9351
100
AcDbDictionary
280
     1
281
     1
  3
ACAD_XREC_ROUNDTRIP
360
939B
  0
XRECORD
  5
9399
102
{ACAD_REACTORS
330
9398
102
}
330
9398
100
AcDbXrecord
280
     1
102
SHADEPLOT
 70
     0
102
SHADEPLOTRESLEVEL
 70
     2
102
SHADEPLOTCUSTOMDPI
 70
   300
  0
XRECORD
  5
939B
102
{ACAD_REACTORS
330
939A
102
}
330
939A
100
AcDbXrecord
280
     1
102
SHADEPLOT
 70
     0
102
SHADEPLOTRESLEVEL
 70
     2
102
SHADEPLOTCUSTOMDPI
 70
   300
  0
ENDSEC
  0
EOF
