  0
SECTION
  2
HEADER
  9
$ACADVER
  1
AC1015
  9
$ACADMAINTVER
 70
    20
  9
$DWGCODEPAGE
  3
ANSI_932
  9
$INSBASE
 10
0.0
 20
0.0
 30
0.0
  9
$EXTMIN
 10
-0.256633251272433
 20
-0.1812605841350887
 30
-0.0015258207003583
  9
$EXTMAX
 10
8410.256672413391
 20
5940.181288244414
 30
0.0000000349246037
  9
$LIMMIN
 10
0.0
 20
0.0
  9
$LIMMAX
 10
8410.0
 20
5940.0
  9
$ORTHOMODE
 70
     1
  9
$REGENMODE
 70
     1
  9
$FILLMODE
 70
     1
  9
$QTEXTMODE
 70
     0
  9
$MIRRTEXT
 70
     0
  9
$LTSCALE
 40
10.0
  9
$ATTMODE
 70
     1
  9
$TEXTSIZE
 40
3.0
  9
$TRACEWID
 40
0.05
  9
$TEXTSTYLE
  7
STANDARD
  9
$CLAYER
  8
1-構造
  9
$CELTYPE
  6
BYLAYER
  9
$CECOLOR
 62
   256
  9
$CELTSCALE
 40
1.0
  9
$DISPSILH
 70
     0
  9
$DIMSCALE
 40
10.0
  9
$DIMASZ
 40
2.0
  9
$DIMEXO
 40
3.0
  9
$DIMDLI
 40
0.0
  9
$DIMRND
 40
0.0
  9
$DIMDLE
 40
0.0
  9
$DIMEXE
 40
1.0
  9
$DIMTP
 40
0.0
  9
$DIMTM
 40
0.0
  9
$DIMTXT
 40
2.5
  9
$DIMCEN
 40
0.0
  9
$DIMTSZ
 40
0.0
  9
$DIMTOL
 70
     0
  9
$DIMLIM
 70
     0
  9
$DIMTIH
 70
     0
  9
$DIMTOH
 70
     0
  9
$DIMSE1
 70
     0
  9
$DIMSE2
 70
     0
  9
$DIMTAD
 70
     0
  9
$DIMZIN
 70
     8
  9
$DIMBLK
  1

  9
$DIMASO
 70
     1
  9
$DIMSHO
 70
     0
  9
$DIMPOST
  1

  9
$DIMAPOST
  1

  9
$DIMALT
 70
     0
  9
$DIMALTD
 70
     2
  9
$DIMALTF
 40
25.4
  9
$DIMLFAC
 40
1.0
  9
$DIMTOFL
 70
     1
  9
$DIMTVP
 40
1.0
  9
$DIMTIX
 70
     1
  9
$DIMSOXD
 70
     0
  9
$DIMSAH
 70
     1
  9
$DIMBLK1
  1
OPEN
  9
$DIMBLK2
  1
OPEN
  9
$DIMSTYLE
  2
STANDARD
  9
$DIMCLRD
 70
     0
  9
$DIMCLRE
 70
     0
  9
$DIMCLRT
 70
     0
  9
$DIMTFAC
 40
1.0
  9
$DIMGAP
 40
0.0
  9
$DIMJUST
 70
     0
  9
$DIMSD1
 70
     0
  9
$DIMSD2
 70
     0
  9
$DIMTOLJ
 70
     1
  9
$DIMTZIN
 70
     8
  9
$DIMALTZ
 70
     8
  9
$DIMALTTZ
 70
     8
  9
$DIMUPT
 70
     0
  9
$DIMDEC
 70
     1
  9
$DIMTDEC
 70
     1
  9
$DIMALTU
 70
     2
  9
$DIMALTTD
 70
     2
  9
$DIMTXSTY
  7
STANDARD
  9
$DIMAUNIT
 70
     0
  9
$DIMADEC
 70
     0
  9
$DIMALTRND
 40
0.0
  9
$DIMAZIN
 70
     0
  9
$DIMDSEP
 70
    46
  9
$DIMATFIT
 70
     3
  9
$DIMFRAC
 70
     0
  9
$DIMLDRBLK
  1

  9
$DIMLUNIT
 70
     2
  9
$DIMLWD
 70
    -2
  9
$DIMLWE
 70
    -2
  9
$DIMTMOVE
 70
     2
  9
$LUNITS
 70
     2
  9
$LUPREC
 70
     1
  9
$SKETCHINC
 40
0.1
  9
$FILLETRAD
 40
20.0
  9
$AUNITS
 70
     0
  9
$AUPREC
 70
     1
  9
$MENU
  1
d:\powerup\haneda
  9
$ELEVATION
 40
0.0
  9
$PELEVATION
 40
0.0
  9
$THICKNESS
 40
0.0
  9
$LIMCHECK
 70
     0
  9
$CHAMFERA
 40
0.0
  9
$CHAMFERB
 40
0.0
  9
$CHAMFERC
 40
0.0
  9
$CHAMFERD
 40
0.0
  9
$SKPOLY
 70
     0
  9
$TDCREATE
 40
2451206.539872882
  9
$TDUCREATE
 40
2451206.164872882
  9
$TDUPDATE
 40
2456348.166578692
  9
$TDUUPDATE
 40
2456347.791578692
  9
$TDINDWG
 40
0.4387886227
  9
$TDUSRTIMER
 40
0.4387886227
  9
$USRTIMER
 70
     1
  9
$ANGBASE
 50
0.0
  9
$ANGDIR
 70
     0
  9
$PDMODE
 70
     0
  9
$PDSIZE
 40
0.0
  9
$PLINEWID
 40
0.0
  9
$SPLFRAME
 70
     0
  9
$SPLINETYPE
 70
     6
  9
$SPLINESEGS
 70
     8
  9
$HANDSEED
  5
D91
  9
$SURFTAB1
 70
     6
  9
$SURFTAB2
 70
     6
  9
$SURFTYPE
 70
     6
  9
$SURFU
 70
     6
  9
$SURFV
 70
     6
  9
$UCSBASE
  2

  9
$UCSNAME
  2

  9
$UCSORG
 10
1189.147689836032
 20
4889.750143086112
 30
0.0
  9
$UCSXDIR
 10
1.0
 20
0.0
 30
0.0
  9
$UCSYDIR
 10
0.0
 20
1.0
 30
0.0
  9
$UCSORTHOREF
  2

  9
$UCSORTHOVIEW
 70
     0
  9
$UCSORGTOP
 10
0.0
 20
0.0
 30
0.0
  9
$UCSORGBOTTOM
 10
0.0
 20
0.0
 30
0.0
  9
$UCSORGLEFT
 10
0.0
 20
0.0
 30
0.0
  9
$UCSORGRIGHT
 10
0.0
 20
0.0
 30
0.0
  9
$UCSORGFRONT
 10
0.0
 20
0.0
 30
0.0
  9
$UCSORGBACK
 10
0.0
 20
0.0
 30
0.0
  9
$PUCSBASE
  2

  9
$PUCSNAME
  2

  9
$PUCSORG
 10
0.0
 20
0.0
 30
0.0
  9
$PUCSXDIR
 10
1.0
 20
0.0
 30
0.0
  9
$PUCSYDIR
 10
0.0
 20
1.0
 30
0.0
  9
$PUCSORTHOREF
  2

  9
$PUCSORTHOVIEW
 70
     0
  9
$PUCSORGTOP
 10
0.0
 20
0.0
 30
0.0
  9
$PUCSORGBOTTOM
 10
0.0
 20
0.0
 30
0.0
  9
$PUCSORGLEFT
 10
0.0
 20
0.0
 30
0.0
  9
$PUCSORGRIGHT
 10
0.0
 20
0.0
 30
0.0
  9
$PUCSORGFRONT
 10
0.0
 20
0.0
 30
0.0
  9
$PUCSORGBACK
 10
0.0
 20
0.0
 30
0.0
  9
$USERI1
 70
     0
  9
$USERI2
 70
     0
  9
$USERI3
 70
     0
  9
$USERI4
 70
     0
  9
$USERI5
 70
     0
  9
$USERR1
 40
0.0
  9
$USERR2
 40
0.0
  9
$USERR3
 40
0.0
  9
$USERR4
 40
0.0
  9
$USERR5
 40
1.0
  9
$WORLDVIEW
 70
     1
  9
$SHADEDGE
 70
     3
  9
$SHADEDIF
 70
    70
  9
$TILEMODE
 70
     1
  9
$MAXACTVP
 70
    16
  9
$PINSBASE
 10
0.0
 20
0.0
 30
0.0
  9
$PLIMCHECK
 70
     0
  9
$PEXTMIN
 10
1.000000000000000E+20
 20
1.000000000000000E+20
 30
1.000000000000000E+20
  9
$PEXTMAX
 10
-1.000000000000000E+20
 20
-1.000000000000000E+20
 30
-1.000000000000000E+20
  9
$PLIMMIN
 10
0.0
 20
0.0
  9
$PLIMMAX
 10
12.0
 20
9.0
  9
$UNITMODE
 70
     0
  9
$VISRETAIN
 70
     0
  9
$PLINEGEN
 70
     0
  9
$PSLTSCALE
 70
     0
  9
$TREEDEPTH
 70
  3020
  9
$CMLSTYLE
  2
STANDARD
  9
$CMLJUST
 70
     0
  9
$CMLSCALE
 40
1.0
  9
$PROXYGRAPHICS
 70
     1
  9
$MEASUREMENT
 70
     0
  9
$CELWEIGHT
370
    -1
  9
$ENDCAPS
280
     0
  9
$JOINSTYLE
280
     0
  9
$LWDISPLAY
290
     0
  9
$INSUNITS
 70
     0
  9
$HYPERLINKBASE
  1

  9
$STYLESHEET
  1

  9
$XEDIT
290
     1
  9
$CEPSNTYPE
380
     0
  9
$PSTYLEMODE
290
     1
  9
$FINGERPRINTGUID
  2
{0F8A7118-E2EE-4BEE-B51C-D212B3075370}
  9
$VERSIONGUID
  2
{D37B27B7-2960-4481-A158-959076A353C3}
  9
$EXTNAMES
290
     1
  9
$PSVPSCALE
 40
0.0
  9
$OLESTARTUP
290
     0
  0
ENDSEC
  0
SECTION
  2
CLASSES
  0
CLASS
  1
ACDBDICTIONARYWDFLT
  2
AcDbDictionaryWithDefault
  3
ObjectDBX Classes
 90
        0
280
     0
281
     0
  0
CLASS
  1
DICTIONARYVAR
  2
AcDbDictionaryVar
  3
ObjectDBX Classes
 90
        0
280
     0
281
     0
  0
CLASS
  1
ACDBPLACEHOLDER
  2
AcDbPlaceHolder
  3
ObjectDBX Classes
 90
        0
280
     0
281
     0
  0
CLASS
  1
LAYOUT
  2
AcDbLayout
  3
ObjectDBX Classes
 90
        0
280
     0
281
     0
  0
ENDSEC
  0
SECTION
  2
TABLES
  0
TABLE
  2
VPORT
  5
57
330
0
100
AcDbSymbolTable
 70
     6
  0
VPORT
  5
D89
330
57
100
AcDbSymbolTableRecord
100
AcDbViewportTableRecord
  2
*Active
 70
     0
 10
0.0
 20
0.0
 11
1.0
 21
1.0
 12
4205.000019581059
 22
2970.000013830139
 13
0.0
 23
0.0
 14
1.0
 24
1.0
 15
0.0
 25
0.0
 16
0.0
 26
0.0
 36
1.0
 17
0.0
 27
0.0
 37
0.0
 40
6146.187861979829
 41
1.376978417266186
 42
50.0
 43
0.0
 44
0.0
 50
0.0
 51
0.0
 71
     0
 72
  1000
 73
     1
 74
     0
 75
     0
 76
     0
 77
     0
 78
     0
281
     0
 65
     1
110
1189.147689836032
120
4889.750143086112
130
0.0
111
1.0
121
0.0
131
0.0
112
0.0
122
1.0
132
0.0
 79
     0
146
0.0
  0
ENDTAB
  0
TABLE
  2
LTYPE
  5
54
330
0
100
AcDbSymbolTable
 70
     1
  0
LTYPE
  5
61
330
54
100
AcDbSymbolTableRecord
100
AcDbLinetypeTableRecord
  2
BYBLOCK
 70
     0
  3

 72
    65
 73
     0
 40
0.0
  0
LTYPE
  5
62
330
54
100
AcDbSymbolTableRecord
100
AcDbLinetypeTableRecord
  2
BYLAYER
 70
     0
  3

 72
    65
 73
     0
 40
0.0
  0
LTYPE
  5
63
330
54
100
AcDbSymbolTableRecord
100
AcDbLinetypeTableRecord
  2
CONTINUOUS
 70
     0
  3
Solid line
 72
    65
 73
     0
 40
0.0
  0
ENDTAB
  0
TABLE
  2
LAYER
  5
51
330
0
100
AcDbSymbolTable
 70
     7
  0
LAYER
  5
5E
330
51
100
AcDbSymbolTableRecord
100
AcDbLayerTableRecord
  2
0
 70
     0
 62
     7
  6
CONTINUOUS
370
    -3
390
D4D
  0
LAYER
  5
85
330
51
100
AcDbSymbolTableRecord
100
AcDbLayerTableRecord
  2
DEFPOINTS
 70
     0
 62
     7
  6
CONTINUOUS
290
     0
370
    -3
390
D4D
  0
LAYER
  5
AE
330
51
100
AcDbSymbolTableRecord
100
AcDbLayerTableRecord
  2
1-構造
 70
     0
 62
     2
  6
CONTINUOUS
370
    -3
390
D4D
  0
LAYER
  5
347
330
51
100
AcDbSymbolTableRecord
100
AcDbLayerTableRecord
  2
6-寸法
 70
     0
 62
     7
  6
CONTINUOUS
370
    -3
390
D4D
  0
LAYER
  5
348
330
51
100
AcDbSymbolTableRecord
100
AcDbLayerTableRecord
  2
7-文字
 70
     0
 62
     7
  6
CONTINUOUS
370
    -3
390
D4D
  0
LAYER
  5
34A
330
51
100
AcDbSymbolTableRecord
100
AcDbLayerTableRecord
  2
A-枠
 70
     0
 62
     6
  6
CONTINUOUS
370
    -3
390
D4D
  0
LAYER
  5
34B
330
51
100
AcDbSymbolTableRecord
100
AcDbLayerTableRecord
  2
B-枠文字
 70
     0
 62
     7
  6
CONTINUOUS
370
    -3
390
D4D
  0
ENDTAB
  0
TABLE
  2
STYLE
  5
52
330
0
100
AcDbSymbolTable
 70
     3
  0
STYLE
  5
5F
330
52
100
AcDbSymbolTableRecord
100
AcDbTextStyleTableRecord
  2
STANDARD
 70
     0
 40
0.0
 41
1.0
 50
0.0
 71
     0
 42
3.0
  3

  4

1001
ACAD
1000
MS Gothic
1071
    32817
  0
STYLE
  5
BA
330
52
100
AcDbSymbolTableRecord
100
AcDbTextStyleTableRecord
  2
DIM
 70
     0
 40
0.0
 41
0.6
 50
0.0
 71
     0
 42
0.2
  3
simplex
  4
bigfont
  0
STYLE
  5
32C
330
52
100
AcDbSymbolTableRecord
100
AcDbTextStyleTableRecord
  2
STANDARD2
 70
     0
 40
8.0
 41
1.0
 50
0.0
 71
     0
 42
8.0
  3

  4

1001
ACAD
1000
MS Gothic
1071
    32817
  0
ENDTAB
  0
TABLE
  2
VIEW
  5
55
330
0
100
AcDbSymbolTable
 70
     0
  0
ENDTAB
  0
TABLE
  2
UCS
  5
56
330
0
100
AcDbSymbolTable
 70
     0
  0
ENDTAB
  0
TABLE
  2
APPID
  5
58
330
0
100
AcDbSymbolTable
 70
     3
  0
APPID
  5
60
330
58
100
AcDbSymbolTableRecord
100
AcDbRegAppTableRecord
  2
ACAD
 70
     0
  0
APPID
  5
D2C
330
58
100
AcDbSymbolTableRecord
100
AcDbRegAppTableRecord
  2
CONTENTTABDATA
 70
     0
  0
APPID
  5
D2D
330
58
100
AcDbSymbolTableRecord
100
AcDbRegAppTableRecord
  2
CONTENTCURRENTTAB
 70
     0
  0
ENDTAB
  0
TABLE
  2
DIMSTYLE
  5
59
330
0
100
AcDbSymbolTable
 70
     1
100
AcDbDimStyleTable
 71
     0
  0
DIMSTYLE
105
6F
102
{ACAD_REACTORS
330
810
330
81D
330
860
330
864
330
88A
330
88E
330
8C2
330
8DC
330
914
330
921
330
92E
330
9BC
330
A11
330
A1E
330
A2B
330
AC2
330
ACC
330
B01
330
B02
330
B4D
330
B5A
330
BA2
330
BC1
330
BE8
330
BF7
330
BF4
330
C13
330
C10
330
C3F
330
C4B
330
C4D
330
C68
330
C67
330
95D
330
A2F
330
BB4
102
}
330
59
100
AcDbSymbolTableRecord
100
AcDbDimStyleTableRecord
  2
STANDARD
 70
     0
 40
100.0
 41
1.0
 42
1.0
 43
0.0
 44
1.0
 73
     0
 74
     0
 78
     8
140
2.5
141
0.0
145
1.0
147
0.0
172
     1
174
     1
271
     1
272
     1
279
     2
284
     8
285
     8
286
     8
340
5F
  0
ENDTAB
  0
TABLE
  2
BLOCK_RECORD
  5
50
330
0
100
AcDbSymbolTable
 70
    37
  0
BLOCK_RECORD
  5
67
330
50
100
AcDbSymbolTableRecord
100
AcDbBlockTableRecord
  2
*MODEL_SPACE
340
D52
  0
BLOCK_RECORD
  5
64
330
50
100
AcDbSymbolTableRecord
100
AcDbBlockTableRecord
  2
*PAPER_SPACE
340
D53
  0
BLOCK_RECORD
  5
199
330
50
100
AcDbSymbolTableRecord
100
AcDbBlockTableRecord
  2
_OPEN
340
0
102
{BLKREFS
331
85D
331
863
331
88D
331
B6A
331
B6D
331
B70
331
B73
331
B76
331
B7A
331
C99
331
C9A
331
816
331
817
331
CA4
331
CA5
331
876
331
877
331
CAF
331
CB0
331
8AC
331
8AD
331
CC5
331
CC6
331
8D5
331
8D6
331
90D
331
90E
331
91A
331
91B
331
927
331
928
331
982
331
983
331
9D0
331
9D1
331
A0A
331
A0B
331
A17
331
A18
331
A24
331
A25
331
A5A
331
A5B
331
ABB
331
ABC
331
AD6
331
AD7
331
D1D
331
D1E
331
B38
331
B39
331
B46
331
B47
331
B53
331
B54
331
B9B
331
B9C
331
BBA
331
BBB
331
BC7
331
BC8
331
BED
331
BEE
331
CDB
331
CDC
331
C09
331
C0A
331
C19
331
C1A
331
CFC
331
CFD
331
C44
331
C45
331
D12
331
D13
331
C60
331
C61
331
D07
331
D08
331
C7C
331
C7D
102
}
  0
BLOCK_RECORD
  5
804
330
50
100
AcDbSymbolTableRecord
100
AcDbBlockTableRecord
  2
*D1
340
0
  0
BLOCK_RECORD
  5
811
330
50
100
AcDbSymbolTableRecord
100
AcDbBlockTableRecord
  2
*D2
340
0
  0
BLOCK_RECORD
  5
865
330
50
100
AcDbSymbolTableRecord
100
AcDbBlockTableRecord
  2
*D3
340
0
  0
BLOCK_RECORD
  5
871
330
50
100
AcDbSymbolTableRecord
100
AcDbBlockTableRecord
  2
*D4
340
0
  0
BLOCK_RECORD
  5
89B
330
50
100
AcDbSymbolTableRecord
100
AcDbBlockTableRecord
  2
*D5
340
0
  0
BLOCK_RECORD
  5
8A7
330
50
100
AcDbSymbolTableRecord
100
AcDbBlockTableRecord
  2
*D6
340
0
  0
BLOCK_RECORD
  5
8B6
330
50
100
AcDbSymbolTableRecord
100
AcDbBlockTableRecord
  2
*D7
340
0
  0
BLOCK_RECORD
  5
8D0
330
50
100
AcDbSymbolTableRecord
100
AcDbBlockTableRecord
  2
*D8
340
0
  0
BLOCK_RECORD
  5
908
330
50
100
AcDbSymbolTableRecord
100
AcDbBlockTableRecord
  2
*D9
340
0
  0
BLOCK_RECORD
  5
915
330
50
100
AcDbSymbolTableRecord
100
AcDbBlockTableRecord
  2
*D10
340
0
  0
BLOCK_RECORD
  5
922
330
50
100
AcDbSymbolTableRecord
100
AcDbBlockTableRecord
  2
*D11
340
0
  0
BLOCK_RECORD
  5
97D
330
50
100
AcDbSymbolTableRecord
100
AcDbBlockTableRecord
  2
*D12
340
0
  0
BLOCK_RECORD
  5
9CB
330
50
100
AcDbSymbolTableRecord
100
AcDbBlockTableRecord
  2
*D13
340
0
  0
BLOCK_RECORD
  5
A05
330
50
100
AcDbSymbolTableRecord
100
AcDbBlockTableRecord
  2
*D14
340
0
  0
BLOCK_RECORD
  5
A12
330
50
100
AcDbSymbolTableRecord
100
AcDbBlockTableRecord
  2
*D15
340
0
  0
BLOCK_RECORD
  5
A1F
330
50
100
AcDbSymbolTableRecord
100
AcDbBlockTableRecord
  2
*D16
340
0
  0
BLOCK_RECORD
  5
A55
330
50
100
AcDbSymbolTableRecord
100
AcDbBlockTableRecord
  2
*D17
340
0
  0
BLOCK_RECORD
  5
AB6
330
50
100
AcDbSymbolTableRecord
100
AcDbBlockTableRecord
  2
*D18
340
0
  0
BLOCK_RECORD
  5
AD1
330
50
100
AcDbSymbolTableRecord
100
AcDbBlockTableRecord
  2
*D19
340
0
  0
BLOCK_RECORD
  5
B0F
330
50
100
AcDbSymbolTableRecord
100
AcDbBlockTableRecord
  2
*D20
340
0
  0
BLOCK_RECORD
  5
B33
330
50
100
AcDbSymbolTableRecord
100
AcDbBlockTableRecord
  2
*D21
340
0
  0
BLOCK_RECORD
  5
B41
330
50
100
AcDbSymbolTableRecord
100
AcDbBlockTableRecord
  2
*D22
340
0
  0
BLOCK_RECORD
  5
B4E
330
50
100
AcDbSymbolTableRecord
100
AcDbBlockTableRecord
  2
*D23
340
0
  0
BLOCK_RECORD
  5
B96
330
50
100
AcDbSymbolTableRecord
100
AcDbBlockTableRecord
  2
*D24
340
0
  0
BLOCK_RECORD
  5
BB5
330
50
100
AcDbSymbolTableRecord
100
AcDbBlockTableRecord
  2
*D25
340
0
  0
BLOCK_RECORD
  5
BC2
330
50
100
AcDbSymbolTableRecord
100
AcDbBlockTableRecord
  2
*D26
340
0
  0
BLOCK_RECORD
  5
BDC
330
50
100
AcDbSymbolTableRecord
100
AcDbBlockTableRecord
  2
*D27
340
0
  0
BLOCK_RECORD
  5
BF8
330
50
100
AcDbSymbolTableRecord
100
AcDbBlockTableRecord
  2
*D28
340
0
  0
BLOCK_RECORD
  5
C04
330
50
100
AcDbSymbolTableRecord
100
AcDbBlockTableRecord
  2
*D29
340
0
  0
BLOCK_RECORD
  5
C14
330
50
100
AcDbSymbolTableRecord
100
AcDbBlockTableRecord
  2
*D30
340
0
  0
BLOCK_RECORD
  5
C20
330
50
100
AcDbSymbolTableRecord
100
AcDbBlockTableRecord
  2
*D31
340
0
  0
BLOCK_RECORD
  5
C33
330
50
100
AcDbSymbolTableRecord
100
AcDbBlockTableRecord
  2
*D32
340
0
  0
BLOCK_RECORD
  5
C4F
330
50
100
AcDbSymbolTableRecord
100
AcDbBlockTableRecord
  2
*D33
340
0
  0
BLOCK_RECORD
  5
C5B
330
50
100
AcDbSymbolTableRecord
100
AcDbBlockTableRecord
  2
*D34
340
0
  0
BLOCK_RECORD
  5
C6B
330
50
100
AcDbSymbolTableRecord
100
AcDbBlockTableRecord
  2
*D35
340
0
  0
BLOCK_RECORD
  5
C77
330
50
100
AcDbSymbolTableRecord
100
AcDbBlockTableRecord
  2
*D36
340
0
  0
ENDTAB
  0
ENDSEC
  0
SECTION
  2
BLOCKS
  0
BLOCK
  5
88
330
67
100
AcDbEntity
  8
0
 62
     7
100
AcDbBlockBegin
  2
*MODEL_SPACE
 70
     0
 10
0.0
 20
0.0
 30
0.0
  3
*MODEL_SPACE
  1

  0
ENDBLK
  5
89
330
67
100
AcDbEntity
  8
0
 62
     7
100
AcDbBlockEnd
  0
BLOCK
  5
86
330
64
100
AcDbEntity
 67
     1
  8
0
 62
     7
100
AcDbBlockBegin
  2
*PAPER_SPACE
 70
     0
 10
0.0
 20
0.0
 30
0.0
  3
*PAPER_SPACE
  1

  0
ENDBLK
  5
87
330
64
100
AcDbEntity
 67
     1
  8
0
 62
     7
100
AcDbBlockEnd
  0
BLOCK
  5
19A
330
199
100
AcDbEntity
  8
0
100
AcDbBlockBegin
  2
_OPEN
 70
     0
 10
0.0
 20
0.0
 30
0.0
  3
_OPEN
  1

  0
LINE
  5
19B
330
199
100
AcDbEntity
  8
0
  6
ByBlock
 62
     0
100
AcDbLine
 10
-1.0
 20
0.1666666666666666
 30
0.0
 11
0.0
 21
0.0
 31
0.0
  0
LINE
  5
19C
330
199
100
AcDbEntity
  8
0
  6
ByBlock
 62
     0
100
AcDbLine
 10
0.0
 20
0.0
 30
0.0
 11
-1.0
 21
-0.1666666666666666
 31
0.0
  0
LINE
  5
19D
330
199
100
AcDbEntity
  8
0
  6
ByBlock
 62
     0
100
AcDbLine
 10
0.0
 20
0.0
 30
0.0
 11
-1.0
 21
0.0
 31
0.0
  0
ENDBLK
  5
19E
330
199
100
AcDbEntity
  8
0
100
AcDbBlockEnd
  0
BLOCK
  5
C95
330
804
100
AcDbEntity
  8
0
100
AcDbBlockBegin
  2
*D1
 70
     1
 10
0.0
 20
0.0
 30
0.0
  3
*D1
  1

  0
LINE
  5
C96
330
804
100
AcDbEntity
  8
0
  6
ByBlock
 62
     0
100
AcDbLine
 10
1039.294749266119
 20
4935.669811580356
 30
0.0
 11
939.2947492661189
 21
4935.669811580356
 31
0.0
  0
LINE
  5
C97
330
804
100
AcDbEntity
  8
0
  6
ByBlock
 62
     0
100
AcDbLine
 10
1019.294749266119
 20
4735.669811580356
 30
0.0
 11
939.2947492661189
 21
4735.669811580356
 31
0.0
  0
LINE
  5
C98
330
804
100
AcDbEntity
  8
0
  6
ByBlock
 62
     0
100
AcDbLine
 10
949.2947492661189
 20
4915.669811580356
 30
0.0
 11
949.2947492661189
 21
4755.669811580355
 31
0.0
  0
INSERT
  5
C99
330
804
100
AcDbEntity
  8
0
  6
ByBlock
 62
     0
100
AcDbBlockReference
  2
_OPEN
 10
949.2947492661189
 20
4935.669811580356
 30
0.0
 41
20.0
 42
20.0
 43
20.0
 50
90.0
  0
INSERT
  5
C9A
330
804
100
AcDbEntity
  8
0
  6
ByBlock
 62
     0
100
AcDbBlockReference
  2
_OPEN
 10
949.2947492661189
 20
4735.669811580356
 30
0.0
 41
20.0
 42
20.0
 43
20.0
 50
270.0
  0
MTEXT
  5
C9B
330
804
100
AcDbEntity
  8
0
  6
ByBlock
 62
     0
100
AcDbMText
 10
924.2947492661189
 20
4835.669811580356
 30
0.0
 40
25.0
 41
0.0
 71
     5
 72
     1
  1
\A1;200
 11
0.0000000000000001
 21
1.0
 31
0.0
 73
     1
 44
1.0
1001
ACAD
1000
MTEXTBEGIN
1070
    73
1070
     1
1070
    44
1040
1.0
1070
    74
1070
     0
1000
MTEXTEND
  0
POINT
  5
C9C
330
804
100
AcDbEntity
  8
DEFPOINTS
  6
ByBlock
 62
     0
100
AcDbPoint
 10
1069.294749266119
 20
4935.669811580356
 30
0.0
  0
POINT
  5
C9D
330
804
100
AcDbEntity
  8
DEFPOINTS
  6
ByBlock
 62
     0
100
AcDbPoint
 10
1049.294749266119
 20
4735.669811580356
 30
0.0
  0
POINT
  5
C9E
330
804
100
AcDbEntity
  8
DEFPOINTS
  6
ByBlock
 62
     0
100
AcDbPoint
 10
949.2947492661189
 20
4735.669811580356
 30
0.0
  0
ENDBLK
  5
C9F
330
804
100
AcDbEntity
  8
0
100
AcDbBlockEnd
  0
BLOCK
  5
812
330
811
100
AcDbEntity
  8
0
100
AcDbBlockBegin
  2
*D2
 70
     1
 10
0.0
 20
0.0
 30
0.0
  3
*D2
  1

  0
LINE
  5
813
330
811
100
AcDbEntity
  8
0
  6
ByBlock
 62
     0
100
AcDbLine
 10
1069.294749266119
 20
4865.669811580356
 30
0.0
 11
1069.294749266119
 21
4945.669811580355
 31
0.0
  0
LINE
  5
814
330
811
100
AcDbEntity
  8
0
  6
ByBlock
 62
     0
100
AcDbLine
 10
1219.294749266118
 20
4865.669811580356
 30
0.0
 11
1219.294749266118
 21
4945.669811580355
 31
0.0
  0
LINE
  5
815
330
811
100
AcDbEntity
  8
0
  6
ByBlock
 62
     0
100
AcDbLine
 10
1089.294749266119
 20
4935.669811580356
 30
0.0
 11
1199.294749266118
 21
4935.669811580356
 31
0.0
  0
INSERT
  5
816
330
811
100
AcDbEntity
  8
0
  6
ByBlock
 62
     0
100
AcDbBlockReference
  2
_OPEN
 10
1069.294749266119
 20
4935.669811580356
 30
0.0
 41
20.0
 42
20.0
 43
20.0
 50
180.0
  0
INSERT
  5
817
330
811
100
AcDbEntity
  8
0
  6
ByBlock
 62
     0
100
AcDbBlockReference
  2
_OPEN
 10
1219.294749266118
 20
4935.669811580356
 30
0.0
 41
20.0
 42
20.0
 43
20.0
  0
MTEXT
  5
818
330
811
100
AcDbEntity
  8
0
  6
ByBlock
 62
     0
100
AcDbMText
 10
1144.294749266119
 20
4960.669811580356
 30
0.0
 40
25.0
 41
0.0
 71
     5
 72
     1
  1
\A1;150
 73
     1
 44
1.0
1001
ACAD
1000
MTEXTBEGIN
1070
    73
1070
     1
1070
    44
1040
1.0
1070
    74
1070
     0
1000
MTEXTEND
  0
POINT
  5
819
330
811
100
AcDbEntity
  8
DEFPOINTS
  6
ByBlock
 62
     0
100
AcDbPoint
 10
1069.294749266119
 20
4835.669811580356
 30
0.0
  0
POINT
  5
81A
330
811
100
AcDbEntity
  8
DEFPOINTS
  6
ByBlock
 62
     0
100
AcDbPoint
 10
1219.294749266118
 20
4835.669811580356
 30
0.0
  0
POINT
  5
81B
330
811
100
AcDbEntity
  8
DEFPOINTS
  6
ByBlock
 62
     0
100
AcDbPoint
 10
1219.294749266118
 20
4935.669811580356
 30
0.0
  0
ENDBLK
  5
81C
330
811
100
AcDbEntity
  8
0
100
AcDbBlockEnd
  0
BLOCK
  5
CA0
330
865
100
AcDbEntity
  8
0
100
AcDbBlockBegin
  2
*D3
 70
     1
 10
0.0
 20
0.0
 30
0.0
  3
*D3
  1

  0
LINE
  5
CA1
330
865
100
AcDbEntity
  8
0
  6
ByBlock
 62
     0
100
AcDbLine
 10
1039.294749266119
 20
4435.669811580356
 30
0.0
 11
939.2947492661189
 21
4435.669811580356
 31
0.0
  0
LINE
  5
CA2
330
865
100
AcDbEntity
  8
0
  6
ByBlock
 62
     0
100
AcDbLine
 10
1019.294749266119
 20
4235.669811580356
 30
0.0
 11
939.2947492661189
 21
4235.669811580356
 31
0.0
  0
LINE
  5
CA3
330
865
100
AcDbEntity
  8
0
  6
ByBlock
 62
     0
100
AcDbLine
 10
949.2947492661189
 20
4415.669811580356
 30
0.0
 11
949.2947492661189
 21
4255.669811580355
 31
0.0
  0
INSERT
  5
CA4
330
865
100
AcDbEntity
  8
0
  6
ByBlock
 62
     0
100
AcDbBlockReference
  2
_OPEN
 10
949.2947492661189
 20
4435.669811580356
 30
0.0
 41
20.0
 42
20.0
 43
20.0
 50
90.0
  0
INSERT
  5
CA5
330
865
100
AcDbEntity
  8
0
  6
ByBlock
 62
     0
100
AcDbBlockReference
  2
_OPEN
 10
949.2947492661189
 20
4235.669811580356
 30
0.0
 41
20.0
 42
20.0
 43
20.0
 50
270.0
  0
MTEXT
  5
CA6
330
865
100
AcDbEntity
  8
0
  6
ByBlock
 62
     0
100
AcDbMText
 10
924.2947492661189
 20
4335.669811580356
 30
0.0
 40
25.0
 41
0.0
 71
     5
 72
     1
  1
\A1;200
 11
0.0000000000000001
 21
1.0
 31
0.0
 73
     1
 44
1.0
1001
ACAD
1000
MTEXTBEGIN
1070
    73
1070
     1
1070
    44
1040
1.0
1070
    74
1070
     0
1000
MTEXTEND
  0
POINT
  5
CA7
330
865
100
AcDbEntity
  8
DEFPOINTS
  6
ByBlock
 62
     0
100
AcDbPoint
 10
1069.294749266119
 20
4435.669811580356
 30
0.0
  0
POINT
  5
CA8
330
865
100
AcDbEntity
  8
DEFPOINTS
  6
ByBlock
 62
     0
100
AcDbPoint
 10
1049.294749266119
 20
4235.669811580356
 30
0.0
  0
POINT
  5
CA9
330
865
100
AcDbEntity
  8
DEFPOINTS
  6
ByBlock
 62
     0
100
AcDbPoint
 10
949.2947492661189
 20
4235.669811580356
 30
0.0
  0
ENDBLK
  5
CAA
330
865
100
AcDbEntity
  8
0
100
AcDbBlockEnd
  0
BLOCK
  5
872
330
871
100
AcDbEntity
  8
0
100
AcDbBlockBegin
  2
*D4
 70
     1
 10
0.0
 20
0.0
 30
0.0
  3
*D4
  1

  0
LINE
  5
873
330
871
100
AcDbEntity
  8
0
  6
ByBlock
 62
     0
100
AcDbLine
 10
1069.294749266119
 20
4915.669811580356
 30
0.0
 11
1069.294749266119
 21
4995.669811580356
 31
0.0
  0
LINE
  5
874
330
871
100
AcDbEntity
  8
0
  6
ByBlock
 62
     0
100
AcDbLine
 10
1219.294749266118
 20
4915.669811580356
 30
0.0
 11
1219.294749266118
 21
4995.669811580356
 31
0.0
  0
LINE
  5
875
330
871
100
AcDbEntity
  8
0
  6
ByBlock
 62
     0
100
AcDbLine
 10
1089.294749266119
 20
4985.669811580356
 30
0.0
 11
1199.294749266118
 21
4985.669811580356
 31
0.0
  0
INSERT
  5
876
330
871
100
AcDbEntity
  8
0
  6
ByBlock
 62
     0
100
AcDbBlockReference
  2
_OPEN
 10
1069.294749266119
 20
4985.669811580356
 30
0.0
 41
20.0
 42
20.0
 43
20.0
 50
180.0
  0
INSERT
  5
877
330
871
100
AcDbEntity
  8
0
  6
ByBlock
 62
     0
100
AcDbBlockReference
  2
_OPEN
 10
1219.294749266118
 20
4985.669811580356
 30
0.0
 41
20.0
 42
20.0
 43
20.0
  0
MTEXT
  5
878
330
871
100
AcDbEntity
  8
0
  6
ByBlock
 62
     0
100
AcDbMText
 10
1144.294749266119
 20
5010.669811580356
 30
0.0
 40
25.0
 41
0.0
 71
     5
 72
     1
  1
\A1;150
 73
     1
 44
1.0
1001
ACAD
1000
MTEXTBEGIN
1070
    73
1070
     1
1070
    44
1040
1.0
1070
    74
1070
     0
1000
MTEXTEND
  0
POINT
  5
879
330
871
100
AcDbEntity
  8
DEFPOINTS
  6
ByBlock
 62
     0
100
AcDbPoint
 10
1069.294749266119
 20
4885.669811580356
 30
0.0
  0
POINT
  5
87A
330
871
100
AcDbEntity
  8
DEFPOINTS
  6
ByBlock
 62
     0
100
AcDbPoint
 10
1219.294749266118
 20
4885.669811580356
 30
0.0
  0
POINT
  5
87B
330
871
100
AcDbEntity
  8
DEFPOINTS
  6
ByBlock
 62
     0
100
AcDbPoint
 10
1219.294749266118
 20
4985.669811580356
 30
0.0
  0
ENDBLK
  5
87C
330
871
100
AcDbEntity
  8
0
100
AcDbBlockEnd
  0
BLOCK
  5
CAB
330
89B
100
AcDbEntity
  8
0
100
AcDbBlockBegin
  2
*D5
 70
     1
 10
0.0
 20
0.0
 30
0.0
  3
*D5
  1

  0
LINE
  5
CAC
330
89B
100
AcDbEntity
  8
0
  6
ByBlock
 62
     0
100
AcDbLine
 10
1039.294749266119
 20
3935.669811580356
 30
0.0
 11
939.2947492661189
 21
3935.669811580356
 31
0.0
  0
LINE
  5
CAD
330
89B
100
AcDbEntity
  8
0
  6
ByBlock
 62
     0
100
AcDbLine
 10
1019.294749266119
 20
3735.669811580356
 30
0.0
 11
939.2947492661189
 21
3735.669811580356
 31
0.0
  0
LINE
  5
CAE
330
89B
100
AcDbEntity
  8
0
  6
ByBlock
 62
     0
100
AcDbLine
 10
949.2947492661189
 20
3915.669811580356
 30
0.0
 11
949.2947492661189
 21
3755.669811580356
 31
0.0
  0
INSERT
  5
CAF
330
89B
100
AcDbEntity
  8
0
  6
ByBlock
 62
     0
100
AcDbBlockReference
  2
_OPEN
 10
949.2947492661189
 20
3935.669811580356
 30
0.0
 41
20.0
 42
20.0
 43
20.0
 50
90.0
  0
INSERT
  5
CB0
330
89B
100
AcDbEntity
  8
0
  6
ByBlock
 62
     0
100
AcDbBlockReference
  2
_OPEN
 10
949.2947492661189
 20
3735.669811580356
 30
0.0
 41
20.0
 42
20.0
 43
20.0
 50
270.0
  0
MTEXT
  5
CB1
330
89B
100
AcDbEntity
  8
0
  6
ByBlock
 62
     0
100
AcDbMText
 10
924.2947492661189
 20
3835.669811580356
 30
0.0
 40
25.0
 41
0.0
 71
     5
 72
     1
  1
\A1;200
 11
0.0000000000000001
 21
1.0
 31
0.0
 73
     1
 44
1.0
1001
ACAD
1000
MTEXTBEGIN
1070
    73
1070
     1
1070
    44
1040
1.0
1070
    74
1070
     0
1000
MTEXTEND
  0
POINT
  5
CB2
330
89B
100
AcDbEntity
  8
DEFPOINTS
  6
ByBlock
 62
     0
100
AcDbPoint
 10
1069.294749266119
 20
3935.669811580356
 30
0.0
  0
POINT
  5
CB3
330
89B
100
AcDbEntity
  8
DEFPOINTS
  6
ByBlock
 62
     0
100
AcDbPoint
 10
1049.294749266119
 20
3735.669811580356
 30
0.0
  0
POINT
  5
CB4
330
89B
100
AcDbEntity
  8
DEFPOINTS
  6
ByBlock
 62
     0
100
AcDbPoint
 10
949.2947492661189
 20
3735.669811580356
 30
0.0
  0
ENDBLK
  5
CB5
330
89B
100
AcDbEntity
  8
0
100
AcDbBlockEnd
  0
BLOCK
  5
8A8
330
8A7
100
AcDbEntity
  8
0
100
AcDbBlockBegin
  2
*D6
 70
     1
 10
0.0
 20
0.0
 30
0.0
  3
*D6
  1

  0
LINE
  5
8A9
330
8A7
100
AcDbEntity
  8
0
  6
ByBlock
 62
     0
100
AcDbLine
 10
1069.294749266119
 20
4465.669811580355
 30
0.0
 11
1069.294749266119
 21
4545.669811580355
 31
0.0
  0
LINE
  5
8AA
330
8A7
100
AcDbEntity
  8
0
  6
ByBlock
 62
     0
100
AcDbLine
 10
1219.294749266118
 20
4465.669811580355
 30
0.0
 11
1219.294749266118
 21
4545.669811580355
 31
0.0
  0
LINE
  5
8AB
330
8A7
100
AcDbEntity
  8
0
  6
ByBlock
 62
     0
100
AcDbLine
 10
1089.294749266119
 20
4535.669811580356
 30
0.0
 11
1199.294749266118
 21
4535.669811580356
 31
0.0
  0
INSERT
  5
8AC
330
8A7
100
AcDbEntity
  8
0
  6
ByBlock
 62
     0
100
AcDbBlockReference
  2
_OPEN
 10
1069.294749266119
 20
4535.669811580356
 30
0.0
 41
20.0
 42
20.0
 43
20.0
 50
180.0
  0
INSERT
  5
8AD
330
8A7
100
AcDbEntity
  8
0
  6
ByBlock
 62
     0
100
AcDbBlockReference
  2
_OPEN
 10
1219.294749266118
 20
4535.669811580356
 30
0.0
 41
20.0
 42
20.0
 43
20.0
  0
MTEXT
  5
8AE
330
8A7
100
AcDbEntity
  8
0
  6
ByBlock
 62
     0
100
AcDbMText
 10
1144.294749266119
 20
4560.669811580356
 30
0.0
 40
25.0
 41
0.0
 71
     5
 72
     1
  1
\A1;150
 73
     1
 44
1.0
1001
ACAD
1000
MTEXTBEGIN
1070
    73
1070
     1
1070
    44
1040
1.0
1070
    74
1070
     0
1000
MTEXTEND
  0
POINT
  5
8AF
330
8A7
100
AcDbEntity
  8
DEFPOINTS
  6
ByBlock
 62
     0
100
AcDbPoint
 10
1069.294749266119
 20
4435.669811580356
 30
0.0
  0
POINT
  5
8B0
330
8A7
100
AcDbEntity
  8
DEFPOINTS
  6
ByBlock
 62
     0
100
AcDbPoint
 10
1219.294749266118
 20
4435.669811580356
 30
0.0
  0
POINT
  5
8B1
330
8A7
100
AcDbEntity
  8
DEFPOINTS
  6
ByBlock
 62
     0
100
AcDbPoint
 10
1219.294749266118
 20
4535.669811580356
 30
0.0
  0
ENDBLK
  5
8B2
330
8A7
100
AcDbEntity
  8
0
100
AcDbBlockEnd
  0
BLOCK
  5
CC1
330
8B6
100
AcDbEntity
  8
0
100
AcDbBlockBegin
  2
*D7
 70
     1
 10
0.0
 20
0.0
 30
0.0
  3
*D7
  1

  0
LINE
  5
CC2
330
8B6
100
AcDbEntity
  8
0
  6
ByBlock
 62
     0
100
AcDbLine
 10
1039.294749266119
 20
2817.73505600846
 30
0.0
 11
909.2947492661188
 21
2817.73505600846
 31
0.0
  0
LINE
  5
CC3
330
8B6
100
AcDbEntity
  8
0
  6
ByBlock
 62
     0
100
AcDbLine
 10
1014.294749266118
 20
2567.73505600846
 30
0.0
 11
909.2947492661187
 21
2567.73505600846
 31
0.0
  0
LINE
  5
CC4
330
8B6
100
AcDbEntity
  8
0
  6
ByBlock
 62
     0
100
AcDbLine
 10
919.2947492661188
 20
2797.73505600846
 30
0.0
 11
919.2947492661188
 21
2587.73505600846
 31
0.0
  0
INSERT
  5
CC5
330
8B6
100
AcDbEntity
  8
0
  6
ByBlock
 62
     0
100
AcDbBlockReference
  2
_OPEN
 10
919.2947492661188
 20
2817.73505600846
 30
0.0
 41
20.0
 42
20.0
 43
20.0
 50
90.0
  0
INSERT
  5
CC6
330
8B6
100
AcDbEntity
  8
0
  6
ByBlock
 62
     0
100
AcDbBlockReference
  2
_OPEN
 10
919.2947492661188
 20
2567.73505600846
 30
0.0
 41
20.0
 42
20.0
 43
20.0
 50
270.0
  0
MTEXT
  5
CC7
330
8B6
100
AcDbEntity
  8
0
  6
ByBlock
 62
     0
100
AcDbMText
 10
894.2947492661188
 20
2692.73505600846
 30
0.0
 40
25.0
 41
0.0
 71
     5
 72
     1
  1
\A1;250
 11
0.0000000000000001
 21
1.0
 31
0.0
 73
     1
 44
1.0
1001
ACAD
1000
MTEXTBEGIN
1070
    73
1070
     1
1070
    44
1040
1.0
1070
    74
1070
     0
1000
MTEXTEND
  0
POINT
  5
CC8
330
8B6
100
AcDbEntity
  8
DEFPOINTS
  6
ByBlock
 62
     0
100
AcDbPoint
 10
1069.294749266119
 20
2817.73505600846
 30
0.0
  0
POINT
  5
CC9
330
8B6
100
AcDbEntity
  8
DEFPOINTS
  6
ByBlock
 62
     0
100
AcDbPoint
 10
1044.294749266119
 20
2567.73505600846
 30
0.0
  0
POINT
  5
CCA
330
8B6
100
AcDbEntity
  8
DEFPOINTS
  6
ByBlock
 62
     0
100
AcDbPoint
 10
919.2947492661188
 20
2567.73505600846
 30
0.0
  0
ENDBLK
  5
CCB
330
8B6
100
AcDbEntity
  8
0
100
AcDbBlockEnd
  0
BLOCK
  5
8D1
330
8D0
100
AcDbEntity
  8
0
100
AcDbBlockBegin
  2
*D8
 70
     1
 10
0.0
 20
0.0
 30
0.0
  3
*D8
  1

  0
LINE
  5
8D2
330
8D0
100
AcDbEntity
  8
0
  6
ByBlock
 62
     0
100
AcDbLine
 10
1069.294749266119
 20
3265.669811580356
 30
0.0
 11
1069.294749266119
 21
3345.669811580356
 31
0.0
  0
LINE
  5
8D3
330
8D0
100
AcDbEntity
  8
0
  6
ByBlock
 62
     0
100
AcDbLine
 10
1249.294749266119
 20
3265.669811580355
 30
0.0
 11
1249.294749266119
 21
3345.669811580356
 31
0.0
  0
LINE
  5
8D4
330
8D0
100
AcDbEntity
  8
0
  6
ByBlock
 62
     0
100
AcDbLine
 10
1089.294749266119
 20
3335.669811580356
 30
0.0
 11
1229.294749266119
 21
3335.669811580356
 31
0.0
  0
INSERT
  5
8D5
330
8D0
100
AcDbEntity
  8
0
  6
ByBlock
 62
     0
100
AcDbBlockReference
  2
_OPEN
 10
1069.294749266119
 20
3335.669811580356
 30
0.0
 41
20.0
 42
20.0
 43
20.0
 50
180.0
  0
INSERT
  5
8D6
330
8D0
100
AcDbEntity
  8
0
  6
ByBlock
 62
     0
100
AcDbBlockReference
  2
_OPEN
 10
1249.294749266119
 20
3335.669811580356
 30
0.0
 41
20.0
 42
20.0
 43
20.0
  0
MTEXT
  5
8D7
330
8D0
100
AcDbEntity
  8
0
  6
ByBlock
 62
     0
100
AcDbMText
 10
1159.294749266118
 20
3360.669811580355
 30
0.0
 40
25.0
 41
0.0
 71
     5
 72
     1
  1
\A1;180
 73
     1
 44
1.0
1001
ACAD
1000
MTEXTBEGIN
1070
    73
1070
     1
1070
    44
1040
1.0
1070
    74
1070
     0
1000
MTEXTEND
  0
POINT
  5
8D8
330
8D0
100
AcDbEntity
  8
DEFPOINTS
  6
ByBlock
 62
     0
100
AcDbPoint
 10
1069.294749266119
 20
3235.669811580355
 30
0.0
  0
POINT
  5
8D9
330
8D0
100
AcDbEntity
  8
DEFPOINTS
  6
ByBlock
 62
     0
100
AcDbPoint
 10
1249.294749266119
 20
3235.669811580355
 30
0.0
  0
POINT
  5
8DA
330
8D0
100
AcDbEntity
  8
DEFPOINTS
  6
ByBlock
 62
     0
100
AcDbPoint
 10
1249.294749266119
 20
3335.669811580356
 30
0.0
  0
ENDBLK
  5
8DB
330
8D0
100
AcDbEntity
  8
0
100
AcDbBlockEnd
  0
BLOCK
  5
909
330
908
100
AcDbEntity
  8
0
100
AcDbBlockBegin
  2
*D9
 70
     1
 10
0.0
 20
0.0
 30
0.0
  3
*D9
  1

  0
LINE
  5
90A
330
908
100
AcDbEntity
  8
0
  6
ByBlock
 62
     0
100
AcDbLine
 10
1873.923165362892
 20
4705.669811580356
 30
0.0
 11
1873.923165362892
 21
4625.669811580356
 31
0.0
  0
LINE
  5
90B
330
908
100
AcDbEntity
  8
0
  6
ByBlock
 62
     0
100
AcDbLine
 10
2473.923165362892
 20
4705.669811580356
 30
0.0
 11
2473.923165362892
 21
4625.669811580356
 31
0.0
  0
LINE
  5
90C
330
908
100
AcDbEntity
  8
0
  6
ByBlock
 62
     0
100
AcDbLine
 10
1893.923165362892
 20
4635.669811580355
 30
0.0
 11
2453.923165362892
 21
4635.669811580355
 31
0.0
  0
INSERT
  5
90D
330
908
100
AcDbEntity
  8
0
  6
ByBlock
 62
     0
100
AcDbBlockReference
  2
_OPEN
 10
1873.923165362892
 20
4635.669811580355
 30
0.0
 41
20.0
 42
20.0
 43
20.0
 50
180.0
  0
INSERT
  5
90E
330
908
100
AcDbEntity
  8
0
  6
ByBlock
 62
     0
100
AcDbBlockReference
  2
_OPEN
 10
2473.923165362892
 20
4635.669811580355
 30
0.0
 41
20.0
 42
20.0
 43
20.0
  0
MTEXT
  5
90F
330
908
100
AcDbEntity
  8
0
  6
ByBlock
 62
     0
100
AcDbMText
 10
2173.923165362892
 20
4660.669811580356
 30
0.0
 40
25.0
 41
0.0
 71
     5
 72
     1
  1
\A1;600
 73
     1
 44
1.0
1001
ACAD
1000
MTEXTBEGIN
1070
    73
1070
     1
1070
    44
1040
1.0
1070
    74
1070
     0
1000
MTEXTEND
  0
POINT
  5
910
330
908
100
AcDbEntity
  8
DEFPOINTS
  6
ByBlock
 62
     0
100
AcDbPoint
 10
1873.923165362892
 20
4735.669811580356
 30
0.0
  0
POINT
  5
911
330
908
100
AcDbEntity
  8
DEFPOINTS
  6
ByBlock
 62
     0
100
AcDbPoint
 10
2473.923165362892
 20
4735.669811580356
 30
0.0
  0
POINT
  5
912
330
908
100
AcDbEntity
  8
DEFPOINTS
  6
ByBlock
 62
     0
100
AcDbPoint
 10
2473.923165362892
 20
4635.669811580355
 30
0.0
  0
ENDBLK
  5
913
330
908
100
AcDbEntity
  8
0
100
AcDbBlockEnd
  0
BLOCK
  5
916
330
915
100
AcDbEntity
  8
0
100
AcDbBlockBegin
  2
*D10
 70
     1
 10
0.0
 20
0.0
 30
0.0
  3
*D10
  1

  0
LINE
  5
917
330
915
100
AcDbEntity
  8
0
  6
ByBlock
 62
     0
100
AcDbLine
 10
1873.923165362892
 20
4205.669811580356
 30
0.0
 11
1873.923165362892
 21
4125.669811580356
 31
0.0
  0
LINE
  5
918
330
915
100
AcDbEntity
  8
0
  6
ByBlock
 62
     0
100
AcDbLine
 10
2873.923165362893
 20
4205.669811580354
 30
0.0
 11
2873.923165362893
 21
4125.669811580356
 31
0.0
  0
LINE
  5
919
330
915
100
AcDbEntity
  8
0
  6
ByBlock
 62
     0
100
AcDbLine
 10
1893.923165362892
 20
4135.669811580355
 30
0.0
 11
2853.923165362892
 21
4135.669811580355
 31
0.0
  0
INSERT
  5
91A
330
915
100
AcDbEntity
  8
0
  6
ByBlock
 62
     0
100
AcDbBlockReference
  2
_OPEN
 10
1873.923165362892
 20
4135.669811580355
 30
0.0
 41
20.0
 42
20.0
 43
20.0
 50
180.0
  0
INSERT
  5
91B
330
915
100
AcDbEntity
  8
0
  6
ByBlock
 62
     0
100
AcDbBlockReference
  2
_OPEN
 10
2873.923165362893
 20
4135.669811580355
 30
0.0
 41
20.0
 42
20.0
 43
20.0
  0
MTEXT
  5
91C
330
915
100
AcDbEntity
  8
0
  6
ByBlock
 62
     0
100
AcDbMText
 10
2373.923165362892
 20
4160.669811580356
 30
0.0
 40
25.0
 41
0.0
 71
     5
 72
     1
  1
\A1;1000
 73
     1
 44
1.0
1001
ACAD
1000
MTEXTBEGIN
1070
    73
1070
     1
1070
    44
1040
1.0
1070
    74
1070
     0
1000
MTEXTEND
  0
POINT
  5
91D
330
915
100
AcDbEntity
  8
DEFPOINTS
  6
ByBlock
 62
     0
100
AcDbPoint
 10
1873.923165362892
 20
4235.669811580356
 30
0.0
  0
POINT
  5
91E
330
915
100
AcDbEntity
  8
DEFPOINTS
  6
ByBlock
 62
     0
100
AcDbPoint
 10
2873.923165362893
 20
4235.669811580353
 30
0.0
  0
POINT
  5
91F
330
915
100
AcDbEntity
  8
DEFPOINTS
  6
ByBlock
 62
     0
100
AcDbPoint
 10
2873.923165362893
 20
4135.669811580355
 30
0.0
  0
ENDBLK
  5
920
330
915
100
AcDbEntity
  8
0
100
AcDbBlockEnd
  0
BLOCK
  5
923
330
922
100
AcDbEntity
  8
0
100
AcDbBlockBegin
  2
*D11
 70
     1
 10
0.0
 20
0.0
 30
0.0
  3
*D11
  1

  0
LINE
  5
924
330
922
100
AcDbEntity
  8
0
  6
ByBlock
 62
     0
100
AcDbLine
 10
1873.923165362892
 20
3705.669811580356
 30
0.0
 11
1873.923165362892
 21
3625.669811580356
 31
0.0
  0
LINE
  5
925
330
922
100
AcDbEntity
  8
0
  6
ByBlock
 62
     0
100
AcDbLine
 10
3873.923165362892
 20
3705.669811580356
 30
0.0
 11
3873.923165362892
 21
3625.669811580356
 31
0.0
  0
LINE
  5
926
330
922
100
AcDbEntity
  8
0
  6
ByBlock
 62
     0
100
AcDbLine
 10
1893.923165362892
 20
3635.669811580356
 30
0.0
 11
3853.923165362893
 21
3635.669811580356
 31
0.0
  0
INSERT
  5
927
330
922
100
AcDbEntity
  8
0
  6
ByBlock
 62
     0
100
AcDbBlockReference
  2
_OPEN
 10
1873.923165362892
 20
3635.669811580356
 30
0.0
 41
20.0
 42
20.0
 43
20.0
 50
180.0
  0
INSERT
  5
928
330
922
100
AcDbEntity
  8
0
  6
ByBlock
 62
     0
100
AcDbBlockReference
  2
_OPEN
 10
3873.923165362892
 20
3635.669811580356
 30
0.0
 41
20.0
 42
20.0
 43
20.0
  0
MTEXT
  5
929
330
922
100
AcDbEntity
  8
0
  6
ByBlock
 62
     0
100
AcDbMText
 10
2873.923165362893
 20
3660.669811580356
 30
0.0
 40
25.0
 41
0.0
 71
     5
 72
     1
  1
\A1;2000
 73
     1
 44
1.0
1001
ACAD
1000
MTEXTBEGIN
1070
    73
1070
     1
1070
    44
1040
1.0
1070
    74
1070
     0
1000
MTEXTEND
  0
POINT
  5
92A
330
922
100
AcDbEntity
  8
DEFPOINTS
  6
ByBlock
 62
     0
100
AcDbPoint
 10
1873.923165362892
 20
3735.669811580356
 30
0.0
  0
POINT
  5
92B
330
922
100
AcDbEntity
  8
DEFPOINTS
  6
ByBlock
 62
     0
100
AcDbPoint
 10
3873.923165362892
 20
3735.669811580356
 30
0.0
  0
POINT
  5
92C
330
922
100
AcDbEntity
  8
DEFPOINTS
  6
ByBlock
 62
     0
100
AcDbPoint
 10
3873.923165362892
 20
3635.669811580356
 30
0.0
  0
ENDBLK
  5
92D
330
922
100
AcDbEntity
  8
0
100
AcDbBlockEnd
  0
BLOCK
  5
97E
330
97D
100
AcDbEntity
  8
0
100
AcDbBlockBegin
  2
*D12
 70
     1
 10
0.0
 20
0.0
 30
0.0
  3
*D12
  1

  0
LINE
  5
97F
330
97D
100
AcDbEntity
  8
0
  6
ByBlock
 62
     0
100
AcDbLine
 10
1069.294749266119
 20
3265.669811580356
 30
0.0
 11
1069.294749266119
 21
3345.669811580356
 31
0.0
  0
LINE
  5
980
330
97D
100
AcDbEntity
  8
0
  6
ByBlock
 62
     0
100
AcDbLine
 10
1249.294749266119
 20
3265.669811580355
 30
0.0
 11
1249.294749266119
 21
3345.669811580356
 31
0.0
  0
LINE
  5
981
330
97D
100
AcDbEntity
  8
0
  6
ByBlock
 62
     0
100
AcDbLine
 10
1089.294749266119
 20
3335.669811580356
 30
0.0
 11
1229.294749266119
 21
3335.669811580356
 31
0.0
  0
INSERT
  5
982
330
97D
100
AcDbEntity
  8
0
  6
ByBlock
 62
     0
100
AcDbBlockReference
  2
_OPEN
 10
1069.294749266119
 20
3335.669811580356
 30
0.0
 41
20.0
 42
20.0
 43
20.0
 50
180.0
  0
INSERT
  5
983
330
97D
100
AcDbEntity
  8
0
  6
ByBlock
 62
     0
100
AcDbBlockReference
  2
_OPEN
 10
1249.294749266119
 20
3335.669811580356
 30
0.0
 41
20.0
 42
20.0
 43
20.0
  0
MTEXT
  5
984
330
97D
100
AcDbEntity
  8
0
  6
ByBlock
 62
     0
100
AcDbMText
 10
1159.294749266118
 20
3360.669811580355
 30
0.0
 40
25.0
 41
0.0
 71
     5
 72
     1
  1
\A1;180
 73
     1
 44
1.0
1001
ACAD
1000
MTEXTBEGIN
1070
    73
1070
     1
1070
    44
1040
1.0
1070
    74
1070
     0
1000
MTEXTEND
  0
POINT
  5
985
330
97D
100
AcDbEntity
  8
DEFPOINTS
  6
ByBlock
 62
     0
100
AcDbPoint
 10
1069.294749266119
 20
3235.669811580355
 30
0.0
  0
POINT
  5
986
330
97D
100
AcDbEntity
  8
DEFPOINTS
  6
ByBlock
 62
     0
100
AcDbPoint
 10
1249.294749266119
 20
3235.669811580355
 30
0.0
  0
POINT
  5
987
330
97D
100
AcDbEntity
  8
DEFPOINTS
  6
ByBlock
 62
     0
100
AcDbPoint
 10
1249.294749266119
 20
3335.669811580356
 30
0.0
  0
ENDBLK
  5
988
330
97D
100
AcDbEntity
  8
0
100
AcDbBlockEnd
  0
BLOCK
  5
9CC
330
9CB
100
AcDbEntity
  8
0
100
AcDbBlockBegin
  2
*D13
 70
     1
 10
0.0
 20
0.0
 30
0.0
  3
*D13
  1

  0
LINE
  5
9CD
330
9CB
100
AcDbEntity
  8
0
  6
ByBlock
 62
     0
100
AcDbLine
 10
1069.294749266119
 20
2665.669811580356
 30
0.0
 11
1069.294749266119
 21
2745.669811580355
 31
0.0
  0
LINE
  5
9CE
330
9CB
100
AcDbEntity
  8
0
  6
ByBlock
 62
     0
100
AcDbLine
 10
1249.294749266119
 20
2665.669811580355
 30
0.0
 11
1249.294749266119
 21
2745.669811580355
 31
0.0
  0
LINE
  5
9CF
330
9CB
100
AcDbEntity
  8
0
  6
ByBlock
 62
     0
100
AcDbLine
 10
1089.294749266119
 20
2735.669811580355
 30
0.0
 11
1229.294749266119
 21
2735.669811580355
 31
0.0
  0
INSERT
  5
9D0
330
9CB
100
AcDbEntity
  8
0
  6
ByBlock
 62
     0
100
AcDbBlockReference
  2
_OPEN
 10
1069.294749266119
 20
2735.669811580355
 30
0.0
 41
20.0
 42
20.0
 43
20.0
 50
180.0
  0
INSERT
  5
9D1
330
9CB
100
AcDbEntity
  8
0
  6
ByBlock
 62
     0
100
AcDbBlockReference
  2
_OPEN
 10
1249.294749266119
 20
2735.669811580355
 30
0.0
 41
20.0
 42
20.0
 43
20.0
  0
MTEXT
  5
9D2
330
9CB
100
AcDbEntity
  8
0
  6
ByBlock
 62
     0
100
AcDbMText
 10
1159.294749266118
 20
2760.669811580355
 30
0.0
 40
25.0
 41
0.0
 71
     5
 72
     1
  1
\A1;180
 73
     1
 44
1.0
1001
ACAD
1000
MTEXTBEGIN
1070
    73
1070
     1
1070
    44
1040
1.0
1070
    74
1070
     0
1000
MTEXTEND
  0
POINT
  5
9D3
330
9CB
100
AcDbEntity
  8
DEFPOINTS
  6
ByBlock
 62
     0
100
AcDbPoint
 10
1069.294749266119
 20
2635.669811580356
 30
0.0
  0
POINT
  5
9D4
330
9CB
100
AcDbEntity
  8
DEFPOINTS
  6
ByBlock
 62
     0
100
AcDbPoint
 10
1249.294749266119
 20
2635.669811580355
 30
0.0
  0
POINT
  5
9D5
330
9CB
100
AcDbEntity
  8
DEFPOINTS
  6
ByBlock
 62
     0
100
AcDbPoint
 10
1249.294749266119
 20
2735.669811580355
 30
0.0
  0
ENDBLK
  5
9D6
330
9CB
100
AcDbEntity
  8
0
100
AcDbBlockEnd
  0
BLOCK
  5
A06
330
A05
100
AcDbEntity
  8
0
100
AcDbBlockBegin
  2
*D14
 70
     1
 10
0.0
 20
0.0
 30
0.0
  3
*D14
  1

  0
LINE
  5
A07
330
A05
100
AcDbEntity
  8
0
  6
ByBlock
 62
     0
100
AcDbLine
 10
1873.923165362892
 20
2955.669811580356
 30
0.0
 11
1873.923165362892
 21
2875.669811580356
 31
0.0
  0
LINE
  5
A08
330
A05
100
AcDbEntity
  8
0
  6
ByBlock
 62
     0
100
AcDbLine
 10
2473.923165362892
 20
2955.669811580356
 30
0.0
 11
2473.923165362892
 21
2875.669811580356
 31
0.0
  0
LINE
  5
A09
330
A05
100
AcDbEntity
  8
0
  6
ByBlock
 62
     0
100
AcDbLine
 10
1893.923165362892
 20
2885.669811580356
 30
0.0
 11
2453.923165362892
 21
2885.669811580356
 31
0.0
  0
INSERT
  5
A0A
330
A05
100
AcDbEntity
  8
0
  6
ByBlock
 62
     0
100
AcDbBlockReference
  2
_OPEN
 10
1873.923165362892
 20
2885.669811580356
 30
0.0
 41
20.0
 42
20.0
 43
20.0
 50
180.0
  0
INSERT
  5
A0B
330
A05
100
AcDbEntity
  8
0
  6
ByBlock
 62
     0
100
AcDbBlockReference
  2
_OPEN
 10
2473.923165362892
 20
2885.669811580356
 30
0.0
 41
20.0
 42
20.0
 43
20.0
  0
MTEXT
  5
A0C
330
A05
100
AcDbEntity
  8
0
  6
ByBlock
 62
     0
100
AcDbMText
 10
2173.923165362892
 20
2910.669811580356
 30
0.0
 40
25.0
 41
0.0
 71
     5
 72
     1
  1
\A1;600
 73
     1
 44
1.0
1001
ACAD
1000
MTEXTBEGIN
1070
    73
1070
     1
1070
    44
1040
1.0
1070
    74
1070
     0
1000
MTEXTEND
  0
POINT
  5
A0D
330
A05
100
AcDbEntity
  8
DEFPOINTS
  6
ByBlock
 62
     0
100
AcDbPoint
 10
1873.923165362892
 20
2985.669811580356
 30
0.0
  0
POINT
  5
A0E
330
A05
100
AcDbEntity
  8
DEFPOINTS
  6
ByBlock
 62
     0
100
AcDbPoint
 10
2473.923165362892
 20
2985.669811580356
 30
0.0
  0
POINT
  5
A0F
330
A05
100
AcDbEntity
  8
DEFPOINTS
  6
ByBlock
 62
     0
100
AcDbPoint
 10
2473.923165362892
 20
2885.669811580356
 30
0.0
  0
ENDBLK
  5
A10
330
A05
100
AcDbEntity
  8
0
100
AcDbBlockEnd
  0
BLOCK
  5
A13
330
A12
100
AcDbEntity
  8
0
100
AcDbBlockBegin
  2
*D15
 70
     1
 10
0.0
 20
0.0
 30
0.0
  3
*D15
  1

  0
LINE
  5
A14
330
A12
100
AcDbEntity
  8
0
  6
ByBlock
 62
     0
100
AcDbLine
 10
1873.923165362892
 20
2355.669811580356
 30
0.0
 11
1873.923165362892
 21
2265.669811580356
 31
0.0
  0
LINE
  5
A15
330
A12
100
AcDbEntity
  8
0
  6
ByBlock
 62
     0
100
AcDbLine
 10
2873.923165362893
 20
2355.669811580356
 30
0.0
 11
2873.923165362893
 21
2265.669811580356
 31
0.0
  0
LINE
  5
A16
330
A12
100
AcDbEntity
  8
0
  6
ByBlock
 62
     0
100
AcDbLine
 10
1893.923165362892
 20
2275.669811580355
 30
0.0
 11
2853.923165362892
 21
2275.669811580355
 31
0.0
  0
INSERT
  5
A17
330
A12
100
AcDbEntity
  8
0
  6
ByBlock
 62
     0
100
AcDbBlockReference
  2
_OPEN
 10
1873.923165362892
 20
2275.669811580355
 30
0.0
 41
20.0
 42
20.0
 43
20.0
 50
180.0
  0
INSERT
  5
A18
330
A12
100
AcDbEntity
  8
0
  6
ByBlock
 62
     0
100
AcDbBlockReference
  2
_OPEN
 10
2873.923165362893
 20
2275.669811580355
 30
0.0
 41
20.0
 42
20.0
 43
20.0
  0
MTEXT
  5
A19
330
A12
100
AcDbEntity
  8
0
  6
ByBlock
 62
     0
100
AcDbMText
 10
2373.923165362892
 20
2300.669811580355
 30
0.0
 40
25.0
 41
0.0
 71
     5
 72
     1
  1
\A1;1000
 73
     1
 44
1.0
1001
ACAD
1000
MTEXTBEGIN
1070
    73
1070
     1
1070
    44
1040
1.0
1070
    74
1070
     0
1000
MTEXTEND
  0
POINT
  5
A1A
330
A12
100
AcDbEntity
  8
DEFPOINTS
  6
ByBlock
 62
     0
100
AcDbPoint
 10
1873.923165362892
 20
2385.669811580356
 30
0.0
  0
POINT
  5
A1B
330
A12
100
AcDbEntity
  8
DEFPOINTS
  6
ByBlock
 62
     0
100
AcDbPoint
 10
2873.923165362893
 20
2385.669811580356
 30
0.0
  0
POINT
  5
A1C
330
A12
100
AcDbEntity
  8
DEFPOINTS
  6
ByBlock
 62
     0
100
AcDbPoint
 10
2873.923165362893
 20
2275.669811580355
 30
0.0
  0
ENDBLK
  5
A1D
330
A12
100
AcDbEntity
  8
0
100
AcDbBlockEnd
  0
BLOCK
  5
A20
330
A1F
100
AcDbEntity
  8
0
100
AcDbBlockBegin
  2
*D16
 70
     1
 10
0.0
 20
0.0
 30
0.0
  3
*D16
  1

  0
LINE
  5
A21
330
A1F
100
AcDbEntity
  8
0
  6
ByBlock
 62
     0
100
AcDbLine
 10
1873.923165362892
 20
1755.669811580355
 30
0.0
 11
1873.923165362892
 21
1675.669811580355
 31
0.0
  0
LINE
  5
A22
330
A1F
100
AcDbEntity
  8
0
  6
ByBlock
 62
     0
100
AcDbLine
 10
3873.923165362892
 20
1755.669811580357
 30
0.0
 11
3873.923165362892
 21
1675.669811580355
 31
0.0
  0
LINE
  5
A23
330
A1F
100
AcDbEntity
  8
0
  6
ByBlock
 62
     0
100
AcDbLine
 10
1893.923165362893
 20
1685.669811580355
 30
0.0
 11
3853.923165362893
 21
1685.669811580355
 31
0.0
  0
INSERT
  5
A24
330
A1F
100
AcDbEntity
  8
0
  6
ByBlock
 62
     0
100
AcDbBlockReference
  2
_OPEN
 10
1873.923165362892
 20
1685.669811580355
 30
0.0
 41
20.0
 42
20.0
 43
20.0
 50
180.0
  0
INSERT
  5
A25
330
A1F
100
AcDbEntity
  8
0
  6
ByBlock
 62
     0
100
AcDbBlockReference
  2
_OPEN
 10
3873.923165362892
 20
1685.669811580355
 30
0.0
 41
20.0
 42
20.0
 43
20.0
  0
MTEXT
  5
A26
330
A1F
100
AcDbEntity
  8
0
  6
ByBlock
 62
     0
100
AcDbMText
 10
2873.923165362893
 20
1710.669811580356
 30
0.0
 40
25.0
 41
0.0
 71
     5
 72
     1
  1
\A1;2000
 73
     1
 44
1.0
1001
ACAD
1000
MTEXTBEGIN
1070
    73
1070
     1
1070
    44
1040
1.0
1070
    74
1070
     0
1000
MTEXTEND
  0
POINT
  5
A27
330
A1F
100
AcDbEntity
  8
DEFPOINTS
  6
ByBlock
 62
     0
100
AcDbPoint
 10
1873.923165362892
 20
1785.669811580356
 30
0.0
  0
POINT
  5
A28
330
A1F
100
AcDbEntity
  8
DEFPOINTS
  6
ByBlock
 62
     0
100
AcDbPoint
 10
3873.923165362892
 20
1785.669811580357
 30
0.0
  0
POINT
  5
A29
330
A1F
100
AcDbEntity
  8
DEFPOINTS
  6
ByBlock
 62
     0
100
AcDbPoint
 10
3873.923165362892
 20
1685.669811580355
 30
0.0
  0
ENDBLK
  5
A2A
330
A1F
100
AcDbEntity
  8
0
100
AcDbBlockEnd
  0
BLOCK
  5
A56
330
A55
100
AcDbEntity
  8
0
100
AcDbBlockBegin
  2
*D17
 70
     1
 10
0.0
 20
0.0
 30
0.0
  3
*D17
  1

  0
LINE
  5
A57
330
A55
100
AcDbEntity
  8
0
  6
ByBlock
 62
     0
100
AcDbLine
 10
1069.294749266119
 20
3265.669811580356
 30
0.0
 11
1069.294749266119
 21
3345.669811580356
 31
0.0
  0
LINE
  5
A58
330
A55
100
AcDbEntity
  8
0
  6
ByBlock
 62
     0
100
AcDbLine
 10
1249.294749266119
 20
3265.669811580355
 30
0.0
 11
1249.294749266119
 21
3345.669811580356
 31
0.0
  0
LINE
  5
A59
330
A55
100
AcDbEntity
  8
0
  6
ByBlock
 62
     0
100
AcDbLine
 10
1089.294749266119
 20
3335.669811580356
 30
0.0
 11
1229.294749266119
 21
3335.669811580356
 31
0.0
  0
INSERT
  5
A5A
330
A55
100
AcDbEntity
  8
0
  6
ByBlock
 62
     0
100
AcDbBlockReference
  2
_OPEN
 10
1069.294749266119
 20
3335.669811580356
 30
0.0
 41
20.0
 42
20.0
 43
20.0
 50
180.0
  0
INSERT
  5
A5B
330
A55
100
AcDbEntity
  8
0
  6
ByBlock
 62
     0
100
AcDbBlockReference
  2
_OPEN
 10
1249.294749266119
 20
3335.669811580356
 30
0.0
 41
20.0
 42
20.0
 43
20.0
  0
MTEXT
  5
A5C
330
A55
100
AcDbEntity
  8
0
  6
ByBlock
 62
     0
100
AcDbMText
 10
1159.294749266118
 20
3360.669811580355
 30
0.0
 40
25.0
 41
0.0
 71
     5
 72
     1
  1
\A1;180
 73
     1
 44
1.0
1001
ACAD
1000
MTEXTBEGIN
1070
    73
1070
     1
1070
    44
1040
1.0
1070
    74
1070
     0
1000
MTEXTEND
  0
POINT
  5
A5D
330
A55
100
AcDbEntity
  8
DEFPOINTS
  6
ByBlock
 62
     0
100
AcDbPoint
 10
1069.294749266119
 20
3235.669811580355
 30
0.0
  0
POINT
  5
A5E
330
A55
100
AcDbEntity
  8
DEFPOINTS
  6
ByBlock
 62
     0
100
AcDbPoint
 10
1249.294749266119
 20
3235.669811580355
 30
0.0
  0
POINT
  5
A5F
330
A55
100
AcDbEntity
  8
DEFPOINTS
  6
ByBlock
 62
     0
100
AcDbPoint
 10
1249.294749266119
 20
3335.669811580356
 30
0.0
  0
ENDBLK
  5
A60
330
A55
100
AcDbEntity
  8
0
100
AcDbBlockEnd
  0
BLOCK
  5
AB7
330
AB6
100
AcDbEntity
  8
0
100
AcDbBlockBegin
  2
*D18
 70
     1
 10
0.0
 20
0.0
 30
0.0
  3
*D18
  1

  0
LINE
  5
AB8
330
AB6
100
AcDbEntity
  8
0
  6
ByBlock
 62
     0
100
AcDbLine
 10
5750.42234665465
 20
4605.669811580354
 30
0.0
 11
5750.42234665465
 21
4525.669811580356
 31
0.0
  0
LINE
  5
AB9
330
AB6
100
AcDbEntity
  8
0
  6
ByBlock
 62
     0
100
AcDbLine
 10
6350.422346654649
 20
4605.669811580355
 30
0.0
 11
6350.422346654649
 21
4525.669811580356
 31
0.0
  0
LINE
  5
ABA
330
AB6
100
AcDbEntity
  8
0
  6
ByBlock
 62
     0
100
AcDbLine
 10
5770.42234665465
 20
4535.669811580356
 30
0.0
 11
6330.42234665465
 21
4535.669811580356
 31
0.0
  0
INSERT
  5
ABB
330
AB6
100
AcDbEntity
  8
0
  6
ByBlock
 62
     0
100
AcDbBlockReference
  2
_OPEN
 10
5750.42234665465
 20
4535.669811580356
 30
0.0
 41
20.0
 42
20.0
 43
20.0
 50
180.0
  0
INSERT
  5
ABC
330
AB6
100
AcDbEntity
  8
0
  6
ByBlock
 62
     0
100
AcDbBlockReference
  2
_OPEN
 10
6350.422346654649
 20
4535.669811580356
 30
0.0
 41
20.0
 42
20.0
 43
20.0
  0
MTEXT
  5
ABD
330
AB6
100
AcDbEntity
  8
0
  6
ByBlock
 62
     0
100
AcDbMText
 10
6050.42234665465
 20
4560.669811580356
 30
0.0
 40
25.0
 41
0.0
 71
     5
 72
     1
  1
\A1;600
 73
     1
 44
1.0
1001
ACAD
1000
MTEXTBEGIN
1070
    73
1070
     1
1070
    44
1040
1.0
1070
    74
1070
     0
1000
MTEXTEND
  0
POINT
  5
ABE
330
AB6
100
AcDbEntity
  8
DEFPOINTS
  6
ByBlock
 62
     0
100
AcDbPoint
 10
5750.42234665465
 20
4635.669811580354
 30
0.0
  0
POINT
  5
ABF
330
AB6
100
AcDbEntity
  8
DEFPOINTS
  6
ByBlock
 62
     0
100
AcDbPoint
 10
6350.422346654649
 20
4635.669811580355
 30
0.0
  0
POINT
  5
AC0
330
AB6
100
AcDbEntity
  8
DEFPOINTS
  6
ByBlock
 62
     0
100
AcDbPoint
 10
6350.422346654649
 20
4535.669811580356
 30
0.0
  0
ENDBLK
  5
AC1
330
AB6
100
AcDbEntity
  8
0
100
AcDbBlockEnd
  0
BLOCK
  5
AD2
330
AD1
100
AcDbEntity
  8
0
100
AcDbBlockBegin
  2
*D19
 70
     1
 10
0.0
 20
0.0
 30
0.0
  3
*D19
  1

  0
LINE
  5
AD3
330
AD1
100
AcDbEntity
  8
0
  6
ByBlock
 62
     0
100
AcDbLine
 10
4945.793930557877
 20
4965.669811580355
 30
0.0
 11
4945.793930557877
 21
5045.669811580355
 31
0.0
  0
LINE
  5
AD4
330
AD1
100
AcDbEntity
  8
0
  6
ByBlock
 62
     0
100
AcDbLine
 10
5125.793930557876
 20
4965.669811580355
 30
0.0
 11
5125.793930557876
 21
5045.669811580355
 31
0.0
  0
LINE
  5
AD5
330
AD1
100
AcDbEntity
  8
0
  6
ByBlock
 62
     0
100
AcDbLine
 10
4965.793930557876
 20
5035.669811580356
 30
0.0
 11
5105.793930557877
 21
5035.669811580356
 31
0.0
  0
INSERT
  5
AD6
330
AD1
100
AcDbEntity
  8
0
  6
ByBlock
 62
     0
100
AcDbBlockReference
  2
_OPEN
 10
4945.793930557877
 20
5035.669811580356
 30
0.0
 41
20.0
 42
20.0
 43
20.0
 50
180.0
  0
INSERT
  5
AD7
330
AD1
100
AcDbEntity
  8
0
  6
ByBlock
 62
     0
100
AcDbBlockReference
  2
_OPEN
 10
5125.793930557876
 20
5035.669811580356
 30
0.0
 41
20.0
 42
20.0
 43
20.0
  0
MTEXT
  5
AD8
330
AD1
100
AcDbEntity
  8
0
  6
ByBlock
 62
     0
100
AcDbMText
 10
5035.793930557876
 20
5060.669811580356
 30
0.0
 40
25.0
 41
0.0
 71
     5
 72
     1
  1
\A1;180
 73
     1
 44
1.0
1001
ACAD
1000
MTEXTBEGIN
1070
    73
1070
     1
1070
    44
1040
1.0
1070
    74
1070
     0
1000
MTEXTEND
  0
POINT
  5
AD9
330
AD1
100
AcDbEntity
  8
DEFPOINTS
  6
ByBlock
 62
     0
100
AcDbPoint
 10
4945.793930557877
 20
4935.669811580356
 30
0.0
  0
POINT
  5
ADA
330
AD1
100
AcDbEntity
  8
DEFPOINTS
  6
ByBlock
 62
     0
100
AcDbPoint
 10
5125.793930557876
 20
4935.669811580354
 30
0.0
  0
POINT
  5
ADB
330
AD1
100
AcDbEntity
  8
DEFPOINTS
  6
ByBlock
 62
     0
100
AcDbPoint
 10
5125.793930557876
 20
5035.669811580356
 30
0.0
  0
ENDBLK
  5
ADC
330
AD1
100
AcDbEntity
  8
0
100
AcDbBlockEnd
  0
BLOCK
  5
D19
330
B0F
100
AcDbEntity
  8
0
100
AcDbBlockBegin
  2
*D20
 70
     1
 10
0.0
 20
0.0
 30
0.0
  3
*D20
  1

  0
LINE
  5
D1A
330
B0F
100
AcDbEntity
  8
0
  6
ByBlock
 62
     0
100
AcDbLine
 10
4915.793930557876
 20
3535.669811580356
 30
0.0
 11
4805.793930557877
 21
3535.669811580356
 31
0.0
  0
LINE
  5
D1B
330
B0F
100
AcDbEntity
  8
0
  6
ByBlock
 62
     0
100
AcDbLine
 10
4885.793930557877
 20
3235.669811580355
 30
0.0
 11
4805.793930557877
 21
3235.669811580355
 31
0.0
  0
LINE
  5
D1C
330
B0F
100
AcDbEntity
  8
0
  6
ByBlock
 62
     0
100
AcDbLine
 10
4815.793930557877
 20
3515.669811580356
 30
0.0
 11
4815.793930557877
 21
3255.669811580356
 31
0.0
  0
INSERT
  5
D1D
330
B0F
100
AcDbEntity
  8
0
  6
ByBlock
 62
     0
100
AcDbBlockReference
  2
_OPEN
 10
4815.793930557877
 20
3535.669811580356
 30
0.0
 41
20.0
 42
20.0
 43
20.0
 50
90.0
  0
INSERT
  5
D1E
330
B0F
100
AcDbEntity
  8
0
  6
ByBlock
 62
     0
100
AcDbBlockReference
  2
_OPEN
 10
4815.793930557877
 20
3235.669811580355
 30
0.0
 41
20.0
 42
20.0
 43
20.0
 50
270.0
  0
MTEXT
  5
D1F
330
B0F
100
AcDbEntity
  8
0
  6
ByBlock
 62
     0
100
AcDbMText
 10
4790.793930557876
 20
3385.669811580355
 30
0.0
 40
25.0
 41
0.0
 71
     5
 72
     1
  1
\A1;300
 11
0.0000000000000001
 21
1.0
 31
0.0
 73
     1
 44
1.0
1001
ACAD
1000
MTEXTBEGIN
1070
    73
1070
     1
1070
    44
1040
1.0
1070
    74
1070
     0
1000
MTEXTEND
  0
POINT
  5
D20
330
B0F
100
AcDbEntity
  8
DEFPOINTS
  6
ByBlock
 62
     0
100
AcDbPoint
 10
4945.793930557877
 20
3535.669811580356
 30
0.0
  0
POINT
  5
D21
330
B0F
100
AcDbEntity
  8
DEFPOINTS
  6
ByBlock
 62
     0
100
AcDbPoint
 10
4915.793930557876
 20
3235.669811580355
 30
0.0
  0
POINT
  5
D22
330
B0F
100
AcDbEntity
  8
DEFPOINTS
  6
ByBlock
 62
     0
100
AcDbPoint
 10
4815.793930557877
 20
3235.669811580355
 30
0.0
  0
ENDBLK
  5
D23
330
B0F
100
AcDbEntity
  8
0
100
AcDbBlockEnd
  0
BLOCK
  5
B34
330
B33
100
AcDbEntity
  8
0
100
AcDbBlockBegin
  2
*D21
 70
     1
 10
0.0
 20
0.0
 30
0.0
  3
*D21
  1

  0
LINE
  5
B35
330
B33
100
AcDbEntity
  8
0
  6
ByBlock
 62
     0
100
AcDbLine
 10
4945.793930557877
 20
4265.669811580355
 30
0.0
 11
4945.793930557877
 21
4345.669811580355
 31
0.0
  0
LINE
  5
B36
330
B33
100
AcDbEntity
  8
0
  6
ByBlock
 62
     0
100
AcDbLine
 10
5125.793930557876
 20
4265.669811580354
 30
0.0
 11
5125.793930557876
 21
4345.669811580355
 31
0.0
  0
LINE
  5
B37
330
B33
100
AcDbEntity
  8
0
  6
ByBlock
 62
     0
100
AcDbLine
 10
4965.793930557876
 20
4335.669811580356
 30
0.0
 11
5105.793930557877
 21
4335.669811580356
 31
0.0
  0
INSERT
  5
B38
330
B33
100
AcDbEntity
  8
0
  6
ByBlock
 62
     0
100
AcDbBlockReference
  2
_OPEN
 10
4945.793930557877
 20
4335.669811580356
 30
0.0
 41
20.0
 42
20.0
 43
20.0
 50
180.0
  0
INSERT
  5
B39
330
B33
100
AcDbEntity
  8
0
  6
ByBlock
 62
     0
100
AcDbBlockReference
  2
_OPEN
 10
5125.793930557876
 20
4335.669811580356
 30
0.0
 41
20.0
 42
20.0
 43
20.0
  0
MTEXT
  5
B3A
330
B33
100
AcDbEntity
  8
0
  6
ByBlock
 62
     0
100
AcDbMText
 10
5035.793930557876
 20
4360.669811580356
 30
0.0
 40
25.0
 41
0.0
 71
     5
 72
     1
  1
\A1;180
 73
     1
 44
1.0
1001
ACAD
1000
MTEXTBEGIN
1070
    73
1070
     1
1070
    44
1040
1.0
1070
    74
1070
     0
1000
MTEXTEND
  0
POINT
  5
B3B
330
B33
100
AcDbEntity
  8
DEFPOINTS
  6
ByBlock
 62
     0
100
AcDbPoint
 10
4945.793930557877
 20
4235.669811580356
 30
0.0
  0
POINT
  5
B3C
330
B33
100
AcDbEntity
  8
DEFPOINTS
  6
ByBlock
 62
     0
100
AcDbPoint
 10
5125.793930557876
 20
4235.669811580354
 30
0.0
  0
POINT
  5
B3D
330
B33
100
AcDbEntity
  8
DEFPOINTS
  6
ByBlock
 62
     0
100
AcDbPoint
 10
5125.793930557876
 20
4335.669811580356
 30
0.0
  0
ENDBLK
  5
B3E
330
B33
100
AcDbEntity
  8
0
100
AcDbBlockEnd
  0
BLOCK
  5
B42
330
B41
100
AcDbEntity
  8
0
100
AcDbBlockBegin
  2
*D22
 70
     1
 10
0.0
 20
0.0
 30
0.0
  3
*D22
  1

  0
LINE
  5
B43
330
B41
100
AcDbEntity
  8
0
  6
ByBlock
 62
     0
100
AcDbLine
 10
5750.422346654652
 20
3905.669811580356
 30
0.0
 11
5750.422346654652
 21
3825.669811580356
 31
0.0
  0
LINE
  5
B44
330
B41
100
AcDbEntity
  8
0
  6
ByBlock
 62
     0
100
AcDbLine
 10
6750.422346654651
 20
3905.669811580359
 30
0.0
 11
6750.422346654651
 21
3825.669811580356
 31
0.0
  0
LINE
  5
B45
330
B41
100
AcDbEntity
  8
0
  6
ByBlock
 62
     0
100
AcDbLine
 10
5770.422346654651
 20
3835.669811580356
 30
0.0
 11
6730.422346654652
 21
3835.669811580356
 31
0.0
  0
INSERT
  5
B46
330
B41
100
AcDbEntity
  8
0
  6
ByBlock
 62
     0
100
AcDbBlockReference
  2
_OPEN
 10
5750.422346654652
 20
3835.669811580356
 30
0.0
 41
20.0
 42
20.0
 43
20.0
 50
180.0
  0
INSERT
  5
B47
330
B41
100
AcDbEntity
  8
0
  6
ByBlock
 62
     0
100
AcDbBlockReference
  2
_OPEN
 10
6750.422346654651
 20
3835.669811580356
 30
0.0
 41
20.0
 42
20.0
 43
20.0
  0
MTEXT
  5
B48
330
B41
100
AcDbEntity
  8
0
  6
ByBlock
 62
     0
100
AcDbMText
 10
6250.422346654652
 20
3860.669811580356
 30
0.0
 40
25.0
 41
0.0
 71
     5
 72
     1
  1
\A1;1000
 73
     1
 44
1.0
1001
ACAD
1000
MTEXTBEGIN
1070
    73
1070
     1
1070
    44
1040
1.0
1070
    74
1070
     0
1000
MTEXTEND
  0
POINT
  5
B49
330
B41
100
AcDbEntity
  8
DEFPOINTS
  6
ByBlock
 62
     0
100
AcDbPoint
 10
5750.422346654652
 20
3935.669811580356
 30
0.0
  0
POINT
  5
B4A
330
B41
100
AcDbEntity
  8
DEFPOINTS
  6
ByBlock
 62
     0
100
AcDbPoint
 10
6750.422346654651
 20
3935.669811580359
 30
0.0
  0
POINT
  5
B4B
330
B41
100
AcDbEntity
  8
DEFPOINTS
  6
ByBlock
 62
     0
100
AcDbPoint
 10
6750.422346654651
 20
3835.669811580356
 30
0.0
  0
ENDBLK
  5
B4C
330
B41
100
AcDbEntity
  8
0
100
AcDbBlockEnd
  0
BLOCK
  5
B4F
330
B4E
100
AcDbEntity
  8
0
100
AcDbBlockBegin
  2
*D23
 70
     1
 10
0.0
 20
0.0
 30
0.0
  3
*D23
  1

  0
LINE
  5
B50
330
B4E
100
AcDbEntity
  8
0
  6
ByBlock
 62
     0
100
AcDbLine
 10
5750.42234665465
 20
3205.669811580355
 30
0.0
 11
5750.42234665465
 21
3115.669811580356
 31
0.0
  0
LINE
  5
B51
330
B4E
100
AcDbEntity
  8
0
  6
ByBlock
 62
     0
100
AcDbLine
 10
7750.422346654652
 20
3205.669811580361
 30
0.0
 11
7750.422346654652
 21
3115.669811580356
 31
0.0
  0
LINE
  5
B52
330
B4E
100
AcDbEntity
  8
0
  6
ByBlock
 62
     0
100
AcDbLine
 10
5770.42234665465
 20
3125.669811580356
 30
0.0
 11
7730.422346654652
 21
3125.669811580356
 31
0.0
  0
INSERT
  5
B53
330
B4E
100
AcDbEntity
  8
0
  6
ByBlock
 62
     0
100
AcDbBlockReference
  2
_OPEN
 10
5750.42234665465
 20
3125.669811580356
 30
0.0
 41
20.0
 42
20.0
 43
20.0
 50
180.0
  0
INSERT
  5
B54
330
B4E
100
AcDbEntity
  8
0
  6
ByBlock
 62
     0
100
AcDbBlockReference
  2
_OPEN
 10
7750.422346654652
 20
3125.669811580356
 30
0.0
 41
20.0
 42
20.0
 43
20.0
  0
MTEXT
  5
B55
330
B4E
100
AcDbEntity
  8
0
  6
ByBlock
 62
     0
100
AcDbMText
 10
6750.422346654651
 20
3150.669811580355
 30
0.0
 40
25.0
 41
0.0
 71
     5
 72
     1
  1
\A1;2000
 73
     1
 44
1.0
1001
ACAD
1000
MTEXTBEGIN
1070
    73
1070
     1
1070
    44
1040
1.0
1070
    74
1070
     0
1000
MTEXTEND
  0
POINT
  5
B56
330
B4E
100
AcDbEntity
  8
DEFPOINTS
  6
ByBlock
 62
     0
100
AcDbPoint
 10
5750.42234665465
 20
3235.669811580355
 30
0.0
  0
POINT
  5
B57
330
B4E
100
AcDbEntity
  8
DEFPOINTS
  6
ByBlock
 62
     0
100
AcDbPoint
 10
7750.422346654652
 20
3235.669811580361
 30
0.0
  0
POINT
  5
B58
330
B4E
100
AcDbEntity
  8
DEFPOINTS
  6
ByBlock
 62
     0
100
AcDbPoint
 10
7750.422346654652
 20
3125.669811580356
 30
0.0
  0
ENDBLK
  5
B59
330
B4E
100
AcDbEntity
  8
0
100
AcDbBlockEnd
  0
BLOCK
  5
B97
330
B96
100
AcDbEntity
  8
0
100
AcDbBlockBegin
  2
*D24
 70
     1
 10
0.0
 20
0.0
 30
0.0
  3
*D24
  1

  0
LINE
  5
B98
330
B96
100
AcDbEntity
  8
0
  6
ByBlock
 62
     0
100
AcDbLine
 10
1049.294749266119
 20
4705.669811580356
 30
0.0
 11
1049.294749266119
 21
4625.669811580356
 31
0.0
  0
LINE
  5
B99
330
B96
100
AcDbEntity
  8
0
  6
ByBlock
 62
     0
100
AcDbLine
 10
1239.294749266119
 20
4705.669811580356
 30
0.0
 11
1239.294749266119
 21
4625.669811580356
 31
0.0
  0
LINE
  5
B9A
330
B96
100
AcDbEntity
  8
0
  6
ByBlock
 62
     0
100
AcDbLine
 10
1069.294749266119
 20
4635.669811580355
 30
0.0
 11
1219.294749266119
 21
4635.669811580355
 31
0.0
  0
INSERT
  5
B9B
330
B96
100
AcDbEntity
  8
0
  6
ByBlock
 62
     0
100
AcDbBlockReference
  2
_OPEN
 10
1049.294749266119
 20
4635.669811580355
 30
0.0
 41
20.0
 42
20.0
 43
20.0
 50
180.0
  0
INSERT
  5
B9C
330
B96
100
AcDbEntity
  8
0
  6
ByBlock
 62
     0
100
AcDbBlockReference
  2
_OPEN
 10
1239.294749266119
 20
4635.669811580355
 30
0.0
 41
20.0
 42
20.0
 43
20.0
  0
MTEXT
  5
B9D
330
B96
100
AcDbEntity
  8
0
  6
ByBlock
 62
     0
100
AcDbMText
 10
1144.294749266119
 20
4660.669811580356
 30
0.0
 40
25.0
 41
0.0
 71
     5
 72
     1
  1
\A1;190
 73
     1
 44
1.0
1001
ACAD
1000
MTEXTBEGIN
1070
    73
1070
     1
1070
    44
1040
1.0
1070
    74
1070
     0
1000
MTEXTEND
  0
POINT
  5
B9E
330
B96
100
AcDbEntity
  8
DEFPOINTS
  6
ByBlock
 62
     0
100
AcDbPoint
 10
1049.294749266119
 20
4735.669811580356
 30
0.0
  0
POINT
  5
B9F
330
B96
100
AcDbEntity
  8
DEFPOINTS
  6
ByBlock
 62
     0
100
AcDbPoint
 10
1239.294749266119
 20
4735.669811580356
 30
0.0
  0
POINT
  5
BA0
330
B96
100
AcDbEntity
  8
DEFPOINTS
  6
ByBlock
 62
     0
100
AcDbPoint
 10
1239.294749266119
 20
4635.669811580355
 30
0.0
  0
ENDBLK
  5
BA1
330
B96
100
AcDbEntity
  8
0
100
AcDbBlockEnd
  0
BLOCK
  5
BB6
330
BB5
100
AcDbEntity
  8
0
100
AcDbBlockBegin
  2
*D25
 70
     1
 10
0.0
 20
0.0
 30
0.0
  3
*D25
  1

  0
LINE
  5
BB7
330
BB5
100
AcDbEntity
  8
0
  6
ByBlock
 62
     0
100
AcDbLine
 10
1049.294749266119
 20
4705.669811580356
 30
0.0
 11
1049.294749266119
 21
4625.669811580356
 31
0.0
  0
LINE
  5
BB8
330
BB5
100
AcDbEntity
  8
0
  6
ByBlock
 62
     0
100
AcDbLine
 10
1239.294749266119
 20
4705.669811580356
 30
0.0
 11
1239.294749266119
 21
4625.669811580356
 31
0.0
  0
LINE
  5
BB9
330
BB5
100
AcDbEntity
  8
0
  6
ByBlock
 62
     0
100
AcDbLine
 10
1069.294749266119
 20
4635.669811580355
 30
0.0
 11
1219.294749266119
 21
4635.669811580355
 31
0.0
  0
INSERT
  5
BBA
330
BB5
100
AcDbEntity
  8
0
  6
ByBlock
 62
     0
100
AcDbBlockReference
  2
_OPEN
 10
1049.294749266119
 20
4635.669811580355
 30
0.0
 41
20.0
 42
20.0
 43
20.0
 50
180.0
  0
INSERT
  5
BBB
330
BB5
100
AcDbEntity
  8
0
  6
ByBlock
 62
     0
100
AcDbBlockReference
  2
_OPEN
 10
1239.294749266119
 20
4635.669811580355
 30
0.0
 41
20.0
 42
20.0
 43
20.0
  0
MTEXT
  5
BBC
330
BB5
100
AcDbEntity
  8
0
  6
ByBlock
 62
     0
100
AcDbMText
 10
1144.294749266119
 20
4660.669811580356
 30
0.0
 40
25.0
 41
0.0
 71
     5
 72
     1
  1
\A1;190
 73
     1
 44
1.0
1001
ACAD
1000
MTEXTBEGIN
1070
    73
1070
     1
1070
    44
1040
1.0
1070
    74
1070
     0
1000
MTEXTEND
  0
POINT
  5
BBD
330
BB5
100
AcDbEntity
  8
DEFPOINTS
  6
ByBlock
 62
     0
100
AcDbPoint
 10
1049.294749266119
 20
4735.669811580356
 30
0.0
  0
POINT
  5
BBE
330
BB5
100
AcDbEntity
  8
DEFPOINTS
  6
ByBlock
 62
     0
100
AcDbPoint
 10
1239.294749266119
 20
4735.669811580356
 30
0.0
  0
POINT
  5
BBF
330
BB5
100
AcDbEntity
  8
DEFPOINTS
  6
ByBlock
 62
     0
100
AcDbPoint
 10
1239.294749266119
 20
4635.669811580355
 30
0.0
  0
ENDBLK
  5
BC0
330
BB5
100
AcDbEntity
  8
0
100
AcDbBlockEnd
  0
BLOCK
  5
BC3
330
BC2
100
AcDbEntity
  8
0
100
AcDbBlockBegin
  2
*D26
 70
     1
 10
0.0
 20
0.0
 30
0.0
  3
*D26
  1

  0
LINE
  5
BC4
330
BC2
100
AcDbEntity
  8
0
  6
ByBlock
 62
     0
100
AcDbLine
 10
1049.294749266119
 20
4205.669811580356
 30
0.0
 11
1049.294749266119
 21
4125.669811580356
 31
0.0
  0
LINE
  5
BC5
330
BC2
100
AcDbEntity
  8
0
  6
ByBlock
 62
     0
100
AcDbLine
 10
1239.294749266119
 20
4205.669811580356
 30
0.0
 11
1239.294749266119
 21
4125.669811580356
 31
0.0
  0
LINE
  5
BC6
330
BC2
100
AcDbEntity
  8
0
  6
ByBlock
 62
     0
100
AcDbLine
 10
1069.294749266119
 20
4135.669811580355
 30
0.0
 11
1219.294749266119
 21
4135.669811580355
 31
0.0
  0
INSERT
  5
BC7
330
BC2
100
AcDbEntity
  8
0
  6
ByBlock
 62
     0
100
AcDbBlockReference
  2
_OPEN
 10
1049.294749266119
 20
4135.669811580355
 30
0.0
 41
20.0
 42
20.0
 43
20.0
 50
180.0
  0
INSERT
  5
BC8
330
BC2
100
AcDbEntity
  8
0
  6
ByBlock
 62
     0
100
AcDbBlockReference
  2
_OPEN
 10
1239.294749266119
 20
4135.669811580355
 30
0.0
 41
20.0
 42
20.0
 43
20.0
  0
MTEXT
  5
BC9
330
BC2
100
AcDbEntity
  8
0
  6
ByBlock
 62
     0
100
AcDbMText
 10
1144.294749266119
 20
4160.669811580356
 30
0.0
 40
25.0
 41
0.0
 71
     5
 72
     1
  1
\A1;190
 73
     1
 44
1.0
1001
ACAD
1000
MTEXTBEGIN
1070
    73
1070
     1
1070
    44
1040
1.0
1070
    74
1070
     0
1000
MTEXTEND
  0
POINT
  5
BCA
330
BC2
100
AcDbEntity
  8
DEFPOINTS
  6
ByBlock
 62
     0
100
AcDbPoint
 10
1049.294749266119
 20
4235.669811580356
 30
0.0
  0
POINT
  5
BCB
330
BC2
100
AcDbEntity
  8
DEFPOINTS
  6
ByBlock
 62
     0
100
AcDbPoint
 10
1239.294749266119
 20
4235.669811580356
 30
0.0
  0
POINT
  5
BCC
330
BC2
100
AcDbEntity
  8
DEFPOINTS
  6
ByBlock
 62
     0
100
AcDbPoint
 10
1239.294749266119
 20
4135.669811580355
 30
0.0
  0
ENDBLK
  5
BCD
330
BC2
100
AcDbEntity
  8
0
100
AcDbBlockEnd
  0
BLOCK
  5
BE9
330
BDC
100
AcDbEntity
  8
0
100
AcDbBlockBegin
  2
*D27
 70
     1
 10
0.0
 20
0.0
 30
0.0
  3
*D27
  1

  0
LINE
  5
BEA
330
BDC
100
AcDbEntity
  8
0
  6
ByBlock
 62
     0
100
AcDbLine
 10
1044.294749266119
 20
2537.73505600846
 30
0.0
 11
1044.294749266119
 21
2457.73505600846
 31
0.0
  0
LINE
  5
BEB
330
BDC
100
AcDbEntity
  8
0
  6
ByBlock
 62
     0
100
AcDbLine
 10
1274.294749266118
 20
2537.73505600846
 30
0.0
 11
1274.294749266118
 21
2457.73505600846
 31
0.0
  0
LINE
  5
BEC
330
BDC
100
AcDbEntity
  8
0
  6
ByBlock
 62
     0
100
AcDbLine
 10
1064.294749266119
 20
2467.73505600846
 30
0.0
 11
1254.294749266119
 21
2467.73505600846
 31
0.0
  0
INSERT
  5
BED
330
BDC
100
AcDbEntity
  8
0
  6
ByBlock
 62
     0
100
AcDbBlockReference
  2
_OPEN
 10
1044.294749266119
 20
2467.73505600846
 30
0.0
 41
20.0
 42
20.0
 43
20.0
 50
180.0
  0
INSERT
  5
BEE
330
BDC
100
AcDbEntity
  8
0
  6
ByBlock
 62
     0
100
AcDbBlockReference
  2
_OPEN
 10
1274.294749266118
 20
2467.73505600846
 30
0.0
 41
20.0
 42
20.0
 43
20.0
  0
MTEXT
  5
BEF
330
BDC
100
AcDbEntity
  8
0
  6
ByBlock
 62
     0
100
AcDbMText
 10
1159.294749266118
 20
2492.73505600846
 30
0.0
 40
25.0
 41
0.0
 71
     5
 72
     1
  1
\A1;230
 73
     1
 44
1.0
1001
ACAD
1000
MTEXTBEGIN
1070
    73
1070
     1
1070
    44
1040
1.0
1070
    74
1070
     0
1000
MTEXTEND
  0
POINT
  5
BF0
330
BDC
100
AcDbEntity
  8
DEFPOINTS
  6
ByBlock
 62
     0
100
AcDbPoint
 10
1044.294749266119
 20
2567.73505600846
 30
0.0
  0
POINT
  5
BF1
330
BDC
100
AcDbEntity
  8
DEFPOINTS
  6
ByBlock
 62
     0
100
AcDbPoint
 10
1274.294749266118
 20
2567.73505600846
 30
0.0
  0
POINT
  5
BF2
330
BDC
100
AcDbEntity
  8
DEFPOINTS
  6
ByBlock
 62
     0
100
AcDbPoint
 10
1274.294749266118
 20
2467.73505600846
 30
0.0
  0
ENDBLK
  5
BF3
330
BDC
100
AcDbEntity
  8
0
100
AcDbBlockEnd
  0
BLOCK
  5
CD7
330
BF8
100
AcDbEntity
  8
0
100
AcDbBlockBegin
  2
*D28
 70
     1
 10
0.0
 20
0.0
 30
0.0
  3
*D28
  1

  0
LINE
  5
CD8
330
BF8
100
AcDbEntity
  8
0
  6
ByBlock
 62
     0
100
AcDbLine
 10
1039.294749266119
 20
2217.73505600846
 30
0.0
 11
909.2947492661187
 21
2217.73505600846
 31
0.0
  0
LINE
  5
CD9
330
BF8
100
AcDbEntity
  8
0
  6
ByBlock
 62
     0
100
AcDbLine
 10
1014.294749266118
 20
1967.73505600846
 30
0.0
 11
909.2947492661187
 21
1967.73505600846
 31
0.0
  0
LINE
  5
CDA
330
BF8
100
AcDbEntity
  8
0
  6
ByBlock
 62
     0
100
AcDbLine
 10
919.2947492661188
 20
2197.73505600846
 30
0.0
 11
919.2947492661188
 21
1987.73505600846
 31
0.0
  0
INSERT
  5
CDB
330
BF8
100
AcDbEntity
  8
0
  6
ByBlock
 62
     0
100
AcDbBlockReference
  2
_OPEN
 10
919.2947492661188
 20
2217.73505600846
 30
0.0
 41
20.0
 42
20.0
 43
20.0
 50
90.0
  0
INSERT
  5
CDC
330
BF8
100
AcDbEntity
  8
0
  6
ByBlock
 62
     0
100
AcDbBlockReference
  2
_OPEN
 10
919.2947492661188
 20
1967.73505600846
 30
0.0
 41
20.0
 42
20.0
 43
20.0
 50
270.0
  0
MTEXT
  5
CDD
330
BF8
100
AcDbEntity
  8
0
  6
ByBlock
 62
     0
100
AcDbMText
 10
894.2947492661188
 20
2092.73505600846
 30
0.0
 40
25.0
 41
0.0
 71
     5
 72
     1
  1
\A1;250
 11
0.0000000000000001
 21
1.0
 31
0.0
 73
     1
 44
1.0
1001
ACAD
1000
MTEXTBEGIN
1070
    73
1070
     1
1070
    44
1040
1.0
1070
    74
1070
     0
1000
MTEXTEND
  0
POINT
  5
CDE
330
BF8
100
AcDbEntity
  8
DEFPOINTS
  6
ByBlock
 62
     0
100
AcDbPoint
 10
1069.294749266119
 20
2217.73505600846
 30
0.0
  0
POINT
  5
CDF
330
BF8
100
AcDbEntity
  8
DEFPOINTS
  6
ByBlock
 62
     0
100
AcDbPoint
 10
1044.294749266119
 20
1967.73505600846
 30
0.0
  0
POINT
  5
CE0
330
BF8
100
AcDbEntity
  8
DEFPOINTS
  6
ByBlock
 62
     0
100
AcDbPoint
 10
919.2947492661188
 20
1967.73505600846
 30
0.0
  0
ENDBLK
  5
CE1
330
BF8
100
AcDbEntity
  8
0
100
AcDbBlockEnd
  0
BLOCK
  5
C05
330
C04
100
AcDbEntity
  8
0
100
AcDbBlockBegin
  2
*D29
 70
     1
 10
0.0
 20
0.0
 30
0.0
  3
*D29
  1

  0
LINE
  5
C06
330
C04
100
AcDbEntity
  8
0
  6
ByBlock
 62
     0
100
AcDbLine
 10
1044.294749266119
 20
2537.73505600846
 30
0.0
 11
1044.294749266119
 21
2457.73505600846
 31
0.0
  0
LINE
  5
C07
330
C04
100
AcDbEntity
  8
0
  6
ByBlock
 62
     0
100
AcDbLine
 10
1274.294749266118
 20
2537.73505600846
 30
0.0
 11
1274.294749266118
 21
2457.73505600846
 31
0.0
  0
LINE
  5
C08
330
C04
100
AcDbEntity
  8
0
  6
ByBlock
 62
     0
100
AcDbLine
 10
1064.294749266119
 20
2467.73505600846
 30
0.0
 11
1254.294749266119
 21
2467.73505600846
 31
0.0
  0
INSERT
  5
C09
330
C04
100
AcDbEntity
  8
0
  6
ByBlock
 62
     0
100
AcDbBlockReference
  2
_OPEN
 10
1044.294749266119
 20
2467.73505600846
 30
0.0
 41
20.0
 42
20.0
 43
20.0
 50
180.0
  0
INSERT
  5
C0A
330
C04
100
AcDbEntity
  8
0
  6
ByBlock
 62
     0
100
AcDbBlockReference
  2
_OPEN
 10
1274.294749266118
 20
2467.73505600846
 30
0.0
 41
20.0
 42
20.0
 43
20.0
  0
MTEXT
  5
C0B
330
C04
100
AcDbEntity
  8
0
  6
ByBlock
 62
     0
100
AcDbMText
 10
1159.294749266118
 20
2492.73505600846
 30
0.0
 40
25.0
 41
0.0
 71
     5
 72
     1
  1
\A1;230
 73
     1
 44
1.0
1001
ACAD
1000
MTEXTBEGIN
1070
    73
1070
     1
1070
    44
1040
1.0
1070
    74
1070
     0
1000
MTEXTEND
  0
POINT
  5
C0C
330
C04
100
AcDbEntity
  8
DEFPOINTS
  6
ByBlock
 62
     0
100
AcDbPoint
 10
1044.294749266119
 20
2567.73505600846
 30
0.0
  0
POINT
  5
C0D
330
C04
100
AcDbEntity
  8
DEFPOINTS
  6
ByBlock
 62
     0
100
AcDbPoint
 10
1274.294749266118
 20
2567.73505600846
 30
0.0
  0
POINT
  5
C0E
330
C04
100
AcDbEntity
  8
DEFPOINTS
  6
ByBlock
 62
     0
100
AcDbPoint
 10
1274.294749266118
 20
2467.73505600846
 30
0.0
  0
ENDBLK
  5
C0F
330
C04
100
AcDbEntity
  8
0
100
AcDbBlockEnd
  0
BLOCK
  5
C15
330
C14
100
AcDbEntity
  8
0
100
AcDbBlockBegin
  2
*D30
 70
     1
 10
0.0
 20
0.0
 30
0.0
  3
*D30
  1

  0
LINE
  5
C16
330
C14
100
AcDbEntity
  8
0
  6
ByBlock
 62
     0
100
AcDbLine
 10
1044.294749266119
 20
1937.73505600846
 30
0.0
 11
1044.294749266119
 21
1857.73505600846
 31
0.0
  0
LINE
  5
C17
330
C14
100
AcDbEntity
  8
0
  6
ByBlock
 62
     0
100
AcDbLine
 10
1274.294749266118
 20
1937.73505600846
 30
0.0
 11
1274.294749266118
 21
1857.73505600846
 31
0.0
  0
LINE
  5
C18
330
C14
100
AcDbEntity
  8
0
  6
ByBlock
 62
     0
100
AcDbLine
 10
1064.294749266119
 20
1867.735056008459
 30
0.0
 11
1254.294749266119
 21
1867.735056008459
 31
0.0
  0
INSERT
  5
C19
330
C14
100
AcDbEntity
  8
0
  6
ByBlock
 62
     0
100
AcDbBlockReference
  2
_OPEN
 10
1044.294749266119
 20
1867.735056008459
 30
0.0
 41
20.0
 42
20.0
 43
20.0
 50
180.0
  0
INSERT
  5
C1A
330
C14
100
AcDbEntity
  8
0
  6
ByBlock
 62
     0
100
AcDbBlockReference
  2
_OPEN
 10
1274.294749266118
 20
1867.735056008459
 30
0.0
 41
20.0
 42
20.0
 43
20.0
  0
MTEXT
  5
C1B
330
C14
100
AcDbEntity
  8
0
  6
ByBlock
 62
     0
100
AcDbMText
 10
1159.294749266118
 20
1892.73505600846
 30
0.0
 40
25.0
 41
0.0
 71
     5
 72
     1
  1
\A1;230
 73
     1
 44
1.0
1001
ACAD
1000
MTEXTBEGIN
1070
    73
1070
     1
1070
    44
1040
1.0
1070
    74
1070
     0
1000
MTEXTEND
  0
POINT
  5
C1C
330
C14
100
AcDbEntity
  8
DEFPOINTS
  6
ByBlock
 62
     0
100
AcDbPoint
 10
1044.294749266119
 20
1967.73505600846
 30
0.0
  0
POINT
  5
C1D
330
C14
100
AcDbEntity
  8
DEFPOINTS
  6
ByBlock
 62
     0
100
AcDbPoint
 10
1274.294749266118
 20
1967.73505600846
 30
0.0
  0
POINT
  5
C1E
330
C14
100
AcDbEntity
  8
DEFPOINTS
  6
ByBlock
 62
     0
100
AcDbPoint
 10
1274.294749266118
 20
1867.735056008459
 30
0.0
  0
ENDBLK
  5
C1F
330
C14
100
AcDbEntity
  8
0
100
AcDbBlockEnd
  0
BLOCK
  5
CF8
330
C20
100
AcDbEntity
  8
0
100
AcDbBlockBegin
  2
*D31
 70
     1
 10
0.0
 20
0.0
 30
0.0
  3
*D31
  1

  0
LINE
  5
CF9
330
C20
100
AcDbEntity
  8
0
  6
ByBlock
 62
     0
100
AcDbLine
 10
1039.294749266119
 20
1617.735056008459
 30
0.0
 11
909.2947492661187
 21
1617.735056008459
 31
0.0
  0
LINE
  5
CFA
330
C20
100
AcDbEntity
  8
0
  6
ByBlock
 62
     0
100
AcDbLine
 10
1014.294749266119
 20
1367.73505600846
 30
0.0
 11
909.2947492661187
 21
1367.73505600846
 31
0.0
  0
LINE
  5
CFB
330
C20
100
AcDbEntity
  8
0
  6
ByBlock
 62
     0
100
AcDbLine
 10
919.2947492661188
 20
1597.73505600846
 30
0.0
 11
919.2947492661188
 21
1387.73505600846
 31
0.0
  0
INSERT
  5
CFC
330
C20
100
AcDbEntity
  8
0
  6
ByBlock
 62
     0
100
AcDbBlockReference
  2
_OPEN
 10
919.2947492661188
 20
1617.735056008459
 30
0.0
 41
20.0
 42
20.0
 43
20.0
 50
90.0
  0
INSERT
  5
CFD
330
C20
100
AcDbEntity
  8
0
  6
ByBlock
 62
     0
100
AcDbBlockReference
  2
_OPEN
 10
919.2947492661188
 20
1367.73505600846
 30
0.0
 41
20.0
 42
20.0
 43
20.0
 50
270.0
  0
MTEXT
  5
CFE
330
C20
100
AcDbEntity
  8
0
  6
ByBlock
 62
     0
100
AcDbMText
 10
894.2947492661188
 20
1492.735056008459
 30
0.0
 40
25.0
 41
0.0
 71
     5
 72
     1
  1
\A1;250
 11
0.0000000000000001
 21
1.0
 31
0.0
 73
     1
 44
1.0
1001
ACAD
1000
MTEXTBEGIN
1070
    73
1070
     1
1070
    44
1040
1.0
1070
    74
1070
     0
1000
MTEXTEND
  0
POINT
  5
CFF
330
C20
100
AcDbEntity
  8
DEFPOINTS
  6
ByBlock
 62
     0
100
AcDbPoint
 10
1069.294749266119
 20
1617.735056008459
 30
0.0
  0
POINT
  5
D00
330
C20
100
AcDbEntity
  8
DEFPOINTS
  6
ByBlock
 62
     0
100
AcDbPoint
 10
1044.294749266119
 20
1367.73505600846
 30
0.0
  0
POINT
  5
D01
330
C20
100
AcDbEntity
  8
DEFPOINTS
  6
ByBlock
 62
     0
100
AcDbPoint
 10
919.2947492661188
 20
1367.73505600846
 30
0.0
  0
ENDBLK
  5
D02
330
C20
100
AcDbEntity
  8
0
100
AcDbBlockEnd
  0
BLOCK
  5
C40
330
C33
100
AcDbEntity
  8
0
100
AcDbBlockBegin
  2
*D32
 70
     1
 10
0.0
 20
0.0
 30
0.0
  3
*D32
  1

  0
LINE
  5
C41
330
C33
100
AcDbEntity
  8
0
  6
ByBlock
 62
     0
100
AcDbLine
 10
4915.793930557876
 20
3205.669811580356
 30
0.0
 11
4915.793930557876
 21
3125.669811580356
 31
0.0
  0
LINE
  5
C42
330
C33
100
AcDbEntity
  8
0
  6
ByBlock
 62
     0
100
AcDbLine
 10
5155.793930557876
 20
3205.669811580356
 30
0.0
 11
5155.793930557876
 21
3125.669811580356
 31
0.0
  0
LINE
  5
C43
330
C33
100
AcDbEntity
  8
0
  6
ByBlock
 62
     0
100
AcDbLine
 10
4935.793930557877
 20
3135.669811580356
 30
0.0
 11
5135.793930557876
 21
3135.669811580356
 31
0.0
  0
INSERT
  5
C44
330
C33
100
AcDbEntity
  8
0
  6
ByBlock
 62
     0
100
AcDbBlockReference
  2
_OPEN
 10
4915.793930557876
 20
3135.669811580356
 30
0.0
 41
20.0
 42
20.0
 43
20.0
 50
180.0
  0
INSERT
  5
C45
330
C33
100
AcDbEntity
  8
0
  6
ByBlock
 62
     0
100
AcDbBlockReference
  2
_OPEN
 10
5155.793930557876
 20
3135.669811580356
 30
0.0
 41
20.0
 42
20.0
 43
20.0
  0
MTEXT
  5
C46
330
C33
100
AcDbEntity
  8
0
  6
ByBlock
 62
     0
100
AcDbMText
 10
5035.793930557876
 20
3160.669811580356
 30
0.0
 40
25.0
 41
0.0
 71
     5
 72
     1
  1
\A1;240
 73
     1
 44
1.0
1001
ACAD
1000
MTEXTBEGIN
1070
    73
1070
     1
1070
    44
1040
1.0
1070
    74
1070
     0
1000
MTEXTEND
  0
POINT
  5
C47
330
C33
100
AcDbEntity
  8
DEFPOINTS
  6
ByBlock
 62
     0
100
AcDbPoint
 10
4915.793930557876
 20
3235.669811580355
 30
0.0
  0
POINT
  5
C48
330
C33
100
AcDbEntity
  8
DEFPOINTS
  6
ByBlock
 62
     0
100
AcDbPoint
 10
5155.793930557876
 20
3235.669811580355
 30
0.0
  0
POINT
  5
C49
330
C33
100
AcDbEntity
  8
DEFPOINTS
  6
ByBlock
 62
     0
100
AcDbPoint
 10
5155.793930557876
 20
3135.669811580356
 30
0.0
  0
ENDBLK
  5
C4A
330
C33
100
AcDbEntity
  8
0
100
AcDbBlockEnd
  0
BLOCK
  5
D0E
330
C4F
100
AcDbEntity
  8
0
100
AcDbBlockBegin
  2
*D33
 70
     1
 10
0.0
 20
0.0
 30
0.0
  3
*D33
  1

  0
LINE
  5
D0F
330
C4F
100
AcDbEntity
  8
0
  6
ByBlock
 62
     0
100
AcDbLine
 10
4915.793930557876
 20
4235.669811580356
 30
0.0
 11
4805.793930557877
 21
4235.669811580356
 31
0.0
  0
LINE
  5
D10
330
C4F
100
AcDbEntity
  8
0
  6
ByBlock
 62
     0
100
AcDbLine
 10
4885.793930557877
 20
3935.669811580356
 30
0.0
 11
4805.793930557877
 21
3935.669811580356
 31
0.0
  0
LINE
  5
D11
330
C4F
100
AcDbEntity
  8
0
  6
ByBlock
 62
     0
100
AcDbLine
 10
4815.793930557877
 20
4215.669811580355
 30
0.0
 11
4815.793930557877
 21
3955.669811580356
 31
0.0
  0
INSERT
  5
D12
330
C4F
100
AcDbEntity
  8
0
  6
ByBlock
 62
     0
100
AcDbBlockReference
  2
_OPEN
 10
4815.793930557877
 20
4235.669811580356
 30
0.0
 41
20.0
 42
20.0
 43
20.0
 50
90.0
  0
INSERT
  5
D13
330
C4F
100
AcDbEntity
  8
0
  6
ByBlock
 62
     0
100
AcDbBlockReference
  2
_OPEN
 10
4815.793930557877
 20
3935.669811580356
 30
0.0
 41
20.0
 42
20.0
 43
20.0
 50
270.0
  0
MTEXT
  5
D14
330
C4F
100
AcDbEntity
  8
0
  6
ByBlock
 62
     0
100
AcDbMText
 10
4790.793930557876
 20
4085.669811580355
 30
0.0
 40
25.0
 41
0.0
 71
     5
 72
     1
  1
\A1;300
 11
0.0000000000000001
 21
1.0
 31
0.0
 73
     1
 44
1.0
1001
ACAD
1000
MTEXTBEGIN
1070
    73
1070
     1
1070
    44
1040
1.0
1070
    74
1070
     0
1000
MTEXTEND
  0
POINT
  5
D15
330
C4F
100
AcDbEntity
  8
DEFPOINTS
  6
ByBlock
 62
     0
100
AcDbPoint
 10
4945.793930557877
 20
4235.669811580356
 30
0.0
  0
POINT
  5
D16
330
C4F
100
AcDbEntity
  8
DEFPOINTS
  6
ByBlock
 62
     0
100
AcDbPoint
 10
4915.793930557876
 20
3935.669811580356
 30
0.0
  0
POINT
  5
D17
330
C4F
100
AcDbEntity
  8
DEFPOINTS
  6
ByBlock
 62
     0
100
AcDbPoint
 10
4815.793930557877
 20
3935.669811580356
 30
0.0
  0
ENDBLK
  5
D18
330
C4F
100
AcDbEntity
  8
0
100
AcDbBlockEnd
  0
BLOCK
  5
C5C
330
C5B
100
AcDbEntity
  8
0
100
AcDbBlockBegin
  2
*D34
 70
     1
 10
0.0
 20
0.0
 30
0.0
  3
*D34
  1

  0
LINE
  5
C5D
330
C5B
100
AcDbEntity
  8
0
  6
ByBlock
 62
     0
100
AcDbLine
 10
4915.793930557876
 20
3205.669811580356
 30
0.0
 11
4915.793930557876
 21
3125.669811580356
 31
0.0
  0
LINE
  5
C5E
330
C5B
100
AcDbEntity
  8
0
  6
ByBlock
 62
     0
100
AcDbLine
 10
5155.793930557876
 20
3205.669811580356
 30
0.0
 11
5155.793930557876
 21
3125.669811580356
 31
0.0
  0
LINE
  5
C5F
330
C5B
100
AcDbEntity
  8
0
  6
ByBlock
 62
     0
100
AcDbLine
 10
4935.793930557877
 20
3135.669811580356
 30
0.0
 11
5135.793930557876
 21
3135.669811580356
 31
0.0
  0
INSERT
  5
C60
330
C5B
100
AcDbEntity
  8
0
  6
ByBlock
 62
     0
100
AcDbBlockReference
  2
_OPEN
 10
4915.793930557876
 20
3135.669811580356
 30
0.0
 41
20.0
 42
20.0
 43
20.0
 50
180.0
  0
INSERT
  5
C61
330
C5B
100
AcDbEntity
  8
0
  6
ByBlock
 62
     0
100
AcDbBlockReference
  2
_OPEN
 10
5155.793930557876
 20
3135.669811580356
 30
0.0
 41
20.0
 42
20.0
 43
20.0
  0
MTEXT
  5
C62
330
C5B
100
AcDbEntity
  8
0
  6
ByBlock
 62
     0
100
AcDbMText
 10
5035.793930557876
 20
3160.669811580356
 30
0.0
 40
25.0
 41
0.0
 71
     5
 72
     1
  1
\A1;240
 73
     1
 44
1.0
1001
ACAD
1000
MTEXTBEGIN
1070
    73
1070
     1
1070
    44
1040
1.0
1070
    74
1070
     0
1000
MTEXTEND
  0
POINT
  5
C63
330
C5B
100
AcDbEntity
  8
DEFPOINTS
  6
ByBlock
 62
     0
100
AcDbPoint
 10
4915.793930557876
 20
3235.669811580355
 30
0.0
  0
POINT
  5
C64
330
C5B
100
AcDbEntity
  8
DEFPOINTS
  6
ByBlock
 62
     0
100
AcDbPoint
 10
5155.793930557876
 20
3235.669811580355
 30
0.0
  0
POINT
  5
C65
330
C5B
100
AcDbEntity
  8
DEFPOINTS
  6
ByBlock
 62
     0
100
AcDbPoint
 10
5155.793930557876
 20
3135.669811580356
 30
0.0
  0
ENDBLK
  5
C66
330
C5B
100
AcDbEntity
  8
0
100
AcDbBlockEnd
  0
BLOCK
  5
D03
330
C6B
100
AcDbEntity
  8
0
100
AcDbBlockBegin
  2
*D35
 70
     1
 10
0.0
 20
0.0
 30
0.0
  3
*D35
  1

  0
LINE
  5
D04
330
C6B
100
AcDbEntity
  8
0
  6
ByBlock
 62
     0
100
AcDbLine
 10
4915.793930557876
 20
4935.669811580356
 30
0.0
 11
4805.793930557877
 21
4935.669811580356
 31
0.0
  0
LINE
  5
D05
330
C6B
100
AcDbEntity
  8
0
  6
ByBlock
 62
     0
100
AcDbLine
 10
4885.793930557877
 20
4635.669811580355
 30
0.0
 11
4805.793930557877
 21
4635.669811580355
 31
0.0
  0
LINE
  5
D06
330
C6B
100
AcDbEntity
  8
0
  6
ByBlock
 62
     0
100
AcDbLine
 10
4815.793930557877
 20
4915.669811580356
 30
0.0
 11
4815.793930557877
 21
4655.669811580355
 31
0.0
  0
INSERT
  5
D07
330
C6B
100
AcDbEntity
  8
0
  6
ByBlock
 62
     0
100
AcDbBlockReference
  2
_OPEN
 10
4815.793930557877
 20
4935.669811580356
 30
0.0
 41
20.0
 42
20.0
 43
20.0
 50
90.0
  0
INSERT
  5
D08
330
C6B
100
AcDbEntity
  8
0
  6
ByBlock
 62
     0
100
AcDbBlockReference
  2
_OPEN
 10
4815.793930557877
 20
4635.669811580355
 30
0.0
 41
20.0
 42
20.0
 43
20.0
 50
270.0
  0
MTEXT
  5
D09
330
C6B
100
AcDbEntity
  8
0
  6
ByBlock
 62
     0
100
AcDbMText
 10
4790.793930557876
 20
4785.669811580356
 30
0.0
 40
25.0
 41
0.0
 71
     5
 72
     1
  1
\A1;300
 11
0.0000000000000001
 21
1.0
 31
0.0
 73
     1
 44
1.0
1001
ACAD
1000
MTEXTBEGIN
1070
    73
1070
     1
1070
    44
1040
1.0
1070
    74
1070
     0
1000
MTEXTEND
  0
POINT
  5
D0A
330
C6B
100
AcDbEntity
  8
DEFPOINTS
  6
ByBlock
 62
     0
100
AcDbPoint
 10
4945.793930557877
 20
4935.669811580356
 30
0.0
  0
POINT
  5
D0B
330
C6B
100
AcDbEntity
  8
DEFPOINTS
  6
ByBlock
 62
     0
100
AcDbPoint
 10
4915.793930557876
 20
4635.669811580355
 30
0.0
  0
POINT
  5
D0C
330
C6B
100
AcDbEntity
  8
DEFPOINTS
  6
ByBlock
 62
     0
100
AcDbPoint
 10
4815.793930557877
 20
4635.669811580355
 30
0.0
  0
ENDBLK
  5
D0D
330
C6B
100
AcDbEntity
  8
0
100
AcDbBlockEnd
  0
BLOCK
  5
C78
330
C77
100
AcDbEntity
  8
0
100
AcDbBlockBegin
  2
*D36
 70
     1
 10
0.0
 20
0.0
 30
0.0
  3
*D36
  1

  0
LINE
  5
C79
330
C77
100
AcDbEntity
  8
0
  6
ByBlock
 62
     0
100
AcDbLine
 10
4915.793930557876
 20
3905.669811580356
 30
0.0
 11
4915.793930557876
 21
3825.669811580356
 31
0.0
  0
LINE
  5
C7A
330
C77
100
AcDbEntity
  8
0
  6
ByBlock
 62
     0
100
AcDbLine
 10
5155.793930557876
 20
3905.669811580356
 30
0.0
 11
5155.793930557876
 21
3825.669811580356
 31
0.0
  0
LINE
  5
C7B
330
C77
100
AcDbEntity
  8
0
  6
ByBlock
 62
     0
100
AcDbLine
 10
4935.793930557877
 20
3835.669811580356
 30
0.0
 11
5135.793930557876
 21
3835.669811580356
 31
0.0
  0
INSERT
  5
C7C
330
C77
100
AcDbEntity
  8
0
  6
ByBlock
 62
     0
100
AcDbBlockReference
  2
_OPEN
 10
4915.793930557876
 20
3835.669811580356
 30
0.0
 41
20.0
 42
20.0
 43
20.0
 50
180.0
  0
INSERT
  5
C7D
330
C77
100
AcDbEntity
  8
0
  6
ByBlock
 62
     0
100
AcDbBlockReference
  2
_OPEN
 10
5155.793930557876
 20
3835.669811580356
 30
0.0
 41
20.0
 42
20.0
 43
20.0
  0
MTEXT
  5
C7E
330
C77
100
AcDbEntity
  8
0
  6
ByBlock
 62
     0
100
AcDbMText
 10
5035.793930557876
 20
3860.669811580356
 30
0.0
 40
25.0
 41
0.0
 71
     5
 72
     1
  1
\A1;240
 73
     1
 44
1.0
1001
ACAD
1000
MTEXTBEGIN
1070
    73
1070
     1
1070
    44
1040
1.0
1070
    74
1070
     0
1000
MTEXTEND
  0
POINT
  5
C7F
330
C77
100
AcDbEntity
  8
DEFPOINTS
  6
ByBlock
 62
     0
100
AcDbPoint
 10
4915.793930557876
 20
3935.669811580356
 30
0.0
  0
POINT
  5
C80
330
C77
100
AcDbEntity
  8
DEFPOINTS
  6
ByBlock
 62
     0
100
AcDbPoint
 10
5155.793930557876
 20
3935.669811580356
 30
0.0
  0
POINT
  5
C81
330
C77
100
AcDbEntity
  8
DEFPOINTS
  6
ByBlock
 62
     0
100
AcDbPoint
 10
5155.793930557876
 20
3835.669811580356
 30
0.0
  0
ENDBLK
  5
C82
330
C77
100
AcDbEntity
  8
0
100
AcDbBlockEnd
  0
ENDSEC
  0
SECTION
  2
ENTITIES
  0
MTEXT
  5
CA
330
67
100
AcDbEntity
  8
1-構造
  6
Continuous
 62
     7
100
AcDbMText
 10
34848.0
 20
72131.0
 30
0.0
 40
320.0
 41
0.0
 71
     7
 72
     5
  1

  7
DIM
 73
     1
 44
1.0
1001
ACAD
1000
MTEXTBEGIN
1070
    73
1070
     1
1070
    44
1040
1.0
1070
    74
1070
     0
1000
MTEXTEND
  0
LINE
  5
770
330
67
100
AcDbEntity
  8
DEFPOINTS
 48
10.0
100
AcDbLine
 10
0.0
 20
5940.0
 30
0.0
 11
0.0
 21
0.0
 31
0.0
  0
LINE
  5
772
330
67
100
AcDbEntity
  8
DEFPOINTS
 48
10.0
100
AcDbLine
 10
0.0
 20
0.0
 30
0.0
 11
8410.0
 21
0.0
 31
0.0
  0
LINE
  5
78C
330
67
100
AcDbEntity
  8
DEFPOINTS
 48
10.0
100
AcDbLine
 10
8410.0
 20
5940.0
 30
0.0
 11
8410.0
 21
0.0
 31
0.0
  0
LINE
  5
78D
330
67
100
AcDbEntity
  8
DEFPOINTS
 48
10.0
100
AcDbLine
 10
0.0
 20
5940.0
 30
0.0
 11
8410.0
 21
5940.0
 31
0.0
  0
LINE
  5
792
330
67
100
AcDbEntity
  8
DEFPOINTS
 48
10.0
100
AcDbLine
 10
8210.0
 20
5740.0
 30
0.0
 11
8210.0
 21
200.0
 31
0.0
  0
LINE
  5
793
330
67
100
AcDbEntity
  8
DEFPOINTS
 48
10.0
100
AcDbLine
 10
200.0
 20
200.0
 30
0.0
 11
8210.0
 21
200.0
 31
0.0
  0
LINE
  5
794
330
67
100
AcDbEntity
  8
DEFPOINTS
 48
10.0
100
AcDbLine
 10
200.0
 20
5740.0
 30
0.0
 11
200.0
 21
200.0
 31
0.0
  0
LINE
  5
795
330
67
100
AcDbEntity
  8
DEFPOINTS
 48
10.0
100
AcDbLine
 10
200.0
 20
5740.0
 30
0.0
 11
8210.0
 21
5740.0
 31
0.0
  0
LINE
  5
796
330
67
100
AcDbEntity
  8
1-構造
100
AcDbLine
 10
1287.394500508361
 20
4635.669811580356
 30
0.0
 11
1401.194998023877
 21
4635.669811580355
 31
0.0
  0
LINE
  5
79A
330
67
100
AcDbEntity
  8
1-構造
100
AcDbLine
 10
1249.294749266119
 20
4435.669811580356
 30
0.0
 11
1439.294749266118
 21
4435.669811580356
 31
0.0
  0
LINE
  5
79B
330
67
100
AcDbEntity
  8
1-構造
100
AcDbLine
 10
1421.095741828077
 20
4617.659885960775
 30
0.0
 11
1439.294749266118
 21
4435.669811580356
 31
0.0
  0
ARC
  5
79C
330
67
100
AcDbEntity
  8
1-構造
100
AcDbCircle
 10
1401.194998023877
 20
4615.669811580356
 30
0.0
 40
20.0
100
AcDbArc
 50
5.710593137499633
 51
90.0
  0
ARC
  5
79E
330
67
100
AcDbEntity
  8
1-構造
100
AcDbCircle
 10
1401.194998023877
 20
4115.669811580356
 30
0.0
 40
20.0
100
AcDbArc
 50
5.710593137499633
 51
90.0
  0
LINE
  5
7A1
330
67
100
AcDbEntity
  8
1-構造
100
AcDbLine
 10
1421.095741828077
 20
4117.659885960775
 30
0.0
 11
1439.294749266118
 21
3935.669811580356
 31
0.0
  0
LINE
  5
7A3
330
67
100
AcDbEntity
  8
1-構造
100
AcDbLine
 10
1287.394500508361
 20
4135.669811580356
 30
0.0
 11
1401.194998023877
 21
4135.669811580355
 31
0.0
  0
LINE
  5
7A4
330
67
100
AcDbEntity
  8
1-構造
100
AcDbLine
 10
1421.095741828077
 20
3617.659885960776
 30
0.0
 11
1439.294749266118
 21
3435.669811580356
 31
0.0
  0
LINE
  5
7A8
330
67
100
AcDbEntity
  8
1-構造
100
AcDbLine
 10
1287.394500508361
 20
3635.669811580357
 30
0.0
 11
1401.194998023877
 21
3635.669811580356
 31
0.0
  0
ARC
  5
7A9
330
67
100
AcDbEntity
  8
1-構造
100
AcDbCircle
 10
1401.194998023877
 20
3615.669811580356
 30
0.0
 40
20.0
100
AcDbArc
 50
5.710593137499633
 51
90.0
  0
LINE
  5
7B3
330
67
100
AcDbEntity
  8
1-構造
100
AcDbLine
 10
1296.444376129481
 20
2435.635056008459
 30
0.0
 11
1422.145122402756
 21
2435.635056008459
 31
0.0
  0
LINE
  5
7B9
330
67
100
AcDbEntity
  8
1-構造
100
AcDbLine
 10
1244.294749266119
 20
2185.63505600846
 30
0.0
 11
1474.294749266119
 21
2185.63505600846
 31
0.0
  0
LINE
  5
7BA
330
67
100
AcDbEntity
  8
1-構造
100
AcDbLine
 10
1451.996238109056
 20
2408.62016757909
 30
0.0
 11
1474.294749266119
 21
2185.63505600846
 31
0.0
  0
ARC
  5
7BB
330
67
100
AcDbEntity
  8
1-構造
100
AcDbCircle
 10
1422.145122402756
 20
2405.635056008459
 30
0.0
 40
30.0
100
AcDbArc
 50
5.710593137499633
 51
90.0
  0
DIMENSION
  5
810
330
67
100
AcDbEntity
  8
6-寸法
100
AcDbDimension
  2
*D1
 10
1149.294749266118
 20
4435.669811580356
 30
0.0
 11
1124.294749266119
 21
4535.669811580356
 31
0.0
 12
200.0
 22
-300.0
 32
0.0
 70
    32
 71
     5
 42
-1.0
  3
STANDARD
100
AcDbAlignedDimension
 13
1269.294749266119
 23
4635.669811580355
 33
0.0
 14
1249.294749266119
 24
4435.669811580356
 34
0.0
 50
90.0
100
AcDbRotatedDimension
1001
ACAD
1000
DSTYLE
1002
{
1070
    40
1040
10.0
1070
   173
1070
     1
1070
    42
1040
3.0
1070
     7
1000
_OPEN
1070
     6
1000
_OPEN
1070
    41
1040
2.0
1002
}
  0
DIMENSION
  5
81D
330
67
100
AcDbEntity
  8
6-寸法
100
AcDbDimension
  2
*D2
 10
1419.294749266119
 20
4735.669811580356
 30
0.0
 11
1344.294749266119
 21
4760.669811580355
 31
0.0
 12
200.0
 22
-200.0
 32
0.0
 70
    32
 71
     5
 42
-1.0
  3
STANDARD
100
AcDbAlignedDimension
 13
1269.294749266119
 23
4635.669811580355
 33
0.0
 14
1419.294749266119
 24
4635.669811580355
 34
0.0
100
AcDbRotatedDimension
1001
ACAD
1000
DSTYLE
1002
{
1070
    40
1040
10.0
1070
   173
1070
     1
1070
    42
1040
3.0
1070
     7
1000
_OPEN
1070
     6
1000
_OPEN
1070
    41
1040
2.0
1002
}
  0
MTEXT
  5
854
330
67
100
AcDbEntity
  8
0
  6
ByBlock
 62
     0
100
AcDbMText
 10
1361.291203557659
 20
4602.340324543762
 30
0.0
 40
25.0
 41
0.0
 71
     5
 72
     1
  1
\A1;R20
 11
0.6641864907109964
 21
0.7475669237981384
 31
0.0
 73
     1
 44
1.0
1001
ACAD
1000
MTEXTBEGIN
1070
    73
1070
     1
1070
    44
1040
1.0
1070
    74
1070
     0
1000
MTEXTEND
  0
LINE
  5
855
330
67
100
AcDbEntity
  8
0
  6
ByBlock
 62
     0
100
AcDbLine
 10
1344.918171740093
 20
4552.328122921417
 30
0.0
 11
1414.478727838097
 21
4630.621150056319
 31
0.0
  0
POINT
  5
857
330
67
100
AcDbEntity
  8
DEFPOINTS
  6
ByBlock
 62
     0
100
AcDbPoint
 10
1414.478727838097
 20
4630.621150056319
 30
0.0
  0
POINT
  5
858
330
67
100
AcDbEntity
  8
DEFPOINTS
  6
ByBlock
 62
     0
100
AcDbPoint
 10
1401.194998023876
 20
4615.669811580356
 30
0.0
  0
INSERT
  5
85D
330
67
100
AcDbEntity
  8
0
  6
ByBlock
 62
     0
100
AcDbBlockReference
  2
_OPEN
 10
1414.478727838099
 20
4630.62115005632
 30
0.0
 41
-20.0
 42
20.0
 43
20.0
 50
228.3800545900512
  0
DIMENSION
  5
860
330
67
100
AcDbEntity
  8
6-寸法
100
AcDbDimension
  2
*D3
 10
1149.294749266118
 20
3935.669811580356
 30
0.0
 11
1124.294749266119
 21
4035.669811580356
 31
0.0
 12
200.0
 22
-300.0
 32
0.0
 70
    32
 71
     5
 42
-1.0
  3
STANDARD
100
AcDbAlignedDimension
 13
1269.294749266119
 23
4135.669811580355
 33
0.0
 14
1249.294749266119
 24
3935.669811580356
 34
0.0
 50
90.0
100
AcDbRotatedDimension
1001
ACAD
1000
DSTYLE
1002
{
1070
    40
1040
10.0
1070
   173
1070
     1
1070
    42
1040
3.0
1070
     7
1000
_OPEN
1070
     6
1000
_OPEN
1070
    41
1040
2.0
1002
}
  0
MTEXT
  5
861
330
67
100
AcDbEntity
  8
0
  6
ByBlock
 62
     0
100
AcDbMText
 10
1361.291203557659
 20
4102.340324543762
 30
0.0
 40
25.0
 41
0.0
 71
     5
 72
     1
  1
\A1;R20
 11
0.6641864907109964
 21
0.7475669237981384
 31
0.0
 73
     1
 44
1.0
1001
ACAD
1000
MTEXTBEGIN
1070
    73
1070
     1
1070
    44
1040
1.0
1070
    74
1070
     0
1000
MTEXTEND
  0
LINE
  5
862
330
67
100
AcDbEntity
  8
0
  6
ByBlock
 62
     0
100
AcDbLine
 10
1344.918171740093
 20
4052.328122921417
 30
0.0
 11
1414.478727838097
 21
4130.621150056319
 31
0.0
  0
INSERT
  5
863
330
67
100
AcDbEntity
  8
0
  6
ByBlock
 62
     0
100
AcDbBlockReference
  2
_OPEN
 10
1414.478727838099
 20
4130.62115005632
 30
0.0
 41
-20.0
 42
20.0
 43
20.0
 50
228.3800545900512
  0
DIMENSION
  5
864
330
67
100
AcDbEntity
  8
6-寸法
100
AcDbDimension
  2
*D4
 10
1419.294749266119
 20
4235.669811580356
 30
0.0
 11
1344.294749266119
 21
4260.669811580355
 31
0.0
 12
200.0
 22
-750.0
 32
0.0
 70
    32
 71
     5
 42
-1.0
  3
STANDARD
100
AcDbAlignedDimension
 13
1269.294749266119
 23
4135.669811580355
 33
0.0
 14
1419.294749266119
 24
4135.669811580355
 34
0.0
100
AcDbRotatedDimension
1001
ACAD
1000
DSTYLE
1002
{
1070
    40
1040
10.0
1070
   173
1070
     1
1070
    42
1040
3.0
1070
     7
1000
_OPEN
1070
     6
1000
_OPEN
1070
    41
1040
2.0
1002
}
  0
DIMENSION
  5
88A
330
67
100
AcDbEntity
  8
6-寸法
100
AcDbDimension
  2
*D5
 10
1149.294749266118
 20
3435.669811580356
 30
0.0
 11
1124.294749266119
 21
3535.669811580356
 31
0.0
 12
200.0
 22
-300.0
 32
0.0
 70
    32
 71
     5
 42
-1.0
  3
STANDARD
100
AcDbAlignedDimension
 13
1269.294749266119
 23
3635.669811580356
 33
0.0
 14
1249.294749266119
 24
3435.669811580356
 34
0.0
 50
90.0
100
AcDbRotatedDimension
1001
ACAD
1000
DSTYLE
1002
{
1070
    40
1040
10.0
1070
   173
1070
     1
1070
    42
1040
3.0
1070
     7
1000
_OPEN
1070
     6
1000
_OPEN
1070
    41
1040
2.0
1002
}
  0
LINE
  5
88B
330
67
100
AcDbEntity
  8
0
  6
ByBlock
 62
     0
100
AcDbLine
 10
1344.918171740093
 20
3552.328122921417
 30
0.0
 11
1414.478727838097
 21
3630.621150056319
 31
0.0
  0
MTEXT
  5
88C
330
67
100
AcDbEntity
  8
0
  6
ByBlock
 62
     0
100
AcDbMText
 10
1361.291203557659
 20
3602.340324543762
 30
0.0
 40
25.0
 41
0.0
 71
     5
 72
     1
  1
\A1;R20
 11
0.6641864907109964
 21
0.7475669237981384
 31
0.0
 73
     1
 44
1.0
1001
ACAD
1000
MTEXTBEGIN
1070
    73
1070
     1
1070
    44
1040
1.0
1070
    74
1070
     0
1000
MTEXTEND
  0
INSERT
  5
88D
330
67
100
AcDbEntity
  8
0
  6
ByBlock
 62
     0
100
AcDbBlockReference
  2
_OPEN
 10
1414.478727838099
 20
3630.621150056321
 30
0.0
 41
-20.0
 42
20.0
 43
20.0
 50
228.3800545900512
  0
DIMENSION
  5
88E
330
67
100
AcDbEntity
  8
6-寸法
100
AcDbDimension
  2
*D6
 10
1419.294749266119
 20
3735.669811580356
 30
0.0
 11
1344.294749266119
 21
3760.669811580356
 31
0.0
 12
200.0
 22
-800.0
 32
0.0
 70
    32
 71
     5
 42
-1.0
  3
STANDARD
100
AcDbAlignedDimension
 13
1269.294749266119
 23
3635.669811580356
 33
0.0
 14
1419.294749266119
 24
3635.669811580356
 34
0.0
100
AcDbRotatedDimension
1001
ACAD
1000
DSTYLE
1002
{
1070
    40
1040
10.0
1070
   173
1070
     1
1070
    42
1040
3.0
1070
     7
1000
_OPEN
1070
     6
1000
_OPEN
1070
    41
1040
2.0
1002
}
  0
DIMENSION
  5
8C2
330
67
100
AcDbEntity
  8
6-寸法
100
AcDbDimension
  2
*D7
 10
1119.294749266119
 20
2185.63505600846
 30
0.0
 11
1094.294749266119
 21
2310.63505600846
 31
0.0
 12
200.0
 22
-382.0999999999999
 32
0.0
 70
    32
 71
     5
 42
-1.0
  3
STANDARD
100
AcDbAlignedDimension
 13
1269.294749266119
 23
2435.63505600846
 33
0.0
 14
1244.294749266119
 24
2185.63505600846
 34
0.0
 50
90.0
100
AcDbRotatedDimension
1001
ACAD
1000
DSTYLE
1002
{
1070
    40
1040
10.0
1070
   173
1070
     1
1070
    42
1040
3.0
1070
     7
1000
_OPEN
1070
     6
1000
_OPEN
1070
    41
1040
2.0
1002
}
  0
DIMENSION
  5
8DC
330
67
100
AcDbEntity
  8
6-寸法
100
AcDbDimension
  2
*D8
 10
1449.294749266119
 20
2535.635056008459
 30
0.0
 11
1359.294749266118
 21
2560.63505600846
 31
0.0
 12
200.0
 22
-800.0347555718963
 32
0.0
 70
    32
 71
     5
 42
-1.0
  3
STANDARD
100
AcDbAlignedDimension
 13
1269.294749266119
 23
2435.63505600846
 33
0.0
 14
1449.294749266119
 24
2435.635056008459
 34
0.0
100
AcDbRotatedDimension
1001
ACAD
1000
DSTYLE
1002
{
1070
    40
1040
10.0
1070
   173
1070
     1
1070
    42
1040
3.0
1070
     7
1000
_OPEN
1070
     6
1000
_OPEN
1070
    41
1040
2.0
1002
}
  0
LINE
  5
8E5
330
67
100
AcDbEntity
  8
1-構造
100
AcDbLine
 10
2073.923165362892
 20
4635.669811580355
 30
0.0
 11
2073.923165362892
 21
4435.669811580356
 31
0.0
  0
LINE
  5
8E7
330
67
100
AcDbEntity
  8
1-構造
100
AcDbLine
 10
2073.923165362892
 20
3635.669811580356
 30
0.0
 11
2073.923165362892
 21
3435.669811580356
 31
0.0
  0
LINE
  5
8E8
330
67
100
AcDbEntity
  8
1-構造
100
AcDbLine
 10
2073.923165362892
 20
4135.669811580355
 30
0.0
 11
2073.923165362892
 21
3935.669811580356
 31
0.0
  0
LINE
  5
8E9
330
67
100
AcDbEntity
  8
1-構造
100
AcDbLine
 10
2673.923165362892
 20
4635.669811580355
 30
0.0
 11
2673.923165362892
 21
4435.669811580356
 31
0.0
  0
LINE
  5
8EA
330
67
100
AcDbEntity
  8
1-構造
100
AcDbLine
 10
3073.923165362892
 20
4135.669811580354
 30
0.0
 11
3073.923165362892
 21
3935.669811580354
 31
0.0
  0
LINE
  5
8EB
330
67
100
AcDbEntity
  8
1-構造
100
AcDbLine
 10
4073.923165362892
 20
3635.669811580356
 30
0.0
 11
4073.923165362892
 21
3435.669811580356
 31
0.0
  0
LINE
  5
8EC
330
67
100
AcDbEntity
  8
1-構造
100
AcDbLine
 10
2073.923165362892
 20
4635.669811580355
 30
0.0
 11
2673.923165362892
 21
4635.669811580355
 31
0.0
  0
LINE
  5
8EF
330
67
100
AcDbEntity
  8
1-構造
100
AcDbLine
 10
2073.923165362892
 20
4435.669811580356
 30
0.0
 11
2673.923165362892
 21
4435.669811580356
 31
0.0
  0
LINE
  5
8F1
330
67
100
AcDbEntity
  8
1-構造
100
AcDbLine
 10
2073.923165362892
 20
4135.669811580355
 30
0.0
 11
3073.923165362892
 21
4135.669811580355
 31
0.0
  0
LINE
  5
8F2
330
67
100
AcDbEntity
  8
1-構造
100
AcDbLine
 10
2073.923165362892
 20
3935.669811580356
 30
0.0
 11
3073.923165362892
 21
3935.669811580356
 31
0.0
  0
LINE
  5
8F3
330
67
100
AcDbEntity
  8
1-構造
100
AcDbLine
 10
2073.923165362892
 20
3635.669811580356
 30
0.0
 11
4073.923165362891
 21
3635.669811580356
 31
0.0
  0
LINE
  5
8F4
330
67
100
AcDbEntity
  8
1-構造
100
AcDbLine
 10
2073.923165362892
 20
3435.669811580356
 30
0.0
 11
4073.923165362891
 21
3435.669811580356
 31
0.0
  0
DIMENSION
  5
914
330
67
100
AcDbEntity
  8
6-寸法
100
AcDbDimension
  2
*D9
 10
2673.923165362892
 20
4335.669811580356
 30
0.0
 11
2373.923165362892
 21
4360.669811580356
 31
0.0
 12
200.0
 22
-300.0
 32
0.0
 70
    32
 71
     5
 42
-1.0
  3
STANDARD
100
AcDbAlignedDimension
 13
2073.923165362892
 23
4435.669811580356
 33
0.0
 14
2673.923165362892
 24
4435.669811580356
 34
0.0
100
AcDbRotatedDimension
1001
ACAD
1000
DSTYLE
1002
{
1070
    40
1040
10.0
1070
   173
1070
     1
1070
    42
1040
3.0
1070
     7
1000
_OPEN
1070
     6
1000
_OPEN
1070
    41
1040
2.0
1002
}
  0
DIMENSION
  5
921
330
67
100
AcDbEntity
  8
6-寸法
100
AcDbDimension
  2
*D10
 10
3073.923165362892
 20
3835.669811580356
 30
0.0
 11
2573.923165362892
 21
3860.669811580356
 31
0.0
 12
200.0
 22
-300.0
 32
0.0
 70
    32
 71
     5
 42
-1.0
  3
STANDARD
100
AcDbAlignedDimension
 13
2073.923165362892
 23
3935.669811580356
 33
0.0
 14
3073.923165362892
 24
3935.669811580354
 34
0.0
100
AcDbRotatedDimension
1001
ACAD
1000
DSTYLE
1002
{
1070
    40
1040
10.0
1070
   173
1070
     1
1070
    42
1040
3.0
1070
     7
1000
_OPEN
1070
     6
1000
_OPEN
1070
    41
1040
2.0
1002
}
  0
DIMENSION
  5
92E
330
67
100
AcDbEntity
  8
6-寸法
100
AcDbDimension
  2
*D11
 10
4073.923165362892
 20
3335.669811580356
 30
0.0
 11
3073.923165362892
 21
3360.669811580355
 31
0.0
 12
200.0
 22
-300.0
 32
0.0
 70
    32
 71
     5
 42
-1.0
  3
STANDARD
100
AcDbAlignedDimension
 13
2073.923165362892
 23
3435.669811580356
 33
0.0
 14
4073.923165362892
 24
3435.669811580356
 34
0.0
100
AcDbRotatedDimension
1001
ACAD
1000
DSTYLE
1002
{
1070
    40
1040
10.0
1070
   173
1070
     1
1070
    42
1040
3.0
1070
     7
1000
_OPEN
1070
     6
1000
_OPEN
1070
    41
1040
2.0
1002
}
  0
DIMENSION
  5
95D
330
67
100
AcDbEntity
  8
6-寸法
100
AcDbDimension
  2
*D12
 10
1449.294749266119
 20
1935.635056008459
 30
0.0
 11
1359.294749266118
 21
1960.635056008459
 31
0.0
 12
200.0
 22
-1400.034755571895
 32
0.0
 70
    32
 71
     5
 42
-1.0
  3
STANDARD
100
AcDbAlignedDimension
 13
1269.294749266119
 23
1835.635056008459
 33
0.0
 14
1449.294749266119
 24
1835.635056008459
 34
0.0
100
AcDbRotatedDimension
1001
ACAD
1000
DSTYLE
1002
{
1070
    40
1040
10.0
1070
   173
1070
     1
1070
    42
1040
3.0
1070
     7
1000
_OPEN
1070
     6
1000
_OPEN
1070
    41
1040
2.0
1002
}
  0
ARC
  5
95E
330
67
100
AcDbEntity
  8
1-構造
100
AcDbCircle
 10
1422.145122402756
 20
1805.635056008459
 30
0.0
 40
30.0
100
AcDbArc
 50
5.710593137499633
 51
90.0
  0
LINE
  5
963
330
67
100
AcDbEntity
  8
1-構造
100
AcDbLine
 10
1296.444376129481
 20
1835.635056008459
 30
0.0
 11
1422.145122402756
 21
1835.635056008458
 31
0.0
  0
LINE
  5
964
330
67
100
AcDbEntity
  8
1-構造
100
AcDbLine
 10
1451.996238109056
 20
1808.620167579089
 30
0.0
 11
1474.294749266119
 21
1585.63505600846
 31
0.0
  0
LINE
  5
9B6
330
67
100
AcDbEntity
  8
1-構造
100
AcDbLine
 10
1451.996238109056
 20
1208.620167579089
 30
0.0
 11
1474.294749266119
 21
985.6350560084598
 31
0.0
  0
ARC
  5
9BB
330
67
100
AcDbEntity
  8
1-構造
100
AcDbCircle
 10
1422.145122402756
 20
1205.635056008459
 30
0.0
 40
30.0
100
AcDbArc
 50
5.710593137499633
 51
90.0
  0
DIMENSION
  5
9BC
330
67
100
AcDbEntity
  8
6-寸法
100
AcDbDimension
  2
*D13
 10
1449.294749266119
 20
1335.635056008459
 30
0.0
 11
1359.294749266118
 21
1360.635056008459
 31
0.0
 12
200.0
 22
-1400.034755571895
 32
0.0
 70
    32
 71
     5
 42
-1.0
  3
STANDARD
100
AcDbAlignedDimension
 13
1269.294749266119
 23
1235.63505600846
 33
0.0
 14
1449.294749266119
 24
1235.635056008459
 34
0.0
100
AcDbRotatedDimension
1001
ACAD
1000
DSTYLE
1002
{
1070
    40
1040
10.0
1070
   173
1070
     1
1070
    42
1040
3.0
1070
     7
1000
_OPEN
1070
     6
1000
_OPEN
1070
    41
1040
2.0
1002
}
  0
LINE
  5
9BD
330
67
100
AcDbEntity
  8
1-構造
100
AcDbLine
 10
1296.444376129481
 20
1235.635056008459
 30
0.0
 11
1422.145122402756
 21
1235.635056008458
 31
0.0
  0
LINE
  5
9EB
330
67
100
AcDbEntity
  8
1-構造
100
AcDbLine
 10
2073.923165362892
 20
2435.635056008452
 30
0.0
 11
2073.923165362892
 21
2185.63505600846
 31
0.0
  0
LINE
  5
9ED
330
67
100
AcDbEntity
  8
1-構造
100
AcDbLine
 10
2073.923165362892
 20
1835.635056008452
 30
0.0
 11
2073.923165362892
 21
1585.63505600846
 31
0.0
  0
LINE
  5
9EE
330
67
100
AcDbEntity
  8
1-構造
100
AcDbLine
 10
2073.923165362892
 20
1235.635056008452
 30
0.0
 11
2073.923165362893
 21
985.6350560084598
 31
0.0
  0
LINE
  5
9EF
330
67
100
AcDbEntity
  8
1-構造
100
AcDbLine
 10
2673.923165362892
 20
2435.635056008452
 30
0.0
 11
2673.923165362892
 21
2185.63505600846
 31
0.0
  0
LINE
  5
9F0
330
67
100
AcDbEntity
  8
1-構造
100
AcDbLine
 10
3073.923165362892
 20
1835.635056008453
 30
0.0
 11
3073.923165362892
 21
1585.635056008461
 31
0.0
  0
LINE
  5
9F1
330
67
100
AcDbEntity
  8
1-構造
100
AcDbLine
 10
4073.923165362892
 20
1235.635056008454
 30
0.0
 11
4073.923165362892
 21
985.6350560084615
 31
0.0
  0
LINE
  5
9F2
330
67
100
AcDbEntity
  8
1-構造
100
AcDbLine
 10
2073.923165362892
 20
2435.635056008452
 30
0.0
 11
2673.923165362892
 21
2435.635056008452
 31
0.0
  0
LINE
  5
9F3
330
67
100
AcDbEntity
  8
1-構造
100
AcDbLine
 10
2073.923165362892
 20
2185.63505600846
 30
0.0
 11
2673.923165362892
 21
2185.63505600846
 31
0.0
  0
LINE
  5
9F4
330
67
100
AcDbEntity
  8
1-構造
100
AcDbLine
 10
2073.923165362892
 20
1835.635056008452
 30
0.0
 11
3073.923165362892
 21
1835.635056008453
 31
0.0
  0
LINE
  5
9F5
330
67
100
AcDbEntity
  8
1-構造
100
AcDbLine
 10
2073.923165362892
 20
1585.63505600846
 30
0.0
 11
3073.923165362892
 21
1585.63505600846
 31
0.0
  0
LINE
  5
9F6
330
67
100
AcDbEntity
  8
1-構造
100
AcDbLine
 10
2073.923165362892
 20
1235.635056008452
 30
0.0
 11
4073.923165362892
 21
1235.635056008454
 31
0.0
  0
LINE
  5
9F7
330
67
100
AcDbEntity
  8
1-構造
100
AcDbLine
 10
2073.923165362893
 20
985.6350560084598
 30
0.0
 11
4073.923165362892
 21
985.6350560084615
 31
0.0
  0
DIMENSION
  5
A11
330
67
100
AcDbEntity
  8
6-寸法
100
AcDbDimension
  2
*D14
 10
2673.923165362892
 20
2085.635056008459
 30
0.0
 11
2373.923165362892
 21
2110.63505600846
 31
0.0
 12
200.0
 22
-800.0347555718963
 32
0.0
 70
    32
 71
     5
 42
-1.0
  3
STANDARD
100
AcDbAlignedDimension
 13
2073.923165362892
 23
2185.63505600846
 33
0.0
 14
2673.923165362892
 24
2185.63505600846
 34
0.0
100
AcDbRotatedDimension
1001
ACAD
1000
DSTYLE
1002
{
1070
    40
1040
10.0
1070
   173
1070
     1
1070
    42
1040
3.0
1070
     7
1000
_OPEN
1070
     6
1000
_OPEN
1070
    41
1040
2.0
1002
}
  0
DIMENSION
  5
A1E
330
67
100
AcDbEntity
  8
6-寸法
100
AcDbDimension
  2
*D15
 10
3073.923165362892
 20
1475.63505600846
 30
0.0
 11
2573.923165362892
 21
1500.63505600846
 31
0.0
 12
200.0
 22
-800.0347555718963
 32
0.0
 70
    32
 71
     5
 42
-1.0
  3
STANDARD
100
AcDbAlignedDimension
 13
2073.923165362892
 23
1585.63505600846
 33
0.0
 14
3073.923165362892
 24
1585.63505600846
 34
0.0
100
AcDbRotatedDimension
1001
ACAD
1000
DSTYLE
1002
{
1070
    40
1040
10.0
1070
   173
1070
     1
1070
    42
1040
3.0
1070
     7
1000
_OPEN
1070
     6
1000
_OPEN
1070
    41
1040
2.0
1002
}
  0
DIMENSION
  5
A2B
330
67
100
AcDbEntity
  8
6-寸法
100
AcDbDimension
  2
*D16
 10
4073.923165362892
 20
885.6350560084598
 30
0.0
 11
3073.923165362892
 21
910.6350560084598
 31
0.0
 12
200.0
 22
-800.0347555718963
 32
0.0
 70
    32
 71
     5
 42
-1.0
  3
STANDARD
100
AcDbAlignedDimension
 13
2073.923165362893
 23
985.6350560084598
 33
0.0
 14
4073.923165362892
 24
985.6350560084615
 34
0.0
100
AcDbRotatedDimension
1001
ACAD
1000
DSTYLE
1002
{
1070
    40
1040
10.0
1070
   173
1070
     1
1070
    42
1040
3.0
1070
     7
1000
_OPEN
1070
     6
1000
_OPEN
1070
    41
1040
2.0
1002
}
  0
DIMENSION
  5
A2F
330
67
100
AcDbEntity
  8
6-寸法
100
AcDbDimension
  2
*D17
 10
5249.293930557876
 20
4735.669811580356
 30
0.0
 11
5159.293930557876
 21
4760.669811580355
 31
0.0
 12
3999.999181291758
 22
1400.0
 32
0.0
 70
    32
 71
     5
 42
-1.0
  3
STANDARD
100
AcDbAlignedDimension
 13
5069.293930557877
 23
4635.669811580355
 33
0.0
 14
5249.293930557876
 24
4635.669811580354
 34
0.0
100
AcDbRotatedDimension
1001
ACAD
1000
DSTYLE
1002
{
1070
    40
1040
10.0
1070
   173
1070
     1
1070
    42
1040
3.0
1070
     7
1000
_OPEN
1070
     6
1000
_OPEN
1070
    41
1040
2.0
1002
}
  0
LINE
  5
A35
330
67
100
AcDbEntity
  8
1-構造
100
AcDbLine
 10
5096.44355742124
 20
4635.669811580354
 30
0.0
 11
5222.144303694514
 21
4635.669811580353
 31
0.0
  0
LINE
  5
A3A
330
67
100
AcDbEntity
  8
1-構造
100
AcDbLine
 10
5873.92234665465
 20
4635.669811580348
 30
0.0
 11
6473.92234665465
 21
4635.669811580348
 31
0.0
  0
LINE
  5
A3B
330
67
100
AcDbEntity
  8
1-構造
100
AcDbLine
 10
5873.92234665465
 20
4635.669811580348
 30
0.0
 11
5873.922346654651
 21
4335.669811580356
 31
0.0
  0
LINE
  5
A3C
330
67
100
AcDbEntity
  8
1-構造
100
AcDbLine
 10
6473.92234665465
 20
4635.669811580348
 30
0.0
 11
6473.92234665465
 21
4335.669811580356
 31
0.0
  0
LINE
  5
A7C
330
67
100
AcDbEntity
  8
1-構造
100
AcDbLine
 10
5251.995419400813
 20
4608.654923150982
 30
0.0
 11
5279.293930557876
 21
4335.669811580356
 31
0.0
  0
ARC
  5
A7D
330
67
100
AcDbEntity
  8
1-構造
100
AcDbCircle
 10
5222.144303694514
 20
4605.669811580352
 30
0.0
 40
30.0
100
AcDbArc
 50
5.710593137499531
 51
89.99999999999912
  0
LINE
  5
AA8
330
67
100
AcDbEntity
  8
1-構造
100
AcDbLine
 10
5873.92234665465
 20
4335.669811580355
 30
0.0
 11
6473.92234665465
 21
4335.669811580356
 31
0.0
  0
DIMENSION
  5
AC2
330
67
100
AcDbEntity
  8
6-寸法
100
AcDbDimension
  2
*D18
 10
6473.92234665465
 20
4235.669811580356
 30
0.0
 11
6173.92234665465
 21
4260.669811580355
 31
0.0
 12
123.5
 22
-300.0
 32
0.0
 70
    32
 71
     5
 42
-1.0
  3
STANDARD
100
AcDbAlignedDimension
 13
5873.92234665465
 23
4335.669811580355
 33
0.0
 14
6473.92234665465
 24
4335.669811580356
 34
0.0
100
AcDbRotatedDimension
1001
ACAD
1000
DSTYLE
1002
{
1070
    40
1040
10.0
1070
   173
1070
     1
1070
    42
1040
3.0
1070
     7
1000
_OPEN
1070
     6
1000
_OPEN
1070
    41
1040
2.0
1002
}
  0
LINE
  5
AC4
330
67
100
AcDbEntity
  8
1-構造
100
AcDbLine
 10
5873.92234665465
 20
3935.669811580348
 30
0.0
 11
5873.922346654651
 21
3635.669811580356
 31
0.0
  0
LINE
  5
AC6
330
67
100
AcDbEntity
  8
1-構造
100
AcDbLine
 10
5251.995419400813
 20
3908.654923150983
 30
0.0
 11
5279.293930557876
 21
3635.669811580356
 31
0.0
  0
LINE
  5
ACB
330
67
100
AcDbEntity
  8
1-構造
100
AcDbLine
 10
5873.92234665465
 20
3635.669811580355
 30
0.0
 11
6873.922346654651
 21
3635.669811580356
 31
0.0
  0
DIMENSION
  5
ACC
330
67
100
AcDbEntity
  8
6-寸法
100
AcDbDimension
  2
*D19
 10
5249.293930557876
 20
4035.669811580356
 30
0.0
 11
5159.293930557876
 21
4060.669811580356
 31
0.0
 12
123.5
 22
-1000.0
 32
0.0
 70
    32
 71
     5
 42
-1.0
  3
STANDARD
100
AcDbAlignedDimension
 13
5069.293930557877
 23
3935.669811580356
 33
0.0
 14
5249.293930557876
 24
3935.669811580355
 34
0.0
100
AcDbRotatedDimension
1001
ACAD
1000
DSTYLE
1002
{
1070
    40
1040
10.0
1070
   173
1070
     1
1070
    42
1040
3.0
1070
     7
1000
_OPEN
1070
     6
1000
_OPEN
1070
    41
1040
2.0
1002
}
  0
LINE
  5
ACD
330
67
100
AcDbEntity
  8
1-構造
100
AcDbLine
 10
5096.44355742124
 20
3935.669811580355
 30
0.0
 11
5222.144303694514
 21
3935.669811580353
 31
0.0
  0
ARC
  5
ACF
330
67
100
AcDbEntity
  8
1-構造
100
AcDbCircle
 10
5222.144303694514
 20
3905.669811580353
 30
0.0
 40
30.0
100
AcDbArc
 50
5.710593137499531
 51
89.99999999999912
  0
LINE
  5
AD0
330
67
100
AcDbEntity
  8
1-構造
100
AcDbLine
 10
5873.92234665465
 20
3935.669811580348
 30
0.0
 11
6873.922346654651
 21
3935.669811580348
 31
0.0
  0
DIMENSION
  5
B01
330
67
100
AcDbEntity
  8
6-寸法
100
AcDbDimension
  2
*D20
 10
4939.293930557877
 20
2935.669811580356
 30
0.0
 11
4914.293930557876
 21
3085.669811580356
 31
0.0
 12
123.5
 22
-300.0
 32
0.0
 70
    32
 71
     5
 42
-1.0
  3
STANDARD
100
AcDbAlignedDimension
 13
5069.293930557877
 23
3235.669811580355
 33
0.0
 14
5039.293930557876
 24
2935.669811580356
 34
0.0
 50
90.0
100
AcDbRotatedDimension
1001
ACAD
1000
DSTYLE
1002
{
1070
    40
1040
10.0
1070
   173
1070
     1
1070
    42
1040
3.0
1070
     7
1000
_OPEN
1070
     6
1000
_OPEN
1070
    41
1040
2.0
1002
}
  0
DIMENSION
  5
B02
330
67
100
AcDbEntity
  8
6-寸法
100
AcDbDimension
  2
*D21
 10
5249.293930557876
 20
3335.669811580356
 30
0.0
 11
5159.293930557876
 21
3360.669811580355
 31
0.0
 12
123.5
 22
-1000.0
 32
0.0
 70
    32
 71
     5
 42
-1.0
  3
STANDARD
100
AcDbAlignedDimension
 13
5069.293930557877
 23
3235.669811580355
 33
0.0
 14
5249.293930557876
 24
3235.669811580355
 34
0.0
100
AcDbRotatedDimension
1001
ACAD
1000
DSTYLE
1002
{
1070
    40
1040
10.0
1070
   173
1070
     1
1070
    42
1040
3.0
1070
     7
1000
_OPEN
1070
     6
1000
_OPEN
1070
    41
1040
2.0
1002
}
  0
LINE
  5
B04
330
67
100
AcDbEntity
  8
1-構造
100
AcDbLine
 10
5251.995419400813
 20
3208.654923150983
 30
0.0
 11
5279.293930557876
 21
2935.669811580356
 31
0.0
  0
LINE
  5
B05
330
67
100
AcDbEntity
  8
1-構造
100
AcDbLine
 10
5039.293930557876
 20
2935.669811580356
 30
0.0
 11
5279.293930557876
 21
2935.669811580356
 31
0.0
  0
LINE
  5
B07
330
67
100
AcDbEntity
  8
1-構造
100
AcDbLine
 10
5096.44355742124
 20
3235.669811580355
 30
0.0
 11
5222.144303694514
 21
3235.669811580353
 31
0.0
  0
ARC
  5
B09
330
67
100
AcDbEntity
  8
1-構造
100
AcDbCircle
 10
5222.144303694514
 20
3205.669811580353
 30
0.0
 40
30.0
100
AcDbArc
 50
5.710593137499531
 51
89.99999999999912
  0
LINE
  5
B0A
330
67
100
AcDbEntity
  8
1-構造
100
AcDbLine
 10
5873.92234665465
 20
3235.669811580348
 30
0.0
 11
7873.922346654649
 21
3235.669811580348
 31
0.0
  0
LINE
  5
B0B
330
67
100
AcDbEntity
  8
1-構造
100
AcDbLine
 10
5873.92234665465
 20
2935.669811580355
 30
0.0
 11
7873.922346654651
 21
2935.669811580359
 31
0.0
  0
LINE
  5
B0D
330
67
100
AcDbEntity
  8
1-構造
100
AcDbLine
 10
5873.92234665465
 20
3235.669811580348
 30
0.0
 11
5873.922346654651
 21
2935.669811580356
 31
0.0
  0
LINE
  5
B3F
330
67
100
AcDbEntity
  8
1-構造
100
AcDbLine
 10
6873.922346654651
 20
3935.669811580351
 30
0.0
 11
6873.922346654651
 21
3635.669811580359
 31
0.0
  0
LINE
  5
B40
330
67
100
AcDbEntity
  8
1-構造
100
AcDbLine
 10
7873.922346654651
 20
3235.669811580355
 30
0.0
 11
7873.922346654651
 21
2935.669811580362
 31
0.0
  0
DIMENSION
  5
B4D
330
67
100
AcDbEntity
  8
6-寸法
100
AcDbDimension
  2
*D22
 10
6873.922346654651
 20
3535.669811580356
 30
0.0
 11
6373.922346654651
 21
3560.669811580356
 31
0.0
 12
123.5
 22
-300.0
 32
0.0
 70
    32
 71
     5
 42
-1.0
  3
STANDARD
100
AcDbAlignedDimension
 13
5873.922346654651
 23
3635.669811580356
 33
0.0
 14
6873.922346654651
 24
3635.669811580359
 34
0.0
100
AcDbRotatedDimension
1001
ACAD
1000
DSTYLE
1002
{
1070
    40
1040
10.0
1070
   173
1070
     1
1070
    42
1040
3.0
1070
     7
1000
_OPEN
1070
     6
1000
_OPEN
1070
    41
1040
2.0
1002
}
  0
DIMENSION
  5
B5A
330
67
100
AcDbEntity
  8
6-寸法
100
AcDbDimension
  2
*D23
 10
7873.922346654651
 20
2825.669811580356
 30
0.0
 11
6873.922346654651
 21
2850.669811580356
 31
0.0
 12
123.5
 22
-300.0
 32
0.0
 70
    32
 71
     5
 42
-1.0
  3
STANDARD
100
AcDbAlignedDimension
 13
5873.92234665465
 23
2935.669811580355
 33
0.0
 14
7873.922346654651
 24
2935.669811580361
 34
0.0
100
AcDbRotatedDimension
1001
ACAD
1000
DSTYLE
1002
{
1070
    40
1040
10.0
1070
   173
1070
     1
1070
    42
1040
3.0
1070
     7
1000
_OPEN
1070
     6
1000
_OPEN
1070
    41
1040
2.0
1002
}
  0
MTEXT
  5
B68
330
67
100
AcDbEntity
  8
0
  6
ByBlock
 62
     0
100
AcDbMText
 10
5182.240509228297
 20
4602.340324543758
 30
0.0
 40
25.0
 41
0.0
 71
     5
 72
     1
  1
\A1;R30
 11
0.6641864907109964
 21
0.7475669237981384
 31
0.0
 73
     1
 44
1.0
1001
ACAD
1000
MTEXTBEGIN
1070
    73
1070
     1
1070
    44
1040
1.0
1070
    74
1070
     0
1000
MTEXTEND
  0
LINE
  5
B69
330
67
100
AcDbEntity
  8
0
  6
ByBlock
 62
     0
100
AcDbLine
 10
5165.867477410731
 20
4552.328122921413
 30
0.0
 11
5236.610188384585
 21
4631.951709916158
 31
0.0
  0
INSERT
  5
B6A
330
67
100
AcDbEntity
  8
0
  6
ByBlock
 62
     0
100
AcDbBlockReference
  2
_OPEN
 10
5236.610188384585
 20
4631.95170991616
 30
0.0
 41
-20.0
 42
20.0
 43
20.0
 50
228.3800545900512
  0
LINE
  5
B6B
330
67
100
AcDbEntity
  8
0
  6
ByBlock
 62
     0
100
AcDbLine
 10
1365.868296118973
 20
1752.293367349519
 30
0.0
 11
1436.611007092825
 21
1831.916954344265
 31
0.0
  0
MTEXT
  5
B6C
330
67
100
AcDbEntity
  8
0
  6
ByBlock
 62
     0
100
AcDbMText
 10
1382.241327936539
 20
1802.305568971864
 30
0.0
 40
25.0
 41
0.0
 71
     5
 72
     1
  1
\A1;R30
 11
0.6641864907109964
 21
0.7475669237981384
 31
0.0
 73
     1
 44
1.0
1001
ACAD
1000
MTEXTBEGIN
1070
    73
1070
     1
1070
    44
1040
1.0
1070
    74
1070
     0
1000
MTEXTEND
  0
INSERT
  5
B6D
330
67
100
AcDbEntity
  8
0
  6
ByBlock
 62
     0
100
AcDbBlockReference
  2
_OPEN
 10
1436.611007092827
 20
1831.916954344267
 30
0.0
 41
-20.0
 42
20.0
 43
20.0
 50
228.3800545900512
  0
MTEXT
  5
B6E
330
67
100
AcDbEntity
  8
0
  6
ByBlock
 62
     0
100
AcDbMText
 10
1382.241327936533
 20
1202.305568971864
 30
0.0
 40
25.0
 41
0.0
 71
     5
 72
     1
  1
\A1;R30
 11
0.6641864907109964
 21
0.7475669237981384
 31
0.0
 73
     1
 44
1.0
1001
ACAD
1000
MTEXTBEGIN
1070
    73
1070
     1
1070
    44
1040
1.0
1070
    74
1070
     0
1000
MTEXTEND
  0
LINE
  5
B6F
330
67
100
AcDbEntity
  8
0
  6
ByBlock
 62
     0
100
AcDbLine
 10
1365.868296118967
 20
1152.293367349519
 30
0.0
 11
1436.611007092819
 21
1231.916954344265
 31
0.0
  0
INSERT
  5
B70
330
67
100
AcDbEntity
  8
0
  6
ByBlock
 62
     0
100
AcDbBlockReference
  2
_OPEN
 10
1436.611007092821
 20
1231.916954344267
 30
0.0
 41
-20.0
 42
20.0
 43
20.0
 50
228.3800545900512
  0
MTEXT
  5
B71
330
67
100
AcDbEntity
  8
0
  6
ByBlock
 62
     0
100
AcDbMText
 10
5182.240509228297
 20
3902.340324543759
 30
0.0
 40
25.0
 41
0.0
 71
     5
 72
     1
  1
\A1;R30
 11
0.6641864907109964
 21
0.7475669237981384
 31
0.0
 73
     1
 44
1.0
1001
ACAD
1000
MTEXTBEGIN
1070
    73
1070
     1
1070
    44
1040
1.0
1070
    74
1070
     0
1000
MTEXTEND
  0
LINE
  5
B72
330
67
100
AcDbEntity
  8
0
  6
ByBlock
 62
     0
100
AcDbLine
 10
5165.867477410731
 20
3852.328122921413
 30
0.0
 11
5236.610188384585
 21
3931.951709916159
 31
0.0
  0
INSERT
  5
B73
330
67
100
AcDbEntity
  8
0
  6
ByBlock
 62
     0
100
AcDbBlockReference
  2
_OPEN
 10
5236.610188384585
 20
3931.95170991616
 30
0.0
 41
-20.0
 42
20.0
 43
20.0
 50
228.3800545900512
  0
LINE
  5
B74
330
67
100
AcDbEntity
  8
0
  6
ByBlock
 62
     0
100
AcDbLine
 10
5165.867477410731
 20
3152.328122921414
 30
0.0
 11
5236.610188384585
 21
3231.951709916159
 31
0.0
  0
MTEXT
  5
B75
330
67
100
AcDbEntity
  8
0
  6
ByBlock
 62
     0
100
AcDbMText
 10
5182.240509228297
 20
3202.340324543758
 30
0.0
 40
25.0
 41
0.0
 71
     5
 72
     1
  1
\A1;R30
 11
0.6641864907109964
 21
0.7475669237981384
 31
0.0
 73
     1
 44
1.0
1001
ACAD
1000
MTEXTBEGIN
1070
    73
1070
     1
1070
    44
1040
1.0
1070
    74
1070
     0
1000
MTEXTEND
  0
INSERT
  5
B76
330
67
100
AcDbEntity
  8
0
  6
ByBlock
 62
     0
100
AcDbBlockReference
  2
_OPEN
 10
5236.610188384585
 20
3231.95170991616
 30
0.0
 41
-20.0
 42
20.0
 43
20.0
 50
228.3800545900512
  0
MTEXT
  5
B78
330
67
100
AcDbEntity
  8
0
  6
ByBlock
 62
     0
100
AcDbMText
 10
1382.241327936539
 20
2402.305568971865
 30
0.0
 40
25.0
 41
0.0
 71
     5
 72
     1
  1
\A1;R30
 11
0.6641864907109964
 21
0.7475669237981384
 31
0.0
 73
     1
 44
1.0
1001
ACAD
1000
MTEXTBEGIN
1070
    73
1070
     1
1070
    44
1040
1.0
1070
    74
1070
     0
1000
MTEXTEND
  0
LINE
  5
B79
330
67
100
AcDbEntity
  8
0
  6
ByBlock
 62
     0
100
AcDbLine
 10
1365.868296118973
 20
2352.29336734952
 30
0.0
 11
1436.611007092825
 21
2431.916954344266
 31
0.0
  0
INSERT
  5
B7A
330
67
100
AcDbEntity
  8
0
  6
ByBlock
 62
     0
100
AcDbBlockReference
  2
_OPEN
 10
1436.611007092827
 20
2431.916954344267
 30
0.0
 41
-20.0
 42
20.0
 43
20.0
 50
228.3800545900512
  0
LINE
  5
B7D
330
67
100
AcDbEntity
  8
7-文字
100
AcDbLine
 10
3475.812182741117
 20
5348.968403460996
 30
0.0
 11
4934.187817258884
 21
5348.968403460997
 31
0.0
  0
LINE
  5
B87
330
67
100
AcDbEntity
  8
1-構造
100
AcDbLine
 10
1249.294749266119
 20
4435.669811580356
 30
0.0
 11
1267.493756704161
 21
4617.659885960776
 31
0.0
  0
DIMENSION
  5
BA2
330
67
100
AcDbEntity
  8
6-寸法
100
AcDbDimension
  2
*D24
 10
1439.294749266118
 20
4335.669811580356
 30
0.0
 11
1344.294749266119
 21
4360.669811580356
 31
0.0
 12
200.0
 22
-300.0
 32
0.0
 70
    32
 71
     5
 42
-1.0
  3
STANDARD
100
AcDbAlignedDimension
 13
1249.294749266119
 23
4435.669811580356
 33
0.0
 14
1439.294749266118
 24
4435.669811580356
 34
0.0
100
AcDbRotatedDimension
1001
ACAD
1000
DSTYLE
1002
{
1070
    40
1040
10.0
1070
   173
1070
     1
1070
    42
1040
3.0
1070
     7
1000
_OPEN
1070
     6
1000
_OPEN
1070
    41
1040
2.0
1002
}
  0
LINE
  5
BA4
330
67
100
AcDbEntity
  8
1-構造
100
AcDbLine
 10
1249.294749266119
 20
3935.669811580356
 30
0.0
 11
1267.493756704161
 21
4117.659885960776
 31
0.0
  0
LINE
  5
BA5
330
67
100
AcDbEntity
  8
1-構造
100
AcDbLine
 10
1249.294749266119
 20
3935.669811580356
 30
0.0
 11
1439.294749266118
 21
3935.669811580356
 31
0.0
  0
LINE
  5
BA6
330
67
100
AcDbEntity
  8
1-構造
100
AcDbLine
 10
1249.294749266119
 20
3435.669811580356
 30
0.0
 11
1439.294749266118
 21
3435.669811580356
 31
0.0
  0
LINE
  5
BA7
330
67
100
AcDbEntity
  8
1-構造
100
AcDbLine
 10
1249.294749266119
 20
3435.669811580356
 30
0.0
 11
1267.493756704161
 21
3617.659885960776
 31
0.0
  0
DIMENSION
  5
BB4
330
67
100
AcDbEntity
  8
6-寸法
100
AcDbDimension
  2
*D25
 10
1439.294749266118
 20
3835.669811580356
 30
0.0
 11
1344.294749266119
 21
3860.669811580356
 31
0.0
 12
200.0
 22
-800.0
 32
0.0
 70
    32
 71
     5
 42
-1.0
  3
STANDARD
100
AcDbAlignedDimension
 13
1249.294749266119
 23
3935.669811580356
 33
0.0
 14
1439.294749266118
 24
3935.669811580356
 34
0.0
100
AcDbRotatedDimension
1001
ACAD
1000
DSTYLE
1002
{
1070
    40
1040
10.0
1070
   173
1070
     1
1070
    42
1040
3.0
1070
     7
1000
_OPEN
1070
     6
1000
_OPEN
1070
    41
1040
2.0
1002
}
  0
DIMENSION
  5
BC1
330
67
100
AcDbEntity
  8
6-寸法
100
AcDbDimension
  2
*D26
 10
1439.294749266118
 20
3335.669811580356
 30
0.0
 11
1344.294749266119
 21
3360.669811580355
 31
0.0
 12
200.0
 22
-800.0
 32
0.0
 70
    32
 71
     5
 42
-1.0
  3
STANDARD
100
AcDbAlignedDimension
 13
1249.294749266119
 23
3435.669811580356
 33
0.0
 14
1439.294749266118
 24
3435.669811580356
 34
0.0
100
AcDbRotatedDimension
1001
ACAD
1000
DSTYLE
1002
{
1070
    40
1040
10.0
1070
   173
1070
     1
1070
    42
1040
3.0
1070
     7
1000
_OPEN
1070
     6
1000
_OPEN
1070
    41
1040
2.0
1002
}
  0
LINE
  5
BD9
330
67
100
AcDbEntity
  8
1-構造
100
AcDbLine
 10
1266.593260423182
 20
2408.620167579089
 30
0.0
 11
1244.294749266119
 21
2185.63505600846
 31
0.0
  0
ARC
  5
BDA
330
67
100
AcDbEntity
  8
1-構造
100
AcDbCircle
 10
1296.444376129481
 20
2405.635056008459
 30
0.0
 40
30.0
100
AcDbArc
 50
89.99999999999948
 51
174.2894068625003
  0
DIMENSION
  5
BE8
330
67
100
AcDbEntity
  8
6-寸法
100
AcDbDimension
  2
*D27
 10
1474.294749266119
 20
2085.635056008459
 30
0.0
 11
1359.294749266118
 21
2110.63505600846
 31
0.0
 12
200.0
 22
-382.0999999999999
 32
0.0
 70
    32
 71
     5
 42
-1.0
  3
STANDARD
100
AcDbAlignedDimension
 13
1244.294749266119
 23
2185.63505600846
 33
0.0
 14
1474.294749266119
 24
2185.63505600846
 34
0.0
100
AcDbRotatedDimension
1001
ACAD
1000
DSTYLE
1002
{
1070
    40
1040
10.0
1070
   173
1070
     1
1070
    42
1040
3.0
1070
     7
1000
_OPEN
1070
     6
1000
_OPEN
1070
    41
1040
2.0
1002
}
  0
DIMENSION
  5
BF4
330
67
100
AcDbEntity
  8
6-寸法
100
AcDbDimension
  2
*D29
 10
1474.294749266119
 20
1485.63505600846
 30
0.0
 11
1359.294749266118
 21
1510.635056008459
 31
0.0
 12
200.0
 22
-982.0999999999994
 32
0.0
 70
    32
 71
     5
 42
-1.0
  3
STANDARD
100
AcDbAlignedDimension
 13
1244.294749266119
 23
1585.63505600846
 33
0.0
 14
1474.294749266119
 24
1585.63505600846
 34
0.0
100
AcDbRotatedDimension
1001
ACAD
1000
DSTYLE
1002
{
1070
    40
1040
10.0
1070
   173
1070
     1
1070
    42
1040
3.0
1070
     7
1000
_OPEN
1070
     6
1000
_OPEN
1070
    41
1040
2.0
1002
}
  0
LINE
  5
BF5
330
67
100
AcDbEntity
  8
1-構造
100
AcDbLine
 10
1244.294749266119
 20
1585.63505600846
 30
0.0
 11
1474.294749266119
 21
1585.63505600846
 31
0.0
  0
LINE
  5
BF6
330
67
100
AcDbEntity
  8
1-構造
100
AcDbLine
 10
1266.593260423182
 20
1808.620167579089
 30
0.0
 11
1244.294749266119
 21
1585.63505600846
 31
0.0
  0
DIMENSION
  5
BF7
330
67
100
AcDbEntity
  8
6-寸法
100
AcDbDimension
  2
*D28
 10
1119.294749266119
 20
1585.63505600846
 30
0.0
 11
1094.294749266119
 21
1710.635056008459
 31
0.0
 12
200.0
 22
-382.0999999999999
 32
0.0
 70
    32
 71
     5
 42
-1.0
  3
STANDARD
100
AcDbAlignedDimension
 13
1269.294749266119
 23
1835.635056008459
 33
0.0
 14
1244.294749266119
 24
1585.63505600846
 34
0.0
 50
90.0
100
AcDbRotatedDimension
1001
ACAD
1000
DSTYLE
1002
{
1070
    40
1040
10.0
1070
   173
1070
     1
1070
    42
1040
3.0
1070
     7
1000
_OPEN
1070
     6
1000
_OPEN
1070
    41
1040
2.0
1002
}
  0
DIMENSION
  5
C10
330
67
100
AcDbEntity
  8
6-寸法
100
AcDbDimension
  2
*D31
 10
1119.294749266119
 20
985.6350560084598
 30
0.0
 11
1094.294749266119
 21
1110.63505600846
 31
0.0
 12
200.0
 22
-382.0999999999999
 32
0.0
 70
    32
 71
     5
 42
-1.0
  3
STANDARD
100
AcDbAlignedDimension
 13
1269.294749266119
 23
1235.63505600846
 33
0.0
 14
1244.294749266119
 24
985.6350560084598
 34
0.0
 50
90.0
100
AcDbRotatedDimension
1001
ACAD
1000
DSTYLE
1002
{
1070
    40
1040
10.0
1070
   173
1070
     1
1070
    42
1040
3.0
1070
     7
1000
_OPEN
1070
     6
1000
_OPEN
1070
    41
1040
2.0
1002
}
  0
LINE
  5
C11
330
67
100
AcDbEntity
  8
1-構造
100
AcDbLine
 10
1266.593260423182
 20
1208.620167579089
 30
0.0
 11
1244.294749266119
 21
985.6350560084598
 31
0.0
  0
LINE
  5
C12
330
67
100
AcDbEntity
  8
1-構造
100
AcDbLine
 10
1244.294749266119
 20
985.6350560084601
 30
0.0
 11
1474.294749266119
 21
985.6350560084598
 31
0.0
  0
DIMENSION
  5
C13
330
67
100
AcDbEntity
  8
6-寸法
100
AcDbDimension
  2
*D30
 10
1474.294749266119
 20
885.6350560084598
 30
0.0
 11
1359.294749266118
 21
910.6350560084598
 31
0.0
 12
200.0
 22
-982.0999999999994
 32
0.0
 70
    32
 71
     5
 42
-1.0
  3
STANDARD
100
AcDbAlignedDimension
 13
1244.294749266119
 23
985.6350560084598
 33
0.0
 14
1474.294749266119
 24
985.6350560084598
 34
0.0
100
AcDbRotatedDimension
1001
ACAD
1000
DSTYLE
1002
{
1070
    40
1040
10.0
1070
   173
1070
     1
1070
    42
1040
3.0
1070
     7
1000
_OPEN
1070
     6
1000
_OPEN
1070
    41
1040
2.0
1002
}
  0
ARC
  5
C2C
330
67
100
AcDbEntity
  8
1-構造
100
AcDbCircle
 10
1296.444376129481
 20
1805.635056008459
 30
0.0
 40
30.0
100
AcDbArc
 50
89.99999999999948
 51
174.2894068625003
  0
ARC
  5
C2D
330
67
100
AcDbEntity
  8
1-構造
100
AcDbCircle
 10
1296.444376129481
 20
1205.635056008459
 30
0.0
 40
30.0
100
AcDbArc
 50
89.99999999999948
 51
174.2894068625003
  0
LINE
  5
C30
330
67
100
AcDbEntity
  8
1-構造
100
AcDbLine
 10
5066.59244171494
 20
3208.654923150986
 30
0.0
 11
5039.293930557876
 21
2935.669811580356
 31
0.0
  0
ARC
  5
C31
330
67
100
AcDbEntity
  8
1-構造
100
AcDbCircle
 10
5096.443557421239
 20
3205.669811580356
 30
0.0
 40
30.0
100
AcDbArc
 50
89.99999999999898
 51
174.2894068625003
  0
DIMENSION
  5
C3F
330
67
100
AcDbEntity
  8
6-寸法
100
AcDbDimension
  2
*D32
 10
5279.293930557876
 20
2835.669811580356
 30
0.0
 11
5159.293930557876
 21
2860.669811580356
 31
0.0
 12
123.5
 22
-300.0
 32
0.0
 70
    32
 71
     5
 42
-1.0
  3
STANDARD
100
AcDbAlignedDimension
 13
5039.293930557876
 23
2935.669811580356
 33
0.0
 14
5279.293930557876
 24
2935.669811580356
 34
0.0
100
AcDbRotatedDimension
1001
ACAD
1000
DSTYLE
1002
{
1070
    40
1040
10.0
1070
   173
1070
     1
1070
    42
1040
3.0
1070
     7
1000
_OPEN
1070
     6
1000
_OPEN
1070
    41
1040
2.0
1002
}
  0
DIMENSION
  5
C4B
330
67
100
AcDbEntity
  8
6-寸法
100
AcDbDimension
  2
*D33
 10
4939.293930557877
 20
3635.669811580356
 30
0.0
 11
4914.293930557876
 21
3785.669811580355
 31
0.0
 12
123.5
 22
-300.0
 32
0.0
 70
    32
 71
     5
 42
-1.0
  3
STANDARD
100
AcDbAlignedDimension
 13
5069.293930557877
 23
3935.669811580356
 33
0.0
 14
5039.293930557876
 24
3635.669811580356
 34
0.0
 50
90.0
100
AcDbRotatedDimension
1001
ACAD
1000
DSTYLE
1002
{
1070
    40
1040
10.0
1070
   173
1070
     1
1070
    42
1040
3.0
1070
     7
1000
_OPEN
1070
     6
1000
_OPEN
1070
    41
1040
2.0
1002
}
  0
LINE
  5
C4C
330
67
100
AcDbEntity
  8
1-構造
100
AcDbLine
 10
5066.59244171494
 20
3908.654923150984
 30
0.0
 11
5039.293930557876
 21
3635.669811580356
 31
0.0
  0
DIMENSION
  5
C4D
330
67
100
AcDbEntity
  8
6-寸法
100
AcDbDimension
  2
*D34
 10
5279.293930557876
 20
3535.669811580356
 30
0.0
 11
5159.293930557876
 21
3560.669811580356
 31
0.0
 12
123.5
 22
400.0
 32
0.0
 70
    32
 71
     5
 42
-1.0
  3
STANDARD
100
AcDbAlignedDimension
 13
5039.293930557876
 23
3635.669811580356
 33
0.0
 14
5279.293930557876
 24
3635.669811580356
 34
0.0
100
AcDbRotatedDimension
1001
ACAD
1000
DSTYLE
1002
{
1070
    40
1040
10.0
1070
   173
1070
     1
1070
    42
1040
3.0
1070
     7
1000
_OPEN
1070
     6
1000
_OPEN
1070
    41
1040
2.0
1002
}
  0
LINE
  5
C4E
330
67
100
AcDbEntity
  8
1-構造
100
AcDbLine
 10
5039.293930557876
 20
3635.669811580356
 30
0.0
 11
5279.293930557876
 21
3635.669811580356
 31
0.0
  0
DIMENSION
  5
C67
330
67
100
AcDbEntity
  8
6-寸法
100
AcDbDimension
  2
*D36
 10
5279.293930557876
 20
4235.669811580356
 30
0.0
 11
5159.293930557876
 21
4260.669811580355
 31
0.0
 12
123.5
 22
400.0
 32
0.0
 70
    32
 71
     5
 42
-1.0
  3
STANDARD
100
AcDbAlignedDimension
 13
5039.293930557876
 23
4335.669811580356
 33
0.0
 14
5279.293930557876
 24
4335.669811580356
 34
0.0
100
AcDbRotatedDimension
1001
ACAD
1000
DSTYLE
1002
{
1070
    40
1040
10.0
1070
   173
1070
     1
1070
    42
1040
3.0
1070
     7
1000
_OPEN
1070
     6
1000
_OPEN
1070
    41
1040
2.0
1002
}
  0
DIMENSION
  5
C68
330
67
100
AcDbEntity
  8
6-寸法
100
AcDbDimension
  2
*D35
 10
4939.293930557877
 20
4335.669811580356
 30
0.0
 11
4914.293930557876
 21
4485.669811580356
 31
0.0
 12
123.5
 22
-300.0
 32
0.0
 70
    32
 71
     5
 42
-1.0
  3
STANDARD
100
AcDbAlignedDimension
 13
5069.293930557877
 23
4635.669811580355
 33
0.0
 14
5039.293930557876
 24
4335.669811580356
 34
0.0
 50
90.0
100
AcDbRotatedDimension
1001
ACAD
1000
DSTYLE
1002
{
1070
    40
1040
10.0
1070
   173
1070
     1
1070
    42
1040
3.0
1070
     7
1000
_OPEN
1070
     6
1000
_OPEN
1070
    41
1040
2.0
1002
}
  0
LINE
  5
C69
330
67
100
AcDbEntity
  8
1-構造
100
AcDbLine
 10
5066.59244171494
 20
4608.654923150984
 30
0.0
 11
5039.293930557876
 21
4335.669811580356
 31
0.0
  0
LINE
  5
C6A
330
67
100
AcDbEntity
  8
1-構造
100
AcDbLine
 10
5039.293930557876
 20
4335.669811580356
 30
0.0
 11
5279.293930557876
 21
4335.669811580356
 31
0.0
  0
ARC
  5
C83
330
67
100
AcDbEntity
  8
1-構造
100
AcDbCircle
 10
5096.443557421239
 20
3905.669811580355
 30
0.0
 40
30.0
100
AcDbArc
 50
89.99999999999898
 51
174.2894068625003
  0
ARC
  5
C84
330
67
100
AcDbEntity
  8
1-構造
100
AcDbCircle
 10
5096.443557421239
 20
4605.669811580354
 30
0.0
 40
30.0
100
AcDbArc
 50
89.99999999999898
 51
174.2894068625003
  0
ARC
  5
C8B
330
67
100
AcDbEntity
  8
1-構造
100
AcDbCircle
 10
1287.394500508361
 20
3615.669811580357
 30
0.0
 40
20.0
100
AcDbArc
 50
89.99999999999975
 51
174.2894068625003
  0
ARC
  5
C8C
330
67
100
AcDbEntity
  8
1-構造
100
AcDbCircle
 10
1287.394500508361
 20
4115.669811580356
 30
0.0
 40
20.0
100
AcDbArc
 50
90.0
 51
174.2894068625003
  0
ARC
  5
C8D
330
67
100
AcDbEntity
  8
1-構造
100
AcDbCircle
 10
1287.394500508361
 20
4615.669811580356
 30
0.0
 40
20.0
100
AcDbArc
 50
90.0
 51
174.2894068625003
  0
LINE
  5
D35
330
67
100
AcDbEntity
  8
7-文字
100
AcDbLine
 10
586.1617191994674
 20
4971.861024324578
 30
0.0
 11
1858.852074529416
 21
4971.861024324578
 31
0.0
  0
LINE
  5
D38
330
67
100
AcDbEntity
  8
7-文字
100
AcDbLine
 10
4386.161719199468
 20
4971.861024324578
 30
0.0
 11
5658.852074529418
 21
4971.861024324578
 31
0.0
  0
LINE
  5
D3C
330
67
100
AcDbEntity
  8
7-文字
100
AcDbLine
 10
586.1617191994674
 20
2771.861024324579
 30
0.0
 11
1858.0398917883
 21
2771.861024324579
 31
0.0
  0
TEXT
  5
D63
330
67
100
AcDbEntity
  8
1-構造
 62
     7
100
AcDbText
 10
3497.135994862241
 20
5366.80277718349
 30
0.0
 40
100.0
  1
両側歩車道境界ブロック
  7
STANDARD2
100
AcDbText
  0
TEXT
  5
D64
330
67
100
AcDbEntity
  8
1-構造
 62
     7
100
AcDbText
 10
4403.220768896367
 20
4986.42530946855
 30
0.0
 40
80.0
  1
両側歩車道境界ブロックＣ
  7
STANDARD2
100
AcDbText
  0
TEXT
  5
D65
330
67
100
AcDbEntity
  8
1-構造
 62
     7
100
AcDbText
 10
603.2207688963669
 20
4986.42530946855
 30
0.0
 40
80.0
  1
両側歩車道境界ブロックＡ
  7
STANDARD2
100
AcDbText
  0
TEXT
  5
D66
330
67
100
AcDbEntity
  8
1-構造
 62
     7
100
AcDbText
 10
603.2207688963669
 20
2786.425309468552
 30
0.0
 40
80.0
  1
両側歩車道境界ブロックＢ
  7
STANDARD2
100
AcDbText
  0
ENDSEC
  0
SECTION
  2
OBJECTS
  0
DICTIONARY
  5
5B
330
0
100
AcDbDictionary
281
     1
  3
ACAD_COLOR
350
D4F
  3
ACAD_GROUP
350
5C
  3
ACAD_LAYOUT
350
D50
  3
ACAD_MATERIAL
350
D4E
  3
ACAD_MLINESTYLE
350
5D
  3
ACAD_PLOTSETTINGS
350
D51
  3
ACAD_PLOTSTYLENAME
350
D4C
  3
ACDBHEADERROUNDTRIPXREC
350
D8A
  3
AcDbVariableDictionary
350
D7E
  3
CONTENTDICTIONARY
350
D2B
  0
DICTIONARY
  5
D4F
102
{ACAD_REACTORS
330
5B
102
}
330
5B
100
AcDbDictionary
281
     1
  0
DICTIONARY
  5
5C
102
{ACAD_REACTORS
330
5B
102
}
330
5B
100
AcDbDictionary
281
     1
  0
DICTIONARY
  5
D50
102
{ACAD_REACTORS
330
5B
102
}
330
5B
100
AcDbDictionary
281
     1
  3
Model
350
D52
  3
レイアウト1
350
D53
  0
DICTIONARY
  5
D4E
102
{ACAD_REACTORS
330
5B
102
}
330
5B
100
AcDbDictionary
281
     1
  0
DICTIONARY
  5
5D
102
{ACAD_REACTORS
330
5B
102
}
330
5B
100
AcDbDictionary
281
     1
  3
STANDARD
350
6A
  0
DICTIONARY
  5
D51
102
{ACAD_REACTORS
330
5B
102
}
330
5B
100
AcDbDictionary
281
     1
  0
ACDBDICTIONARYWDFLT
  5
D4C
102
{ACAD_REACTORS
330
5B
102
}
330
5B
100
AcDbDictionary
281
     1
  3
Normal
350
D4D
100
AcDbDictionaryWithDefault
340
D4D
  0
DICTIONARY
  5
D8A
102
{ACAD_REACTORS
330
5B
102
}
330
5B
100
AcDbDictionary
281
     1
  3
COLORDICT
350
D8C
  3
MATERIALDICT
350
D8B
  0
DICTIONARY
  5
D7E
102
{ACAD_REACTORS
330
5B
102
}
330
5B
100
AcDbDictionary
281
     1
  3
DIMASSOC
350
D7F
  3
PROJECTNAME
350
D80
  0
DICTIONARY
  5
D2B
102
{ACAD_REACTORS
330
5B
102
}
330
5B
100
AcDbDictionary
281
     1
  0
LAYOUT
  5
D52
102
{ACAD_XDICTIONARY
360
D8D
102
}
102
{ACAD_REACTORS
330
D50
102
}
330
D50
100
AcDbPlotSettings
  1

  2
EPSON LP-S5000
  4

  6

 40
0.0
 41
0.0
 42
0.0
 43
0.0
 44
0.0
 45
0.0
 46
0.0
 47
0.0
 48
0.0
 49
0.0
140
0.0
141
0.0
142
1.0
143
1.0
 70
  1712
 72
     0
 73
     0
 74
     0
  7

 75
     0
147
1.0
148
0.0
149
0.0
100
AcDbLayout
  1
Model
 70
     1
 71
     0
 10
0.0
 20
0.0
 11
12.0
 21
9.0
 12
0.0
 22
0.0
 32
0.0
 14
0.0
 24
0.0
 34
0.0
 15
0.0
 25
0.0
 35
0.0
146
0.0
 13
0.0
 23
0.0
 33
0.0
 16
1.0
 26
0.0
 36
0.0
 17
0.0
 27
1.0
 37
0.0
 76
     0
330
67
  0
LAYOUT
  5
D53
102
{ACAD_XDICTIONARY
360
D8F
102
}
102
{ACAD_REACTORS
330
D50
102
}
330
D50
100
AcDbPlotSettings
  1

  2
EPSON LP-S5000
  4

  6

 40
0.0
 41
0.0
 42
0.0
 43
0.0
 44
0.0
 45
0.0
 46
0.0
 47
0.0
 48
0.0
 49
0.0
140
0.0
141
0.0
142
1.0
143
1.0
 70
   688
 72
     0
 73
     0
 74
     5
  7

 75
    16
147
1.0
148
0.0
149
0.0
100
AcDbLayout
  1
レイアウト1
 70
     0
 71
     1
 10
0.0
 20
0.0
 11
12.0
 21
9.0
 12
0.0
 22
0.0
 32
0.0
 14
1.000000000000000E+20
 24
1.000000000000000E+20
 34
1.000000000000000E+20
 15
-1.000000000000000E+20
 25
-1.000000000000000E+20
 35
-1.000000000000000E+20
146
0.0
 13
0.0
 23
0.0
 33
0.0
 16
1.0
 26
0.0
 36
0.0
 17
0.0
 27
1.0
 37
0.0
 76
     0
330
64
  0
MLINESTYLE
  5
6A
102
{ACAD_REACTORS
330
5D
102
}
330
5D
100
AcDbMlineStyle
  2
STANDARD
 70
     0
  3

 62
     0
 51
90.0
 52
90.0
 71
     2
 49
0.5
 62
   256
  6
BYLAYER
 49
-0.5
 62
   256
  6
BYLAYER
  0
ACDBPLACEHOLDER
  5
D4D
102
{ACAD_REACTORS
330
D4C
102
}
330
D4C
  0
XRECORD
  5
D8C
102
{ACAD_REACTORS
330
D8A
102
}
330
D8A
100
AcDbXrecord
280
     1
340
D4F
  0
XRECORD
  5
D8B
102
{ACAD_REACTORS
330
D8A
102
}
330
D8A
100
AcDbXrecord
280
     1
340
D4E
  0
DICTIONARYVAR
  5
D7F
102
{ACAD_REACTORS
330
D7E
102
}
330
D7E
100
DictionaryVariables
280
     0
  1
1
  0
DICTIONARYVAR
  5
D80
102
{ACAD_REACTORS
330
D7E
102
}
330
D7E
100
DictionaryVariables
280
     0
  1

  0
DICTIONARY
  5
D8D
330
D52
100
AcDbDictionary
280
     1
281
     1
  3
ACAD_XREC_ROUNDTRIP
360
D8E
  0
DICTIONARY
  5
D8F
330
D53
100
AcDbDictionary
280
     1
281
     1
  3
ACAD_XREC_ROUNDTRIP
360
D90
  0
XRECORD
  5
D8E
102
{ACAD_REACTORS
330
D8D
102
}
330
D8D
100
AcDbXrecord
280
     1
102
SHADEPLOT
 70
     0
102
SHADEPLOTRESLEVEL
 70
     2
102
SHADEPLOTCUSTOMDPI
 70
   300
  0
XRECORD
  5
D90
102
{ACAD_REACTORS
330
D8F
102
}
330
D8F
100
AcDbXrecord
280
     1
102
SHADEPLOT
 70
     0
102
SHADEPLOTRESLEVEL
 70
     2
102
SHADEPLOTCUSTOMDPI
 70
   300
  0
ENDSEC
  0
EOF
